osu file format v14

[General]
AudioFilename: vexaria 192.mp3
AudioLeadIn: 0
PreviewTime: 31134
Countdown: 0
SampleSet: None
StackLeniency: 0.4
Mode: 0
LetterboxInBreaks: 0
WidescreenStoryboard: 0

[Editor]
Bookmarks: 16468,17468,30133,31133,43798,45131,51798,53131,55798,62465,63798,66465,77131,81131,95465,106797,109464,123463
DistanceSpacing: 0.9
BeatDivisor: 4
GridSize: 32
TimelineZoom: 1.8

[Metadata]
Title:Vexaria
TitleUnicode:Vexaria
Artist:ak+q
ArtistUnicode:ak+q
Creator:ErunamoJAZZ
Version:24 - ErunamoJAZZ
Source:Arcaea
Tags:mmc mmc3 modhelp mapping contest artcore
BeatmapID:1559752
BeatmapSetID:739122

[Difficulty]
HPDrainRate:7
CircleSize:4.3
OverallDifficulty:7
ApproachRate:9.3
SliderMultiplier:2
SliderTickRate:1

[Events]
//Background and Video events
0,0,"piano 1600.jpg",0,0
//Break Periods
//Storyboard Layer 0 (Background)
//Storyboard Layer 1 (Fail)
//Storyboard Layer 2 (Pass)
//Storyboard Layer 3 (Foreground)
//Storyboard Sound Samples

[TimingPoints]
802,333.333333333333,4,2,0,100,1,0
802,-125,4,2,0,70,0,0
3468,-100,4,2,0,80,0,0
3968,-125,4,2,0,70,0,0
6135,-100,4,2,0,80,0,0
6635,-125,4,2,0,70,0,0
8801,-100,4,2,0,80,0,0
9301,-125,4,2,0,70,0,0
12135,-111.111111111111,4,2,0,75,0,0
12801,-100,4,2,0,80,0,0
16801,-125,4,2,0,90,0,0
17135,-142.857142857143,4,2,0,70,0,0
17468,333.333333333333,4,2,0,100,1,0
17468,-100,4,2,0,100,0,0
27467,333.333333333333,4,2,0,100,1,0
31133,333.333333333333,4,2,0,100,1,0
41132,333.333333333333,4,2,0,100,1,0
44465,-166.666666666667,4,2,0,60,0,0
45131,-125,4,2,0,80,0,0
55798,-100,4,2,0,100,0,0
62798,-100,4,2,0,80,0,0
63798,-100,4,2,0,100,0,0
66465,-166.666666666667,4,2,0,60,0,0
67798,-166.666666666667,4,2,0,100,0,0
68798,-100,4,2,0,100,0,0
69131,-166.666666666667,4,2,0,100,0,0
72631,-125,4,2,0,100,0,0
73131,-100,4,2,0,100,0,0
73576,-166.666666666667,4,2,0,100,0,0
74465,-166.666666666667,4,2,0,80,0,0
75715,-166.666666666667,4,2,0,100,0,0
81131,-166.666666666667,4,2,0,70,0,0
87590,-166.666666666667,4,2,0,40,0,0
87715,-166.666666666667,4,2,0,70,0,0
87923,-166.666666666667,4,2,0,30,0,0
88048,-166.666666666667,4,2,0,70,0,0
91798,-166.666666666667,4,2,0,80,0,0
95465,333.333333333333,4,2,0,100,1,0
95465,-83.3333333333333,4,2,0,100,0,0
96965,-76.9230769230769,4,2,0,100,0,0
97298,-83.3333333333333,4,2,0,100,0,0
100965,-76.9230769230769,4,2,0,100,0,0
101298,-83.3333333333333,4,2,0,100,0,0
102298,-76.9230769230769,4,2,0,100,0,0
102631,-83.3333333333333,4,2,0,100,0,0
104298,-76.9230769230769,4,2,0,100,0,0
104631,-83.3333333333333,4,2,0,100,0,0
105464,333.333333333333,4,2,0,100,1,0
108130,-100,4,2,0,90,0,0
108797,-100,4,2,0,80,0,0
109464,-71.4285714285714,4,2,0,100,0,0
119463,333.333333333333,4,2,0,100,1,0
119463,-71.4285714285714,4,2,0,100,0,0
122296,-83.3333333333333,4,2,0,100,0,0
122796,-100,4,2,0,100,0,0

[Colours]
Combo1 : 231,197,1
Combo2 : 0,128,255
Combo3 : 204,204,255
Combo4 : 255,130,130
Combo5 : 255,106,181
Combo6 : 255,140,26

[HitObjects]
489,110,802,5,4,0:3:0:0:
286,238,1135,1,2,0:0:0:0:
285,237,1301,2,0,P|228:184|150:178,1,160,0|2,0:0|0:0,0:0:0:0:
181,294,1968,1,2,0:0:0:0:
205,55,2301,6,0,P|244:49|278:29,2,80,2|0|2,0:0|0:0|0:0,0:0:0:0:
88,25,2801,1,2,0:0:0:0:
95,56,2885,1,0,0:0:0:0:
102,87,2968,1,0,0:0:0:0:
154,195,3135,1,2,0:0:0:0:
163,165,3218,1,0,0:0:0:0:
173,136,3301,1,0,0:0:0:0:
90,261,3468,70,0,P|183:296|281:310,1,200,2|0,0:0|0:0,0:0:0:0:
281,310,3968,1,2,0:0:0:0:
255,192,4301,1,2,0:0:0:0:
281,173,4385,1,0,0:0:0:0:
308,157,4468,1,0,0:0:0:0:
393,241,4635,6,0,P|424:265|462:277,2,80,2|0|0,0:0|0:0|0:0,0:0:0:0:
480,159,5301,1,2,0:0:0:0:
278,29,5635,1,2,0:0:0:0:
202,240,6135,70,0,P|125:179|27:161,1,200,2|0,0:0|0:0,0:0:0:0:
142,304,6635,2,0,P|212:341|291:334,1,160,2|2,0:0|0:0,0:0:0:0:
243,155,7135,1,0,0:0:0:0:
291,334,7301,5,2,0:0:0:0:
343,225,7468,2,0,L|422:217,1,80
186,266,8135,2,0,L|106:273,1,80,2|0,0:0|0:0,0:0:0:0:
243,155,8468,1,2,0:0:0:0:
291,334,8801,70,0,B|320:374|361:389|361:389|405:372|446:331|456:268|423:218,1,300,2|2,0:0|0:0,0:0:0:0:
356,117,9635,1,2,0:0:0:0:
243,155,9968,1,2,0:0:0:0:
298,48,10135,5,2,0:0:0:0:
328,37,10218,1,0,0:0:0:0:
357,26,10301,1,0,0:0:0:0:
309,167,10468,2,0,L|280:241,1,80,0|2,0:0|0:0,0:0:0:0:
229,76,10801,2,0,L|158:37,2,80,0|2|0,0:0|0:0|0:0,0:0:0:0:
357,26,11301,1,2,0:0:0:0:
243,155,12135,6,0,P|242:199|256:241,1,89.9999972534181,2|0,0:0|0:0,0:0:0:0:
347,246,12468,2,0,P|350:179|323:117,1,134.999995880127,2|0,0:0|0:0,0:0:0:0:
296,315,12801,6,0,P|257:345|209:354,1,100,2|0,0:0|0:0,0:0:0:0:
257,242,13135,2,0,P|182:243|116:277,1,150,2|0,0:0|0:0,0:0:0:0:
243,155,13468,6,0,P|225:108|191:71,1,100,2|0,0:0|0:0,0:0:0:0:
321,188,13801,2,0,P|369:172|418:172,1,100,2|0,0:0|0:0,0:0:0:0:
310,113,14135,6,0,L|348:20,1,100,2|2,0:0|0:0,0:0:0:0:
282,76,14385,1,2,0:0:0:0:
238,92,14468,6,0,L|186:69,1,50,2|0,0:0|0:0,0:0:0:0:
180,171,14635,2,0,L|157:223,1,50,2|0,0:0|0:0,0:0:0:0:
256,233,14801,2,0,L|308:256,1,50,2|0,0:0|0:0,0:0:0:0:
315,155,14968,2,0,L|338:103,1,50,2|0,0:0|0:0,0:0:0:0:
417,167,15135,6,0,L|469:190,1,50,2|0,0:0|0:0,0:0:0:0:
404,267,15301,2,0,L|381:319,1,50,2|0,0:0|0:0,0:0:0:0:
302,254,15468,2,0,L|257:234,1,50,2|0,0:0|0:0,0:0:0:0:
238,333,15635,2,0,L|215:385,1,50,2|0,0:0|0:0,0:0:0:0:
141,314,15801,6,0,L|95:293,1,50,2|0,0:0|0:0,0:0:0:0:
159,216,15968,2,0,L|180:171,1,50,2|0,0:0|0:0,0:0:0:0:
82,148,16134,2,0,L|36:127,1,50,2|0,0:0|0:0,0:0:0:0:
98,48,16301,2,0,L|118:2,1,50,2|0,0:0|0:0,0:0:0:0:
192,71,16468,5,0,3:0:0:0:
213,92,16551,1,0,3:0:0:0:
242,100,16635,1,0,1:0:0:0:
271,99,16718,1,0,1:0:0:0:
292,86,16801,6,0,P|328:72|368:73,1,80,0|0,1:3|0:0,0:0:0:0:
309,127,17051,1,0,3:0:0:0:
289,165,17135,6,0,B|253:173|253:173|223:157|186:167,1,104.999996795654,8|0,1:3|0:0,0:0:0:0:
428,132,17468,6,0,P|455:227|438:324,1,200,4|8,1:1|3:1,0:0:0:0:
212,272,17968,2,0,P|262:266|305:242,1,100,0|0,1:0|0:0,0:0:0:0:
264,99,18301,1,0,3:0:0:0:
174,219,18468,1,8,0:1:0:0:
367,172,18634,5,0,1:0:0:0:
367,172,18718,1,0,1:0:0:0:
367,172,18801,2,0,P|361:123|337:80,1,100,0|0,1:0|0:0,0:0:0:0:
329,235,19051,1,0,3:0:0:0:
329,235,19134,2,0,P|375:256|425:256,1,100,8|0,3:1|3:0,0:0:0:0:
297,171,19384,1,0,3:0:0:0:
297,171,19467,2,0,P|256:200|230:243,1,100,0|0,3:0|3:0,0:0:0:0:
447,175,19801,1,8,1:1:0:0:
264,99,19967,1,0,3:0:0:0:
199,320,20134,6,0,P|150:320|106:297,1,100,0|2,1:0|0:0,0:0:0:0:
82,148,20467,1,8,3:1:0:0:
196,243,20634,2,0,P|226:203|231:154,1,100,2|2,1:2|0:0,0:0:0:0:
162,20,20967,1,0,3:0:0:0:
82,148,21134,1,8,0:1:0:0:
218,85,21301,1,0,1:0:0:0:
218,85,21384,1,0,1:0:0:0:
218,85,21467,1,0,1:0:0:0:
130,207,21634,5,2,0:2:0:0:
345,288,21801,1,10,3:2:0:0:
166,144,21967,1,2,0:2:0:0:
293,335,22134,1,2,0:2:0:0:
231,112,22301,1,2,3:2:0:0:
223,340,22467,1,10,1:2:0:0:
302,123,22634,1,2,3:2:0:0:
402,330,22801,38,0,P|448:312|472:269,1,100,2|2,1:2|0:0,0:0:0:0:
472,229,23051,1,0,0:0:0:0:
451,194,23134,1,8,3:1:0:0:
201,203,23301,2,0,L|395:251,1,200,2|0,1:2|3:0,0:0:0:0:
327,117,23801,1,8,0:1:0:0:
451,194,23967,5,0,1:0:0:0:
472,159,24051,1,0,1:0:0:0:
476,119,24134,1,0,1:0:0:0:
307,29,24301,2,0,P|357:30|398:57,1,100,0|8,3:0|0:1,0:0:0:0:
252,91,24634,1,0,3:0:0:0:
257,130,24717,1,0,3:0:0:0:
237,164,24801,2,0,P|187:163|146:136,1,100,0|0,3:0|0:0,0:0:0:0:
235,15,25134,1,8,1:1:0:0:
324,190,25301,5,0,1:0:0:0:
324,190,25384,1,0,1:0:0:0:
324,190,25467,2,0,P|370:210|420:209,1,100,4|2,1:0|0:0,0:0:0:0:
398,57,25801,1,8,3:1:0:0:
420,209,25967,1,0,1:0:0:0:
285,272,26134,2,0,L|297:320,1,50,2|0,3:2|0:0,0:0:0:0:
260,254,26301,2,0,B|228:229|228:229|199:236|170:222,1,100,2|8,3:0|0:1,0:0:0:0:
101,85,26634,6,0,L|84:183,1,100,4|0,1:0|0:0,0:0:0:0:
165,366,26967,1,2,3:2:0:0:
24,223,27134,1,10,0:2:0:0:
217,172,27301,1,2,3:2:0:0:
165,366,27467,38,0,L|68:338,2,100,4|2|8,1:2|0:0|0:1,0:0:0:0:
341,271,27967,1,2,1:2:0:0:
338,231,28050,1,0,1:0:0:0:
313,200,28133,2,0,L|217:172,1,100,2|2,1:2|3:2,0:0:0:0:
72,126,28467,1,8,0:1:0:0:
345,133,28633,6,0,P|419:194|417:291,1,200,4|0,0:0|0:0,0:0:0:0:
345,133,29133,2,0,B|288:124|255:92|255:92|223:124|166:133,1,200,8|0,0:1|1:0,0:0:0:0:
92,290,29633,2,0,P|90:194|165:133,1,200,8|0,0:1|0:0,0:0:0:0:
229,253,30050,5,0,3:0:0:0:
229,253,30133,2,0,L|196:291,1,50,8|0,1:0|1:0,0:0:0:0:
219,321,30300,1,0,3:0:0:0:
237,354,30383,2,0,L|298:274,1,100,0|0,1:0|0:0,0:0:0:0:
312,197,30633,6,0,L|289:136,1,50,8|0,0:1|0:0,0:0:0:0:
370,251,30800,2,0,B|487:273|487:273|458:284,1,150,8|0,1:3|0:0,0:0:0:0:
298,275,31133,6,0,B|242:295|199:289|199:289|148:304|114:338,1,200,4|8,1:0|3:1,0:0:0:0:
238,207,31633,2,0,B|247:148|274:114|274:114|287:63|273:15,1,200,0|0,1:0|3:0,0:0:0:0:
328,188,32133,1,8,0:1:0:0:
152,224,32299,5,0,1:0:0:0:
111,227,32383,1,0,1:0:0:0:
74,209,32466,2,0,P|57:161|53:112,1,100,0|0,1:0|0:0,0:0:0:0:
165,11,32799,1,8,3:1:0:0:
270,119,32966,1,2,3:2:0:0:
252,154,33049,1,2,3:2:0:0:
239,192,33133,1,2,3:2:0:0:
232,231,33216,1,2,3:2:0:0:
230,271,33299,2,0,P|218:222|193:179,1,100,2|8,3:2|1:1,0:0:0:0:
201,330,33633,1,0,3:0:0:0:
76,200,33799,6,0,P|61:248|63:298,1,100,0|2,1:0|0:0,0:0:0:0:
130,162,34133,1,8,3:1:0:0:
230,271,34299,1,2,1:2:0:0:
263,293,34383,1,0,3:0:0:0:
302,296,34466,1,2,3:2:0:0:
449,267,34633,1,0,3:0:0:0:
368,140,34799,1,8,1:1:0:0:
334,117,34882,1,0,1:0:0:0:
294,107,34966,1,0,1:0:0:0:
254,109,35049,1,0,1:0:0:0:
218,129,35132,6,0,P|261:103|289:63,1,100,0|2,1:0|0:0,0:0:0:0:
145,108,35466,1,8,3:1:0:0:
246,0,35632,1,2,3:2:0:0:
101,41,35799,1,2,3:2:0:0:
78,73,35882,1,2,3:2:0:0:
67,110,35966,2,0,P|68:160|87:206,1,100,2|8,3:2|1:1,0:0:0:0:
219,129,36299,1,2,3:2:0:0:
282,263,36466,38,0,P|276:313|250:355,1,100,0|2,1:0|0:0,0:0:0:0:
227,206,36799,1,8,3:1:0:0:
157,338,36966,2,0,P|107:335|63:311,1,100,2|2,1:2|0:0,0:0:0:0:
209,286,37299,1,0,3:0:0:0:
153,146,37466,1,8,0:1:0:0:
42,245,37632,5,0,1:0:0:0:
42,245,37716,1,0,1:0:0:0:
42,245,37799,2,0,P|30:197|24:147,1,100,0|0,1:0|0:0,0:0:0:0:
15,0,38132,1,8,3:1:0:0:
153,146,38299,1,2,3:2:0:0:
185,169,38382,1,2,3:2:0:0:
224,177,38466,1,2,3:2:0:0:
263,175,38549,1,2,3:2:0:0:
301,164,38632,1,2,3:2:0:0:
431,89,38799,1,8,1:1:0:0:
236,40,38966,5,0,1:0:0:0:
236,40,39049,1,0,1:0:0:0:
236,40,39132,2,0,P|186:42|140:62,1,100,4|2,1:0|0:0,0:0:0:0:
289,89,39466,1,8,0:1:0:0:
157,159,39632,1,0,1:0:0:0:
301,163,39799,2,0,P|269:202|227:228,1,100,2|2,3:2|0:0,0:0:0:0:
80,202,40132,1,8,0:1:0:0:
282,285,40299,6,0,P|329:300|367:332,1,100,4|0,1:0|0:0,0:0:0:0:
208,304,40632,2,0,P|164:326|115:327,2,100,2|8|2,3:2|0:1|0:0,0:0:0:0:
135,172,41132,37,4,3:1:0:0:
114,206,41215,1,0,3:2:0:0:
106,245,41298,2,0,P|95:196|70:153,1,100,0|8,3:2|0:1,0:0:0:0:
169,281,41632,1,0,1:0:0:0:
198,253,41715,1,0,1:0:0:0:
214,216,41798,1,2,1:2:0:0:
306,345,41965,2,0,P|258:335|209:343,1,100,2|8,3:2|0:1,0:0:0:0:
406,246,42298,6,0,P|313:211|214:216,1,200,4|0,1:0|3:0,0:0:0:0:
107,321,42798,1,8,0:1:0:0:
155,174,42965,1,0,1:0:0:0:
155,174,43048,1,0,1:0:0:0:
155,174,43132,2,0,P|164:124|154:76,1,100,2|0,1:2|3:0,0:0:0:0:
49,196,43465,2,0,P|22:154|10:105,1,100,8|0,0:1|0:0,0:0:0:0:
15,65,43715,1,0,1:0:0:0:
40,34,43798,1,0,1:0:0:0:
76,17,43882,1,0,1:0:0:0:
114,11,43965,6,0,P|138:8|163:10,1,50,2|2,1:2|1:2,0:0:0:0:
153,75,44132,2,0,P|178:81|203:82,1,50,2|0,3:2|3:0,0:0:0:0:
259,123,44298,2,0,P|240:138|217:147,1,50,0|0,3:2|3:0,0:0:0:0:
156,174,44465,6,0,B|149:206|149:206|127:227|127:227|158:213|201:210|242:232,1,179.999994506836
179,343,45131,5,6,0:0:0:0:
418,316,45465,1,0,0:0:0:0:
314,376,45631,2,0,P|300:340|298:300,1,80,2|0,0:0|0:0,0:0:0:0:
374,206,45965,1,2,0:0:0:0:
418,316,46131,1,0,0:0:0:0:
228,168,46465,5,2,0:0:0:0:
62,341,46798,1,0,0:0:0:0:
179,317,46964,2,0,P|194:281|196:241,1,80,2|0,0:0|0:0,0:0:0:0:
156,127,47298,1,2,0:0:0:0:
46,175,47464,1,0,0:0:0:0:
285,151,47798,69,2,0:0:0:0:
66,53,48131,1,0,0:0:0:0:
156,126,48298,2,0,P|183:97|219:80,2,80,2|0|2,0:0|0:0|0:0,0:0:0:0:
133,245,48798,1,0,0:0:0:0:
345,133,49131,5,2,0:0:0:0:
214,334,49465,2,0,B|181:356|181:356|142:365,1,80,0|0,3:0|3:0,0:0:0:0:
133,245,49798,2,0,B|165:222|165:222|204:213,1,80,0|0,3:0|3:0,0:0:0:0:
319,251,50131,1,2,0:0:0:0:
345,133,50298,1,2,0:0:0:0:
156,127,50465,69,2,0:0:0:0:
389,73,50798,1,0,0:0:0:0:
389,193,50965,1,2,0:0:0:0:
265,133,51131,2,0,L|345:133,1,80
236,37,51464,1,2,0:0:0:0:
156,127,51798,6,0,B|153:174|181:228|247:242|247:242|203:245|170:261,1,240,2|0,0:0|0:0,0:0:0:0:
51,280,52465,5,2,0:0:0:0:
182,370,52687,1,2,0:0:0:0:
309,273,52909,2,0,P|334:279|379:297,1,40,2|0,0:0|0:0,0:0:0:0:
247,242,53131,54,0,P|280:171|270:93,1,160,2|0,0:0|0:0,0:0:0:0:
156,126,53631,2,0,P|180:95|192:57,2,80,2|0|0,0:0|0:0|0:0,0:0:0:0:
72,38,54131,1,2,0:0:0:0:
440,38,54465,1,0,3:0:0:0:
256,356,54798,6,0,B|273:299|239:299|256:238,1,120,4|0,1:3|0:0,0:0:0:0:
313,199,55131,2,0,P|310:180|299:163,3,40,0|0|0|0,3:0|3:0|3:0|3:0,0:0:0:0:
253,115,55465,6,0,P|269:104|287:96,1,40,8|0,1:3|0:0,0:0:0:0:
299,30,55631,2,0,P|318:25|338:24,1,40
413,33,55798,5,4,1:2:0:0:
364,120,55965,1,2,0:2:0:0:
457,153,56131,1,2,3:2:0:0:
476,56,56298,1,0,1:2:0:0:
285,119,56465,5,2,0:2:0:0:
407,62,56631,1,2,3:2:0:0:
396,196,56798,1,8,0:0:0:0:
407,62,56965,1,2,0:2:0:0:
285,119,57131,5,0,1:2:0:0:
270,218,57298,1,2,0:2:0:0:
321,303,57465,1,2,3:2:0:0:
419,315,57631,1,0,1:2:0:0:
270,218,57798,37,2,0:2:0:0:
184,269,57965,1,2,3:2:0:0:
51,152,58131,1,8,0:0:0:0:
86,249,58298,1,2,3:2:0:0:
127,71,58465,5,0,1:2:0:0:
153,170,58631,1,2,0:2:0:0:
184,269,58798,1,2,3:2:0:0:
209,365,58965,1,0,1:2:0:0:
86,249,59131,5,2,0:2:0:0:
153,170,59298,1,2,3:2:0:0:
222,97,59465,1,8,0:0:0:0:
184,269,59631,2,0,L|207:224,1,50,2|0,3:0|0:0,0:0:0:0:
222,97,59798,2,0,L|262:188,1,100,0|2,1:0|0:0,0:0:0:0:
334,308,60131,5,0,1:0:0:0:
411,203,60298,2,0,L|430:249,2,50,2|0|2,3:2|3:2|3:2,0:0:0:0:
366,80,60631,1,0,1:0:0:0:
262,188,60798,1,8,0:0:0:0:
434,135,60965,1,0,1:0:0:0:
434,135,61048,1,0,1:0:0:0:
434,135,61131,1,0,1:0:0:0:
433,6,61298,38,0,L|366:80,1,100,0|8,3:0|0:0,0:0:0:0:
264,83,61631,1,0,1:2:0:0:
91,29,61798,1,2,0:0:0:0:
153,143,61965,1,2,3:2:0:0:
196,21,62131,1,8,0:0:0:0:
153,143,62298,1,2,0:0:0:0:
19,212,62465,6,0,L|104:263,1,100,0|2,1:0|0:0,0:0:0:0:
247,216,62798,2,0,L|240:246,4,25,0|0|0|0|0,3:0|3:0|3:0|3:0|3:0,0:0:0:0:
264,83,63131,6,0,P|221:32|158:13,2,133.333333333333,0|0|0,1:0|1:0|1:0,0:0:0:0:
291,53,63687,1,0,3:0:0:0:
325,34,63798,6,0,P|374:25|422:37,1,100,0|2,1:0|0:0,0:0:0:0:
366,149,64131,1,8,0:0:0:0:
402,273,64298,1,0,1:0:0:0:
300,192,64465,1,2,0:0:0:0:
428,201,64631,1,2,3:2:0:0:
320,272,64798,1,8,0:0:0:0:
120,269,64965,37,2,3:2:0:0:
120,269,65048,1,2,3:2:0:0:
120,269,65131,2,0,L|269:269,1,150,6|0,1:2|0:0,0:0:0:0:
320,272,65465,1,2,3:2:0:0:
138,191,65631,1,2,3:2:0:0:
365,148,65798,2,0,P|330:114|282:100,1,100,0|0,1:0|3:0,0:0:0:0:
242,102,66048,1,0,3:0:0:0:
204,116,66131,1,0,1:0:0:0:
402,273,66298,1,0,3:0:0:0:
382,307,66381,1,0,3:0:0:0:
353,334,66465,6,0,B|325:365|284:371|284:371|260:296|260:296|225:331|193:340|193:340|139:323|99:259|107:196,1,419.999987182618,6|0,3:2|0:0,0:0:0:0:
122,77,67798,5,0,0:0:0:0:
122,77,67881,1,0,0:0:0:0:
122,77,67965,2,0,L|168:39,1,59.9999981689454,2|0,0:0|3:0,0:0:0:0:
189,145,68298,1,0,0:0:0:0:
189,145,68381,1,0,0:0:0:0:
189,145,68465,2,0,L|178:204,1,59.9999981689454,0|0,0:0|3:0,0:0:0:0:
274,152,68798,6,0,B|332:126|332:126|330:123,2,66.6666666666667,0|0|0,3:0|3:0|3:0,0:0:0:0:
356,191,69131,6,0,L|414:205,1,59.9999981689454,0|0,3:0|0:0,0:0:0:0:
471,244,69381,1,0,3:0:0:0:
471,244,69465,2,0,L|413:261,1,59.9999981689454,2|0,3:0|0:0,0:0:0:0:
415,315,69715,1,0,3:0:0:0:
415,315,69798,1,0,3:0:0:0:
309,289,69965,1,2,3:0:0:0:
309,289,70048,2,0,L|191:314,1,119.999996337891
158,357,70465,5,0,3:0:0:0:
76,286,70631,1,0,3:0:0:0:
170,233,70798,1,2,3:0:0:0:
80,172,70965,1,0,3:0:0:0:
80,172,71048,1,0,3:0:0:0:
80,172,71131,2,0,L|53:157,2,29.9999990844727,2|0|0,3:2|3:0|0:0,0:0:0:0:
131,123,71354,38,0,L|169:112,1,39.9999987792969,2|0,3:2|0:0,0:0:0:0:
79,74,71576,2,0,L|44:54,1,39.9999987792969,2|0,3:2|0:0,0:0:0:0:
209,175,71798,6,0,P|268:183|326:172,1,119.999996337891,4|2,0:0|3:0,0:0:0:0:
373,75,72298,1,0,3:0:0:0:
384,95,72381,1,0,3:0:0:0:
396,115,72465,1,0,3:0:0:0:
403,222,72631,2,0,L|358:288,2,80,2|0|0,3:0|0:0|0:0,0:0:0:0:
425,327,73131,6,0,B|512:340|512:340|497:297,2,133.333333333333,0|0|0,3:0|3:0|3:0,0:0:0:0:
392,343,73631,6,0,L|378:369,1,29.9999990844727,0|2,0:0|3:0,0:0:0:0:
324,358,73798,2,0,L|298:373,2,29.9999990844727,2|2|2,3:2|3:2|3:2,0:0:0:0:
314,304,74048,38,0,L|289:286,1,29.9999990844727,2|2,3:2|3:2,0:0:0:0:
364,260,74215,6,0,L|393:254,1,29.9999990844727,2|0,3:2|0:0,0:0:0:0:
361,253,74381,6,0,L|358:239,1,14.9999995422363,2|2,3:2|0:0,0:0:0:0:
379,229,74465,6,0,L|400:173,1,59.9999981689454,4|0,3:2|0:0,0:0:0:0:
397,149,74715,1,0,0:0:0:0:
389,124,74798,2,0,P|338:95|279:98,1,119.999996337891,2|0,0:0|0:0,0:0:0:0:
232,110,75298,2,0,P|232:80|225:50,2,59.9999981689454,2|0|0,0:0|0:0|0:0,0:0:0:0:
220,162,75715,38,0,L|196:180,2,29.9999990844727,0|2|2,3:0|3:0|3:0,0:0:0:0:
270,180,75965,1,0,3:0:0:0:
275,203,76048,1,0,3:0:0:0:
269,226,76131,1,0,3:0:0:0:
254,245,76214,1,0,3:0:0:0:
233,256,76298,1,2,3:0:0:0:
210,257,76381,1,2,3:0:0:0:
186,251,76464,1,0,3:0:0:0:
163,248,76548,1,0,3:0:0:0:
139,247,76631,1,0,3:0:0:0:
115,252,76714,1,0,3:0:0:0:
94,264,76798,2,0,P|83:275|74:287,2,29.9999990844727,0|0|0,3:0|3:0|3:0,0:0:0:0:
305,364,77131,6,0,P|361:347|395:299,1,119.999996337891,4|2,3:3|3:0,0:0:0:0:
394,111,77631,1,0,3:0:0:0:
394,111,77715,1,0,3:0:0:0:
394,111,77798,2,0,P|360:63|304:48,1,119.999996337891,4|2,3:3|3:0,0:0:0:0:
256,158,78243,2,0,L|256:198,1,39.9999987792969,0|0,3:0|3:0,0:0:0:0:
256,317,78465,5,4,0:3:0:0:
143,256,78687,1,4,0:3:0:0:
369,256,78909,1,4,0:3:0:0:
142,128,79131,1,4,0:3:0:0:
370,128,79354,1,4,0:3:0:0:
255,52,79576,6,0,P|168:7|71:22,1,199.999993896485,4|2,0:3|3:0,0:0:0:0:
30,179,80381,1,0,1:0:0:0:
40,199,80465,1,0,3:0:0:0:
49,222,80548,2,0,L|71:202,2,29.9999990844727,0|0|0,3:0|1:0|1:0,0:0:0:0:
55,298,80798,38,0,L|42:306,6,14.9999995422363
121,251,81131,1,4,0:0:0:0:
221,184,81631,6,0,L|121:251,2,119.999996337891,2|2|2,0:0|0:0|0:0,0:0:0:0:
369,82,82631,2,0,L|319:115,1,59.9999981689454,2|0,0:0|0:0,0:0:0:0:
401,154,82965,2,0,L|455:179,1,59.9999981689454,2|0,0:0|0:0,0:0:0:0:
470,198,83215,1,0,0:0:0:0:
477,220,83298,1,0,0:0:0:0:
474,243,83381,1,0,0:0:0:0:
462,264,83465,2,0,L|407:289,1,59.9999981689454,2|0,0:0|0:0,0:0:0:0:
344,225,83798,69,2,0:0:0:0:
139,47,84298,2,0,P|103:93|97:152,1,119.999996337891,2|2,0:0|0:0,0:0:0:0:
104,175,84715,1,0,0:0:0:0:
120,192,84798,1,0,0:0:0:0:
184,252,84965,2,0,P|191:282|186:311,2,59.9999981689454,2|0|0,0:0|0:0|0:0,0:0:0:0:
8,285,85631,1,2,0:0:0:0:
186,311,85965,1,2,0:0:0:0:
389,135,86465,6,0,P|332:121|290:79,1,119.999996337891,2|0,0:0|0:0,0:0:0:0:
122,135,86965,2,0,P|179:121|221:79,1,119.999996337891,2|2,0:0|0:0,0:0:0:0:
289,172,87465,2,0,B|300:201|300:201|290:228,1,59.9999981689454,0|2,0:0|3:2,0:0:0:0:
223,172,87798,2,0,B|212:201|212:201|221:228,1,59.9999981689454,0|0,0:0|3:0,0:0:0:0:
257,358,88465,1,0,0:0:0:0:
435,335,88798,1,2,0:0:0:0:
290,228,89131,69,2,0:0:0:0:
475,31,89631,1,2,0:0:0:0:
457,210,89965,1,0,0:0:0:0:
329,82,90298,1,2,0:0:0:0:
121,376,90965,5,2,0:0:0:0:
226,230,91298,1,2,0:0:0:0:
47,210,91631,1,2,0:0:0:0:
256,192,91798,12,0,94465,3:0:0:0:
178,87,94715,37,0,3:0:0:0:
178,110,94798,1,0,3:0:0:0:
102,159,94965,1,0,3:0:0:0:
102,182,95048,1,0,3:0:0:0:
102,205,95131,2,0,P|127:241|169:256,1,89.9999972534181,2|0,1:3|0:0,0:0:0:0:
360,103,95465,6,0,P|413:128|439:181,1,119.999996337891,4|2,1:0|0:0,0:0:0:0:
409,359,95798,1,8,0:1:0:0:
353,187,95965,2,0,B|316:225|311:268|340:323|340:323|283:301|249:315,1,239.999992675781,0|0,1:0|0:0,0:0:0:0:
75,363,96465,1,8,3:1:0:0:
118,345,96548,1,0,3:0:0:0:
152,312,96631,1,0,3:0:0:0:
169,267,96714,1,0,3:0:0:0:
165,218,96798,1,0,1:0:0:0:
14,93,96965,70,0,B|38:73|38:73|65:86|65:86|132:74,1,129.999994049073,2|8,0:3|0:1,0:0:0:0:
309,37,97298,1,0,3:0:0:0:
338,45,97382,1,0,3:0:0:0:
330,16,97465,1,0,3:0:0:0:
301,193,97631,1,0,3:0:0:0:
293,222,97715,1,0,3:0:0:0:
322,214,97798,1,8,1:1:0:0:
480,127,97965,1,0,3:0:0:0:
300,117,98131,1,0,1:0:0:0:
443,226,98298,5,2,0:0:0:0:
231,345,98465,2,0,B|202:327|202:327|117:344,1,119.999996337891,8|0,3:1|1:0,0:0:0:0:
159,264,98715,1,0,3:0:0:0:
159,264,98798,2,0,B|188:234|188:234|198:156,1,119.999996337891,2|2,3:2|0:0,0:0:0:0:
291,311,99131,2,0,B|316:328|316:328|345:333,1,59.9999981689454,8|0,3:1|3:0,0:0:0:0:
349,242,99298,2,0,B|376:230|376:230|395:206,1,59.9999981689454,0|0,3:0|3:0,0:0:0:0:
319,155,99465,1,0,1:0:0:0:
142,121,99631,69,2,3:2:0:0:
380,90,99798,2,0,B|354:63|354:63|271:59,1,119.999996337891,8|0,0:1|0:0,0:0:0:0:
91,53,100131,2,0,L|31:49,2,59.9999981689454,2|0|2,3:2|3:0|3:2,0:0:0:0:
197,200,100465,1,8,1:1:0:0:
169,22,100631,1,2,3:2:0:0:
73,175,100798,1,0,1:0:0:0:
267,159,100965,6,0,B|304:143|304:143|292:177|291:208|303:230,1,129.999994049073,2|8,0:0|0:1,0:0:0:0:
425,98,101298,1,0,1:0:0:0:
425,98,101381,2,0,P|450:183|423:267,1,179.999994506836,0|0,3:2|0:0,0:0:0:0:
355,100,101798,1,8,3:1:0:0:
320,67,101881,1,0,3:0:0:0:
273,53,101964,1,0,3:0:0:0:
225,61,102047,1,0,3:0:0:0:
187,91,102131,1,0,1:0:0:0:
166,285,102298,70,0,B|176:245|176:245|195:276|219:296|242:299,1,129.999994049073,2|8,0:3|0:1,0:0:0:0:
136,156,102631,1,0,3:0:0:0:
120,146,102714,1,0,3:0:0:0:
103,138,102798,2,0,P|68:135|30:145,1,59.9999981689454,0|0,3:1|0:0,0:0:0:0:
70,266,102964,1,0,3:0:0:0:
59,280,103048,1,0,3:0:0:0:
45,290,103131,1,8,3:1:0:0:
217,236,103298,1,0,3:0:0:0:
233,229,103382,1,0,3:0:0:0:
247,218,103465,1,4,1:0:0:0:
173,54,103631,5,2,3:2:0:0:
310,251,103798,2,0,P|368:261|427:249,1,119.999996337891,8|0,0:1|1:0,0:0:0:0:
464,219,104048,1,0,3:0:0:0:
480,174,104131,1,2,3:2:0:0:
302,103,104298,2,0,B|283:128|283:128|283:152|283:152|246:217,1,129.999994049073,2|8,0:3|0:1,0:0:0:0:
158,374,104631,1,0,3:0:0:0:
334,339,104798,70,0,P|364:340|393:349,1,59.9999981689454,4|0,1:2|0:0,0:0:0:0:
473,310,104964,2,0,P|453:286|430:268,1,59.9999981689454,2|0,3:2|0:0,0:0:0:0:
341,243,105131,2,0,P|354:217|373:194,1,59.9999981689454,8|0,3:1|0:0,0:0:0:0:
466,184,105298,2,0,P|458:155|440:131,1,59.9999981689454,2|0,3:2|0:0,0:0:0:0:
367,119,105464,5,0,1:0:0:0:
221,146,105630,1,4,0:2:0:0:
72,174,105797,2,0,P|115:147|144:107,1,100,8|0,1:1|3:0,0:0:0:0:
162,71,106047,1,0,3:0:0:0:
164,31,106130,1,2,3:2:0:0:
13,35,106297,1,2,3:2:0:0:
72,174,106464,1,8,1:1:0:0:
271,157,106630,6,0,L|293:166,8,25,0|0|0|0|0|0|0|0|0,3:0|3:0|3:0|3:0|3:0|3:0|3:0|3:0|3:0,0:0:0:0:
349,285,107130,53,8,0:1:0:0:
410,147,107297,1,0,3:0:0:0:
289,237,107464,2,0,P|243:254|193:254,1,100,0|0,1:0|0:0,0:0:0:0:
69,169,107797,6,0,P|45:240|61:312,1,150,8|0,0:1|3:0,0:0:0:0:
92,338,108130,1,0,1:0:0:0:
132,340,108214,1,0,1:0:0:0:
168,325,108297,1,0,3:0:0:0:
192,293,108380,1,0,3:0:0:0:
192,254,108464,2,0,P|184:205|155:164,1,100,8|0,1:1|3:0,0:0:0:0:
116,156,108714,1,0,3:0:0:0:
69,169,108797,6,0,P|44:162|23:149,6,50
390,131,109464,6,0,P|268:67|129:67,1,279.999991455078,4|8,1:0|3:1,0:0:0:0:
390,252,109964,2,0,P|268:316|129:316,1,279.999991455078,0|0,1:0|3:0,0:0:0:0:
262,191,110464,1,8,0:1:0:0:
129,67,110630,5,0,1:0:0:0:
108,103,110714,1,0,1:0:0:0:
103,144,110797,2,0,B|156:171|216:145|232:107|232:107|196:59,1,209.999993591309,0|0,1:0|0:0,0:0:0:0:
295,131,111130,2,0,P|364:125|427:96,1,139.999995727539,8|0,3:1|0:0,0:0:0:0:
438,55,111380,5,2,3:2:0:0:
479,42,111464,1,2,3:2:0:0:
510,68,111547,1,2,3:2:0:0:
507,111,111630,2,0,P|489:179|446:233,1,139.999995727539,2|8,3:2|1:1,0:0:0:0:
295,131,111964,1,2,3:2:0:0:
125,334,112130,6,0,P|259:305|353:203,1,279.999991455078,2|8,1:2|3:1,0:0:0:0:
170,208,112630,2,0,P|274:299|411:311,1,279.999991455078,2|2,1:2|3:2,0:0:0:0:
441,282,113047,1,2,3:2:0:0:
461,245,113130,1,8,3:1:0:0:
474,205,113213,1,2,3:2:0:0:
476,162,113297,1,2,3:2:0:0:
469,120,113380,1,2,3:2:0:0:
452,80,113463,6,0,L|312:64,1,139.999995727539,2|2,1:2|0:2,0:0:0:0:
489,16,113797,1,8,3:1:0:0:
355,138,113963,1,2,1:2:0:0:
191,57,114130,2,0,L|121:49,2,69.9999978637696,2|0|0,3:2|3:0|3:0,0:0:0:0:
355,138,114463,1,8,1:1:0:0:
360,194,114547,1,2,1:2:0:0:
366,249,114630,1,2,1:2:0:0:
101,214,114797,6,0,L|235:176,1,139.999995727539,0|2,1:0|0:2,0:0:0:0:
132,26,115130,1,8,3:1:0:0:
181,287,115297,2,0,L|45:323,1,139.999995727539,2|0,1:2|0:0,0:0:0:0:
223,363,115630,1,0,3:0:0:0:
366,249,115797,1,8,0:1:0:0:
214,38,115963,5,0,1:0:0:0:
214,38,116047,1,0,1:0:0:0:
214,38,116130,2,0,L|235:176,1,139.999995727539,0|0,1:0|0:0,0:0:0:0:
260,357,116463,1,8,3:1:0:0:
109,253,116630,1,2,3:2:0:0:
62,277,116713,1,2,3:2:0:0:
52,224,116797,1,2,3:2:0:0:
39,173,116880,1,2,3:2:0:0:
91,174,116963,1,2,3:2:0:0:
273,167,117130,1,8,1:1:0:0:
437,84,117297,5,0,1:0:0:0:
437,84,117380,1,0,1:0:0:0:
437,84,117463,2,0,B|472:66|472:66|437:22|382:34,1,139.999995727539,4|2,1:0|0:0,0:0:0:0:
412,216,117797,1,8,3:1:0:0:
234,256,117963,2,0,B|229:310|277:339|277:339|290:300,1,139.999995727539,0|2,1:0|0:0,0:0:0:0:
257,121,118297,1,2,3:2:0:0:
412,216,118463,1,8,0:1:0:0:
187,44,118630,6,0,P|153:104|151:173,1,139.999995727539,4|0,1:0|0:0,0:0:0:0:
357,174,118963,2,0,P|356:104|322:43,1,139.999995727539,2|8,3:2|0:1,0:0:0:0:
257,215,119297,1,2,0:0:0:0:
187,44,119463,5,4,3:1:0:0:
151,23,119546,1,0,3:0:0:0:
110,35,119629,2,0,P|116:102|168:146,1,139.999995727539,0|8,3:0|0:1,0:0:0:0:
323,43,119963,1,0,1:0:0:0:
323,43,120046,1,0,1:0:0:0:
323,43,120129,1,0,1:0:0:0:
319,224,120296,2,0,P|280:282|217:311,1,139.999995727539,2|8,3:2|0:1,0:0:0:0:
57,237,120629,6,0,P|185:189|319:224,1,279.999991455078,4|0,1:0|3:0,0:0:0:0:
466,332,121129,1,8,0:1:0:0:
388,166,121296,1,0,1:0:0:0:
388,166,121379,1,0,1:0:0:0:
388,166,121463,2,0,B|371:86|371:86|421:115,1,139.999995727539,2|0,1:2|1:0,0:0:0:0:
265,20,121796,2,0,B|282:100|282:100|231:70,1,139.999995727539,8|0,0:1|0:0,0:0:0:0:
193,52,122046,1,0,1:0:0:0:
152,61,122129,1,0,1:0:0:0:
130,97,122213,1,0,1:0:0:0:
122,132,122296,6,0,P|129:160|144:187,1,59.9999981689454,2|0,1:2|1:0,0:0:0:0:
206,156,122463,2,0,P|211:186|209:216,1,59.9999981689454,2|0,3:2|3:0,0:0:0:0:
271,251,122629,2,0,P|249:270|222:283,1,59.9999981689454,2|0,3:2|3:0,0:0:0:0:
153,261,122796,6,0,B|147:295|154:333|204:356|204:356|107:377|65:325|57:284,1,300
28,189,123463,5,4,0:0:0:0:
256,192,123546,12,0,124879,0:0:0:0:
