osu file format v14

[General]
AudioFilename: audio.mp3
AudioLeadIn: 0
PreviewTime: 45987
Countdown: 0
SampleSet: Soft
StackLeniency: 0.2
Mode: 0
LetterboxInBreaks: 0
WidescreenStoryboard: 1

[Editor]
Bookmarks: 12723,24017,46605,69899,80487,81193,92487,98134,100957,103781,126369,137663,148957,160251
DistanceSpacing: 1.5
BeatDivisor: 16
GridSize: 32
TimelineZoom: 1.5

[Metadata]
Title:Shades of Light in a Transcendent Realm
TitleUnicode:Shades of Light in a Transcendent Realm
Artist:ak+q
ArtistUnicode:ak+q
Creator:VoiceCore
Version:Expert
Source:Arcaea
Tags:Dont Otosaka-Yu Suzuki_1112 Electronic Instrumental ajkoramusic high dnb drum and bass glitch piano artcore
BeatmapID:2404205
BeatmapSetID:1151815

[Difficulty]
HPDrainRate:6
CircleSize:4
OverallDifficulty:8.5
ApproachRate:9.3
SliderMultiplier:1.6
SliderTickRate:1

[Events]
//Background and Video events
0,0,"bg.jpg",0,0
//Break Periods
2,70099,79933
//Storyboard Layer 0 (Background)
//Storyboard Layer 1 (Fail)
//Storyboard Layer 2 (Pass)
//Storyboard Layer 3 (Foreground)
//Storyboard Layer 4 (Overlay)
//Storyboard Sound Samples

[TimingPoints]
1429,352.941176470588,4,2,1,50,1,0
1429,-200,4,2,1,15,0,0
12723,-133.333333333333,4,2,1,20,0,0
18370,-100,4,2,1,30,0,0
19781,-100,4,2,1,50,0,0
20664,-100,4,2,1,70,0,0
21193,-100,4,2,1,100,0,0
22428,-100,4,2,1,10,0,0
22605,-100,4,2,1,30,0,0
23311,-100,4,2,1,100,0,0
23664,-66.6666666666667,4,2,1,100,0,0
24017,-100,4,2,1,60,0,0
43605,-66.6666666666667,4,2,1,80,0,0
43781,-100,4,2,1,80,0,0
44311,-66.6666666666667,4,2,1,80,0,0
45017,-200,4,2,1,80,0,0
45899,-100,4,2,1,80,0,0
46252,-66.6666666666667,4,2,1,80,0,0
47134,-133.333333333333,4,2,1,80,0,0
48017,-66.6666666666667,4,2,1,80,0,0
49428,-100,4,2,1,80,0,0
49958,-133.333333333333,4,2,1,80,0,0
50840,-100,4,2,1,80,0,0
51899,-133.333333333333,4,2,1,80,0,0
52252,-66.6666666666667,4,2,1,80,0,0
53311,-100,4,2,1,80,0,0
53664,-66.6666666666667,4,2,1,80,0,0
54723,-100,4,2,1,80,0,0
55605,-66.6666666666667,4,2,1,80,0,0
56311,-100,4,2,1,80,0,0
57546,-66.6666666666667,4,2,1,80,0,0
58428,-133.333333333333,4,2,1,80,0,0
59311,-66.6666666666667,4,2,1,80,0,0
60370,-100,4,2,1,80,0,0
61252,-66.6666666666667,4,2,1,80,0,0
61605,-100,4,2,1,80,0,0
62134,-66.6666666666667,4,2,1,80,0,0
64076,-100,4,2,1,80,0,0
64605,-66.6666666666667,4,2,1,80,0,0
65487,-100,4,2,1,80,0,0
66017,-66.6666666666667,4,2,1,80,0,0
66899,-100,4,2,1,80,0,0
67781,-66.6666666666667,4,2,1,80,0,0
69193,-100,4,2,1,80,0,0
69899,352.941176470588,4,2,1,70,1,0
97428,-66.6666666666667,4,2,1,70,0,0
98134,-66.6666666666667,4,2,1,90,0,0
100957,-200,4,2,1,80,0,0
102898,-100,4,2,1,70,0,0
103251,-66.6666666666667,4,2,1,70,0,0
103781,-100,4,2,1,70,0,0
123369,-66.6666666666667,4,2,1,70,0,0
123546,-100,4,2,1,80,0,0
124075,-66.6666666666667,4,2,1,80,0,0
124781,-200,4,2,1,80,0,0
125663,-100,4,2,1,80,0,0
126369,-66.6666666666667,4,2,1,80,0,0
126987,-100,4,2,1,80,0,0
127428,-66.6666666666667,4,2,1,80,0,0
128398,-100,4,2,1,80,0,0
128840,-66.6666666666667,4,2,1,80,0,0
129810,-100,4,2,1,80,0,0
130251,-66.6666666666667,4,2,1,80,0,0
132634,-100,4,2,1,80,0,0
133075,-66.6666666666667,4,2,1,80,0,0
134046,-100,4,2,1,80,0,0
134487,-66.6666666666667,4,2,1,80,0,0
135457,-100,4,2,1,80,0,0
135898,-66.6666666666667,4,2,1,80,0,0
137663,-66.6666666666667,4,2,1,90,0,0
146751,-100,4,2,1,80,0,0
147546,-66.6666666666667,4,2,1,70,0,0
147898,-100,4,2,1,80,0,0
148251,-66.6666666666667,4,2,1,90,0,0
152663,-100,4,2,1,90,0,0
153193,-66.6666666666667,4,2,1,70,0,0

[Colours]
Combo1 : 255,0,0
Combo2 : 128,255,255
Combo3 : 18,124,255
Combo4 : 192,192,192
Combo5 : 255,162,255

[HitObjects]
147,163,1429,6,0,P|152:186|154:211,2,40,2|0|0,0:0|0:0|0:0,0:0:0:0:
84,116,1958,1,0,0:0:0:0:
84,116,2134,2,0,P|79:93|77:68,1,40
171,33,2487,2,0,L|155:70,1,40
244,73,2840,6,0,L|287:57,2,40,2|0|0,0:0|0:0|0:0,0:0:0:0:
226,150,3370,1,0,0:0:0:0:
226,150,3546,2,0,P|251:153|283:160,1,40
343,147,3899,2,0,P|340:172|333:204,1,40
346,263,4252,54,0,L|398:256,1,40,2|0,0:0|0:0,0:0:0:0:
270,273,4605,2,0,P|268:253|265:233,1,40
190,230,4958,2,0,P|174:211|154:192,1,40
133,283,5311,2,0,L|97:327,1,40
31,319,5664,6,0,P|34:286|33:269,2,40,2|0|0,0:0|0:0|0:0,0:0:0:0:
108,329,6193,2,0,P|110:290|102:236,1,80
169,209,6723,2,0,P|191:226|205:243,1,40
272,257,7076,54,0,L|323:253,1,40,2|0,1:2|0:0,0:0:0:0:
378,215,7428,2,0,P|390:185|395:161,1,40,0|8,0:0|0:0,0:0:0:0:
466,153,7781,2,0,L|476:203,1,40,0|8,0:0|0:0,0:0:0:0:
465,268,8134,2,0,L|475:318,1,40,0|0,1:0|0:0,0:0:0:0:
406,343,8487,6,0,P|380:348|350:356,2,40,2|0|0,0:0|0:0|1:0,0:0:0:0:
387,268,9017,1,0,0:0:0:0:
387,268,9193,2,0,P|356:253|336:247,1,40,0|0,1:0|0:0,0:0:0:0:
279,280,9546,2,0,P|266:308|258:328,1,40,0|8,0:0|0:0,0:0:0:0:
187,333,9899,54,0,P|168:325|150:316,1,40,2|0,0:0|0:0,0:0:0:0:
77,334,10252,1,0,1:0:0:0:
77,334,10428,2,0,P|39:349|-2:371,1,80
0,251,10958,2,0,P|35:260|54:263,1,40,0|0,0:0|1:0,0:0:0:0:
48,256,11223,6,0,L|65:260,1,10,0|0,1:0|1:0,1:0:0:0:
44,249,11311,54,0,P|38:206|31:159,1,80,0|0,1:0|0:0,0:0:0:0:
91,124,11840,1,0,0:0:0:0:
91,124,12017,6,0,L|130:140,1,40,2|8,1:2|0:0,0:0:0:0:
204,128,12370,2,0,P|229:124|256:122,1,40,2|8,1:2|0:0,0:0:0:0:
307,81,12723,54,0,P|368:71|416:128,1,120.000004577637,2|0,1:2|0:0,0:0:0:0:
409,106,13252,1,8,0:0:0:0:
482,138,13428,2,0,P|486:97|493:67,1,60.0000022888184
419,181,13781,2,0,P|415:222|408:252,1,60.0000022888184,8|0,0:0|0:0,0:0:0:0:
337,263,14134,5,2,1:2:0:0:
337,263,14311,2,0,P|323:256|305:251,2,30.0000011444092,0|0|8,0:0|0:0|0:0,0:0:0:0:
414,373,14840,54,0,P|459:366|483:360,1,60.0000022888184,0|8,1:0|0:0,0:0:0:0:
344,341,15193,2,0,P|299:348|275:354,1,60.0000022888184,0|8,1:0|0:0,0:0:0:0:
211,328,15546,6,0,P|169:343|109:282,1,120.000004577637,2|0,0:0|1:0,0:0:0:0:
53,253,16076,2,0,L|40:123,1,120.000004577637
99,79,16605,53,0,0:0:0:0:
170,155,16781,2,0,L|189:157,3,15.0000005722046,0|0|0|0,1:0|1:0|1:0|1:0,1:0:0:0:
158,162,16958,2,0,P|196:135|273:154,1,120.000004577637,2|0,1:2|0:0,0:0:0:0:
343,155,17487,2,0,B|398:153|398:153|409:155|409:155|478:152,1,120.000004577637
503,220,18017,2,0,P|491:253|451:271,1,60.0000022888184,0|8,1:0|0:0,0:0:0:0:
417,321,18370,6,0,P|371:282|266:300,1,160,2|0,0:0|0:0,0:0:0:0:
201,278,18899,1,8,0:0:0:0:
201,278,19076,2,0,B|217:241|217:241|196:182,1,80
100,291,19428,2,0,L|109:380,1,80,0|0,1:0|0:0,0:0:0:0:
55,228,19781,54,0,L|62:131,1,80,2|0,0:0|0:0,0:0:0:0:
60,148,20134,1,0,0:0:0:0:
175,133,20311,6,0,L|182:36,1,80,2|0,0:0|0:0,0:0:0:0:
180,53,20664,1,0,0:0:0:0:
351,146,20840,1,2,0:0:0:0:
289,198,21017,1,2,0:0:0:0:
351,146,21193,6,0,B|320:123|320:123|333:38|463:79|423:181|423:181|405:230|336:247|370:348|370:348|423:328|423:328|428:331|428:331|432:326|432:326|509:299,1,560,4|0,0:1|0:0,0:2:0:0:
429,361,22605,38,0,L|379:354,3,40,2|0|0|0,0:0|0:0|0:0|0:0,0:0:0:0:
324,317,22958,2,0,L|274:324,3,40,2|0|0|0,0:0|0:0|0:0|0:0,0:0:0:0:
218,358,23311,5,8,0:0:0:0:
139,352,23399,1,8,0:0:0:0:
144,342,23576,21,8,0:0:0:0:
65,348,23664,2,8,L|-2:352,1,60.0000022888184
132,151,23840,2,8,L|199:155,1,60.0000022888184
344,53,24017,37,4,1:2:0:0:
344,53,24370,2,0,P|342:145|307:167,1,120,2|0,1:2|0:0,0:0:0:0:
326,158,24723,2,0,B|364:144|364:144|424:164,1,80,0|0,1:0|0:0,0:0:0:0:
324,317,25076,2,0,B|286:331|286:331|226:311,1,80,2|2,1:2|0:0,0:0:0:0:
427,231,25428,22,0,B|438:284|438:284|443:290|443:290|461:373,1,120,0|0,1:0|0:0,0:0:0:0:
455,346,25781,2,0,P|470:299|499:268,1,80,2|2,1:2|0:0,0:0:0:0:
324,317,26134,2,0,P|307:272|297:154,1,160,0|2,1:0|1:2,0:0:0:0:
223,255,26664,1,0,0:0:0:0:
159,303,26840,38,0,P|90:299|62:240,1,120,2|0,1:2|0:0,0:0:0:0:
63,260,27193,2,0,L|51:351,1,80,0|0,1:0|0:0,0:0:0:0:
20,196,27546,1,0,1:0:0:0:
20,196,27723,2,2,L|7:105,2,80,2|2|2,0:0|1:2|0:0,0:0:0:0:
91,140,28252,22,0,P|138:120|194:147,1,80,0|0,1:0|0:0,0:0:0:0:
241,102,28605,2,0,P|302:105|343:151,1,120,2|0,1:2|0:0,0:0:0:0:
340,145,28958,2,0,B|376:143|376:143|384:145|384:145|440:140,1,80,2|0,1:2|0:0,0:0:0:0:
366,330,29311,2,0,P|343:319|326:298,2,40,2|0|0,1:2|0:0|0:0,0:0:0:0:
389,332,29576,1,0,0:0:0:0:
405,323,29664,38,0,L|422:226,1,80,2|0,1:2|0:0,0:0:0:0:
493,221,30017,1,0,1:0:0:0:
493,221,30193,2,0,B|483:143|483:143|479:134|479:134|471:53,1,160,2|2,0:0|0:0,0:0:0:0:
403,29,30723,2,0,P|367:64|311:66,1,80,0|0,1:0|0:0,0:0:0:0:
280,125,31076,2,0,P|224:86|137:119,1,160,2|0,1:2|1:0,0:0:0:0:
80,69,31605,1,2,0:0:0:0:
80,69,31781,2,0,L|-22:59,1,80,0|2,1:0|0:0,0:0:0:0:
145,190,32134,2,0,L|247:180,1,80,0|0,1:0|0:0,0:0:0:0:
61,308,32487,22,0,B|66:234|66:234|64:219|64:219|70:140,1,160,2|0,1:2|1:0,0:0:0:0:
141,283,33017,1,0,0:0:0:0:
141,283,33193,2,0,P|199:259|288:334,1,160,2|0,1:2|1:0,0:0:0:0:
349,335,33723,1,0,0:0:0:0:
349,335,33899,38,0,L|466:331,1,80,2|0,1:2|0:0,0:0:0:0:
496,294,34252,2,0,B|510:256|510:256|486:194,1,80,0|0,1:0|0:0,0:0:0:0:
315,120,34605,2,0,P|307:70|329:30,1,80,0|2,1:0|0:0,0:0:0:0:
466,92,34958,2,0,L|359:82,1,80,0|0,1:0|0:0,0:0:0:0:
472,16,35223,1,2,0:0:0:0:
472,16,35311,22,0,L|462:157,1,120,6|0,1:2|0:0,0:0:0:0:
404,186,35664,2,0,L|297:176,1,80,0|0,0:0|1:0,0:0:0:0:
512,197,36017,1,8,0:0:0:0:
301,196,36370,38,0,L|194:186,1,80,2|0,0:0|0:0,0:0:0:0:
499,305,36723,2,0,P|449:333|380:304,1,120,2|0,1:2|0:0,0:0:0:0:
373,316,37076,2,0,L|379:220,1,80,0|2,0:0|1:2,0:0:0:0:
236,349,37428,1,8,0:0:0:0:
383,156,37781,1,2,1:2:0:0:
174,290,38134,22,0,P|101:308|40:241,1,160,2|0,1:2|0:0,0:0:0:0:
120,230,38664,1,0,1:0:0:0:
257,299,38840,2,0,P|271:354|274:395,1,80,8|0,0:0|0:0,0:0:0:0:
280,223,39193,2,0,P|266:168|263:127,1,80,2|2,0:0|0:0,0:0:0:0:
451,173,39546,38,0,P|438:250|427:340,1,160,2|0,1:2|0:0,0:0:0:0:
510,375,40076,1,2,1:2:0:0:
354,287,40252,2,0,L|259:308,1,80,8|0,0:0|0:0,0:0:0:0:
186,354,40605,2,0,L|137:349,1,40,2|0,1:2|0:0,0:0:0:0:
72,321,40781,1,0,0:0:0:0:
72,321,40870,1,0,0:0:0:0:
72,321,40958,22,0,P|70:276|65:229,1,80,4|0,1:2|0:0,0:0:0:0:
148,272,41311,37,0,1:0:0:0:
135,178,41487,1,8,0:0:0:0:
243,253,41664,21,0,1:0:0:0:
213,162,41840,1,8,0:0:0:0:
327,211,42017,37,0,1:0:0:0:
282,127,42193,1,8,0:0:0:0:
409,160,42370,21,0,1:0:0:0:
350,85,42546,1,8,0:0:0:0:
480,95,42723,37,0,1:0:0:0:
409,31,42899,1,0,1:0:0:0:
409,31,42987,1,0,1:0:0:0:
409,31,43076,2,2,P|431:28|460:21,1,40
350,85,43252,2,2,P|328:88|299:95,1,40
224,215,43428,21,0,1:0:0:0:
112,98,43605,2,0,P|91:120|44:130,1,60.0000022888184,0|0,1:0|1:0,1:0:0:0:
48,53,43781,54,0,P|149:30|192:96,1,160,6|0,1:2|0:0,0:0:0:0:
512,338,44311,6,0,B|480:362|427:360|395:330|395:330|426:344|469:332,1,180.000006866455,6|0,1:2|0:0,0:0:0:0:
311,253,44664,2,0,B|343:229|396:231|428:261|428:261|397:247|354:259,1,180.000006866455,6|0,1:2|0:0,0:0:0:0:
281,325,45017,54,0,B|248:327|248:327|242:329|242:329|207:331,1,60,6|0,1:2|0:0,0:0:0:0:
198,323,45370,1,8,0:0:0:0:
200,312,45458,1,8,0:0:0:0:
202,301,45546,1,0,1:0:0:0:
279,176,45723,5,0,1:0:0:0:
277,165,45811,1,0,1:0:0:0:
287,145,45899,2,8,L|230:139,3,40,10|8|0|0,0:0|0:0|1:0|1:0,0:0:0:0:
196,199,46252,54,8,P|148:205|118:215,1,60.0000022888184
168,73,46428,2,8,P|216:67|246:57,1,60.0000022888184
355,14,46605,6,0,P|444:15|474:70,1,120.000004577637,6|0,1:2|0:0,0:0:0:0:
493,107,46958,1,8,0:0:0:0:
313,145,47134,54,0,B|368:150|368:150|376:154|376:154|444:162,1,120,0|0,1:0|1:0,0:0:0:0:
291,223,47664,1,10,0:0:0:0:
315,334,47840,1,2,1:2:0:0:
497,256,48017,6,0,P|420:245|373:291,1,120.000004577637,2|0,0:0|1:0,0:0:0:0:
449,320,48370,1,8,0:0:0:0:
315,334,48546,2,0,L|109:350,1,180.000006866455,2|0,1:2|0:0,0:0:0:0:
71,306,48899,2,0,P|148:317|195:271,1,120.000004577637,2|8,1:2|0:0,0:0:0:0:
119,242,49252,1,0,1:0:0:0:
35,380,49428,54,0,L|41:220,1,160,2|8,1:2|0:0,0:0:0:0:
166,148,49958,6,0,B|164:95|164:95|159:83|159:83|156:19,1,120.000004577637,2|2,0:0|1:2,0:0:0:0:
0,119,50487,1,8,0:0:0:0:
79,126,50664,1,0,1:0:0:0:
40,220,50840,54,0,L|137:210,1,80,2|0,0:0|1:0,0:0:0:0:
179,160,51193,1,8,0:0:0:0:
179,160,51370,1,0,1:0:0:0:
321,228,51546,2,0,L|418:218,1,80,0|0,0:0|1:0,0:0:0:0:
483,361,51899,6,0,B|506:336|505:298|505:298|479:282,1,90.0000034332277,10|0,0:0|0:0,0:0:0:0:
467,294,52252,54,0,P|412:327|350:294,1,120.000004577637,2|0,1:2|0:0,0:0:0:0:
263,343,52605,1,8,0:0:0:0:
263,343,52781,2,0,B|149:338|149:338|132:342|132:342|19:335,1,240.000009155274,2|2,0:0|1:2,0:0:0:0:
147,183,53311,2,0,B|165:218|165:218|141:282,1,80,8|0,0:0|1:0,0:0:0:0:
90,126,53664,6,0,P|144:103|220:147,1,120.000004577637,2|0,0:0|1:0,0:0:0:0:
333,257,54017,1,8,0:0:0:0:
374,89,54193,2,0,B|368:189|368:189|373:204|373:204|364:355,1,240.000009155274,2|2,1:2|1:2,0:0:0:0:
451,169,54723,2,0,P|467:213|448:253,1,80,8|0,0:0|0:0,0:0:0:0:
365,328,55076,54,0,P|296:291|214:311,1,160,2|8,1:2|0:0,0:0:0:0:
173,375,55605,6,0,L|187:142,1,180.000006866455,2|0,0:0|0:0,0:0:0:0:
123,143,55958,2,0,P|53:137|7:208,1,120.000004577637,2|8,1:2|0:0,0:0:0:0:
267,243,56311,2,0,B|339:238|339:238|350:239|350:239|457:233,1,160,2|0,0:0|1:0,0:0:0:0:
285,88,56840,2,0,B|272:126|272:126|292:185,1,80,8|0,0:0|1:0,0:0:0:0:
430,63,57193,53,2,1:2:0:0:
432,51,57281,1,0,1:0:0:0:
435,39,57370,1,0,1:0:0:0:
285,88,57546,2,0,P|223:118|170:92,1,120.000004577637,8|8,0:0|0:0,0:0:0:0:
119,150,57811,1,8,0:0:0:0:
119,150,57899,6,0,L|-18:162,1,120.000004577637,6|0,1:2|0:0,0:0:0:0:
167,210,58252,1,8,0:0:0:0:
178,100,58428,54,0,B|238:94|238:94|248:97|248:97|300:91,1,120.000004577637,0|0,0:0|1:0,0:0:0:0:
455,186,58958,1,10,0:0:0:0:
425,293,59134,1,2,0:0:0:0:
289,170,59311,6,0,P|345:206|352:271,1,120.000004577637,2|0,0:0|1:0,0:0:0:0:
293,360,59664,1,8,0:0:0:0:
277,248,59840,2,0,P|194:318|65:248,1,240.000009155274,2|2,1:2|1:2,0:0:0:0:
250,97,60370,2,0,B|288:83|288:83|350:106,1,80,8|0,0:0|0:0,0:0:0:0:
137,218,60723,53,2,1:2:0:0:
24,210,60899,1,0,1:0:0:0:
12,209,60988,1,0,1:0:0:0:
0,208,61076,1,8,0:0:0:0:
325,96,61252,6,0,B|460:102|460:102|386:115,1,180.000006866455,6|0,1:2|0:0,0:0:0:0:
250,97,61605,6,0,B|22:87,1,200,6|0,1:2|0:0,0:0:0:0:
39,74,62134,38,0,P|28:165|68:188,1,120.000004577637,2|0,1:2|0:0,0:0:0:0:
214,244,62487,1,8,0:0:0:0:
80,329,62664,1,0,1:0:0:0:
214,244,62840,1,0,1:0:0:0:
231,243,62928,1,0,1:0:0:0:
249,242,63017,1,0,1:0:0:0:
80,329,63193,6,0,B|136:324|136:324|146:327|146:327|230:320,1,120.000004577637,10|10,0:0|0:0,0:0:0:0:
273,358,63458,1,8,0:0:0:0:
273,358,63546,54,0,P|365:349|387:313,1,120.000004577637,6|0,1:2|0:0,0:0:0:0:
313,290,63899,1,8,0:0:0:0:
455,316,64076,2,0,B|458:239|458:239|456:230|456:230|460:119,1,160,2|2,1:2|1:2,0:0:0:0:
332,11,64605,2,0,B|306:64|306:64|338:138,1,120.000004577637,8|0,0:0|0:0,0:0:0:0:
508,59,64958,6,0,P|441:44|375:100,1,120.000004577637,2|0,0:0|1:0,0:0:0:0:
324,202,65311,1,8,0:0:0:0:
324,202,65487,2,0,L|130:196,1,160,2|0,1:2|1:0,0:0:0:0:
118,263,66017,2,0,P|63:286|7:270,1,120.000004577637,10|0,0:0|0:0,0:0:0:0:
67,84,66370,54,0,B|63:136|63:136|65:146|65:146|59:219,1,120.000004577637,2|0,1:2|0:0,0:0:0:0:
148,109,66723,1,8,0:0:0:0:
148,109,66899,2,0,P|221:66|311:113,1,160,2|0,0:0|1:0,0:0:0:0:
352,136,67428,2,0,L|444:133,1,80,8|0,0:0|1:0,0:0:0:0:
335,266,67781,6,0,L|208:254,1,120.000004577637,10|0,0:0|1:0,0:0:0:0:
384,348,68134,1,8,0:0:0:0:
384,348,68311,54,0,L|320:342,1,60.0000022888184,2|0,1:2|1:0,1:0:0:0:
216,335,68487,1,8,0:0:0:0:
216,335,68576,1,8,0:0:0:0:
216,335,68664,2,8,L|163:348,2,30.0000011444092,8|0|8,0:0|0:0|0:0,0:0:0:0:
116,364,68840,21,8,0:0:0:0:
67,302,68929,1,8,0:0:0:0:
129,253,69017,1,8,0:0:0:0:
178,315,69105,1,8,0:0:0:0:
134,139,69546,38,0,L|165:143,6,20,2|0|0|0|0|0|0,0:0|0:0|0:0|0:0|0:0|0:0|0:0,0:0:0:0:
76,192,69899,5,6,1:2:0:0:
237,182,80487,22,0,L|229:78,1,80
341,131,80840,2,0,L|343:157,2,20,0|0|0,1:0|1:0|1:0,1:0:0:0:
423,137,81016,1,0,1:0:0:0:
423,137,81104,1,0,1:0:0:0:
423,137,81193,6,0,P|470:219|412:276,1,160,6|0,1:2|0:0,0:0:0:0:
345,282,81634,1,2,0:0:0:0:
358,289,81722,2,0,L|256:281,1,80,2|8,1:2|0:0,0:0:0:0:
84,212,82075,1,2,0:0:0:0:
14,183,82251,2,0,P|10:230|28:266,1,80,2|2,0:0|0:0,0:0:0:0:
241,361,82604,54,0,L|231:179,1,160,2|0,1:2|0:0,0:0:0:0:
308,160,83046,1,2,0:0:0:0:
309,176,83134,2,0,P|319:129|289:82,1,80,2|8,1:2|0:0,0:0:0:0:
316,257,83487,1,2,0:0:0:0:
375,313,83663,2,0,L|466:318,1,80,2|2,1:2|0:0,0:0:0:0:
241,361,84016,6,0,P|173:325|84:362,1,160,2|0,1:2|0:0,0:0:0:0:
8,355,84546,1,2,1:2:0:0:
107,256,84722,2,0,B|116:187|116:187|114:175|114:175|124:81,1,160,8|2,0:0|0:0,0:0:0:0:
322,299,85428,54,0,P|413:313|462:257,1,160,2|0,1:2|0:0,0:0:0:0:
273,236,85957,1,0,1:0:0:0:
213,348,86134,2,0,L|101:356,1,80,8|0,0:0|0:0,0:0:0:0:
319,170,86487,2,0,L|431:162,1,80,2|0,1:2|0:0,0:0:0:0:
273,236,86840,6,0,P|192:259|121:194,1,160,2|0,1:2|0:0,0:0:0:0:
25,343,87369,1,2,1:2:0:0:
65,180,87546,1,8,0:0:0:0:
65,180,87722,2,0,L|51:10,1,160,2|0,0:0|0:0,0:0:0:0:
133,219,88251,54,0,B|208:224|208:224|217:228|217:228|319:235,1,160,2|0,1:2|0:0,0:0:0:0:
436,336,88781,1,2,1:2:0:0:
393,269,88957,2,0,P|438:257|493:280,1,80,8|2,0:0|0:0,0:0:0:0:
316,361,89310,2,0,P|271:373|216:350,1,80,0|0,1:0|0:0,0:0:0:0:
159,253,89663,6,0,L|-13:244,1,160,6|0,1:2|0:0,0:0:0:0:
41,101,90193,1,2,1:2:0:0:
254,71,90369,1,8,0:0:0:0:
254,71,90546,2,0,P|180:117|111:77,1,160,2|0,0:0|0:0,0:0:0:0:
34,24,91075,54,0,B|49:61|49:61|33:132,1,80,2|0,1:2|0:0,0:0:0:0:
28,203,91428,2,0,B|65:188|65:188|136:204,1,80,0|0,0:0|1:0,0:0:0:0:
206,205,91781,6,0,B|191:168|191:168|207:97,1,80,10|0,0:0|1:0,0:0:0:0:
253,67,92046,1,0,1:0:0:0:
253,67,92134,1,0,1:0:0:0:
120,115,92310,1,0,1:0:0:0:
206,205,92487,22,0,L|317:196,1,80,6|0,1:2|0:0,0:0:0:0:
441,298,92840,1,8,0:0:0:0:
441,298,93016,2,0,P|359:321|298:255,1,160,0|2,0:0|0:0,0:0:0:0:
202,354,93546,2,0,B|165:370|165:370|114:351,1,80,2|10,1:2|0:0,0:0:0:0:
52,382,93810,1,8,0:0:0:0:
52,382,93898,38,0,L|59:286,1,80,2|0,1:2|0:0,0:0:0:0:
152,150,94251,2,0,L|159:246,1,80,0|8,1:0|0:0,0:0:0:0:
235,243,94516,1,8,0:0:0:0:
235,243,94604,2,0,L|228:147,1,80,2|0,1:2|0:0,0:0:0:0:
102,83,94957,5,8,0:0:0:0:
81,80,95046,1,8,0:0:0:0:
61,78,95134,1,8,0:0:0:0:
41,76,95222,1,8,0:0:0:0:
21,74,95310,6,0,L|126:62,1,80,2|8,1:2|0:0,0:0:0:0:
229,163,95663,1,8,0:0:0:0:
112,161,95840,38,0,L|172:172,1,40,2|0,0:0|0:0,0:0:0:0:
229,163,96016,2,0,L|334:151,1,80,0|8,1:0|0:0,0:0:0:0:
127,312,96369,2,0,P|69:324|29:293,1,80,2|8,1:2|0:0,0:0:0:0:
246,242,96722,2,0,L|241:348,1,80,0|10,1:0|0:0,0:0:0:0:
397,155,97075,2,0,L|402:49,1,80,0|8,1:0|0:0,0:0:0:0:
477,40,97340,1,8,0:0:0:0:
477,40,97428,22,8,B|485:69|485:69|474:106,1,60.0000022888184,10|8,0:0|0:0,0:0:0:0:
337,208,97604,2,8,B|329:237|329:237|340:274,1,60.0000022888184
441,384,97781,5,10,0:0:0:0:
512,347,97869,1,8,0:0:0:0:
475,276,97957,1,8,0:0:0:0:
404,313,98046,1,8,0:0:0:0:
330,344,98134,38,0,B|216:352|216:352|207:357|207:357|85:365,1,240.000009155274,6|0,1:2|0:0,0:0:0:0:
332,6,98663,2,0,L|545:18,1,180.000006866455,6|0,1:2|0:0,0:0:0:0:
512,17,99016,1,8,0:0:0:0:
330,344,99193,2,0,L|165:334,1,120.000004577637,6|0,1:2|0:0,0:0:0:0:
13,8,99546,22,0,L|296:23,1,240.000009155274,6|0,1:2|0:0,0:0:0:0:
508,328,100075,2,0,B|421:334|421:334|414:337|414:337|321:343,1,180.000006866455,6|0,1:2|0:0,0:0:0:0:
329,343,100428,1,8,0:0:0:0:
192,24,100604,2,8,L|261:20,1,60.0000022888184,10|8,0:0|0:0,0:0:0:0:
368,44,100781,1,8,0:0:0:0:
368,44,100869,1,8,0:0:0:0:
368,44,100957,38,0,B|208:33|208:33|194:35|194:35|38:25,1,320,6|0,1:2|0:0,0:0:0:0:
449,250,102898,2,0,B|455:230|455:230|444:199,1,40,0|0,1:0|0:0,0:0:0:0:
384,170,103075,1,10,0:0:0:0:
384,170,103251,2,0,L|297:181,1,60.0000022888184,0|0,1:0|1:0,1:0:0:0:
208,239,103428,1,0,1:0:0:0:
208,239,103604,1,0,1:0:0:0:
129,384,103781,6,0,L|133:238,1,120,6|0,1:2|0:0,0:0:0:0:
132,264,104134,2,0,P|68:276|34:252,1,80,0|0,1:0|0:0,0:0:0:0:
233,134,104487,2,0,P|297:122|331:146,1,80,0|0,1:0|0:0,0:0:0:0:
397,207,104840,1,2,1:2:0:0:
278,201,105016,1,2,0:0:0:0:
278,201,105193,38,0,L|405:208,1,120,0|0,1:0|0:0,0:0:0:0:
397,207,105546,2,0,B|385:172|385:172|404:105,1,80,2|2,1:2|0:0,0:0:0:0:
475,271,105898,2,0,P|422:312|327:276,1,160,0|2,1:0|1:2,0:0:0:0:
221,350,106428,1,0,0:0:0:0:
221,350,106604,2,0,L|125:357,1,80,2|0,1:2|0:0,0:0:0:0:
0,286,106957,22,0,L|158:274,1,160,0|0,1:0|1:0,0:0:0:0:
312,343,107487,1,2,0:0:0:0:
312,343,107663,2,0,P|304:284|316:259,1,80,2|2,1:2|0:0,0:0:0:0:
479,256,108016,2,0,P|499:337|482:371,1,120,2|0,1:2|0:0,0:0:0:0:
485,366,108369,38,0,B|447:354|447:354|389:371,1,80,0|0,1:0|0:0,0:0:0:0:
240,182,108722,2,0,B|278:194|278:194|336:177,1,80,0|0,1:0|0:0,0:0:0:0:
153,344,109075,2,0,B|114:331|114:331|56:348,1,80,2|0,1:2|0:0,0:0:0:0:
60,353,109340,1,0,0:0:0:0:
43,364,109428,22,0,L|51:262,1,80,2|0,1:2|0:0,0:0:0:0:
167,217,109781,1,0,1:0:0:0:
167,217,109957,2,0,P|203:135|162:69,1,160,2|2,0:0|0:0,0:0:0:0:
43,148,110487,2,0,L|133:140,1,80,0|0,1:0|0:0,0:0:0:0:
7,229,110840,38,0,L|187:215,1,160,2|0,1:2|1:0,0:0:0:0:
281,340,111369,1,0,0:0:0:0:
281,340,111546,2,0,P|383:356|423:309,1,160,2|0,1:2|1:0,0:0:0:0:
452,208,112075,1,0,0:0:0:0:
452,208,112251,22,0,B|379:204|379:204|368:207|368:207|278:201,1,160,2|0,1:2|1:0,0:0:0:0:
182,284,112781,1,0,0:0:0:0:
182,284,112957,2,0,B|169:246|169:246|179:208,1,80,0|0,1:0|0:0,0:0:0:0:
280,46,113310,2,0,B|293:84|293:84|283:122,1,80,0|0,1:0|0:0,0:0:0:0:
179,207,113663,38,0,L|7:203,1,160,2|0,1:2|1:0,0:0:0:0:
23,53,114193,1,0,0:0:0:0:
147,107,114369,21,0,1:0:0:0:
147,107,114546,2,0,P|182:83|288:134,1,160,2|0,0:0|0:0,0:0:0:0:
364,135,114987,1,2,0:0:0:0:
364,135,115075,38,0,B|360:202|360:202|362:213|362:213|355:315,1,160,6|0,1:2|0:0,0:0:0:0:
356,294,115604,1,0,1:0:0:0:
363,54,115781,1,8,0:0:0:0:
363,54,116134,2,0,P|412:42|459:68,1,80,2|2,0:0|0:0,0:0:0:0:
281,218,116487,22,0,P|219:254|130:214,1,160,0|0,1:0|0:0,0:0:0:0:
140,226,117016,1,2,1:2:0:0:
367,254,117193,1,8,0:0:0:0:
92,297,117546,2,0,L|1:304,1,80,2|0,1:2|0:0,0:0:0:0:
140,226,117898,38,0,L|317:212,1,160,2|0,1:2|0:0,0:0:0:0:
299,213,118428,1,0,1:0:0:0:
66,194,118604,1,8,0:0:0:0:
367,254,118957,2,2,P|380:299|356:350,1,80,2|0,0:0|0:0,0:0:0:0:
183,307,119310,22,0,P|255:304|299:346,1,120,2|0,1:2|0:0,0:0:0:0:
290,331,119663,38,0,L|237:354,1,40,8|0,0:0|0:0,0:0:0:0:
183,307,119840,1,2,1:2:0:0:
183,307,120016,2,0,L|63:318,1,120,10|0,0:0|0:0,0:0:0:0:
63,318,120369,22,0,L|74:255,1,40,2|0,1:2|0:0,0:0:0:0:
55,205,120546,1,0,0:0:0:0:
55,205,120634,1,0,0:0:0:0:
55,205,120722,38,0,P|49:148|42:115,1,80,6|0,1:2|0:0,0:0:0:0:
139,234,121075,21,8,0:0:0:0:
134,141,121251,1,0,1:0:0:0:
217,261,121428,37,8,0:0:0:0:
220,167,121604,1,0,1:0:0:0:
289,297,121781,21,8,0:0:0:0:
300,204,121957,1,0,1:0:0:0:
361,337,122134,37,8,0:0:0:0:
380,245,122310,1,0,1:0:0:0:
430,383,122487,5,8,0:0:0:0:
457,293,122663,5,0,1:0:0:0:
457,293,122751,1,0,1:0:0:0:
457,293,122840,2,0,P|493:286|514:280,1,40,2|0,0:0|0:0,0:0:0:0:
380,245,123016,2,0,P|344:252|323:258,1,40,2|0,0:0|0:0,0:0:0:0:
235,358,123193,1,8,0:0:0:0:
289,189,123369,2,0,L|278:91,1,60.0000022888184,0|0,1:0|1:0,1:0:0:0:
203,49,123546,54,6,P|166:125|232:181,1,160,6|0,1:2|0:0,0:0:0:0:
510,38,124075,6,0,L|306:21,1,180.000006866455,6|0,1:2|0:0,0:0:0:0:
275,93,124428,2,0,L|479:110,1,180.000006866455,6|0,1:2|0:0,0:0:0:0:
203,49,124781,54,0,L|134:58,1,60,6|0,1:2|0:0,0:0:0:0:
118,72,125134,1,8,0:0:0:0:
121,62,125222,1,8,0:0:0:0:
124,52,125310,1,0,1:0:0:0:
233,193,125487,1,0,1:0:0:0:
230,183,125575,1,0,1:0:0:0:
234,165,125663,6,0,L|204:162,6,20,2|0|0|0|0|0|0,0:0|0:0|0:0|0:0|0:0|0:0|0:0,0:0:0:0:
313,185,126016,2,0,L|343:188,6,20,2|0|0|0|0|0|0,0:0|0:0|0:0|0:0|0:0|0:0|0:0,0:0:0:0:
278,262,126369,54,0,P|224:294|159:264,1,120.000004577637,6|0,1:2|0:0,0:0:0:0:
73,130,126722,1,8,0:0:0:0:
4,205,126898,1,0,1:0:0:0:
4,205,126987,2,0,B|61:208|61:208|66:211|66:211|146:217,1,120,0|0,1:0|1:0,0:0:0:0:
317,349,127428,2,0,L|452:342,1,120.000004577637,10|2,0:0|0:0,0:0:0:0:
494,167,127781,6,0,P|425:137|364:175,1,120.000004577637,2|0,0:0|1:0,0:0:0:0:
431,217,128134,1,8,0:0:0:0:
292,273,128310,1,0,1:0:0:0:
292,273,128398,2,0,L|143:279,1,120,0|0,1:0|1:0,0:0:0:0:
317,116,128840,2,0,B|337:60|337:60|312:-5,1,120.000004577637,10|2,0:0|0:0,0:0:0:0:
234,145,129193,54,0,P|156:167|107:131,1,120.000004577637,2|0,1:2|0:0,0:0:0:0:
176,90,129546,1,8,0:0:0:0:
43,212,129722,1,0,1:0:0:0:
43,212,129810,2,0,L|50:62,1,120,0|0,1:0|1:0,0:0:0:0:
121,241,130251,2,0,B|145:295|145:295|119:372,1,120.000004577637,10|2,0:0|0:0,0:0:0:0:
263,281,130604,6,0,P|334:269|390:325,1,120.000004577637,2|0,0:0|1:0,0:0:0:0:
311,347,130957,1,8,0:0:0:0:
460,384,131134,1,0,1:0:0:0:
460,384,131222,2,0,B|454:296|454:296|450:283|450:283|442:194,1,180.000006866455,2|0,1:2|1:0,0:0:0:0:
493,102,131663,2,0,P|424:127|375:105,1,120.000004577637,10|0,0:0|0:0,0:0:0:0:
241,1,132016,54,0,L|489:18,1,240.000009155274,2|8,1:2|0:0,0:0:0:0:
294,84,132546,1,0,1:0:0:0:
294,84,132634,2,0,P|225:109|176:87,1,120.000004577637,2|0,1:2|1:0,0:0:0:0:
65,14,133075,2,0,B|91:66|91:66|64:143,1,120.000004577637,10|0,0:0|0:0,0:0:0:0:
11,310,133428,6,0,L|16:164,1,120.000004577637,2|0,0:0|1:0,0:0:0:0:
87,344,133781,1,8,0:0:0:0:
163,261,133957,1,0,1:0:0:0:
163,261,134046,2,0,P|221:237|285:269,1,120,2|0,1:2|1:0,0:0:0:0:
359,354,134487,2,0,L|499:347,1,120.000004577637,10|0,0:0|0:0,0:0:0:0:
272,255,134840,54,0,L|132:262,1,120.000004577637,2|0,1:2|0:0,0:0:0:0:
65,360,135193,1,8,0:0:0:0:
152,260,135369,1,0,1:0:0:0:
152,260,135457,2,0,B|156:204|156:204|159:197|159:197|164:110,1,120,0|2,1:0|1:2,0:0:0:0:
298,267,135898,2,0,P|369:281|414:245,1,120.000004577637,8|0,0:0|0:0,0:0:0:0:
210,82,136251,6,0,P|139:68|94:104,1,120.000004577637,2|0,0:0|1:0,0:0:0:0:
230,215,136604,1,8,0:0:0:0:
52,196,136781,1,0,1:0:0:0:
230,215,136957,1,0,1:0:0:0:
248,213,137046,1,0,1:0:0:0:
265,211,137134,1,2,1:2:0:0:
77,276,137310,54,8,L|48:281,2,30.0000011444092,8|0|8,0:0|0:0|0:0,0:0:0:0:
160,321,137487,1,0,1:0:0:0:
160,321,137575,1,0,1:0:0:0:
160,321,137663,6,0,P|225:347|288:295,1,120.000004577637,6|0,1:2|0:0,0:0:0:0:
365,178,138016,1,8,0:0:0:0:
493,374,138193,53,0,1:0:0:0:
493,374,138281,2,0,L|474:191,1,180.000006866455,0|0,1:0|1:0,0:0:0:0:
469,95,138722,1,10,0:0:0:0:
400,254,138898,1,2,0:0:0:0:
286,44,139075,5,2,0:0:0:0:
388,56,139251,1,2,1:2:0:0:
278,218,139428,1,10,0:0:0:0:
113,235,139604,2,0,L|202:242,1,60.0000022888184,2|0,0:0|1:0,0:0:0:0:
237,286,139781,53,2,0:0:0:0:
32,280,139957,1,2,1:2:0:0:
128,9,140134,1,10,0:0:0:0:
232,128,140310,1,2,0:0:0:0:
32,280,140487,6,0,L|42:140,1,120.000004577637,2|0,1:2|0:0,0:0:0:0:
98,376,140840,53,8,0:0:0:0:
232,128,141015,1,0,1:0:0:0:
232,128,141104,2,0,P|274:211|202:296,1,180.000006866455,0|0,1:0|1:0,0:0:0:0:
32,280,141546,5,10,0:0:0:0:
211,357,141722,1,2,0:0:0:0:
234,128,141898,53,2,0:0:0:0:
107,177,142075,1,2,1:2:0:0:
235,280,142251,1,10,0:0:0:0:
434,352,142428,1,2,1:2:0:0:
434,352,142516,2,0,P|463:283|392:183,1,180.000006866455,0|0,1:0|1:0,0:0:0:0:
310,362,142957,5,10,0:0:0:0:
345,165,143134,1,2,0:0:0:0:
310,362,143310,54,0,B|255:356|255:356|246:358|246:358|154:349,1,120.000004577637,2|0,1:2|0:0,0:0:0:0:
112,346,143575,1,0,0:0:0:0:
112,346,143663,1,8,0:0:0:0:
264,151,143840,5,0,1:0:0:0:
264,151,143928,2,0,L|285:381,1,180.000006866455,0|0,1:0|1:0,0:0:0:0:
182,154,144369,53,10,0:0:0:0:
50,300,144546,1,2,0:0:0:0:
58,29,144722,5,2,0:0:0:0:
187,68,144898,1,2,1:2:0:0:
274,270,145075,1,10,0:0:0:0:
172,257,145251,2,0,L|86:246,1,60.0000022888184,2|0,0:0|1:0,0:0:0:0:
50,300,145428,53,2,0:0:0:0:
179,339,145604,1,2,1:2:0:0:
187,68,145781,1,10,0:0:0:0:
38,197,145957,1,2,0:0:0:0:
179,339,146134,6,0,P|265:340|293:301,1,120.000004577637,2|0,1:2|0:0,0:0:0:0:
323,195,146487,1,10,0:0:0:0:
364,355,146663,1,2,1:2:0:0:
364,355,146751,2,0,B|415:350|415:350|426:353|426:353|497:347,1,120,0|2,1:0|1:2,0:0:0:0:
412,196,147193,2,0,B|396:234|396:234|415:279,1,80,10|0,0:0|0:0,0:0:0:0:
483,153,147546,54,0,P|409:114|331:173,1,180.000006866455
292,228,147898,2,0,B|254:227|254:227|249:229|249:229|196:225,1,80,8|0,0:0|0:0,0:0:0:0:
145,262,148163,1,0,1:0:0:0:
145,262,148251,6,0,P|145:294|127:322,1,60.0000022888184,2|0,1:2|0:0,0:0:0:0:
29,202,148428,2,0,P|29:170|47:142,1,60.0000022888184,0|0,1:0|0:0,0:0:0:0:
229,66,148604,2,0,P|255:152|204:231,1,180.000006866455,8|0,0:0|0:0,0:0:0:0:
145,262,148957,54,0,B|233:257|233:257|241:260|241:260|380:252,1,180.000006866455,6|0,1:2|0:0,0:0:0:0:
388,198,149310,2,0,B|410:253|410:253|383:324,1,120.000004577637,8|0,0:0|0:0,0:0:0:0:
226,371,149575,2,0,P|286:351|358:388,1,120.000004577637,0|0,1:0|0:0,0:0:0:0:
151,344,149840,2,0,P|120:350|79:335,1,60.0000022888184,0|0,1:0|0:0,0:0:0:0:
126,178,150016,2,0,L|262:171,1,120.000004577637,10|2,0:0|0:0,0:0:0:0:
457,28,150369,5,2,0:0:0:0:
388,309,150546,1,2,1:2:0:0:
309,113,150722,53,10,0:0:0:0:
499,101,150898,2,0,L|493:188,1,60.0000022888184,2|0,0:0|1:0,0:0:0:0:
324,254,151075,2,0,L|330:167,1,60.0000022888184,2|0,0:0|0:0,0:0:0:0:
389,139,151251,1,2,1:2:0:0:
489,371,151428,1,10,0:0:0:0:
349,379,151604,1,2,0:0:0:0:
136,270,151781,6,0,P|193:250|266:297,1,120.000004577637,2|0,1:2|0:0,0:0:0:0:
191,332,152134,1,8,0:0:0:0:
486,165,152310,2,0,B|431:161|431:161|426:164|426:164|322:157,1,120.000004577637,6|0,1:2|0:0,0:0:0:0:
0,18,152663,6,0,P|113:51|191:1,1,200,6|0,1:2|0:0,0:0:0:0:
337,87,153193,38,0,B|280:69|280:69|212:87,1,120.000004577637,6|0,1:2|0:0,0:0:0:0:
47,259,153546,1,8,0:0:0:0:
255,245,153722,1,2,1:2:0:0:
47,259,153899,1,0,1:0:0:0:
29,260,153987,1,0,1:0:0:0:
12,260,154075,1,0,1:0:0:0:
270,333,154251,5,10,0:0:0:0:
32,346,154428,1,8,0:0:0:0:
32,346,154516,1,8,0:0:0:0:
32,346,154604,54,0,B|139:338|139:338|153:341|153:341|296:331,1,240.000009155274,6|8,1:2|0:0,0:0:0:0:
469,374,155134,1,0,0:0:0:0:
363,140,155310,2,0,P|429:119|493:161,1,120.000004577637,0|0,0:0|1:0,0:0:0:0:
270,333,155663,2,0,P|204:354|140:312,1,120.000004577637,10|2,0:0|0:0,0:0:0:0:
254,68,156016,6,0,B|281:121|281:121|251:180,1,120.000004577637,2|2,0:0|1:2,0:0:0:0:
42,47,156369,1,10,0:0:0:0:
169,58,156546,1,2,1:2:0:0:
24,192,156722,54,0,L|163:178,1,120.000004577637,2|2,0:0|1:2,0:0:0:0:
316,264,157075,1,10,0:0:0:0:
189,253,157252,1,2,0:0:0:0:
26,346,157428,6,0,P|126:342|146:298,1,120.000004577637,2|2,1:2|0:0,0:0:0:0:
254,365,157781,1,10,0:0:0:0:
254,365,157957,2,0,L|511:370,1,240.000009155274,2|2,0:0|1:2,0:0:0:0:
270,175,158487,2,0,B|247:228|247:228|283:299,1,120.000004577637,10|2,0:0|1:2,0:0:0:0:
423,84,158840,53,10,0:0:0:0:
445,286,159016,1,0,1:0:0:0:
351,56,159193,5,10,0:0:0:0:
355,259,159369,2,0,L|344:192,1,60.0000022888184,0|0,1:0|1:0,0:0:0:0:
281,21,159546,53,2,0:0:0:0:
281,21,159634,1,2,0:0:0:0:
281,21,159722,2,0,L|239:26,2,30.0000011444092,0|0|0,1:0|1:0|1:0,1:0:0:0:
126,144,159899,21,0,1:0:0:0:
98,19,160031,1,0,1:0:0:0:
220,58,160163,1,0,1:0:0:0:
148,74,160251,37,6,1:2:0:0:
