osu file format v14

[General]
AudioFilename: audio.mp3
AudioLeadIn: 0
PreviewTime: 45987
Countdown: 0
SampleSet: Soft
StackLeniency: 0.2
Mode: 0
LetterboxInBreaks: 0
WidescreenStoryboard: 1

[Editor]
Bookmarks: 21193
DistanceSpacing: 2.5
BeatDivisor: 4
GridSize: 32
TimelineZoom: 2.599999

[Metadata]
Title:Shades of Light in a Transcendent Realm
TitleUnicode:Shades of Light in a Transcendent Realm
Artist:ak+q
ArtistUnicode:ak+q
Creator:VoiceCore
Version:1112's Another
Source:Arcaea
Tags:Dont Otosaka-Yu Suzuki_1112 Electronic Instrumental ajkoramusic high dnb drum and bass glitch piano artcore
BeatmapID:2448090
BeatmapSetID:1151815

[Difficulty]
HPDrainRate:6
CircleSize:4
OverallDifficulty:9
ApproachRate:9.3
SliderMultiplier:2.15
SliderTickRate:1

[Events]
//Background and Video events
0,0,"bg.jpg",0,0
//Break Periods
//Storyboard Layer 0 (Background)
//Storyboard Layer 1 (Fail)
//Storyboard Layer 2 (Pass)
//Storyboard Layer 3 (Foreground)
//Storyboard Layer 4 (Overlay)
//Storyboard Sound Samples

[TimingPoints]
1429,352.941176470588,4,2,1,50,1,0
1429,-250,4,2,1,15,0,0
12723,-250,4,2,1,20,0,0
18370,-250,4,2,1,30,0,0
19781,-250,4,2,1,50,0,0
20487,-250,4,2,1,70,0,0
21193,-250,4,2,1,100,0,0
23311,-66.6666666666667,4,2,1,80,0,0
24017,-100,4,2,1,60,0,0
35311,-133.333333333333,4,2,1,60,0,0
43781,-100,4,2,1,80,0,0
57546,-66.6666666666667,4,2,1,80,0,0
57899,-100,4,2,1,80,0,0
69546,-50,4,2,1,80,0,0
69899,352.941176470588,4,2,1,70,1,0
69899,-200,4,2,1,70,0,0
81193,-133.333333333333,4,2,1,70,0,0
96722,-100,4,2,1,70,0,0
98134,-133.333333333333,4,2,1,90,0,0
100957,-133.333333333333,4,2,1,80,0,0
103781,-100,4,2,1,70,0,0
115075,-133.333333333333,4,2,1,70,0,0
123546,-100,4,2,1,80,0,0
125663,-50,4,2,1,80,0,0
126016,-133.333333333333,4,2,1,70,0,0
126369,-100,4,2,1,80,0,1
137663,-83.3333333333333,4,2,1,80,0,1
155134,-100,4,2,1,80,0,1
156016,-83.3333333333333,4,2,1,80,0,1
157957,-133.333333333333,4,2,1,80,0,1
159546,-100,4,2,1,80,0,1
159722,-50,4,2,1,80,0,1
160251,-100,4,2,1,70,0,0

[Colours]
Combo1 : 255,0,0
Combo2 : 128,255,255
Combo3 : 18,124,255
Combo4 : 192,192,192
Combo5 : 255,162,255

[HitObjects]
312,306,1429,6,0,B|340:412|459:418|534:343|511:241|457:198|457:198|403:102|530:44|530:44|429:106|353:36|353:36|233:-41|117:15|117:15|74:51|39:141|158:235|279:165|268:-10|117:15|117:15|46:65|18:152|18:152|63:236|206:309|309:167|307:116|307:116|315:165|358:197|358:197|341:251|234:380|66:320|-4:256|-4:256|12:305|-2:340|-2:340|29:378|101:381,1,2709,2|8,0:0|0:0,0:0:0:0:
214,371,12723,6,0,B|267:253|381:231|456:342|384:399|305:383|305:383|347:384|384:345|384:345|452:383|545:252|441:178|441:178|277:237|189:92|189:92|294:-25|387:46|387:46|318:31|283:77,1,1333,2|8,1:2|0:0,0:0:0:0:
125,179,18370,54,0,B|14:217|-76:53|93:-9|207:77|140:206|125:267|14:298|14:298|109:303|134:376,1,645,2|2,0:0|0:0,0:0:0:0:
256,352,21193,21,4,0:1:0:0:
429,92,23311,37,8,0:0:0:0:
391,160,23399,2,0,P|354:112|437:17,1,161.2500061512,8|8,0:0|0:0,0:0:0:0:
467,196,23664,5,8,0:0:0:0:
441,226,23752,1,8,0:0:0:0:
404,242,23840,1,8,0:0:0:0:
364,240,23928,1,8,0:0:0:0:
330,220,24016,21,4,1:2:0:0:
245,91,24370,2,0,B|126:79|179:182|4:137,1,215,2|0,1:2|1:0,0:0:0:0:
82,48,24899,1,0,0:0:0:0:
221,178,25076,2,0,P|226:240|201:284,1,107.5,2|2,1:2|0:0,0:0:0:0:
101,315,25428,38,0,B|185:307|185:307|227:338|227:338|346:326,1,215,0|2,1:0|1:2,0:0:0:0:
364,268,25958,2,0,B|391:297|391:297|378:383,2,107.5,2|0|0,0:0|1:0|0:0,0:0:0:0:
255,175,26487,2,0,L|364:181,1,107.5,2|0,1:2|0:0,0:0:0:0:
451,115,26840,22,0,B|416:246|504:209|474:328,2,215,2|0|0,1:2|1:0|1:0,0:0:0:0:
491,20,27723,1,2,0:0:0:0:
491,20,27899,2,0,P|451:63|381:46,1,107.5,2|2,1:2|0:0,0:0:0:0:
327,32,28252,37,0,1:0:0:0:
121,131,28605,2,0,B|179:92|241:138|241:138|208:183|237:236,2,215,2|2|2,1:2|1:2|1:2,0:0:0:0:
176,282,29664,22,0,P|279:282|292:167,1,215,2|0,1:2|1:0,0:0:0:0:
297,29,30193,2,0,L|176:24,1,107.5,2|0,0:0|1:0,0:0:0:0:
362,113,30546,1,2,0:0:0:0:
362,113,30723,2,0,P|439:141|481:108,1,107.5,0|0,1:0|0:0,0:0:0:0:
469,42,31076,38,0,L|494:282,1,215,2|0,1:2|1:0,0:0:0:0:
383,360,31605,2,0,P|373:305|390:252,1,107.5,2|0,0:0|1:0,0:0:0:0:
292,145,31958,2,0,P|302:200|285:253,1,107.5,2|0,0:0|1:0,0:0:0:0:
210,297,32311,1,0,0:0:0:0:
210,297,32487,22,0,B|106:266|123:365|8:334,2,215,2|0|2,1:2|1:0|1:2,0:0:0:0:
168,368,33370,1,0,0:0:0:0:
48,259,33546,2,0,P|25:195|52:155,1,107.5,0|0,1:0|0:0,0:0:0:0:
0,56,33899,38,0,P|73:83|211:4,1,215,2|0,1:2|1:0,0:0:0:0:
242,114,34428,1,0,0:0:0:0:
319,164,34605,2,0,L|442:152,1,107.5,0|2,1:0|0:0,0:0:0:0:
427,68,34958,2,0,L|320:78,1,107.5,0|0,1:0|0:0,0:0:0:0:
242,114,35223,1,2,0:0:0:0:
242,114,35311,22,0,B|238:178|238:178|254:209|254:209|249:302,1,161.2500061512,6|0,1:2|0:0,0:0:0:0:
313,330,35840,1,0,1:0:0:0:
451,297,36017,2,0,P|368:283|308:340,1,161.2500061512,8|2,0:0|0:0,0:0:0:0:
313,330,36546,1,0,0:0:0:0:
218,347,36723,38,0,B|179:366|179:366|37:360,1,161.2500061512,2|0,1:2|0:0,0:0:0:0:
61,361,37252,1,2,1:2:0:0:
0,273,37428,2,0,B|39:254|39:254|181:260,1,161.2500061512,8|2,0:0|1:2,0:0:0:0:
251,117,38134,22,0,P|199:58|192:170,1,241.875009226799,2|0,1:2|1:0,0:0:0:0:
332,190,38840,2,0,P|353:111|320:23,1,161.2500061512,8|2,0:0|0:0,0:0:0:0:
251,117,39370,1,2,0:0:0:0:
232,220,39546,38,0,P|346:190|450:255,1,241.875009226799,2|2,1:2|1:2,0:0:0:0:
512,294,40252,2,0,P|455:232|471:161,1,161.2500061512,8|2,0:0|1:2,0:0:0:0:
340,44,40958,22,0,P|272:40|251:57,1,80.6250030755998,4|0,1:2|0:0,0:0:0:0:
385,111,41311,2,0,P|422:54|418:27,1,80.6250030755998,0|8,1:0|0:0,0:0:0:0:
308,114,41664,2,0,P|338:174|363:184,1,80.6250030755998,0|8,1:0|0:0,0:0:0:0:
420,213,42017,37,0,1:0:0:0:
422,44,42193,1,8,0:0:0:0:
254,131,42370,2,0,L|151:139,1,80.6250030755998,0|8,1:0|0:0,0:0:0:0:
108,249,42723,2,0,L|188:242,1,80.6250030755998,0|0,1:0|1:0,0:0:0:0:
289,236,42987,1,0,1:0:0:0:
289,236,43076,21,2,0:0:0:0:
302,270,43164,1,2,0:0:0:0:
323,243,43252,37,2,0:0:0:0:
323,279,43340,1,2,0:0:0:0:
358,261,43428,22,0,L|330:349,1,80.6250030755998,0|0,1:0|1:0,0:0:0:0:
431,362,43693,1,0,1:0:0:0:
431,362,43781,54,0,B|396:333|396:333|209:349,1,215,6|0,1:2|0:0,0:0:0:0:
72,285,44311,2,0,P|66:359|89:392,1,107.5,6|0,1:2|0:0,0:0:0:0:
158,217,44664,2,0,P|164:143|141:110,1,107.5,6|0,1:2|0:0,0:0:0:0:
36,13,45017,2,0,L|229:22,1,161.25,6|0,1:2|0:0,0:0:0:0:
276,81,45370,5,8,0:0:0:0:
353,71,45458,1,8,0:0:0:0:
431,60,45546,1,0,1:0:0:0:
487,184,45723,53,0,1:0:0:0:
487,184,45811,1,0,1:0:0:0:
487,184,45899,5,10,0:0:0:0:
431,178,45987,1,8,0:0:0:0:
350,173,46076,53,0,1:0:0:0:
295,167,46164,1,0,1:0:0:0:
212,146,46252,5,8,0:0:0:0:
215,186,46340,1,8,0:0:0:0:
219,226,46428,1,8,0:0:0:0:
223,266,46516,1,8,0:0:0:0:
227,306,46605,54,0,B|128:293|169:350|45:323,1,161.25,6|0,1:2|0:0,0:0:0:0:
70,327,46958,1,8,0:0:0:0:
36,176,47134,1,0,1:0:0:0:
36,176,47223,1,0,0:0:0:0:
36,176,47311,1,0,0:0:0:0:
187,214,47487,6,0,L|196:150,1,53.75,0|0,1:0|0:0,0:0:0:0:
98,45,47664,2,0,P|149:75|199:65,1,107.5,10|2,0:0|1:2,0:0:0:0:
297,23,48017,1,2,0:0:0:0:
279,181,48193,54,0,L|288:117,1,53.75,0|0,1:0|0:0,0:0:0:0:
382,86,48370,1,8,0:0:0:0:
468,248,48546,6,0,B|407:255|407:255|386:283|386:283|306:296,1,161.25,2|0,1:2|0:0,0:0:0:0:
301,283,48899,2,0,P|296:325|311:343,1,53.75,2|0,1:2|0:0,0:0:0:0:
186,369,49076,2,0,L|190:251,1,107.5,8|0,0:0|1:0,0:0:0:0:
286,127,49428,54,0,P|201:180|139:159,1,161.25,2|0,1:2|0:0,0:0:0:0:
126,153,49781,1,8,0:0:0:0:
286,36,49958,1,2,0:0:0:0:
286,36,50046,1,0,0:0:0:0:
286,36,50134,1,0,0:0:0:0:
304,228,50311,6,0,L|385:222,1,53.75,2|0,1:2|0:0,0:0:0:0:
457,261,50487,2,0,P|471:199|435:156,1,107.5,8|0,0:0|1:0,0:0:0:0:
359,120,50840,1,2,0:0:0:0:
336,305,51017,54,0,L|282:308,1,53.75,0|0,1:0|0:0,0:0:0:0:
184,253,51193,2,0,B|160:289|160:289|185:364,1,107.5,8|0,0:0|1:0,0:0:0:0:
234,173,51546,1,0,0:0:0:0:
72,283,51723,1,0,1:0:0:0:
160,112,51899,2,0,L|-10:122,1,161.25,10|0,0:0|0:0,0:0:0:0:
234,173,52252,6,0,P|251:84|176:19,1,161.25,2|0,1:2|0:0,0:0:0:0:
189,21,52605,1,8,0:0:0:0:
92,221,52781,2,0,B|194:203|156:278|285:242,1,161.25,2|0,0:0|0:0,0:0:0:0:
268,242,53134,1,2,1:2:0:0:
402,203,53311,2,0,L|391:371,1,161.25,8|0,0:0|0:0,0:0:0:0:
406,373,53664,54,0,P|344:377|301:347,1,107.5,2|0,0:0|1:0,0:0:0:0:
311,157,54017,1,8,0:0:0:0:
488,145,54193,2,0,L|317:133,1,161.25,2|0,1:2|0:0,0:0:0:0:
311,157,54546,1,2,1:2:0:0:
152,30,54723,2,0,P|220:88|187:181,1,161.25,8|0,0:0|0:0,0:0:0:0:
199,170,55076,6,0,B|175:202|199:247|199:247|226:298|174:366,1,161.25,2|0,1:2|0:0,0:0:0:0:
190,335,55428,1,8,0:0:0:0:
352,359,55605,2,0,P|385:318|353:235,1,107.5,2|0,0:0|0:0,0:0:0:0:
312,154,55958,2,0,P|322:184|378:205,1,53.75,2|0,1:2|0:0,0:0:0:0:
512,176,56134,2,0,P|459:167|404:237,1,107.5,8|2,0:0|0:0,0:0:0:0:
306,292,56487,53,0,0:0:0:0:
481,356,56664,2,0,L|475:239,2,107.5,0|8|0,1:0|0:0|1:0,0:0:0:0:
217,330,57193,5,2,1:2:0:0:
196,317,57281,1,0,1:0:0:0:
165,353,57370,2,0,P|219:344|253:356,1,53.75,0|0,1:0|0:0,0:0:0:0:
292,198,57546,2,0,B|240:210|240:210|101:188,1,161.2500061512,8|8,0:0|0:0,0:0:0:0:
77,255,57811,1,8,0:0:0:0:
77,255,57899,54,0,P|52:194|123:112,1,161.25,6|0,1:2|0:0,0:0:0:0:
162,71,58252,2,0,L|156:13,1,53.75,8|0,0:0|0:0,0:0:0:0:
84,46,58428,1,0,0:0:0:0:
264,120,58605,6,0,L|417:105,1,107.5,0|0,0:0|1:0,0:0:0:0:
447,5,58958,2,0,P|430:38|432:64,1,53.75,10|0,0:0|0:0,0:0:0:0:
450,198,59134,2,0,P|467:165|465:139,1,53.75,2|0,0:0|0:0,0:0:0:0:
354,24,59311,54,0,L|213:10,1,107.5,2|0,0:0|1:0,0:0:0:0:
168,138,59664,1,8,0:0:0:0:
347,258,59840,2,0,B|288:263|288:263|260:289|260:289|151:299,1,161.25,2|0,1:2|0:0,0:0:0:0:
168,309,60193,2,0,P|154:268|166:247,1,53.75,2|0,1:2|0:0,0:0:0:0:
360,174,60370,2,0,L|356:382,1,161.25,8|0,0:0|0:0,0:0:0:0:
356,335,60723,5,2,1:2:0:0:
317,91,60899,1,0,1:0:0:0:
239,88,60987,1,0,1:0:0:0:
161,84,61076,1,8,0:0:0:0:
29,290,61252,6,0,P|83:296|146:243,1,107.5,6|0,1:2|0:0,0:0:0:0:
239,88,61605,2,0,B|157:57|82:141|82:141|116:151|141:201,1,215,6|0,1:2|0:0,0:0:0:0:
263,256,62134,38,0,B|151:284|178:181|60:214,1,215,2|8,1:2|0:0,0:0:0:0:
222,167,62664,1,0,1:0:0:0:
312,344,62840,5,0,1:0:0:0:
312,344,62928,1,0,1:0:0:0:
312,344,63017,1,0,1:0:0:0:
433,171,63193,54,0,L|441:96,1,53.75,10|0,0:0|0:0,0:0:0:0:
359,22,63370,1,10,0:0:0:0:
359,22,63458,1,8,0:0:0:0:
359,22,63546,6,0,B|320:42|320:42|156:31,1,161.25,6|0,1:2|0:0,0:0:0:0:
135,78,63899,2,0,P|124:49|122:12,1,53.75,8|0,0:0|0:0,0:0:0:0:
217,117,64076,2,0,L|203:323,1,161.25,2|0,1:2|0:0,0:0:0:0:
206,277,64428,1,2,1:2:0:0:
73,336,64605,2,0,B|168:316|134:393|275:352,1,161.25,8|0,0:0|0:0,0:0:0:0:
292,308,64958,53,2,0:0:0:0:
292,308,65134,2,0,L|377:302,1,53.75,0|0,1:0|0:0,0:0:0:0:
429,208,65311,2,0,L|344:202,1,53.75,8|0,0:0|0:0,0:0:0:0:
465,301,65487,2,0,B|461:242|461:242|477:217|477:217|470:107,1,161.25,2|0,1:2|0:0,0:0:0:0:
472,144,65840,1,0,1:0:0:0:
437,37,66017,2,0,P|350:82|253:65,1,161.25,10|0,0:0|0:0,0:0:0:0:
192,28,66370,6,0,B|139:62|133:132|177:172|177:172|252:205,1,215,2|8,1:2|0:0,0:0:0:0:
265,320,66899,2,0,L|12:336,1,215,2|0,0:0|1:0,0:0:0:0:
265,320,67428,2,0,L|385:312,1,107.5,8|0,0:0|1:0,0:0:0:0:
495,133,67781,53,10,0:0:0:0:
396,323,67958,1,0,1:0:0:0:
415,128,68134,1,8,0:0:0:0:
476,333,68311,1,2,1:2:0:0:
476,333,68399,1,0,1:0:0:0:
476,333,68487,6,0,P|461:279|452:264,1,53.75,8|8,0:0|0:0,0:0:0:0:
412,220,68664,2,0,P|363:192|346:188,1,53.75,8|8,0:0|0:0,0:0:0:0:
345,65,68840,6,0,P|330:119|321:134,1,53.75,8|8,0:0|0:0,0:0:0:0:
281,178,69017,2,0,P|232:205|215:209,1,53.75,8|8,0:0|0:0,0:0:0:0:
254,102,69193,37,0,0:0:0:0:
121,263,69546,2,0,B|127:286|127:286|121:291|121:291|132:343,6,53.75,2|0|0|0|0|0|0,0:0|0:0|0:0|0:0|0:0|0:0|0:0,0:0:0:0:
155,171,69899,38,0,P|100:187|45:156,1,107.5,6|0,1:2|0:0,0:0:0:0:
110,100,70428,2,0,P|165:84|220:115,1,107.5,2|2,0:0|0:0,0:0:0:0:
258,162,70957,1,0,0:0:0:0:
258,162,71134,6,0,L|381:150,1,107.5,2|0,0:0|0:0,0:0:0:0:
426,197,71663,2,0,P|441:149|439:140,1,53.75,0|0,0:0|0:0,0:0:0:0:
359,227,72016,2,0,P|393:263|401:266,1,53.75,2|0,0:0|0:0,0:0:0:0:
442,353,72369,2,0,P|396:342|353:358,1,80.625,0|0,0:0|0:0,0:0:0:0:
351,355,72722,54,0,L|236:349,1,107.5,2|0,0:0|0:0,0:0:0:0:
167,368,73251,2,0,P|167:332|220:274,1,107.5,2|2,0:0|0:0,0:0:0:0:
285,242,73781,1,0,0:0:0:0:
285,242,74134,6,0,B|212:275|212:275|136:245,1,161.25,2|0,0:0|0:0,0:0:0:0:
134,159,74840,2,0,B|207:126|207:126|283:156,1,161.25,2|0,0:0|0:0,0:0:0:0:
445,191,75546,54,0,P|479:151|458:91,1,107.5,2|0,0:0|0:0,0:0:0:0:
420,45,76075,2,0,L|435:268,1,215,2|0,0:0|0:0,0:0:0:0:
368,315,76957,6,0,P|334:275|355:215,1,107.5,2|0,0:0|0:0,0:0:0:0:
393,168,77487,2,0,L|376:405,1,215,2|0,0:0|0:0,0:0:0:0:
378,383,78369,54,0,B|413:331|485:326|485:326|424:328|398:299|398:299|368:321|326:308|326:308|299:348|244:341,1,376.25,2|0,0:0|0:0,0:0:0:0:
202,179,79781,6,0,P|207:256|46:281,1,268.75,2|0,0:0|0:0,0:0:0:0:
22,210,80840,2,0,L|2:212,4,13.4375,0|0|0|0|0,1:0|1:0|1:0|0:0|1:0,0:0:0:0:
225,93,81193,54,0,B|166:87|166:87|140:55|140:55|57:48,1,161.2500061512,6|0,1:2|0:0,0:0:0:0:
202,188,81722,2,0,L|257:183,1,40.3125015377999,2|0,1:2|0:0,0:0:0:0:
306,241,81899,2,0,P|322:206|309:131,1,80.6250030755998,8|2,0:0|0:0,0:0:0:0:
319,0,82251,2,0,P|303:35|316:110,1,80.6250030755998,2|2,0:0|0:0,0:0:0:0:
403,134,82604,6,0,P|446:154|482:269,1,161.2500061512,2|0,1:2|0:0,0:0:0:0:
357,380,83134,2,0,L|359:337,1,40.3125015377999,2|0,1:2|0:0,0:0:0:0:
493,335,83310,2,0,P|438:317|412:276,1,80.6250030755998,8|2,0:0|0:0,0:0:0:0:
289,305,83663,2,0,P|344:323|370:364,1,80.6250030755998,2|2,1:2|0:0,0:0:0:0:
266,199,84016,54,0,L|67:209,1,161.2500061512,2|0,1:2|0:0,0:0:0:0:
245,112,84546,2,0,L|334:121,1,80.6250030755998,2|8,1:2|0:0,0:0:0:0:
230,30,84898,1,0,0:0:0:0:
169,87,85075,2,0,P|170:144|184:167,1,80.6250030755998,2|0,0:0|0:0,0:0:0:0:
387,196,85428,6,0,B|420:126|420:126|387:35,1,161.2500061512,2|0,1:2|0:0,0:0:0:0:
391,47,85957,1,0,1:0:0:0:
502,126,86134,2,0,L|516:231,1,80.6250030755998,8|0,0:0|0:0,0:0:0:0:
402,315,86487,2,0,L|383:168,1,120.9375046134,2|0,1:2|0:0,0:0:0:0:
370,183,86840,54,0,B|281:172|316:249|195:218,1,161.2500061512,2|0,1:2|0:0,0:0:0:0:
144,199,87369,1,2,1:2:0:0:
179,71,87546,2,0,P|203:126|197:171,1,80.6250030755998,8|2,0:0|0:0,0:0:0:0:
161,276,87898,2,0,P|119:336|107:386,1,120.9375046134,0|0,0:0|0:0,0:0:0:0:
107,381,88251,6,0,P|85:293|75:206,1,161.2500061512,2|0,1:2|0:0,0:0:0:0:
73,82,88781,1,2,1:2:0:0:
0,249,88957,2,0,P|5:189|40:147,1,80.6250030755998,8|2,0:0|0:0,0:0:0:0:
176,46,89310,2,0,L|282:40,1,80.6250030755998,0|0,1:0|0:0,0:0:0:0:
94,0,89663,54,0,B|120:16|120:16|143:165,1,161.2500061512,6|0,1:2|0:0,0:0:0:0:
139,145,90193,1,2,1:2:0:0:
271,221,90369,1,8,0:0:0:0:
271,221,90546,2,0,L|387:209,1,80.6250030755998,2|0,0:0|0:0,0:0:0:0:
171,231,90898,1,0,0:0:0:0:
405,282,91075,6,0,P|434:216|391:134,1,161.2500061512,2|0,1:2|0:0,0:0:0:0:
398,139,91604,1,0,1:0:0:0:
432,24,91781,2,0,P|393:31|377:27,1,40.3125015377999,10|0,0:0|0:0,0:0:0:0:
312,121,91957,1,0,1:0:0:0:
312,121,92046,1,0,1:0:0:0:
312,121,92134,2,0,P|240:106|205:119,1,80.6250030755998,0|0,1:0|1:0,0:0:0:0:
76,85,92487,22,0,L|63:-5,1,80.6250030755998,6|0,1:2|0:0,0:0:0:0:
152,217,92840,2,0,L|165:127,1,80.6250030755998,8|0,0:0|0:0,0:0:0:0:
64,252,93193,38,0,L|51:162,1,80.6250030755998,0|2,1:0|0:0,0:0:0:0:
140,384,93546,2,0,L|153:294,1,80.6250030755998,2|10,1:2|0:0,0:0:0:0:
0,334,93810,1,8,0:0:0:0:
0,334,93898,22,0,B|38:351|38:351|108:328,1,80.6250030755998,2|0,1:2|0:0,0:0:0:0:
152,217,94251,2,0,B|190:200|190:200|260:223,1,80.6250030755998,0|8,1:0|0:0,0:0:0:0:
245,339,94516,1,8,0:0:0:0:
245,339,94604,38,0,B|283:356|283:356|353:333,1,80.6250030755998,2|0,1:2|0:0,0:0:0:0:
397,222,94957,1,8,0:0:0:0:
433,205,95045,1,8,0:0:0:0:
472,217,95133,1,8,0:0:0:0:
399,367,95310,22,0,P|427:310|382:210,1,161.2500061512,2|8,1:2|0:0,0:0:0:0:
313,120,95840,1,2,0:0:0:0:
313,120,95928,1,0,0:0:0:0:
313,120,96016,2,0,L|412:123,1,80.6250030755998,0|8,1:0|0:0,0:0:0:0:
461,23,96281,1,0,0:0:0:0:
461,23,96369,2,0,L|380:25,1,80.6250030755998,2|8,1:2|0:0,0:0:0:0:
233,164,96722,38,0,B|212:113|212:113|242:48,1,107.5,0|10,1:0|0:0,0:0:0:0:
138,211,97075,2,0,B|159:262|159:262|129:327,1,107.5,0|8,1:0|0:0,0:0:0:0:
37,175,97340,1,8,0:0:0:0:
37,175,97428,21,10,0:0:0:0:
75,170,97516,1,8,0:0:0:0:
138,211,97604,37,8,0:0:0:0:
176,216,97692,1,8,0:0:0:0:
233,164,97781,21,10,0:0:0:0:
271,159,97869,1,8,0:0:0:0:
334,200,97957,5,8,0:0:0:0:
372,205,98045,1,8,0:0:0:0:
449,156,98134,38,0,B|463:40|463:40|394:2,1,161.2500061512,6|0,1:2|0:0,0:0:0:0:
372,205,98663,2,0,B|358:321|358:321|427:359,1,161.2500061512,6|8,1:2|0:0,0:0:0:0:
459,275,99193,1,6,1:2:0:0:
246,358,99546,22,0,L|61:348,1,161.2500061512,6|0,1:2|0:0,0:0:0:0:
59,262,100075,2,0,L|220:270,1,161.2500061512,6|8,1:2|0:0,0:0:0:0:
2,328,100604,1,10,0:0:0:0:
64,118,100957,37,6,1:2:0:0:
256,192,101046,12,0,102722,0:0:0:0:
472,299,102898,6,0,P|440:293|412:293,1,40.3125015377999,0|0,1:0|0:0,0:0:0:0:
388,147,103075,1,10,0:0:0:0:
413,299,103251,37,0,1:0:0:0:
391,304,103340,1,0,1:0:0:0:
372,310,103428,2,0,L|375:263,1,40.3125015377999,0|0,1:0|0:0,0:0:0:0:
471,177,103604,2,0,L|473:217,1,40.3125015377999,0|0,1:0|0:0,0:0:0:0:
312,182,103781,22,0,L|301:61,1,107.5,6|0,1:2|0:0,0:0:0:0:
466,22,104134,2,0,B|417:18|417:18|408:13|408:13|334:6,1,107.5,0|0,1:0|0:0,0:0:0:0:
226,133,104487,2,0,B|178:137|178:137|169:142|169:142|120:146,1,107.5,0|0,1:0|0:0,0:0:0:0:
218,51,104840,1,2,1:2:0:0:
98,220,105016,38,0,P|45:167|62:106,1,107.5,2|0,0:0|1:0,0:0:0:0:
93,71,105369,1,0,0:0:0:0:
182,210,105546,2,0,L|170:334,1,107.5,2|2,1:2|0:0,0:0:0:0:
273,384,105898,2,0,L|262:276,1,107.5,0|0,1:0|0:0,0:0:0:0:
324,191,106251,2,0,B|414:176|381:246|498:218,1,161.25,2|0,1:2|0:0,0:0:0:0:
498,224,106604,22,0,P|524:166|505:116,1,107.5,2|0,1:2|0:0,0:0:0:0:
385,15,106957,2,0,P|359:73|378:123,1,107.5,0|0,1:0|0:0,0:0:0:0:
369,282,107310,2,0,L|239:275,1,107.5,0|2,1:0|0:0,0:0:0:0:
232,130,107663,2,0,L|124:135,1,107.5,2|2,1:2|0:0,0:0:0:0:
66,313,108016,38,0,B|2:276|2:276|23:122,1,215,2|0,1:2|1:0,0:0:0:0:
76,65,108546,1,0,0:0:0:0:
93,211,108722,2,0,B|170:198|170:198|202:155|202:155|314:136,1,215,0|2,1:0|1:2,0:0:0:0:
375,124,109251,1,0,0:0:0:0:
450,237,109428,22,0,L|463:17,1,215,2|0,1:2|1:0,0:0:0:0:
371,248,109957,2,0,P|393:299|454:316,1,107.5,2|0,0:0|1:0,0:0:0:0:
512,292,110310,1,2,0:0:0:0:
297,294,110487,2,0,P|377:338|465:282,1,161.25,0|0,1:0|0:0,0:0:0:0:
450,311,110840,38,0,L|191:321,1,215,2|0,1:2|1:0,0:0:0:0:
169,263,111369,1,0,0:0:0:0:
169,263,111457,1,0,0:0:0:0:
169,263,111546,2,0,P|147:190|161:155,1,107.5,2|0,1:2|0:0,0:0:0:0:
232,105,111898,2,0,P|172:133|77:84,1,161.25,0|0,1:0|0:0,0:0:0:0:
232,105,112251,22,0,P|287:83|346:91,1,107.5,2|0,1:2|0:0,0:0:0:0:
410,122,112604,2,0,P|465:144|524:136,1,107.5,0|0,1:0|0:0,0:0:0:0:
350,272,112957,2,0,L|339:144,1,107.5,0|0,1:0|0:0,0:0:0:0:
400,14,113310,2,0,L|409:121,1,107.5,0|0,1:0|0:0,0:0:0:0:
268,203,113663,38,0,L|126:198,1,107.5,2|0,1:2|0:0,0:0:0:0:
84,298,114016,2,0,L|226:293,1,107.5,0|0,1:0|0:0,0:0:0:0:
270,282,114369,1,0,1:0:0:0:
160,199,114546,1,2,0:0:0:0:
84,298,114722,2,0,P|36:242|50:181,1,107.5,0|0,1:0|0:0,0:0:0:0:
45,193,114987,1,2,0:0:0:0:
55,172,115075,22,0,B|90:104|32:16|32:16|55:73|47:117,1,241.875009226799,6|0,1:2|1:0,0:0:0:0:
162,92,115781,2,0,B|204:115|204:115|331:108,1,161.2500061512,8|2,0:0|0:0,0:0:0:0:
409,98,116310,1,2,0:0:0:0:
460,2,116487,38,0,B|430:49|451:135|478:105|505:174|472:242,1,241.875009226799,0|2,1:0|1:2,0:0:0:0:
451,318,117193,2,0,P|412:347|348:343,1,80.6250030755998,8|0,0:0|0:0,0:0:0:0:
251,315,117546,2,0,P|290:286|354:290,1,80.6250030755998,2|0,1:2|0:0,0:0:0:0:
207,384,117898,22,0,L|218:116,1,241.875009226799,2|0,1:2|1:0,0:0:0:0:
135,24,118604,2,0,B|86:85|86:85|119:194,1,161.2500061512,8|2,0:0|0:0,0:0:0:0:
110,164,119134,1,0,0:0:0:0:
200,300,119310,38,0,L|60:291,1,120.9375046134,2|0,1:2|0:0,0:0:0:0:
64,306,119663,2,0,L|23:310,1,40.3125015377999,8|0,0:0|0:0,0:0:0:0:
233,280,119840,2,0,L|192:276,1,40.3125015377999,2|0,1:2|0:0,0:0:0:0:
368,285,120017,2,0,L|247:292,1,120.9375046134,10|0,0:0|0:0,0:0:0:0:
279,169,120369,5,2,1:2:0:0:
319,166,120457,1,0,0:0:0:0:
359,163,120545,1,0,0:0:0:0:
399,161,120633,1,0,0:0:0:0:
464,208,120722,6,0,P|478:153|466:122,1,80.6250030755998,6|0,1:2|0:0,0:0:0:0:
361,21,121075,2,0,P|393:44|410:81,1,80.6250030755998,8|0,0:0|1:0,0:0:0:0:
293,54,121428,2,0,P|238:39|207:52,1,80.6250030755998,8|0,0:0|1:0,0:0:0:0:
197,120,121781,53,8,0:0:0:0:
409,80,121957,1,0,1:0:0:0:
197,120,122134,2,0,P|142:134|111:122,1,80.6250030755998,8|0,0:0|1:0,0:0:0:0:
247,179,122487,2,0,P|286:172|323:186,1,80.6250030755998,8|0,0:0|1:0,0:0:0:0:
386,242,122751,1,0,1:0:0:0:
443,176,122840,5,2,0:0:0:0:
469,170,122928,1,0,0:0:0:0:
459,194,123016,53,2,0:0:0:0:
445,217,123104,1,0,0:0:0:0:
471,240,123193,6,0,L|479:131,1,80.6250030755998,8|0,0:0|1:0,0:0:0:0:
409,47,123457,1,0,1:0:0:0:
409,47,123546,54,0,P|332:5|198:35,1,215,6|0,1:2|0:0,0:0:0:0:
202,130,124075,2,0,P|135:156|75:138,1,107.5,6|0,1:2|0:0,0:0:0:0:
300,93,124428,2,0,L|326:198,1,107.5,6|0,1:2|0:0,0:0:0:0:
59,55,124781,6,0,P|142:18|229:33,1,161.25,6|0,1:2|0:0,0:0:0:0:
300,93,125134,53,8,0:0:0:0:
376,113,125222,1,8,0:0:0:0:
448,130,125310,2,0,L|503:125,1,53.75,0|0,1:0|0:0,0:0:0:0:
474,235,125487,5,0,1:0:0:0:
398,215,125575,1,0,1:0:0:0:
326,198,125663,2,0,L|271:203,6,53.75,2|0|0|0|0|0|0,0:0|0:0|0:0|0:0|0:0|0:0|0:0,0:0:0:0:
249,299,126016,54,0,L|369:287,1,120.9375046134,2|0,0:0|0:0,0:0:0:0:
196,376,126369,6,0,P|158:307|201:218,1,161.25,6|0,1:2|0:0,0:0:0:0:
131,167,126722,2,0,L|16:163,1,107.5,8|0,0:0|1:0,0:0:0:0:
126,55,126987,54,0,L|249:48,1,107.5,0|0,1:0|0:0,0:0:0:0:
264,45,127251,1,0,1:0:0:0:
324,185,127428,2,0,P|307:146|314:115,1,53.75,10|0,0:0|0:0,0:0:0:0:
342,0,127604,2,0,P|359:39|352:70,1,53.75,2|0,0:0|0:0,0:0:0:0:
324,185,127781,6,0,P|264:168|207:178,1,107.5,2|0,0:0|1:0,0:0:0:0:
397,126,128134,1,8,0:0:0:0:
348,287,128310,1,0,1:0:0:0:
348,287,128398,54,0,P|423:236|513:255,1,161.25,0|0,1:0|1:0,0:0:0:0:
277,336,128840,2,0,L|152:323,1,107.5,10|2,0:0|0:0,0:0:0:0:
77,361,129193,6,0,B|71:297|71:297|81:271|81:271|73:175,1,161.25,2|0,1:2|0:0,0:0:0:0:
125,29,129546,2,0,P|143:97|123:141,1,107.5,8|0,0:0|1:0,0:0:0:0:
231,242,129810,54,0,P|213:174|233:130,1,107.5,0|0,1:0|0:0,0:0:0:0:
242,118,130075,1,0,1:0:0:0:
326,31,130251,2,0,L|467:22,1,107.5,10|2,0:0|0:0,0:0:0:0:
433,24,130604,5,2,0:0:0:0:
492,175,130781,2,0,P|499:131|496:111,1,53.75,0|0,1:0|0:0,0:0:0:0:
420,223,130957,2,0,P|413:267|416:287,1,53.75,8|0,0:0|0:0,0:0:0:0:
507,341,131134,1,0,1:0:0:0:
507,341,131222,54,0,B|417:325|452:394|328:359,1,161.25,2|0,1:2|1:0,0:0:0:0:
211,277,131663,2,0,L|200:95,1,161.25,10|0,0:0|0:0,0:0:0:0:
201,94,132016,6,0,B|73:83|73:83|122:138,1,161.25,2|0,1:2|0:0,0:0:0:0:
110,125,132369,1,8,0:0:0:0:
266,22,132546,1,0,1:0:0:0:
266,22,132634,54,0,L|449:11,1,161.25,2|0,1:2|1:0,0:0:0:0:
486,190,133075,2,0,B|515:134|483:71|483:71|481:124,1,161.25,10|0,0:0|0:0,0:0:0:0:
486,190,133428,6,0,P|416:193|384:160,1,107.5,2|0,0:0|1:0,0:0:0:0:
334,102,133781,1,8,0:0:0:0:
502,200,133957,1,0,1:0:0:0:
486,190,134046,54,0,P|393:169|297:222,1,161.25,2|0,1:2|1:0,0:0:0:0:
230,383,134487,2,0,B|236:318|236:318|216:290|216:290|222:218,1,161.25,10|0,0:0|0:0,0:0:0:0:
238,47,134840,6,0,B|145:43|197:100|59:88,1,161.25,2|0,1:2|0:0,0:0:0:0:
97,190,135193,2,0,P|97:105|62:68,1,107.5,8|0,0:0|1:0,0:0:0:0:
13,219,135457,54,0,P|13:304|48:341,1,107.5,0|0,1:0|0:0,0:0:0:0:
41,340,135722,1,2,1:2:0:0:
221,228,135898,2,0,L|364:216,1,107.5,8|0,0:0|0:0,0:0:0:0:
406,241,136251,5,2,0:0:0:0:
369,58,136428,2,0,P|389:106|379:159,1,107.5,0|8,1:0|0:0,0:0:0:0:
293,21,136781,1,0,1:0:0:0:
463,178,136957,53,0,1:0:0:0:
463,178,137046,1,0,1:0:0:0:
463,178,137134,1,2,1:2:0:0:
395,341,137310,2,0,L|430:338,6,26.875,8|0|8|0|0|0|0,0:0|0:0|0:0|0:0|1:0|0:0|1:0,0:0:0:0:
326,299,137663,6,0,P|276:278|206:297,1,128.999996063233,6|0,1:2|0:0,0:0:0:0:
155,128,138016,2,0,B|120:164|120:164|137:280,1,128.999996063233,8|0,0:0|1:0,0:0:0:0:
133,263,138281,54,0,L|-4:251,1,128.999996063233,0|0,1:0|0:0,0:0:0:0:
4,251,138546,1,0,1:0:0:0:
223,193,138722,2,0,L|367:182,1,128.999996063233,10|2,0:0|0:0,0:0:0:0:
445,0,139075,6,0,B|440:49|440:49|456:75|456:75|445:152,1,128.999996063233,2|2,0:0|1:2,0:0:0:0:
347,306,139428,2,0,B|342:257|342:257|358:231|358:231|347:154,1,128.999996063233,10|2,0:0|0:0,0:0:0:0:
340,145,139693,1,0,1:0:0:0:
332,108,139781,1,2,0:0:0:0:
196,250,139957,1,2,1:2:0:0:
277,349,140134,2,0,P|302:373|392:376,1,128.999996063233,10|2,0:0|0:0,0:0:0:0:
196,250,140487,54,0,B|81:224|129:305|-11:265,1,193.499994094849,2|0,1:2|0:0,0:0:0:0:
9,270,140840,1,8,0:0:0:0:
166,333,141016,1,0,1:0:0:0:
166,333,141104,2,0,L|179:104,1,193.499994094849,0|0,1:0|1:0,0:0:0:0:
57,31,141546,2,0,P|50:98|100:137,1,128.999996063233,10|2,0:0|0:0,0:0:0:0:
176,139,141898,5,2,0:0:0:0:
290,3,142075,2,0,L|147:-1,1,128.999996063233,2|10,1:2|0:0,0:0:0:0:
258,143,142428,1,2,1:2:0:0:
254,158,142516,54,0,B|293:122|293:122|472:153,1,193.499994094849,0|0,1:0|1:0,0:0:0:0:
512,83,142957,2,0,B|470:4|385:19|385:19|423:93,1,193.499994094849,10|0,0:0|0:0,0:0:0:0:
353,151,143310,6,0,P|384:206|505:178,1,193.499994094849,2|0,1:2|0:0,0:0:0:0:
505,170,143663,1,8,0:0:0:0:
334,303,143840,1,0,1:0:0:0:
334,303,143928,2,0,L|116:302,1,193.499994094849,0|0,1:0|1:0,0:0:0:0:
56,368,144369,2,0,P|36:298|61:235,1,128.999996063233,10|2,0:0|0:0,0:0:0:0:
183,113,144722,53,2,0:0:0:0:
103,174,144898,1,2,1:2:0:0:
136,10,145075,1,10,0:0:0:0:
76,168,145251,6,0,L|3:163,1,64.4999980316163,2|0,0:0|1:0,0:0:0:0:
222,143,145428,1,2,0:0:0:0:
354,105,145604,1,2,1:2:0:0:
469,46,145781,2,0,L|332:115,1,128.999996063233,10|2,0:0|0:0,0:0:0:0:
357,277,146134,53,2,1:2:0:0:
482,289,146310,1,0,0:0:0:0:
498,165,146487,1,10,0:0:0:0:
357,277,146663,1,2,1:2:0:0:
357,277,146751,2,0,B|246:270|282:333|125:299,1,193.499994094849,0|2,1:0|1:2,0:0:0:0:
69,220,147193,2,0,P|120:170|187:199,1,128.999996063233,10|0,0:0|0:0,0:0:0:0:
347,30,147546,6,0,B|310:45|310:45|266:37|266:37|124:45,1,193.499994094849,0|0,0:0|0:0,0:0:0:0:
234,134,147898,2,0,B|271:119|271:119|315:127|315:127|457:119,1,193.499994094849,8|0,0:0|1:0,0:0:0:0:
447,138,148251,2,0,B|464:40|464:40|443:0,1,128.999996063233,2|0,1:2|1:0,0:0:0:0:
355,222,148604,2,0,B|489:211|489:211|429:287,1,193.499994094849,8|0,0:0|0:0,0:0:0:0:
389,336,148957,54,0,B|300:330|300:330|294:324|294:324|159:313,1,193.499994094849,6|0,1:2|0:0,0:0:0:0:
172,313,149310,1,8,0:0:0:0:
308,167,149487,5,0,0:0:0:0:
281,170,149576,2,0,B|185:177|185:177|179:183|179:183|90:189,1,193.499994094849,0|0,1:0|1:0,0:0:0:0:
28,321,150016,2,0,B|-18:271|-18:271|14:100,1,193.499994094849,10|0,0:0|0:0,0:0:0:0:
100,100,150369,54,0,P|72:56|-35:61,1,128.999996063233,2|2,0:0|1:2,0:0:0:0:
90,189,150722,2,0,P|65:235|123:325,1,128.999996063233,10|2,0:0|0:0,0:0:0:0:
171,154,150987,1,0,1:0:0:0:
171,154,151075,2,0,P|223:151|272:56,1,128.999996063233,2|2,0:0|1:2,0:0:0:0:
373,47,151428,2,0,L|148:64,1,193.499994094849,10|0,0:0|0:0,0:0:0:0:
278,225,151781,6,0,B|388:209|355:276|467:262,1,193.499994094849,2|0,1:2|0:0,0:0:0:0:
484,256,152134,1,8,0:0:0:0:
217,360,152310,54,0,P|152:333|151:258,1,128.999996063233,6|0,1:2|0:0,0:0:0:0:
236,129,152663,22,0,P|366:203|360:316,1,257.999992126465,6|0,1:2|0:0,0:0:0:0:
211,240,153193,2,0,P|210:91|311:39,1,257.999992126465,6|8,1:2|0:0,0:0:0:0:
320,206,153722,38,0,P|218:263|171:249,1,128.999996063233,2|0,1:2|1:0,0:0:0:0:
181,257,153987,1,0,1:0:0:0:
152,242,154075,1,0,1:0:0:0:
81,166,154251,1,10,0:0:0:0:
105,53,154428,1,8,0:0:0:0:
105,53,154516,1,8,0:0:0:0:
105,53,154604,6,0,B|129:99|129:99|107:255,1,193.499994094849,6|0,1:2|0:0,0:0:0:0:
106,260,154957,1,8,0:0:0:0:
242,152,155134,54,0,P|298:108|396:135,1,161.25,0|0,0:0|0:0,0:0:0:0:
401,134,155487,1,0,1:0:0:0:
489,28,155663,2,0,L|337:17,1,107.5,10|2,0:0|0:0,0:0:0:0:
363,316,156016,6,0,P|322:240|322:187,1,128.999996063233,2|2,0:0|1:2,0:0:0:0:
431,228,156369,1,10,0:0:0:0:
297,371,156546,54,0,P|238:346|174:349,1,128.999996063233,2|2,1:2|0:0,0:0:0:0:
93,342,156898,1,2,1:2:0:0:
227,177,157075,6,0,P|197:233|146:272,1,128.999996063233,10|2,0:0|0:0,0:0:0:0:
93,342,157428,53,2,1:2:0:0:
83,192,157604,1,2,0:0:0:0:
77,57,157781,1,10,0:0:0:0:
51,72,157957,6,0,L|225:63,1,161.2500061512,2|2,0:0|1:2,0:0:0:0:
253,192,158487,1,10,0:0:0:0:
227,177,158663,54,0,L|346:185,1,80.6250030755998,2|10,1:2|0:0,0:0:0:0:
413,39,159016,1,0,1:0:0:0:
376,254,159193,1,10,0:0:0:0:
388,36,159369,1,0,1:0:0:0:
413,39,159457,1,0,1:0:0:0:
436,42,159546,6,0,L|501:37,1,53.75,2|2,0:0|0:0,0:0:0:0:
390,134,159722,6,0,L|455:129,2,53.75,0|0|0,1:0|1:0|1:0,0:0:0:0:
306,78,159898,1,0,1:0:0:0:
224,128,160031,1,0,1:0:0:0:
155,65,160163,1,0,1:0:0:0:
155,65,160251,37,6,1:2:0:0:
