osu file format v14

[General]
AudioFilename: audio.mp3
AudioLeadIn: 0
PreviewTime: 44752
Countdown: 0
SampleSet: Soft
StackLeniency: 0.6
Mode: 0
LetterboxInBreaks: 0
WidescreenStoryboard: 1

[Editor]
DistanceSpacing: 1.5
BeatDivisor: 4
GridSize: 8
TimelineZoom: 2.3

[Metadata]
Title:Rush Indigo
TitleUnicode:Rush Indigo
Artist:ak+q
ArtistUnicode:ak+q
Creator:Aistre
Version:Light Insane
Source:
Tags:artcore electronic instrumental elcheer venax str0mboli
BeatmapID:2079192
BeatmapSetID:986013

[Difficulty]
HPDrainRate:5
CircleSize:4
OverallDifficulty:7.4
ApproachRate:8.2
SliderMultiplier:1.5
SliderTickRate:1

[Events]
//Background and Video events
0,0,"r.jpg",0,0
//Break Periods
2,66285,70594
//Storyboard Layer 0 (Background)
//Storyboard Layer 1 (Fail)
//Storyboard Layer 2 (Pass)
//Storyboard Layer 3 (Foreground)
//Storyboard Layer 4 (Overlay)
//Storyboard Sound Samples

[TimingPoints]
2086,333.333333333333,4,2,1,35,1,0
3419,-125,4,2,1,35,0,0
18085,-111.111111111111,4,2,1,35,0,0
23419,-125,4,2,1,35,0,0
28752,-166.666666666667,4,2,1,35,0,0
33940,-166.666666666667,4,2,1,5,0,0
34085,-117.647058823529,4,2,1,50,0,0
44752,-100,4,2,2,60,0,0
44835,-100,4,2,1,60,0,0
51335,-100,4,2,1,5,0,0
51419,-100,4,2,1,60,0,0
55419,-100,4,2,2,60,0,0
55502,-100,4,2,1,60,0,0
66085,-100,4,2,2,50,0,0
71419,-111.111111111111,4,2,1,50,0,0
77127,-111.111111111111,4,2,1,45,0,0
77169,-111.111111111111,4,2,1,40,0,0
77210,-111.111111111111,4,2,1,35,0,0
77252,-111.111111111111,4,2,1,30,0,0
77294,-111.111111111111,4,2,1,25,0,0
77335,-100,4,2,1,20,0,0
77419,333.333333333333,4,2,1,70,1,1
77419,-90.9090909090909,4,2,1,70,0,1
77502,-90.9090909090909,4,2,1,70,0,1
88085,-100,4,2,1,70,0,0
88585,-90.9090909090909,4,2,2,70,0,1
88668,-90.9090909090909,4,2,1,70,0,1
98752,-125,4,2,2,50,0,0
98835,-125,4,2,1,50,0,0
105085,-125,4,2,1,25,0,0
109419,-125,4,2,1,5,0,0

[Colours]
Combo1 : 255,62,255
Combo2 : 54,171,255
Combo3 : 0,69,138
Combo4 : 21,211,238
Combo5 : 255,77,77

[HitObjects]
155,359,7085,5,0,1:0:0:0:
88,297,7252,1,0,0:0:0:0:
88,297,7335,1,0,0:0:0:0:
88,297,7419,2,0,L|7:293,1,60,0|2,1:0|0:0,0:0:0:0:
7,206,7752,2,0,L|66:203,1,60,0|2,1:0|0:0,0:0:0:0:
102,174,8002,1,0,1:0:0:0:
102,174,8085,2,0,L|229:184,1,120,0|0,1:0|1:0,0:0:0:0:
339,286,8752,6,0,P|343:312|335:361,2,60,0|2|0,1:0|0:0|1:0,0:0:0:0:
376,203,9252,1,2,0:0:0:0:
330,124,9419,1,2,1:0:0:0:
385,53,9585,2,0,P|331:70|251:70,1,120,2|2,1:0|0:0,0:0:0:0:
194,124,10085,5,0,1:0:0:0:
124,66,10252,2,0,L|56:73,1,60,2|0,0:0|1:0,0:0:0:0:
24,153,10585,1,2,0:0:0:0:
24,153,10669,1,0,1:0:0:0:
24,153,10752,2,0,L|44:285,1,120,0|0,1:0|1:0,0:0:0:0:
190,374,11419,6,0,L|212:228,1,120,0|0,1:0|1:0,0:0:0:0:
208,165,11919,1,2,0:0:0:0:
208,165,12085,2,0,P|243:168|292:240,1,120,0|0,1:0|1:0,0:0:0:0:
466,367,12752,6,0,P|458:333|468:233,1,120,4|0,1:0|1:0,0:0:0:0:
488,162,13252,1,2,0:0:0:0:
488,162,13335,1,0,1:0:0:0:
488,162,13419,2,0,L|357:174,1,120,0|0,1:0|1:0,0:0:0:0:
202,104,14085,5,0,1:0:0:0:
202,104,14252,2,0,L|209:40,2,60,2|0|2,0:0|1:0|1:0,0:0:0:0:
131,159,14752,2,0,L|137:202,2,30,2|0|2,0:0|0:0|0:0,0:0:0:0:
56,107,15085,1,0,1:0:0:0:
16,188,15252,2,0,L|8:232,1,30,2|2,0:0|0:0,0:0:0:0:
40,251,15419,6,0,L|53:371,1,120,0|0,1:0|1:0,0:0:0:0:
128,321,15919,1,2,0:0:0:0:
205,366,16085,2,0,P|268:362|330:331,1,120,0|0,1:0|1:0,0:0:0:0:
319,339,16752,6,0,P|303:302|325:213,1,120,0|0,1:0|1:0,0:0:0:0:
377,149,17252,1,2,0:0:0:0:
453,108,17419,2,0,L|488:113,2,30,2|2|2,0:0|0:0|0:0,0:0:0:0:
367,137,17752,1,0,1:0:0:0:
213,26,18085,6,0,P|168:48|145:84,1,67.4999979400635,0|2,1:0|0:0,0:0:0:0:
112,144,18419,1,0,1:0:0:0:
166,220,18585,1,2,0:0:0:0:
166,220,18669,1,0,0:0:0:0:
166,220,18752,1,0,1:0:0:0:
96,284,18919,2,0,P|144:278|248:297,1,134.999995880127,2|2,0:0|0:0,0:0:0:0:
336,350,19419,6,0,L|329:273,1,67.4999979400635,0|2,1:0|0:0,0:0:0:0:
414,221,19752,2,0,L|421:298,1,67.4999979400635,0|2,1:0|0:0,0:0:0:0:
305,197,20085,2,0,L|264:208,2,33.7499989700318,0|2|2,1:0|0:0|0:0,0:0:0:0:
389,128,20419,1,0,1:0:0:0:
204,89,20752,6,0,P|191:48|199:13,1,67.4999979400635,0|2,1:0|0:0,0:0:0:0:
101,5,21085,2,0,P|103:38|91:69,1,67.4999979400635,0|2,1:0|0:0,0:0:0:0:
24,136,21419,2,0,P|53:183|68:278,1,134.999995880127,0|0,1:0|1:0,0:0:0:0:
74,354,21919,1,2,0:0:0:0:
152,302,22085,6,0,L|191:310,4,33.7499989700318,0|8|8|8|8,1:0|0:0|0:0|0:0|0:0,0:0:0:0:
150,207,22585,1,0,1:0:0:0:
150,207,22752,2,0,L|144:157,2,33.7499989700318,8|8|8,0:0|0:0|0:0,0:0:0:0:
240,234,23085,2,0,L|247:184,3,33.7499989700318,8|8|8|8,0:0|0:0|0:0|0:0,0:0:0:0:
275,167,23419,6,0,B|329:164|329:164|343:169|343:169|407:166,1,120,0|0,1:0|0:0,0:0:0:0:
469,117,23919,2,0,P|485:154|443:243,1,120,0|8,1:0|0:0,0:0:0:0:
340,358,24585,2,0,B|304:342|304:342|203:353,2,120,0|0|0,1:0|1:0|1:0,0:0:0:0:
498,271,25585,1,0,1:0:0:0:
498,271,25669,1,0,1:0:0:0:
498,271,25752,1,0,1:0:0:0:
433,207,25919,1,8,0:0:0:0:
322,254,26085,6,0,B|241:262|241:262|205:246,1,120,4|0,1:0|0:0,0:0:0:0:
115,243,26585,2,0,B|112:201|148:171,1,60,4|0,1:0|0:0,0:0:0:0:
229,161,26919,1,12,1:0:0:0:
229,161,27252,2,0,B|130:182|86:100|86:100|132:25,1,240,4|0,1:0|1:0,0:0:0:0:
206,5,28085,2,0,B|266:0|252:47|319:47,1,120,8|0,0:0|1:0,0:0:0:0:
467,17,28752,6,0,B|456:49|434:69|434:69|468:94|482:138|482:138|432:177|437:260,1,269.999991760254,6|2,1:0|0:0,0:0:0:0:
436,246,30085,2,0,B|466:224|534:249|542:331|428:379|360:294,1,269.999991760254,2|2,0:0|0:0,0:0:0:0:
285,206,31419,5,2,0:0:0:0:
256,192,31585,12,0,33752,0:0:0:0:
166,258,34085,6,0,P|184:214|155:128,1,127.50000243187,4|8,1:0|0:0,0:0:0:0:
91,77,34585,2,0,L|229:92,1,127.50000243187,0|8,1:0|0:0,0:0:0:0:
291,152,35085,2,0,L|325:146,1,31.8750006079674,0|0,1:0|0:0,0:0:0:0:
343,154,35419,2,0,B|331:207|331:207|351:298,1,127.50000243187,0|8,1:0|0:0,0:0:0:0:
317,369,35919,2,0,P|380:369|428:329,1,127.50000243187,0|8,1:0|0:0,0:0:0:0:
497,263,36419,2,0,L|483:222,2,31.8750006079674,2|2|0,0:0|1:0|1:0,0:0:0:0:
391,214,36752,6,0,P|413:183|423:93,1,127.50000243187,0|8,1:0|0:0,0:0:0:0:
480,39,37252,2,0,B|412:27|431:69|344:57,1,127.50000243187,0|8,1:0|0:0,0:0:0:0:
275,109,37752,1,0,1:0:0:0:
196,53,37919,1,0,0:0:0:0:
97,85,38085,2,0,P|126:111|161:205,1,127.50000243187,0|8,1:0|0:0,0:0:0:0:
119,277,38585,2,0,P|81:248|70:212,2,63.7500012159348,0|2|8,1:0|0:0|0:0,0:0:0:0:
184,346,39085,2,0,P|226:338|267:340,1,63.7500012159348,0|8,1:0|0:0,0:0:0:0:
292,353,39335,1,8,0:0:0:0:
292,353,39419,6,0,L|294:226,1,127.50000243187,4|8,1:0|0:0,0:0:0:0:
217,167,39919,2,0,P|199:212|202:248,1,63.7500012159348,0|2,1:0|0:0,0:0:0:0:
119,277,40252,1,8,0:0:0:0:
51,209,40419,1,0,1:0:0:0:
0,269,40585,2,0,L|12:133,1,127.50000243187,0|0,0:0|1:0,0:0:0:0:
57,58,41085,2,0,P|85:78|104:129,1,63.7500012159348,8|0,0:0|1:0,0:0:0:0:
161,177,41419,2,0,P|189:157|208:106,1,63.7500012159348,2|8,0:0|0:0,0:0:0:0:
265,58,41752,2,0,P|293:78|312:129,1,63.7500012159348,2|0,1:0|1:0,0:0:0:0:
399,176,42085,6,0,P|334:181|292:239,1,127.50000243187,0|8,1:0|0:0,0:0:0:0:
258,314,42585,1,0,1:0:0:0:
258,314,42919,2,0,L|391:331,1,127.50000243187,8|0,0:0|0:0,0:0:0:0:
463,383,43419,2,0,P|475:350|473:311,1,63.7500012159348,8|0,0:0|1:0,0:0:0:0:
418,244,43752,2,0,L|381:247,2,31.8750006079674,8|8|0,0:0|0:0|1:0,0:0:0:0:
492,184,44085,2,0,L|499:152,3,31.8750006079674,8|8|8|8,0:0|0:0|0:0|0:0,0:0:0:0:
485,106,44419,2,0,L|412:115,1,63.7500012159348,8|0,0:0|1:0,0:0:0:0:
323,175,44752,6,0,B|255:162|255:162|246:167|246:167|150:149,1,150,4|8,1:0|0:0,0:0:0:0:
81,109,45252,2,0,L|101:273,1,150,0|0,1:0|1:0,0:0:0:0:
115,361,45752,1,8,0:0:0:0:
115,361,45919,1,0,0:0:0:0:
188,287,46085,6,0,B|219:270|219:270|348:288,1,150,0|8,1:0|0:0,0:0:0:0:
400,366,46585,1,0,1:0:0:0:
487,307,46752,2,0,L|497:221,2,75,0|0|8,0:0|1:0|0:0,0:0:0:0:
391,351,47252,1,0,1:0:0:0:
325,268,47419,6,0,P|300:230|335:136,1,150,0|8,1:0|0:0,0:0:0:0:
431,105,47919,2,0,L|279:81,1,150,0|0,1:0|1:0,0:0:0:0:
200,15,48419,2,0,L|125:27,1,75,8|0,0:0|0:0,0:0:0:0:
29,69,48752,6,0,B|53:105|53:105|29:219,1,150,0|8,1:0|0:0,0:0:0:0:
104,285,49252,1,0,0:0:0:0:
195,232,49419,2,0,P|154:190|133:183,1,75,0|0,0:0|1:0,0:0:0:0:
91,278,49752,2,0,L|97:369,1,75,8|0,0:0|1:0,0:0:0:0:
224,315,50085,6,0,B|292:304|292:304|301:307|301:307|392:294,1,150,0|8,1:0|0:0,0:0:0:0:
460,353,50585,2,0,B|502:293|456:230|456:230|426:221,1,150,0|0,1:0|1:0,0:0:0:0:
341,186,51085,2,0,L|265:194,1,75,8|0,0:0|0:0,0:0:0:0:
182,258,51419,6,0,B|152:161|204:200|169:96,1,150,0|8,1:0|0:0,0:0:0:0:
137,12,51919,1,0,0:0:0:0:
137,12,52085,2,0,P|86:32|70:63,1,75,0|0,0:0|1:0,0:0:0:0:
166,100,52419,2,0,L|264:85,1,75,8|0,0:0|1:0,0:0:0:0:
329,32,52752,6,0,B|447:60|447:60|405:95,1,150,0|8,1:0|0:0,0:0:0:0:
350,153,53252,2,0,P|328:200|371:292,1,150,0|0,1:0|1:0,0:0:0:0:
459,328,53752,1,8,0:0:0:0:
459,328,54085,6,0,B|372:303|393:360|301:337,1,150,0|8,1:0|0:0,0:0:0:0:
211,365,54585,2,0,P|183:340|134:325,1,75,0|2,0:0|0:0,0:0:0:0:
103,330,54835,1,2,0:0:0:0:
103,330,54919,1,2,1:0:0:0:
5,367,55085,2,0,L|16:280,1,75,8|0,0:0|1:0,0:0:0:0:
121,227,55419,6,0,B|101:189|101:189|124:73,1,150,4|8,1:0|0:0,0:0:0:0:
205,20,55919,2,0,L|362:39,1,150,0|0,1:0|1:0,0:0:0:0:
447,86,56419,1,8,0:0:0:0:
447,86,56585,1,0,0:0:0:0:
360,146,56752,2,0,P|344:197|409:280,1,150,0|8,1:0|0:0,0:0:0:0:
471,342,57252,2,0,P|399:323|301:316,1,150,0|0,1:0|1:0,0:0:0:0:
228,360,57752,1,8,0:0:0:0:
228,360,57919,1,0,1:0:0:0:
128,326,58085,6,0,B|140:254|140:254|137:243|137:243|151:148,1,150,0|8,1:0|0:0,0:0:0:0:
75,100,58585,2,0,B|104:134|104:134|242:133,1,150,0|0,1:0|1:0,0:0:0:0:
297,76,59085,2,0,L|376:93,1,75,8|0,0:0|0:0,0:0:0:0:
464,197,59419,6,0,L|307:212,1,150,0|8,1:0|0:0,0:0:0:0:
224,264,59919,1,0,1:0:0:0:
132,213,60085,1,0,0:0:0:0:
47,275,60252,1,0,1:0:0:0:
47,275,60335,1,8,0:0:0:0:
47,275,60419,2,0,L|55:366,1,75,8|0,0:0|1:0,0:0:0:0:
169,313,60752,6,0,L|187:141,1,150,4|8,1:0|0:0,0:0:0:0:
125,76,61252,2,0,L|41:65,1,75,0|2,0:0|0:0,0:0:0:0:
183,2,61585,1,8,0:0:0:0:
183,2,61751,1,0,1:0:0:0:
384,74,62085,6,0,B|370:96|370:96|381:160,1,75,4|8,1:0|0:0,0:0:0:0:
393,194,62335,1,0,0:0:0:0:
393,194,62419,1,0,1:0:0:0:
365,294,62585,1,4,1:0:0:0:
283,227,62752,2,0,L|180:213,1,75,8|2,0:0|1:0,0:0:0:0:
128,285,63085,1,8,0:0:0:0:
128,285,63169,1,8,0:0:0:0:
128,285,63252,1,0,1:0:0:0:
53,211,63419,5,4,1:0:0:0:
256,192,63585,12,0,64752,1:0:0:0:
256,192,66085,5,4,1:0:0:0:
382,331,71419,6,0,L|306:325,1,67.4999979400635,0|2,1:0|0:0,0:0:0:0:
228,287,71752,1,0,1:0:0:0:
146,335,71919,1,2,0:0:0:0:
146,335,72002,1,0,0:0:0:0:
146,335,72085,1,0,1:0:0:0:
63,289,72252,2,0,P|81:246|77:155,1,134.999995880127,2|2,0:0|0:0,0:0:0:0:
26,50,72752,6,0,L|116:60,1,67.4999979400635,0|2,1:0|0:0,0:0:0:0:
167,116,73085,2,0,L|257:106,1,67.4999979400635,0|2,1:0|0:0,0:0:0:0:
301,41,73419,2,0,L|295:2,2,33.7499989700318,0|2|2,1:0|0:0|0:0,0:0:0:0:
368,106,73752,1,0,1:0:0:0:
482,257,74085,6,0,P|490:219|479:183,1,67.4999979400635,0|2,1:0|0:0,0:0:0:0:
396,231,74419,2,0,P|389:263|397:296,1,67.4999979400635,0|2,1:0|0:0,0:0:0:0:
342,373,74752,2,0,P|301:345|211:345,1,134.999995880127,0|0,1:0|1:0,0:0:0:0:
132,300,75252,1,2,0:0:0:0:
50,348,75419,6,0,L|8:359,4,33.7499989700318,0|8|8|8|8,1:0|0:0|0:0|0:0|0:0,0:0:0:0:
121,286,75919,1,0,0:0:0:0:
66,209,76085,2,0,L|24:198,2,33.7499989700318,8|8|8,0:0|0:0|0:0,0:0:0:0:
134,142,76419,2,0,L|166:133,3,33.7499989700318,8|8|8|8,0:0|0:0|0:0|0:0,0:0:0:0:
201,102,76752,6,0,B|279:91|279:91|306:104|306:104|309:98|309:98|306:104|306:104|341:120|341:120|446:108,1,236.249992790222,0|0,0:0|0:0,0:0:0:0:
425,109,77419,6,0,L|446:210,1,82.5000025177003,4|0,1:0|0:0,0:0:0:0:
462,295,77752,1,8,0:0:0:0:
365,247,77919,2,0,B|246:234|246:234|209:281,1,165.000005035401,0|8,1:0|0:0,0:0:0:0:
162,361,78419,1,0,1:0:0:0:
93,278,78585,1,0,0:0:0:0:
32,366,78752,6,0,L|56:180,1,165.000005035401,0|8,1:0|0:0,0:0:0:0:
3,106,79252,2,0,B|94:83|71:157|174:138,1,165.000005035401,0|8,1:0|0:0,0:0:0:0:
262,116,79752,2,0,P|243:76|210:48,1,82.5000025177003,0|0,0:0|1:0,0:0:0:0:
168,147,80085,6,0,B|170:220|170:220|167:225|167:225|170:311,1,165.000005035401,0|8,1:0|0:0,0:0:0:0:
261,367,80585,2,0,B|288:346|288:346|419:365,1,165.000005035401,0|8,1:0|0:0,0:0:0:0:
503,300,81085,1,0,1:0:0:0:
503,300,81252,1,0,0:0:0:0:
466,198,81419,6,0,L|360:214,1,82.5000025177003,0|0,1:0|0:0,0:0:0:0:
346,220,81669,1,0,0:0:0:0:
346,220,81752,1,8,0:0:0:0:
263,150,81919,2,0,P|240:211|278:299,1,165.000005035401,0|8,1:0|0:0,0:0:0:0:
197,370,82419,2,0,P|157:348|103:352,1,82.5000025177003,0|0,1:0|1:0,0:0:0:0:
13,238,82752,6,0,L|108:227,1,82.5000025177003,0|0,1:0|0:0,0:0:0:0:
201,215,83085,1,8,0:0:0:0:
278,140,83252,2,0,B|251:114|251:114|101:136,1,165.000005035401,0|8,1:0|0:0,0:0:0:0:
17,142,83752,2,0,P|21:94|47:56,1,82.5000025177003,0|0,0:0|0:0,0:0:0:0:
130,10,84085,6,0,P|171:40|214:45,1,82.5000025177003,0|0,1:0|0:0,0:0:0:0:
243,47,84335,1,0,0:0:0:0:
243,47,84419,1,8,0:0:0:0:
345,17,84585,2,0,L|330:111,1,82.5000025177003,0|0,1:0|0:0,0:0:0:0:
245,161,84918,2,0,P|287:196|331:302,1,165.000005035401,8|0,0:0|1:0,0:0:0:0:
427,341,85418,6,0,B|336:311|351:369|252:339,1,165.000005035401,0|8,1:0|0:0,0:0:0:0:
162,374,85918,2,0,P|197:316|179:211,1,165.000005035401,0|8,1:0|0:0,0:0:0:0:
140,125,86418,1,0,1:0:0:0:
44,174,86585,1,0,1:0:0:0:
2,47,86752,6,0,B|34:65|34:65|176:42,1,165.000005035401,0|8,1:0|0:0,0:0:0:0:
303,106,87252,2,0,L|201:99,1,82.5000025177003,0|0,1:0|0:0,0:0:0:0:
352,19,87585,1,8,0:0:0:0:
352,19,87918,1,0,1:0:0:0:
447,88,88085,6,0,L|454:2,2,75,0|0|8,1:0|1:0|0:0,0:0:0:0:
357,147,88585,2,0,B|389:136|419:158|419:158|435:273,1,165.000005035401,4|8,1:0|0:0,0:0:0:0:
462,359,89085,2,0,P|409:361|376:342,1,82.5000025177003,0|0,0:0|0:0,0:0:0:0:
280,378,89418,6,0,P|249:344|124:341,1,165.000005035401,0|8,1:0|0:0,0:0:0:0:
32,380,89918,2,0,B|12:294|53:325|32:212,1,165.000005035401,0|8,1:0|0:0,0:0:0:0:
90,119,90418,2,0,P|44:97|11:104,1,82.5000025177003,0|0,1:0|0:0,0:0:0:0:
44,206,90752,6,0,B|103:204|103:204|112:210|112:210|217:207,1,165.000005035401,0|8,1:0|0:0,0:0:0:0:
290,274,91252,2,0,P|313:223|267:127,1,165.000005035401,0|8,1:0|0:0,0:0:0:0:
275,22,91752,1,0,1:0:0:0:
188,84,91918,1,0,0:0:0:0:
112,7,92085,6,0,P|71:-6|18:11,1,82.5000025177003,0|0,1:0|0:0,0:0:0:0:
9,25,92335,1,0,0:0:0:0:
9,25,92418,1,8,0:0:0:0:
16,142,92585,2,0,P|52:173|85:289,2,165.000005035401,0|8|0,1:0|0:0|1:0,0:0:0:0:
113,96,93418,6,0,P|155:86|196:52,2,82.5000025177003,0|0|8,1:0|0:0|0:0,0:0:0:0:
16,142,93918,2,0,P|-1:205|18:321,1,165.000005035401,0|8,1:0|0:0,0:0:0:0:
84,381,94418,1,0,1:0:0:0:
84,381,94585,1,0,0:0:0:0:
161,306,94752,6,0,L|248:320,1,82.5000025177003,0|0,1:0|0:0,0:0:0:0:
278,328,95002,1,0,0:0:0:0:
278,328,95085,1,8,0:0:0:0:
382,353,95252,2,0,P|363:311|373:259,1,82.5000025177003,0|0,1:0|0:0,0:0:0:0:
441,198,95585,2,0,P|388:163|359:65,1,165.000005035401,8|0,0:0|1:0,0:0:0:0:
267,12,96085,6,0,P|252:46|259:107,1,82.5000025177003,0|0,1:0|0:0,0:0:0:0:
262,123,96335,1,0,0:0:0:0:
262,123,96418,1,8,0:0:0:0:
194,206,96585,2,0,L|27:189,1,165.000005035401,0|8,1:0|0:0,0:0:0:0:
0,295,97085,1,0,1:0:0:0:
83,363,97252,1,0,0:0:0:0:
206,302,97418,6,0,B|249:330|249:330|373:318,1,165.000005035401,0|8,1:0|0:0,0:0:0:0:
498,264,97918,2,0,L|409:248,1,82.5000025177003,0|0,1:0|0:0,0:0:0:0:
350,181,98252,2,0,L|437:167,1,82.5000025177003,8|0,0:0|0:0,0:0:0:0:
503,111,98585,1,0,1:0:0:0:
387,38,98752,6,0,B|369:18|369:18|319:13|285:52,1,120,4|0,1:0|0:0,0:0:0:0:
277,140,99252,2,0,P|222:122|192:56,1,120,0|8,1:0|0:0,0:0:0:0:
19,24,99918,2,0,B|24:71|24:71|20:77|20:77|26:151,2,120,0|0|0,1:0|1:0|1:0,0:0:0:0:
196,57,100918,1,0,1:0:0:0:
196,57,101002,1,0,1:0:0:0:
196,57,101085,1,0,1:0:0:0:
129,118,101252,1,8,0:0:0:0:
186,186,101418,6,0,P|208:220|196:311,1,120,4|8,1:0|0:0,0:0:0:0:
131,349,101918,2,0,P|202:346|260:387,1,120,4|4,1:0|1:0,0:0:0:0:
243,368,102585,2,0,P|179:382|57:248,1,240,4|0,1:0|1:0,0:0:0:0:
46,186,103418,2,0,P|87:188|142:255,1,120,8|0,0:0|1:0,0:0:0:0:
282,352,104085,5,4,1:0:0:0:
256,192,104418,12,0,106418,0:0:0:0:
256,192,106752,12,0,109418,0:0:0:0:
