osu file format v14

[General]
AudioFilename: audio.mp3
AudioLeadIn: 0
PreviewTime: 26037
Countdown: 0
SampleSet: Soft
StackLeniency: 0.3
Mode: 0
LetterboxInBreaks: 0
WidescreenStoryboard: 1

[Editor]
DistanceSpacing: 1.2
BeatDivisor: 4
GridSize: 4
TimelineZoom: 2.2

[Metadata]
Title:Intro
TitleUnicode:Intro
Artist:ak+q
ArtistUnicode:ak+q
Creator:-Sylvari
Version:Future
Source:Arcaea
Tags:Rolni Rolniczy Electronic
BeatmapID:1735346
BeatmapSetID:828228

[Difficulty]
HPDrainRate:6
CircleSize:5
OverallDifficulty:7
ApproachRate:8.6
SliderMultiplier:1.4
SliderTickRate:1

[Events]
//Background and Video events
0,0,"62a7cc49933293.58c2506ee792c.jpg",0,0
//Break Periods
//Storyboard Layer 0 (Background)
//Storyboard Layer 1 (Fail)
//Storyboard Layer 2 (Pass)
//Storyboard Layer 3 (Foreground)
//Storyboard Layer 4 (Overlay)
//Storyboard Sound Samples

[TimingPoints]
91,352.941176470588,4,2,1,40,1,0
1502,-133.333333333333,4,2,1,40,0,0
2208,-100,4,2,1,40,0,0
4326,-133.333333333333,4,2,1,40,0,0
5738,-100,4,2,1,40,0,0
7149,-133.333333333333,4,2,1,40,0,0
7855,-100,4,2,1,40,0,0
14914,352.941176470588,4,2,1,70,1,0
14914,-66.6666666666667,4,2,1,70,0,0
25678,-66.6666666666667,4,2,1,80,0,0
26208,-50,4,2,1,90,0,0
28678,-100,4,2,1,90,0,0
29031,-50,4,2,1,90,0,0
31149,-133.333333333333,4,2,1,90,0,0
31413,-133.333333333333,4,2,1,5,0,0
31502,-66.6666666666667,4,2,1,90,0,0
31766,-66.6666666666667,4,2,1,5,0,0
31855,-66.6666666666667,4,2,1,90,0,0
33266,-66.6666666666667,4,2,1,90,0,0
34678,-100,4,2,1,70,0,0
35384,-100,4,2,1,70,0,0
36619,-100,4,2,1,70,0,0
37502,-100,4,2,1,70,0,0
38031,-100,4,2,1,70,0,0
38913,-100,4,2,1,70,0,0
39443,-100,4,2,1,70,0,0
40325,-100,4,2,1,70,0,0
42266,-100,4,2,1,70,0,0
43149,-125,4,2,1,70,0,0
45972,-100,4,2,1,70,0,0
50208,-100,4,2,1,40,0,0
51593,352.941176470588,4,2,1,70,1,0
51593,-66.6666666666667,4,2,1,70,0,0

[Colours]
Combo1 : 138,0,138
Combo2 : 232,191,219

[HitObjects]
217,108,91,5,2,0:0:0:0:
268,41,267,1,0,0:0:0:0:
335,92,443,1,0,0:0:0:0:
284,159,620,1,0,0:0:0:0:
166,175,796,2,0,P|152:208|151:242,1,70,2|0,0:3|0:0,0:0:0:0:
299,225,1149,2,0,P|297:190|283:158,1,70,0|0,0:0|0:0,0:0:0:0:
235,263,1502,6,0,P|272:298|323:299,1,105.000004005432,2|0,0:0|0:0,0:0:0:0:
166,175,2208,2,0,P|131:179|100:195,1,70,2|0,0:0|0:0,0:0:0:0:
89,280,2561,2,0,P|76:313|76:359,1,70,0|0,0:0|0:0,0:0:0:0:
284,319,2914,5,2,0:0:0:0:
204,345,3090,1,0,0:0:0:0:
217,261,3267,1,0,0:0:0:0:
297,236,3443,1,0,0:0:0:0:
447,234,3620,2,0,B|467:246|445:270|445:270|416:250|431:222|431:222|447:194|446:156,1,140,2|0,0:3|0:0,0:0:0:0:
297,236,4326,6,0,P|300:274|307:234,1,105.000004005432,2|0,0:0|0:0,0:0:0:0:
223,60,5032,2,0,P|220:106|245:158,1,105.000004005432,2|0,0:0|0:0,0:0:0:0:
391,360,5738,5,2,0:0:0:0:
358,282,5914,1,0,0:0:0:0:
413,218,6090,1,0,0:0:0:0:
485,260,6267,1,0,0:0:0:0:
391,360,6443,2,0,B|356:370|321:357|321:357|288:342|253:346,1,140,2|0,0:3|0:0,0:0:0:0:
148,332,7149,6,0,P|148:355|152:328,1,105.000004005432,2|0,0:0|0:0,0:0:0:0:
77,222,7855,2,0,P|104:244|142:252,1,70,2|0,0:0|0:0,0:0:0:0:
213,246,8208,2,0,P|245:233|271:204,1,70,0|0,0:0|0:0,0:0:0:0:
302,134,8561,5,2,0:0:0:0:
217,140,8738,1,0,0:0:0:0:
252,64,8914,1,0,0:0:0:0:
335,60,9090,1,0,0:0:0:0:
269,208,9267,2,0,P|213:246|147:228,1,140,2|0,0:3|0:0,0:0:0:0:
218,273,9973,6,0,B|229:367|229:367|265:334,1,140,2|0,0:0|0:0,0:0:0:0:
360,191,10679,2,0,B|393:160|393:160|404:254,1,140,2|0,0:0|0:0,0:0:0:0:
256,192,11385,5,4,0:0:0:0:
256,192,11473,12,0,13502,0:0:0:0:
240,164,14561,6,0,L|221:147,1,23.3333333333333,2|0,0:3|0:0,0:0:0:0:
303,148,14679,6,0,L|308:123,1,23.3333333333333,2|0,0:3|0:0,0:0:0:0:
357,184,14796,6,0,L|381:176,1,23.3333333333333,2|0,0:3|0:0,0:0:0:0:
369,249,14914,6,0,P|343:294|296:312,1,105.000004005432,6|0,3:2|0:0,0:0:0:0:
213,226,15266,1,0,0:0:0:0:
183,343,15443,1,2,3:2:0:0:
143,195,15619,2,0,P|131:141|105:92,1,105.000004005432,8|0,0:0|0:0,0:0:0:0:
257,49,15972,1,2,3:2:0:0:
104,11,16149,1,0,0:0:0:0:
257,49,16325,6,0,P|305:72|332:118,1,105.000004005432,2|0,3:2|0:0,0:0:0:0:
347,9,16678,1,0,0:0:0:0:
240,114,16855,2,0,P|222:167|229:221,1,105.000004005432,2|8,3:2|0:0,0:0:0:0:
307,346,17208,1,0,3:0:0:0:
372,299,17384,1,2,0:0:0:0:
271,287,17561,1,0,3:0:0:0:
206,366,17737,6,0,P|153:390|106:384,1,105.000004005432,2|0,3:2|0:0,0:0:0:0:
110,218,18090,1,2,0:3:0:0:
163,296,18266,1,2,3:2:0:0:
26,225,18443,2,0,L|-1:122,1,105.000004005432,8|0,0:0|0:0,0:0:0:0:
80,301,18796,1,2,3:2:0:0:
191,196,18972,1,0,0:0:0:0:
97,77,19149,6,0,P|141:57|210:57,1,105.000004005432,2|0,3:2|0:0,0:0:0:0:
299,118,19502,1,2,0:3:0:0:
154,132,19678,2,0,P|120:178|127:236,1,105.000004005432,2|10,3:3|0:0,0:0:0:0:
245,255,20031,1,0,3:0:0:0:
292,150,20208,1,2,0:0:0:0:
292,150,20296,1,0,0:0:0:0:
292,150,20384,1,0,3:0:0:0:
380,222,20561,6,0,P|428:199|454:155,1,105.000004005432,6|0,3:2|0:0,0:0:0:0:
435,284,20913,1,0,0:0:0:0:
374,138,21090,2,0,L|364:21,2,105.000004005432,2|8|0,3:2|0:0|0:0,0:0:0:0:
327,264,21619,2,0,P|301:321|254:337,1,105.000004005432,2|0,3:2|0:0,0:0:0:0:
242,189,21972,6,0,P|192:176|143:191,1,105.000004005432,2|0,3:2|0:0,0:0:0:0:
64,241,22325,1,0,0:0:0:0:
145,284,22502,1,2,3:2:0:0:
52,148,22678,2,0,P|44:97|65:50,1,105.000004005432,8|0,0:0|3:0,0:0:0:0:
216,0,23031,2,0,P|237:55|224:108,1,105.000004005432,2|0,0:0|3:0,0:0:0:0:
148,244,23384,6,0,P|189:274|241:275,1,105.000004005432,2|0,3:2|0:0,0:0:0:0:
340,135,23737,1,0,0:0:0:0:
313,272,23913,1,2,3:2:0:0:
376,71,24090,2,0,P|326:62|276:90,1,105.000004005432,8|0,0:0|0:0,0:0:0:0:
445,276,24443,1,2,3:2:0:0:
421,166,24619,1,0,0:0:0:0:
347,335,24796,5,2,3:2:0:0:
271,208,24972,1,8,0:0:0:0:
152,299,25149,1,0,3:0:0:0:
106,167,25325,2,0,P|143:114|185:96,1,105.000004005432,2|0,3:2|3:0,0:0:0:0:
299,180,25678,5,8,3:2:0:0:
315,193,25766,1,8,0:2:0:0:
328,209,25855,1,8,3:2:0:0:
339,226,25943,1,8,0:2:0:0:
350,243,26031,1,8,3:2:0:0:
355,263,26119,1,8,0:2:0:0:
362,281,26208,6,0,P|397:241|413:157,1,140,6|0,3:2|0:0,0:0:0:0:
311,58,26561,2,0,P|270:114|272:183,1,140,0|0,3:0|0:0,0:0:0:0:
413,157,26913,1,10,3:2:0:0:
271,182,27090,1,0,0:0:0:0:
457,179,27266,1,0,3:0:0:0:
236,167,27443,1,0,0:0:0:0:
339,283,27619,5,2,3:2:0:0:
359,82,27796,1,0,0:0:0:0:
359,82,27884,1,0,0:0:0:0:
359,82,27972,1,0,3:0:0:0:
234,226,28149,1,0,0:0:0:0:
234,226,28237,1,0,0:0:0:0:
234,226,28325,2,0,P|160:225|104:191,1,140,8|0,3:2|0:0,0:0:0:0:
166,87,28678,6,0,L|173:125,1,35,0|0,3:0|0:0,0:0:0:0:
257,18,28855,2,0,L|250:52,1,35,0|0,3:0|0:0,0:0:0:0:
343,107,29031,6,0,L|318:244,1,140,2|0,3:2|0:0,0:0:0:0:
304,336,29384,1,0,3:0:0:0:
416,218,29561,1,0,0:0:0:0:
391,356,29737,2,0,L|416:219,1,140,8|0,3:2|0:0,0:0:0:0:
507,121,30090,2,0,L|482:258,1,140,0|0,3:0|0:0,0:0:0:0:
312,73,30443,6,0,P|374:48|431:87,1,140,2|0,3:2|0:0,0:0:0:0:
416,218,30796,1,0,3:0:0:0:
312,73,30972,1,0,0:0:0:0:
277,277,31149,6,0,L|263:360,1,78.7500030040742,10|0,3:2|0:0,0:0:0:0:
231,384,31502,6,0,L|256:226,1,157.500006008148,2|0,0:3|0:0,0:0:0:0:
110,156,31855,6,0,P|58:130|7:133,1,105.000004005432,6|0,3:2|0:0,0:0:0:0:
136,304,32208,1,8,0:0:0:0:
196,141,32384,2,0,P|192:82|164:40,1,105.000004005432,0|0,3:0|0:0,0:0:0:0:
80,238,32737,1,0,3:0:0:0:
252,207,32913,2,0,P|300:174|323:129,1,105.000004005432,8|0,0:0|0:0,0:0:0:0:
222,287,33266,6,0,P|244:315|308:342,1,105.000004005432,2|0,3:2|3:0,0:0:0:0:
341,165,33619,1,8,0:0:0:0:
459,287,33796,2,0,P|437:315|371:342,1,105.000004005432,10|0,0:0|3:0,0:0:0:0:
341,192,34149,1,2,3:2:0:0:
476,129,34325,1,2,3:2:0:0:
467,91,34413,1,0,3:0:0:0:
447,57,34502,1,2,3:2:0:0:
414,36,34590,1,0,3:0:0:0:
376,28,34678,6,0,L|299:21,1,70,6|0,3:2|0:0,0:0:0:0:
166,60,35031,2,0,L|102:34,1,70,0|0,0:0|3:0,0:0:0:0:
139,177,35384,2,0,P|157:226|232:262,1,140,10|0,0:0|3:0,0:0:0:0:
376,280,36090,6,0,P|364:338|286:384,1,140,2|0,3:2|0:0,0:0:0:0:
326,202,36619,1,0,3:0:0:0:
285,290,36796,2,0,P|250:303|208:292,1,70,10|0,0:2|3:0,0:0:0:0:
228,210,37149,2,0,P|199:186|187:144,1,70,0|0,0:0|3:0,0:0:0:0:
288,76,37502,6,0,P|241:39|152:36,1,140,2|0,3:2|0:0,0:0:0:0:
94,111,38031,1,0,3:0:0:0:
188,156,38208,2,0,P|216:177|234:207,1,70,10|0,0:2|0:0,0:0:0:0:
149,274,38561,2,0,P|144:308|127:339,1,70,0|0,3:0|0:0,0:0:0:0:
252,313,38913,6,0,B|321:334|321:334|387:311,1,140,2|2,3:2|0:3,0:0:0:0:
445,228,39443,1,2,3:3:0:0:
397,123,39619,2,0,L|430:131,1,35,10|0,0:2|0:0,0:0:0:0:
341,187,39796,2,0,L|374:195,1,35,0|0,3:0|0:0,0:0:0:0:
315,104,39972,2,0,B|243:89,1,70,0|0,0:0|3:0,0:0:0:0:
256,176,40325,6,0,P|194:201|120:191,1,140,6|0,3:2|0:0,0:0:0:0:
108,82,40855,1,0,3:0:0:0:
38,156,41031,2,0,P|26:187|34:227,1,70,10|0,0:2|0:0,0:0:0:0:
40,308,41384,2,0,P|72:302|103:275,1,70,0|0,3:0|0:0,0:0:0:0:
241,296,41737,6,0,P|174:312|122:357,1,140,2|0,3:2|0:0,0:0:0:0:
297,358,42266,1,0,3:0:0:0:
311,208,42443,2,0,L|306:251,1,35,10|0,0:0|0:0,0:0:0:0:
401,214,42619,2,0,L|396:257,1,35,0|0,3:0|0:0,0:0:0:0:
287,154,42796,2,0,L|282:197,1,35,0|0,0:0|0:0,0:0:0:0:
389,164,42972,2,0,L|384:207,1,35,0|0,3:0|0:0,0:0:0:0:
264,118,43149,5,2,3:2:0:0:
329,30,43325,2,0,L|404:45,1,56,0|0,0:0|0:0,0:0:0:0:
221,12,43678,2,0,L|146:27,2,56,0|10|0,3:0|0:0|0:0,0:0:0:0:
264,118,44208,1,0,3:0:0:0:
156,144,44384,1,0,0:0:0:0:
233,226,44561,6,0,P|240:279|207:330,1,112,2|0,3:2|3:0,0:0:0:0:
156,144,45090,1,0,3:0:0:0:
160,263,45266,1,2,3:2:0:0:
264,118,45443,1,8,3:2:0:0:
156,144,45619,1,8,3:2:0:0:
191,42,45796,1,8,3:2:0:0:
318,254,45972,5,6,3:2:0:0:
256,281,46325,1,0,0:0:0:0:
192,254,46678,1,8,0:1:0:0:
165,192,47031,1,0,0:0:0:0:
192,128,47384,1,0,3:0:0:0:
256,101,47737,1,0,0:0:0:0:
318,128,48090,1,8,0:1:0:0:
345,192,48443,1,0,0:0:0:0:
191,253,48796,6,0,L|182:323,1,70,2|0,3:2|0:0,0:0:0:0:
191,130,49149,2,0,L|184:61,1,70,0|0,0:0|0:0,0:0:0:0:
248,191,49502,2,0,L|318:201,1,70,8|0,0:1|0:0,0:0:0:0:
139,192,49855,2,0,L|70:200,1,70,0|0,0:0|3:0,0:0:0:0:
25,287,50208,6,0,L|94:279,1,70,0|0,3:0|0:0,0:0:0:0:
159,356,50561,2,0,L|90:349,1,70,0|0,0:0|0:0,0:0:0:0:
192,252,50914,2,0,L|267:242,1,70,0|0,0:0|0:0,0:0:0:0:
340,317,51266,2,0,L|408:302,1,70,0|0,0:0|0:0,0:0:0:0:
192,323,51593,6,0,L|73:346,1,105.000004005432,6|0,3:2|0:0,0:0:0:0:
36,221,51945,1,0,0:0:0:0:
21,328,52122,1,2,3:2:0:0:
88,155,52298,2,0,P|135:139|200:142,1,105.000004005432,8|0,0:0|0:0,0:0:0:0:
265,231,52651,1,2,3:2:0:0:
234,75,52828,1,0,0:0:0:0:
265,231,53004,6,0,P|315:246|373:232,1,105.000004005432,2|0,3:2|0:0,0:0:0:0:
478,150,53357,1,0,0:0:0:0:
306,152,53534,2,0,L|190:166,1,105.000004005432,2|8,3:2|0:0,0:0:0:0:
313,74,53887,1,0,3:0:0:0:
321,272,54063,1,2,0:0:0:0:
381,152,54240,1,0,3:0:0:0:
370,327,54416,6,0,P|326:345|265:322,1,105.000004005432,2|0,3:2|0:0,0:0:0:0:
39,184,54769,1,2,0:3:0:0:
194,246,54945,1,2,3:0:0:0:
194,246,55034,1,2,0:3:0:0:
194,246,55122,1,8,0:0:0:0:
100,84,55298,1,2,0:3:0:0:
237,125,55475,1,2,3:2:0:0:
39,184,55652,1,2,0:3:0:0:
39,184,55740,1,0,0:0:0:0:
39,184,55828,6,0,P|31:240|48:289,1,105.000004005432,2|2,3:2|0:3,0:0:0:0:
100,84,56181,1,2,0:3:0:0:
159,182,56357,2,0,P|203:216|254:226,1,105.000004005432,2|10,3:3|0:0,0:0:0:0:
100,60,56710,1,0,3:0:0:0:
107,246,56887,1,2,0:0:0:0:
219,89,57063,1,0,3:0:0:0:
219,89,57151,1,0,0:0:0:0:
219,89,57240,5,6,3:2:0:0:
