osu file format v14

[General]
AudioFilename: audio.mp3
AudioLeadIn: 0
PreviewTime: 28698
Countdown: 0
SampleSet: Soft
StackLeniency: 0.4
Mode: 0
LetterboxInBreaks: 0
WidescreenStoryboard: 1

[Editor]
Bookmarks: 52080,61609,74315,79609,84198,88433,99727,111021,133609
DistanceSpacing: 1.2
BeatDivisor: 4
GridSize: 8
TimelineZoom: 1.6

[Metadata]
Title:Ignotus
TitleUnicode:Ignotus
Artist:ak+q
ArtistUnicode:ak+q
Creator:nika mika
Version:Future
Source:Arcaea
Tags:cubby lv9 lowiro Noxy Lanota Taito Groove Coaster dnb drum and bass artcore ttm Byakuya TT Mouse electronic instrumental
BeatmapID:1889656
BeatmapSetID:856735

[Difficulty]
HPDrainRate:6
CircleSize:4
OverallDifficulty:7
ApproachRate:9
SliderMultiplier:2
SliderTickRate:1

[Events]
//Background and Video events
0,0,"bg1.jpg",0,0
//Break Periods
2,6927,8598
2,9750,11245
2,12574,14421
2,74470,79009
2,85809,87833
//Storyboard Layer 0 (Background)
//Storyboard Layer 1 (Fail)
//Storyboard Layer 2 (Pass)
//Storyboard Layer 3 (Foreground)
//Storyboard Layer 4 (Overlay)
//Storyboard Sound Samples

[TimingPoints]
904,352.941176470588,4,2,50,20,1,0
904,-200,4,2,50,20,0,0
1609,-100,4,2,50,30,0,0
1962,-200,4,2,50,30,0,0
2315,-200,4,2,50,40,0,0
3021,-200,4,2,50,50,0,0
3727,-200,4,2,50,60,0,0
5139,-200,4,2,50,45,0,0
5492,-200,4,2,50,40,0,0
5756,-200,4,2,50,32,0,0
6551,-50,4,2,99,60,0,0
6727,-200,4,2,50,60,0,0
9198,-200,4,2,99,60,0,0
9727,-200,4,2,50,60,0,0
11845,-66.6666666666667,4,2,50,60,0,0
12198,-200,4,2,99,60,0,0
12551,-200,4,2,50,60,0,0
15021,-200,4,2,99,60,0,0
16786,-200,4,2,50,45,0,0
16962,-100,4,2,50,60,0,0
17139,-66.6666666666667,4,2,99,80,0,0
17492,-133.333333333333,4,2,99,92,0,0
18462,-100,4,2,99,92,0,0
18727,-133.333333333333,4,2,99,92,0,0
19256,-200,4,2,99,92,0,0
20315,-500,4,2,99,92,0,0
20668,-66.6666666666667,4,2,99,92,0,0
21021,-100,4,2,99,92,0,0
22080,-200,4,2,99,92,0,0
23139,-500,4,2,99,92,0,0
23492,-66.6666666666667,4,2,99,92,0,0
23845,-133.333333333333,4,2,99,92,0,0
24109,-100,4,2,99,92,0,0
24374,-133.333333333333,4,2,99,92,0,0
24903,-200,4,2,99,92,0,0
26315,-66.6666666666667,4,2,99,92,0,0
26933,-100,4,2,99,92,0,0
27727,-133.333333333333,4,2,99,92,0,0
28742,-133.333333333333,4,2,80,60,0,0
28786,-50,4,2,80,60,0,0
28830,-50,4,2,99,60,0,0
29095,-50,4,2,81,75,0,0
29139,-100,4,2,81,75,0,0
29183,-100,4,2,99,75,0,0
29492,-133.333333333333,4,2,99,92,0,0
30551,-100,4,2,99,92,0,0
31212,-100,4,2,82,60,0,0
31256,-133.333333333333,4,2,82,60,0,0
31301,-133.333333333333,4,2,99,60,0,0
31477,-133.333333333333,4,2,83,80,0,0
31565,-133.333333333333,4,2,99,80,0,0
31742,-133.333333333333,4,2,84,90,0,0
31830,-133.333333333333,4,2,99,90,0,0
31918,-133.333333333333,4,2,85,75,0,0
31962,-66.6666666666667,4,2,85,75,0,0
32006,-66.6666666666667,4,2,99,92,0,0
32315,-133.333333333333,4,2,99,100,0,0
32580,-100,4,2,99,100,0,0
33374,-133.333333333333,4,2,99,100,0,0
33903,-400,4,2,99,100,0,0
34036,-400,4,2,86,60,0,0
34124,-400,4,2,99,100,0,0
34301,-400,4,2,84,80,0,0
34389,-400,4,2,99,100,0,0
34433,-80,4,2,99,100,0,0
34565,-80,4,2,87,90,0,0
34653,-80,4,2,99,100,0,0
34742,-80,4,2,88,75,0,0
34786,-100,4,2,88,75,0,0
34830,-100,4,2,99,100,0,0
36153,-100,4,2,89,85,0,0
36198,-133.333333333333,4,2,89,85,0,0
36242,-133.333333333333,4,2,99,100,0,0
37565,-133.333333333333,4,2,90,95,0,0
37653,-100,4,2,99,100,0,0
38117,-100,4,2,91,75,0,0
38161,-100,4,2,99,100,0,0
38448,-100,4,2,92,85,0,0
38536,-100,4,2,99,100,0,0
39021,-133.333333333333,4,2,99,100,0,0
40080,-200,4,2,99,100,0,0
40433,-200,4,2,95,100,0,0
40962,-100,4,2,95,100,0,0
42903,-66.6666666666667,4,2,95,100,0,0
43609,-100,4,2,95,100,0,0
45198,-100,4,2,95,100,0,0
45374,-66.6666666666667,4,2,95,100,0,0
45727,-33.3333333333333,4,2,95,100,0,0
46080,-100,4,3,70,90,0,0
47139,-200,4,3,70,90,0,0
47492,-100,4,3,70,90,0,0
48198,-66.6666666666667,4,3,70,90,0,0
48551,-50,4,3,70,90,0,0
49080,-100,4,3,70,90,0,0
49433,-50,4,3,70,90,0,0
49962,-149.253731343284,4,2,99,100,0,0
50227,-149.253731343284,4,2,99,40,0,0
50315,-133.333333333333,4,2,99,40,0,0
51021,-133.333333333333,4,2,99,60,0,0
51727,-555.555555555556,4,2,99,80,0,0
52080,-100,4,2,99,80,0,0
52786,-66.6666666666667,4,2,99,80,0,0
53139,-100,4,2,99,80,0,0
54198,-76.9230769230769,4,2,99,80,0,0
54551,-100,4,2,99,80,0,0
55609,-133.333333333333,4,2,99,80,0,0
55962,-76.9230769230769,4,2,99,80,0,0
56315,-83.3333333333333,4,2,99,80,0,0
56668,-83.3333333333333,4,2,99,100,0,0
57021,-83.3333333333333,4,2,99,90,0,0
57374,-83.3333333333333,4,2,99,85,0,0
58080,-100,4,2,99,85,0,0
58433,-500,4,2,99,100,0,0
58786,-100,4,2,99,100,0,0
60198,-76.9230769230769,4,2,99,100,0,0
61609,-100,4,2,99,100,0,0
61962,-111.111111111111,4,2,99,100,0,0
62668,-83.3333333333333,4,2,99,100,0,0
63021,-100,4,2,99,100,0,0
63374,-83.3333333333333,4,2,99,100,0,0
63551,-100,4,2,99,100,0,0
63815,-66.6666666666667,4,2,99,100,0,0
64433,-100,4,2,99,100,0,0
64786,-83.3333333333333,4,2,99,100,0,0
64962,-100,4,2,99,100,0,0
65227,-66.6666666666667,4,2,99,100,0,0
65845,-100,4,2,99,100,0,0
66198,-66.6666666666667,4,2,99,100,0,0
66374,-100,4,2,99,100,0,0
66639,-66.6666666666667,4,2,99,100,0,0
67256,-83.3333333333333,4,2,99,100,0,0
67609,-66.6666666666667,4,2,99,100,0,0
67874,-76.9230769230769,4,2,99,100,0,0
68315,-66.6666666666667,4,2,99,100,0,0
68668,-90.9090909090909,4,2,99,100,0,0
71492,-333.333333333333,4,2,99,100,0,0
73609,-100,4,2,99,75,0,0
79609,-133.333333333333,4,2,99,100,0,0
79962,-125,4,2,99,100,0,0
82433,-90.9090909090909,4,2,99,100,0,0
83139,-125,4,2,99,100,0,0
84198,-50,4,2,99,100,0,0
85256,-200,4,2,99,100,0,0
85786,-200,4,2,99,80,0,0
86051,-200,4,2,99,60,0,0
86315,-200,4,2,99,45,0,0
86492,-33.3333333333333,4,2,99,60,0,0
86668,-40,4,2,99,60,0,0
87021,-100,4,2,99,30,0,0
87374,-50,4,2,99,45,0,0
87639,-1000,4,2,99,45,0,0
88080,-66.6666666666667,4,2,99,45,0,0
88389,-66.6666666666667,4,2,40,82,0,0
88433,-76.9230769230769,4,2,40,82,0,0
88477,-76.9230769230769,4,2,99,90,0,0
88786,-100,4,2,99,90,0,0
89139,-83.3333333333333,4,2,99,90,0,0
89492,-55.5555555555556,4,2,99,90,0,0
89801,-55.5555555555556,4,2,41,82,0,0
89845,-90.9090909090909,4,2,41,82,0,0
89889,-90.9090909090909,4,2,99,90,0,0
90198,-55.5555555555556,4,2,99,90,0,0
90374,-100,4,2,99,90,0,0
90903,-100,4,2,99,90,0,0
91212,-100,4,2,42,82,0,0
91301,-100,4,2,99,90,0,0
92139,-71.4285714285714,4,2,99,90,0,0
92315,-90.9090909090909,4,2,99,90,0,0
92624,-90.9090909090909,4,2,43,82,0,0
92668,-83.3333333333333,4,2,43,82,0,0
92712,-83.3333333333333,4,2,99,90,0,0
93198,-142.857142857143,4,2,99,90,0,0
93551,-76.9230769230769,4,2,99,90,0,0
93727,-100,4,2,99,90,0,0
94036,-100,4,2,40,82,0,0
94124,-100,4,2,99,90,0,0
94433,-66.6666666666667,4,2,99,90,0,0
94698,-100,4,2,99,90,0,0
95448,-100,4,2,41,82,0,0
95492,-142.857142857143,4,2,41,82,0,0
95536,-142.857142857143,4,2,99,90,0,0
95845,-100,4,2,99,90,0,0
96021,-90.9090909090909,4,2,99,90,0,0
96859,-90.9090909090909,4,2,44,82,0,0
96948,-90.9090909090909,4,2,99,90,0,0
98271,-90.9090909090909,4,2,45,82,0,0
98315,-133.333333333333,4,2,45,82,0,0
98359,-133.333333333333,4,2,99,90,0,0
98668,-66.6666666666667,4,2,99,90,0,0
99374,-200,4,2,99,90,0,0
99683,-200,4,2,40,82,0,0
99727,-100,4,2,40,82,0,0
99771,-100,4,2,99,90,0,0
100080,-90.9090909090909,4,2,99,90,0,0
100345,-83.3333333333333,4,2,99,90,0,0
101095,-83.3333333333333,4,2,41,82,0,0
101183,-83.3333333333333,4,2,99,90,0,0
102506,-83.3333333333333,4,2,42,82,0,0
102551,-100,4,2,42,82,0,0
102595,-100,4,2,99,90,0,0
103433,-66.6666666666667,4,2,99,90,0,0
103918,-66.6666666666667,4,2,43,82,0,0
104006,-66.6666666666667,4,2,99,90,0,0
104315,-66.6666666666667,4,2,99,90,0,0
104668,-100,4,2,99,90,0,0
105021,-133.333333333333,4,2,99,90,0,0
105330,-133.333333333333,4,2,40,82,0,0
105374,-100,4,2,40,82,0,0
105418,-100,4,2,99,90,0,0
105727,-100,4,2,99,90,0,0
106080,-66.6666666666667,4,2,99,90,0,0
106433,-66.6666666666667,4,2,99,90,0,0
106742,-66.6666666666667,4,2,41,82,0,0
106830,-66.6666666666667,4,2,99,90,0,0
107315,-125,4,2,99,90,0,0
108153,-125,4,2,44,82,0,0
108198,-100,4,2,44,82,0,0
108242,-100,4,2,99,90,0,0
109565,-100,4,2,45,82,0,0
109653,-100,4,2,99,90,0,0
110315,-71.4285714285714,4,2,99,90,0,0
110668,-66.6666666666667,4,2,99,90,0,0
111021,-125,4,2,99,90,0,0
111506,-125,4,2,99,80,0,0
111683,-125,4,2,99,100,0,0
112036,-125,4,2,99,70,0,0
112212,-125,4,2,99,100,0,0
112565,-125,4,2,99,55,0,0
112742,-125,4,2,99,100,0,0
113095,-125,4,2,99,40,0,0
113271,-125,4,2,99,100,0,0
114330,-125,4,2,99,80,0,0
114506,-125,4,2,99,100,0,0
114859,-125,4,2,99,70,0,0
115036,-125,4,2,99,100,0,0
115389,-125,4,2,99,55,0,0
115565,-125,4,2,99,100,0,0
115918,-125,4,2,99,40,0,0
116095,-125,4,2,99,100,0,0
116668,-83.3333333333333,4,2,99,100,0,0
117153,-83.3333333333333,4,2,99,80,0,0
117418,-83.3333333333333,4,2,99,100,0,0
117683,-83.3333333333333,4,2,99,70,0,0
117727,-100,4,2,99,70,0,0
117859,-100,4,2,99,100,0,0
118212,-100,4,2,99,55,0,0
118389,-100,4,2,99,100,0,0
118742,-100,4,2,99,40,0,0
118918,-100,4,2,99,100,0,0
119977,-100,4,2,99,80,0,0
120153,-100,4,2,99,100,0,0
120506,-100,4,2,99,70,0,0
120683,-100,4,2,99,100,0,0
121036,-100,4,2,99,55,0,0
121212,-100,4,2,99,100,0,0
122271,-100,4,2,60,77,0,0
122315,-133.333333333333,4,2,60,77,0,0
122359,-133.333333333333,4,2,99,100,0,0
122624,-133.333333333333,4,2,61,77,0,0
122668,-100,4,2,61,77,0,0
122712,-100,4,2,99,100,0,0
122889,-100,4,2,62,77,0,0
122977,-100,4,2,99,100,0,0
123330,-100,4,2,61,77,0,0
123418,-100,4,2,99,100,0,0
123506,-100,4,2,64,77,0,0
123595,-100,4,2,99,100,0,0
123683,-100,4,2,65,77,0,0
123727,-133.333333333333,4,2,65,77,0,0
123771,-133.333333333333,4,2,99,100,0,0
123859,-133.333333333333,4,2,61,60,0,0
123948,-133.333333333333,4,2,67,42,0,0
124212,-133.333333333333,4,2,68,52,0,0
124374,-133.333333333333,4,2,65,77,0,0
124609,-133.333333333333,4,2,70,77,0,0
124845,-133.333333333333,4,2,71,77,0,0
125095,-133.333333333333,4,2,72,77,0,0
125183,-133.333333333333,4,2,99,100,0,0
125448,-133.333333333333,4,2,73,77,0,0
125492,-100,4,2,73,77,0,0
125536,-100,4,2,99,100,0,0
125712,-100,4,2,74,77,0,0
125801,-100,4,2,99,100,0,0
126506,-100,4,2,75,77,0,0
126551,-133.333333333333,4,2,75,77,0,0
126595,-133.333333333333,4,2,99,100,0,0
126859,-133.333333333333,4,2,76,42,0,0
127036,-133.333333333333,4,2,77,42,0,0
127198,-133.333333333333,4,2,78,77,0,0
127433,-133.333333333333,4,2,72,77,0,0
127668,-133.333333333333,4,2,73,77,0,0
127918,-133.333333333333,4,2,11,77,0,0
128006,-133.333333333333,4,2,99,100,0,0
128271,-133.333333333333,4,2,12,77,0,0
128448,-133.333333333333,4,2,13,77,0,0
128624,-133.333333333333,4,2,14,77,0,0
128801,-133.333333333333,4,2,73,100,0,0
128977,-133.333333333333,4,2,13,77,0,0
129153,-133.333333333333,4,2,14,77,0,0
129330,-133.333333333333,4,2,15,77,0,0
129418,-133.333333333333,4,2,99,100,0,0
129683,-133.333333333333,4,2,16,77,0,0
129771,-133.333333333333,4,2,99,100,0,0
129859,-133.333333333333,4,2,17,77,0,0
129903,-142.857142857143,4,2,17,77,0,0
129948,-142.857142857143,4,2,99,100,0,0
130389,-142.857142857143,4,2,18,77,0,0
130433,-66.6666666666667,4,2,18,77,0,0
130477,-66.6666666666667,4,2,99,100,0,0
130742,-66.6666666666667,4,2,19,77,0,0
130786,-166.666666666667,4,2,19,77,0,0
130830,-166.666666666667,4,2,99,100,0,0
131095,-166.666666666667,4,2,20,77,0,0
131183,-166.666666666667,4,2,99,100,0,0
131271,-166.666666666667,4,2,21,77,0,0
131359,-166.666666666667,4,2,99,100,0,0
131624,-166.666666666667,4,2,22,77,0,0
131712,-166.666666666667,4,2,99,100,0,0
132153,-166.666666666667,4,2,23,77,0,0
132242,-166.666666666667,4,2,99,100,0,0
132506,-166.666666666667,4,2,24,77,0,0
132595,-166.666666666667,4,2,99,100,0,0
132683,-166.666666666667,4,2,25,77,0,0
132771,-166.666666666667,4,2,99,100,0,0
133036,-166.666666666667,4,2,26,77,0,0
133124,-166.666666666667,4,2,99,100,0,0
133212,-166.666666666667,4,2,27,77,0,0
133301,-166.666666666667,4,2,99,100,0,0
133565,-166.666666666667,4,2,28,77,0,0
133609,-333.333333333333,4,2,28,77,0,0
133653,-333.333333333333,4,2,99,100,0,0
139256,-333.333333333333,4,2,10,20,0,0

[Colours]
Combo1 : 236,182,172
Combo2 : 29,90,109
Combo3 : 184,206,211
Combo4 : 0,0,117
Combo5 : 176,216,255
Combo6 : 243,90,86

[HitObjects]
86,80,903,5,0,2:1:0:0:
160,50,1080,1,0,0:0:0:0:
221,101,1256,2,0,L|209:155,1,50,0|0,0:0|0:0,0:0:0:0:
249,219,1609,5,0,0:0:0:0:
329,214,1786,1,0,0:0:0:0:
360,140,1962,2,0,L|411:127,1,50,0|0,0:0|0:0,0:0:0:0:
469,179,2315,6,0,P|476:209|473:232,1,50,0|0,0:0|0:0,0:0:0:0:
419,329,2668,2,0,P|409:302|411:273,1,50,0|0,0:0|0:0,0:0:0:0:
488,305,3021,5,0,0:0:0:0:
434,364,3198,1,0,0:0:0:0:
355,380,3374,1,0,0:0:0:0:
278,355,3551,1,0,0:0:0:0:
200,282,3727,6,0,L|208:231,1,50,0|0,0:0|0:0,0:0:0:0:
153,173,4080,1,0,0:0:0:0:
74,188,4256,1,0,0:0:0:0:
6,288,4433,6,0,P|31:284|52:270,1,50,0|0,0:0|0:0,0:0:0:0:
191,363,4786,2,0,P|166:359|145:345,1,50,0|0,0:0|0:0,0:0:0:0:
230,189,5139,6,0,B|270:205|285:228|285:228|291:271|265:343,1,175
202,275,5845,6,0,B|247:250|247:250|298:253,2,100,0|0|4,0:0|0:0|3:2,0:0:0:0:
393,329,6727,1,2,0:0:0:0:
401,98,9198,5,0,3:0:0:0:
457,178,9374,2,0,L|447:228,1,50,6|0,0:2|0:0,0:0:0:0:
80,130,11845,6,0,P|134:82|223:82,1,150.000005722046,0|0,0:0|0:0,0:0:0:0:
301,140,12109,1,0,0:0:0:0:
325,171,12198,6,0,L|318:223,1,50,4|0,0:0|0:0,0:0:0:0:
385,293,15021,6,0,P|412:297|436:311,1,50,4|0,0:0|0:0,0:0:0:0:
486,368,15374,1,0,0:0:0:0:
322,326,16786,6,0,L|295:333,2,25,0|0|0,0:0|0:0|0:0,0:0:0:0:
200,330,17139,6,0,B|268:312|268:312|339:341|339:341|419:324,1,225.000008583069,0|0,0:0|0:0,0:0:0:0:
316,262,17492,6,0,B|295:296|295:296|320:379,1,112.500004291535,0|0,0:0|0:0,0:0:0:0:
315,365,17845,5,12,2:1:0:0:
226,227,18021,1,0,0:0:0:0:
129,170,18198,2,0,P|157:145|194:137,1,75.0000028610231,2|0,0:0|0:0,0:0:0:0:
317,200,18462,6,0,P|267:146|192:138,1,150,8|0,2:1|0:0,0:0:0:0:
388,131,19256,6,0,P|413:164|426:198,1,75.0000028610231,2|0,0:0|0:0,0:0:0:0:
328,87,19786,2,0,P|368:109|392:139,1,75,2|0,0:0|0:0,0:0:0:0:
299,79,20315,6,0,L|329:87,1,30,2|0,0:0|0:0,0:0:0:0:
217,131,20668,6,0,P|204:81|249:-5,1,150.000005722046,8|0,2:1|0:0,0:0:0:0:
300,169,21021,1,2,0:0:0:0:
300,169,21198,1,0,0:0:0:0:
225,217,21286,6,0,B|134:226|173:162|85:171,1,150,8|2,2:1|0:0,0:0:0:0:
15,245,21639,1,0,0:0:0:0:
44,270,21727,2,0,P|69:267|92:258,1,50,0|0,0:0|3:1,0:0:0:0:
242,172,21903,2,0,P|231:150|216:130,1,50,0|0,3:1|3:1,0:0:0:0:
27,82,22080,6,0,P|30:52|57:14,1,75,2|0,3:2|0:0,0:0:0:0:
30,153,22609,2,0,P|37:109|16:67,1,75,2|0,0:0|0:0,0:0:0:0:
24,182,23139,6,0,P|25:165|33:147,1,30,2|0,0:0|0:0,0:0:0:0:
112,86,23492,5,8,2:1:0:0:
279,48,23668,1,0,3:0:0:0:
406,151,23845,2,0,P|408:188|394:223,1,75.0000028610231,2|0,3:2|0:0,0:0:0:0:
263,269,24109,6,0,P|335:269|394:221,1,150,8|2,2:1|0:0,0:0:0:0:
166,342,24551,2,0,P|123:327|108:303,1,75.0000028610231,0|0,0:0|0:0,0:0:0:0:
149,220,24903,6,0,L|161:137,1,75.0000028610231,2|0,0:0|0:0,0:0:0:0:
159,145,25433,2,0,L|171:62,1,75.0000028610231,2|0,0:0|0:0,0:0:0:0:
149,220,25874,1,0,0:0:0:0:
159,145,25962,2,0,L|171:62,1,75.0000028610231,2|0,0:0|0:0,0:0:0:0:
248,31,26315,6,0,P|197:-12|114:3,1,150.000005722046,8|0,3:1|3:0,0:0:0:0:
196,191,26668,1,2,3:2:0:0:
412,101,26845,1,0,3:0:0:0:
412,101,26933,6,0,B|341:126|347:47|271:76,1,150,8|2,2:1|3:2,0:0:0:0:
196,191,27286,1,0,3:0:0:0:
196,191,27374,2,0,P|141:191|98:164,1,100,2|0,0:2|0:0,0:0:0:0:
104,357,27727,6,0,L|115:282,2,75.0000028610231,2|0|2,0:0|0:0|0:0,0:0:0:0:
62,231,28256,1,0,3:0:0:0:
84,262,28344,1,0,3:0:0:0:
115,282,28432,1,0,3:2:0:0:
151,291,28520,1,2,3:2:0:0:
188,287,28609,1,0,3:0:0:0:
414,272,28786,6,0,B|319:288|319:288|276:261|276:261|223:273,1,200,2|0,0:0|0:0,0:0:0:0:
340,205,29051,1,0,0:0:0:0:
340,205,29139,6,0,P|341:131|290:75,1,150,12|0,0:0|0:0,0:0:0:0:
214,118,29492,2,0,P|186:96|145:91,1,75.0000028610231,2|0,0:0|3:0,0:0:0:0:
6,160,29756,6,0,P|49:157|76:131,1,75.0000028610231,8|0,3:1|3:0,0:0:0:0:
69,47,30021,1,2,3:2:0:0:
148,174,30198,1,0,3:1:0:0:
113,256,30374,1,8,2:1:0:0:
31,334,30551,6,0,B|79:322|79:322|180:369,1,150,8|0,2:1|3:0,0:0:0:0:
250,317,30903,2,0,L|306:312,3,50,0|0|8|0,3:0|0:0|0:1|0:0,0:0:0:0:
387,329,31256,6,0,P|441:353|498:356,2,112.500004291535,0|0|0,0:1|0:1|0:1,0:0:0:0:
361,254,31874,1,0,0:0:0:0:
361,254,31962,6,0,P|420:234|383:328,1,225.000008583069,10|0,0:0|0:0,0:0:0:0:
197,193,32315,2,0,P|225:158|254:145,1,75.0000028610231,2|0,0:0|3:0,0:0:0:0:
401,132,32580,2,0,B|441:147|441:147|336:172,1,150,8|2,3:1|0:0,0:0:0:0:
315,81,33021,5,0,0:0:0:0:
197,193,33198,1,8,2:1:0:0:
36,197,33374,1,8,0:1:0:0:
105,140,33551,5,0,3:0:0:0:
105,140,33639,1,0,3:0:0:0:
105,140,33727,1,0,3:0:0:0:
36,197,33903,2,0,L|41:225,1,25,8|0,0:1|0:1,0:0:0:0:
107,280,34168,1,0,0:0:0:0:
103,298,34256,1,0,0:0:0:0:
100,316,34345,1,0,0:1:0:0:
37,372,34433,6,0,B|141:324|116:394|227:353,1,187.5,0|0,0:0|0:0,0:0:0:0:
289,309,34786,6,0,P|248:275|199:273,1,100,8|0,2:0|3:0,0:0:0:0:
373,282,35139,2,0,B|483:262|483:262|445:251,1,150,2|8,3:2|2:1,0:0:0:0:
309,226,35492,1,0,0:0:0:0:
309,226,35580,1,0,0:0:0:0:
309,226,35668,2,0,P|300:202|299:177,1,50,2|0,0:0|0:0,0:0:0:0:
466,80,35845,1,0,0:0:0:0:
392,191,36021,1,8,2:1:0:0:
326,17,36198,1,8,2:0:0:0:
230,34,36374,6,0,L|187:43,3,37.5000014305115,0|0|0|0,3:0|3:0|3:0|0:0,0:0:0:0:
326,17,36727,1,2,0:0:0:0:
230,34,36903,6,0,L|187:43,3,37.5000014305115,0|0|0|0,3:0|3:0|3:0|0:0,0:0:0:0:
359,104,37256,1,2,0:0:0:0:
227,175,37433,5,0,0:0:0:0:
227,175,37521,1,0,0:0:0:0:
227,175,37609,1,8,2:0:0:0:
230,34,37786,1,0,0:0:0:0:
359,104,37962,1,2,2:0:0:0:
227,175,38139,5,0,0:0:0:0:
227,175,38227,1,0,2:0:0:0:
230,34,38492,1,2,2:0:0:0:
359,104,38668,1,0,0:0:0:0:
227,175,38845,5,8,2:1:0:0:
53,182,39021,6,0,P|87:198|125:200,1,75.0000028610231,8|2,2:1|0:0,0:0:0:0:
106,127,39462,6,0,P|123:160|126:197,2,75.0000028610231,2|2|2,0:0|0:0|0:0,0:0:0:0:
51,178,40080,6,0,P|71:146|103:127,1,75.0000028610231,2|0,0:0|0:0,0:0:0:0:
111,320,40433,5,12,0:0:0:0:
111,320,40786,1,8,0:0:0:0:
191,284,40962,2,0,P|240:295|270:333,1,100,0|8,0:0|0:0,0:0:0:0:
111,320,41315,1,0,0:0:0:0:
191,284,41491,2,0,P|240:295|270:333,1,100,8|0,0:0|0:0,0:0:0:0:
359,357,41845,6,0,P|370:334|374:309,1,50,8|0,0:0|3:0,0:0:0:0:
351,220,42021,1,0,0:0:0:0:
359,357,42198,6,0,P|370:334|374:309,1,50,8|0,0:0|3:0,0:0:0:0:
351,220,42374,2,0,P|338:172|355:125,1,100,0|8,0:0|0:0,0:0:0:0:
420,53,42727,1,0,0:0:0:0:
234,87,42903,6,0,B|166:52|133:92|93:77|93:77|130:40|166:52,1,225.000008583069,8|0,0:0|0:0,0:0:0:0:
258,206,43256,5,8,0:0:0:0:
258,206,43609,1,8,0:0:0:0:
165,240,43786,2,0,P|137:283|138:334,1,100,0|8,0:0|0:0,0:0:0:0:
258,206,44139,1,0,0:0:0:0:
165,240,44315,2,0,P|137:283|138:334,1,100,8|0,0:0|0:0,0:0:0:0:
241,308,44668,6,0,L|295:302,1,50,8|0,0:0|3:0,0:0:0:0:
372,360,44845,1,0,0:0:0:0:
241,308,45021,6,0,L|295:302,1,50,8|0,0:0|3:0,0:0:0:0:
372,360,45198,2,0,L|426:354,1,50,0|0,0:0|0:0,0:0:0:0:
476,289,45374,1,8,0:0:0:0:
186,364,45551,1,0,0:0:0:0:
476,289,45727,6,0,L|170:367,1,300.000011444092,8|8,0:0|0:0,0:0:0:0:
99,318,46080,5,12,0:3:0:0:
9,361,46256,1,2,0:0:0:0:
9,361,46345,1,0,0:0:0:0:
9,361,46433,1,8,0:0:0:0:
99,318,46609,6,0,P|110:289|108:265,1,50,2|0,0:0|0:0,0:0:0:0:
9,361,46786,1,8,0:0:0:0:
9,361,46875,1,0,0:0:0:0:
9,361,46963,1,2,0:0:0:0:
99,318,47139,6,0,P|110:289|108:265,1,50,8|2,0:0|0:0,0:0:0:0:
28,217,47492,6,0,P|17:246|19:270,1,50,8|0,0:0|0:0,0:0:0:0:
99,318,47668,1,2,0:0:0:0:
28,217,47845,6,0,P|17:246|19:270,1,50,8|0,0:0|0:0,0:0:0:0:
99,318,48021,2,0,P|110:289|108:265,1,50,2|0,0:0|0:0,0:0:0:0:
115,166,48198,6,0,B|74:58|74:58|59:97,1,150.000005722046,0|0,0:0|0:0,0:0:0:0:
208,220,48551,2,0,P|357:221|449:112,1,300,8|0,0:0|0:0,0:0:0:0:
427,20,48903,5,8,0:0:0:0:
365,82,49080,1,2,0:0:0:0:
365,82,49168,1,0,0:0:0:0:
365,82,49256,1,8,0:0:0:0:
475,203,49433,6,0,P|474:151|445:110,1,100,2|0,0:0|0:0,0:0:0:0:
365,82,49609,1,8,0:0:0:0:
365,82,49698,1,0,0:0:0:0:
365,82,49786,1,2,0:0:0:0:
475,203,49962,6,0,P|474:151|445:110,1,100.499995246124,0|0,0:0|0:0,0:0:0:0:
288,137,50315,2,0,L|267:133,14,18.7500007152558,0|0|0|0|0|0|0|0|0|0|0|0|0|0|0,0:0|0:0|0:0|0:0|0:0|0:0|0:0|0:0|0:0|0:0|0:0|0:0|0:0|0:0|0:0,0:0:0:0:
201,216,51021,5,0,3:0:0:0:
182,193,51109,1,0,3:0:0:0:
170,166,51197,1,0,3:0:0:0:
165,138,51285,1,0,3:0:0:0:
169,109,51373,1,0,3:0:0:0:
180,81,51462,1,0,3:0:0:0:
198,58,51550,1,0,3:0:0:0:
221,41,51638,1,0,3:0:0:0:
288,137,51727,6,0,L|268:133,1,18.0000004394531,2|0,3:3|3:0,0:0:0:0:
128,269,52080,6,0,P|177:256|202:204,1,100,12|0,0:0|0:0,0:0:0:0:
64,214,52345,1,0,0:0:0:0:
64,214,52433,1,8,0:1:0:0:
46,301,52609,1,0,0:0:0:0:
46,301,52698,1,0,0:0:0:0:
46,301,52786,1,8,0:1:0:0:
125,168,53139,6,0,P|86:138|31:141,1,100,8|0,0:1|3:0,0:0:0:0:
128,269,53404,1,0,3:0:0:0:
128,269,53492,1,8,3:1:0:0:
214,222,53668,1,0,0:0:0:0:
214,222,53756,1,0,0:0:0:0:
214,222,53845,1,8,3:1:0:0:
299,363,54021,1,0,3:0:0:0:
209,320,54198,2,0,B|261:315|261:315|290:326|290:326|344:321,1,129.999994049073,8|0,0:1|0:0,0:0:0:0:
426,282,54551,6,0,L|322:291,1,100,8|0,0:1|3:0,0:0:0:0:
492,238,54815,1,0,3:0:0:0:
492,238,54903,2,0,P|507:285|488:333,1,100,8|0,3:1|0:0,0:0:0:0:
413,198,55256,1,8,3:1:0:0:
413,198,55345,1,0,3:0:0:0:
413,198,55433,1,0,3:0:0:0:
340,98,55609,2,0,P|375:83|413:89,1,75.0000028610231,8|0,0:1|0:0,0:0:0:0:
512,154,55874,1,0,0:0:0:0:
512,154,55962,6,0,B|439:128|453:181|381:157,1,129.999994049073,8|2,0:1|0:3,0:0:0:0:
313,24,56227,1,0,0:0:0:0:
313,24,56315,2,0,L|321:83,1,59.9999981689454,8|0,0:1|0:0,0:0:0:0:
183,155,56492,2,0,P|240:142|290:177,1,119.999996337891,2|8,0:3|2:1,0:0:0:0:
320,246,56756,1,0,2:3:0:0:
320,246,56845,1,0,2:3:0:0:
108,252,57021,2,0,P|142:251|167:232,1,59.9999981689454,8|0,2:1|2:3,0:0:0:0:
72,174,57198,5,0,2:3:0:0:
72,174,57286,1,0,2:3:0:0:
72,174,57374,2,0,L|80:297,1,119.999996337891,0|0,3:0|3:0,0:0:0:0:
141,378,57639,1,0,3:0:0:0:
141,378,57727,1,0,3:0:0:0:
217,314,57903,5,0,3:0:0:0:
217,314,57992,1,0,3:0:0:0:
217,314,58080,2,0,B|238:267,1,50,8|8,2:1|2:1,0:0:0:0:
318,201,58256,2,0,P|303:177|278:165,1,50,8|8,2:1|2:1,0:0:0:0:
179,94,58433,6,0,P|173:108|173:130,1,30,0|0,0:0|0:0,0:0:0:0:
196,148,58786,6,0,P|245:141|285:167,1,100,12|0,2:2|3:0,0:0:0:0:
369,140,59051,1,0,3:0:0:0:
369,140,59139,1,8,3:1:0:0:
454,201,59315,1,0,0:0:0:0:
454,201,59403,1,0,0:0:0:0:
454,201,59492,2,0,B|393:193|415:225|352:217,1,100,8|0,3:1|3:0,0:0:0:0:
263,115,59845,2,0,L|270:66,1,50,8|0,2:1|0:0,0:0:0:0:
357,217,60021,2,0,L|364:168,1,50,0|0,0:0|0:0,0:0:0:0:
253,280,60198,6,0,B|329:265|310:309|381:295,1,129.999994049073,8|0,2:1|3:0,0:0:0:0:
193,210,60463,1,0,3:0:0:0:
193,210,60551,1,8,3:1:0:0:
162,300,60727,1,0,0:0:0:0:
162,300,60815,1,0,0:0:0:0:
162,300,60903,2,0,B|132:342|89:337|89:337|69:321|39:319,1,129.999994049073,8|0,3:1|3:0,0:0:0:0:
0,378,61168,1,0,0:0:0:0:
0,378,61256,1,8,0:1:0:0:
79,242,61433,1,8,0:1:0:0:
79,242,61521,1,8,0:1:0:0:
79,242,61609,6,0,P|101:167|56:106,1,150,4|0,0:0|0:0,0:0:0:0:
55,123,61962,1,2,0:0:0:0:
159,64,62139,1,8,0:1:0:0:
170,60,62227,1,0,3:0:0:0:
181,56,62315,2,0,L|233:59,2,44.999998626709,0|0|0,3:0|3:0|3:0,0:0:0:0:
224,141,62668,6,0,B|293:146|293:146|332:126|332:126|362:144|401:133,1,179.999994506836,0|0,0:0|0:0,0:0:0:0:
495,47,63021,6,0,B|443:34|443:34|399:57,1,100,12|0,2:1|0:0,0:0:0:0:
460,211,63374,2,0,B|472:242|472:242|462:266,1,59.9999981689454,2|0,3:2|0:0,0:0:0:0:
440,270,63551,2,0,L|452:109,1,150,8|0,2:1|0:0,0:0:0:0:
293,227,63903,1,8,2:1:0:0:
320,325,64080,2,0,B|413:305|375:365|479:345,1,150.000005722046,2|8,0:0|2:1,0:0:0:0:
297,215,64433,6,0,P|247:212|208:242,1,100,8|0,2:1|0:0,0:0:0:0:
132,238,64698,1,0,3:0:0:0:
132,238,64786,2,0,P|134:271|154:297,1,59.9999981689454,2|0,3:2|0:0,0:0:0:0:
220,329,64962,2,0,B|170:338|139:300|139:300|104:291|78:307,1,150,8|0,2:1|0:0,0:0:0:0:
36,365,65315,1,8,2:1:0:0:
12,219,65492,2,0,P|33:294|36:379,1,150.000005722046,2|8,0:0|2:1,0:0:0:0:
93,177,65845,6,0,L|104:75,1,100,8|0,2:1|0:0,0:0:0:0:
0,25,66109,1,0,3:0:0:0:
0,25,66198,2,0,P|32:16|21:46,1,75.0000028610231,2|0,3:2|0:0,0:0:0:0:
171,38,66374,2,0,B|112:33|112:33|76:49|76:49|15:43,1,150,8|0,2:1|0:0,0:0:0:0:
132,114,66727,1,8,2:1:0:0:
244,67,66903,2,0,P|252:29|236:-8,1,75.0000028610231,2|0,0:0|0:0,0:0:0:0:
131,113,67080,2,0,L|136:193,1,75.0000028610231,8|0,2:1|0:0,0:0:0:0:
206,234,67256,6,0,B|143:212|143:212|89:242,1,119.999996337891,8|8,2:1|2:1,0:0:0:0:
114,362,67521,1,0,0:0:0:0:
120,380,67609,2,0,B|130:350|130:350|137:348|137:348|152:307,1,75.0000028610231,2|0,0:0|0:0,0:0:0:0:
266,178,67786,1,8,2:1:0:0:
266,178,67874,2,0,B|228:216|228:216|252:298,1,129.999994049073,2|0,0:0|0:0,0:0:0:0:
348,272,68139,2,0,B|360:241|360:241|321:267,1,64.9999970245363,8|0,2:1|0:0,0:0:0:0:
469,335,68315,2,0,B|389:312|399:374|316:351,1,150.000005722046,2|8,0:0|2:1,0:0:0:0:
450,318,68580,1,0,0:0:0:0:
450,318,68668,6,0,B|468:267|468:267|452:240|456:205,1,110.000003356934,8|0,2:1|3:0,0:0:0:0:
512,110,68933,1,0,3:0:0:0:
512,110,69021,2,0,B|512:142|512:142|504:167,1,55.0000016784668,2|0,3:2|0:0,0:0:0:0:
346,141,69198,2,0,B|326:134|306:132|306:132|348:128|348:128|382:139|382:139|430:133,1,165.000005035401,8|0,2:1|0:0,0:0:0:0:
415,41,69551,1,8,2:1:0:0:
316,234,69727,2,0,B|291:195|291:195|306:132,1,110.000003356934,2|8,0:0|2:1,0:0:0:0:
381,273,70080,6,0,B|333:268|333:268|315:273|315:273|268:269,1,110.000003356934,8|0,2:1|3:0,0:0:0:0:
282,128,70345,1,0,3:0:0:0:
282,128,70433,2,0,B|294:190,1,55.0000016784668,2|0,3:2|0:0,0:0:0:0:
227,348,70609,2,0,P|182:287|209:206,1,165.000005035401,8|2,2:1|0:0,0:0:0:0:
142,146,70962,5,8,2:1:0:0:
177,121,71050,1,2,0:0:0:0:
221,116,71138,1,0,3:0:0:0:
273,126,71227,1,0,3:0:0:0:
315,93,71315,1,0,3:0:0:0:
318,40,71403,1,0,3:0:0:0:
280,3,71492,6,0,L|287:71,1,59.9999981689454,4|0,3:1|0:0,0:0:0:0:
340,180,72021,2,0,L|345:120,1,59.9999981689454,0|0,0:0|0:0,0:0:0:0:
387,36,72551,2,0,P|417:32|446:42,1,59.9999981689454,0|0,0:0|0:0,0:0:0:0:
500,108,73080,2,0,L|487:176,1,59.9999981689454,0|0,0:0|0:0,0:0:0:0:
467,282,73609,6,0,B|419:225|419:225|445:236,1,100
390,301,73874,1,0,0:0:0:0:
380,306,73962,2,0,L|371:332,7,25
71,87,79609,5,2,0:0:0:0:
127,162,79874,1,2,0:0:0:0:
127,162,79962,2,0,P|168:172|206:159,2,80,0|0|2,0:0|0:0|0:0,0:0:0:0:
71,87,80668,5,0,3:0:0:0:
127,162,80845,2,0,P|168:172|206:159,2,80,2|0|0,0:0|0:0|3:0,0:0:0:0:
47,289,81374,6,0,L|39:210,2,80,2|0|0,0:0|0:0|0:0,0:0:0:0:
156,305,81903,6,0,L|147:384,2,80,2|0|0,0:0|0:0|0:0,0:0:0:0:
217,219,82433,2,0,P|274:215|312:252,1,110.000003356934,2|0,0:0|0:0,0:0:0:0:
287,343,82786,5,0,0:0:0:0:
370,300,83051,1,0,0:0:0:0:
370,300,83139,2,0,P|386:261|380:221,2,80,2|0|0,0:0|0:0|0:0,0:0:0:0:
286,198,83668,2,0,L|303:109,1,80,2|0,0:0|3:0,0:0:0:0:
311,88,83933,1,0,3:0:0:0:
311,88,84021,1,0,3:0:0:0:
256,192,84198,12,0,85609,0:0:0:0:
82,152,88433,6,0,B|131:176|192:158|161:134|223:115|272:138,1,194.999991073609,12|0,2:0|3:0,0:0:0:0:
360,92,88786,2,0,P|309:81|263:107,1,100,2|0,3:2|0:0,0:0:0:0:
232,213,89051,1,8,2:1:0:0:
232,213,89139,2,0,L|240:279,1,59.9999981689454,0|0,0:0|0:0,0:0:0:0:
185,352,89315,1,8,2:1:0:0:
299,359,89492,2,0,B|334:344|334:344|280:339|280:339|249:349|249:349|186:342,1,179.999994506836,2|8,0:0|2:1,0:0:0:0:
31,292,89756,5,0,0:0:0:0:
31,292,89845,2,0,B|77:257|145:278|145:278|121:294|117:318,1,165.000005035401,8|0,2:0|0:0,0:0:0:0:
63,251,90198,2,0,B|49:207|49:207|62:166,1,89.9999972534181,2|0,0:0|0:0,0:0:0:0:
144,147,90374,2,0,B|103:128|63:148|63:148|27:162|-9:141,1,150,8|0,2:1|0:0,0:0:0:0:
30,26,90727,2,0,L|34:79,1,50,2|0,0:0|0:0,0:0:0:0:
158,125,90903,2,0,P|212:118|252:146,1,100,8|0,2:1|0:0,0:0:0:0:
196,334,91168,5,0,3:0:0:0:
196,334,91256,2,0,B|167:289|167:289|192:195,1,150,8|0,2:0|0:0,0:0:0:0:
381,279,91609,2,0,L|261:272,1,100,2|0,0:0|0:0,0:0:0:0:
257,274,91874,1,8,2:1:0:0:
257,274,91962,1,8,2:1:0:0:
390,253,92139,2,0,B|400:217|400:217|389:182,1,69.9999978637696,8|0,2:1|0:0,0:0:0:0:
316,32,92315,2,0,L|321:146,1,110.000003356934,2|8,0:0|2:1,0:0:0:0:
479,141,92668,6,0,B|433:117|373:137|410:156|353:175|305:156,1,179.999994506836,8|0,0:2|3:0,0:0:0:0:
341,81,93021,1,2,3:2:0:0:
427,317,93198,2,0,L|437:213,1,104.999996795654,8|0,2:1|0:0,0:0:0:0:
308,157,93551,2,0,L|312:222,1,64.9999970245363,2|0,0:0|0:0,0:0:0:0:
271,72,93727,2,0,P|347:68|392:124,1,150,8|0,2:1|3:0,0:0:0:0:
223,241,94080,6,0,P|202:192|214:143,1,100,12|0,2:2|0:0,0:0:0:0:
296,288,94345,1,0,0:0:0:0:
296,288,94433,2,0,B|215:256|224:320|143:291,1,150.000005722046,2|0,0:0|0:0,0:0:0:0:
44,197,94698,1,8,2:1:0:0:
44,197,94786,2,0,P|70:187|97:190,1,50,0|0,0:0|0:0,0:0:0:0:
180,222,94962,1,8,2:1:0:0:
89,352,95139,2,0,P|66:310|78:256,1,100,2|8,0:0|2:1,0:0:0:0:
199,118,95492,6,0,L|186:227,1,104.999996795654,8|0,2:0|0:0,0:0:0:0:
301,119,95845,2,0,L|293:59,1,50,2|0,0:0|0:0,0:0:0:0:
161,42,96021,2,0,B|224:36|224:36|260:59|260:59|320:52,1,165.000005035401,8|0,2:1|0:0,0:0:0:0:
455,62,96374,2,0,P|408:49|371:66,1,55.0000016784668,2|0,0:0|0:0,0:0:0:0:
309,124,96551,1,8,2:1:0:0:
431,280,96727,2,0,P|441:256|442:224,1,55.0000016784668,0|0,0:0|0:0,0:0:0:0:
298,346,96903,6,0,B|322:327|368:332|368:332|403:371|455:358,1,165.000005035401,8|0,2:0|0:0,0:0:0:0:
415,155,97256,2,0,P|391:169|374:190,1,55.0000016784668,2|0,0:0|0:0,0:0:0:0:
289,162,97433,1,8,2:1:0:0:
289,162,97521,2,0,P|285:200|297:228,2,55.0000016784668,8|0|0,2:1|0:0|0:0,0:0:0:0:
250,90,97786,1,0,0:0:0:0:
250,90,97962,2,0,P|309:82|352:112,1,110.000003356934,8|2,2:1|0:0,0:0:0:0:
196,312,98315,6,0,B|176:278|181:245|181:245|216:214|205:165,1,150.000005722046,8|2,2:0|0:0,0:0:0:0:
114,60,98845,1,0,0:0:0:0:
62,196,99021,1,2,3:2:0:0:
62,196,99109,1,8,3:1:0:0:
62,196,99198,2,0,P|95:181|135:189,1,75.0000028610231,8|0,3:1|0:0,0:0:0:0:
206,173,99374,5,8,2:1:0:0:
200,342,99551,1,8,2:1:0:0:
195,327,99639,1,8,2:1:0:0:
196,312,99727,2,0,P|120:293|62:337,1,150,12|0,2:2|0:0,0:0:0:0:
126,291,100080,2,0,P|108:242|132:191,1,110.000003356934,2|0,0:0|0:0,0:0:0:0:
197,69,100345,1,8,2:1:0:0:
197,69,100433,2,0,L|188:136,1,59.9999981689454,0|0,0:0|0:0,0:0:0:0:
92,116,100609,1,8,2:1:0:0:
215,205,100786,2,0,B|258:201|258:201|293:213|293:213|338:208,1,119.999996337891,2|8,0:0|2:1,0:0:0:0:
416,80,101139,6,0,B|383:29|383:29|400:153,1,179.999994506836,8|0,2:2|0:0,0:0:0:0:
288,235,101492,2,0,L|347:230,1,59.9999981689454,2|0,0:0|0:0,0:0:0:0:
505,292,101668,2,0,B|457:276|423:302|423:302|421:298|421:298|423:302|423:302|387:330|342:315,1,179.999994506836,8|0,2:1|0:0,0:0:0:0:
228,240,102021,2,0,L|287:235,1,59.9999981689454,2|0,0:0|0:0,0:0:0:0:
421,299,102198,1,8,2:1:0:0:
251,359,102374,1,0,0:0:0:0:
157,295,102551,6,0,P|142:230|191:165,1,150,8|0,2:2|3:0,0:0:0:0:
243,252,102903,2,0,P|258:305|235:351,1,100,2|8,3:2|2:1,0:0:0:0:
223,370,103168,1,8,2:1:0:0:
223,370,103256,1,0,0:0:0:0:
43,320,103433,2,0,B|76:316|76:316|90:310|90:310|122:306,1,75.0000028610231,8|0,2:1|0:0,0:0:0:0:
134,153,103609,2,0,B|102:206|102:206|132:298,1,150.000005722046,2|8,0:0|2:1,0:0:0:0:
262,284,103962,6,0,B|232:288|199:274|199:274|174:284|174:284|136:262|89:268|89:268|116:277|128:289,1,225.000008583069,8|0,2:2|3:0,0:0:0:0:
206,369,104315,1,2,3:2:0:0:
342,255,104492,2,0,P|312:339|272:260,1,225.000008583069,8|0,2:1|0:0,0:0:0:0:
383,181,104845,1,2,0:0:0:0:
292,77,105021,2,0,L|302:198,1,112.500004291535,8|0,2:1|0:0,0:0:0:0:
205,66,105374,6,0,B|177:50|177:50|225:54|225:54|235:50|235:50|240:54|240:54|293:59,1,150,12|0,2:2|0:0,0:0:0:0:
117,158,105727,2,0,P|164:169|210:143,1,100,2|0,0:0|0:0,0:0:0:0:
78,77,105992,1,8,0:1:0:0:
78,77,106080,2,0,L|87:235,1,150.000005722046,8|0,0:1|0:0,0:0:0:0:
63,369,106433,2,0,L|71:219,1,150.000005722046,2|0,0:0|0:0,0:0:0:0:
212,253,106786,6,0,B|157:243|157:243|127:254|127:254|103:238|103:238|34:225|34:225|58:224|80:215,1,225.000008583069,8|0,2:2|0:0,0:0:0:0:
265,190,107139,1,2,0:0:0:0:
201,361,107315,2,0,P|176:305|203:250,1,120,8|0,2:1|3:0,0:0:0:0:
335,369,107668,2,0,L|270:364,1,40,2|0,3:2|0:0,0:0:0:0:
387,294,107845,2,0,P|432:287|466:306,1,80,8|0,2:1|0:0,0:0:0:0:
503,225,108109,1,0,0:0:0:0:
503,225,108198,6,0,L|494:384,1,150,8|0,2:2|0:0,0:0:0:0:
410,189,108551,2,0,P|391:147|409:97,1,100,2|8,0:0|3:1,0:0:0:0:
439,77,108815,1,8,3:1:0:0:
439,77,108903,1,0,3:0:0:0:
503,225,109080,2,0,L|500:276,1,50,8|0,2:1|0:0,0:0:0:0:
353,306,109256,2,0,B|384:291|416:295|416:295|443:311|443:311|473:317|506:303,1,150,2|0,0:0|0:0,0:0:0:0:
346,339,109609,6,0,P|293:338|234:330,1,100,8|0,2:2|0:0,0:0:0:0:
97,243,109962,2,0,P|146:237|196:236,1,100,2|0,0:0|0:0,0:0:0:0:
384,186,110315,2,0,P|349:173|309:178,1,69.9999978637696,0|0,0:0|0:0,0:0:0:0:
346,144,110492,2,0,P|309:150|277:174,1,69.9999978637696,0|0,0:0|0:0,0:0:0:0:
160,160,110668,2,0,P|254:172|283:233,1,150.000005722046,8|8,2:1|2:1,0:0:0:0:
258,264,110933,1,8,2:1:0:0:
268,241,111021,6,0,P|319:235|361:245,2,80,6|8|8,0:0|0:0|0:0,0:0:0:0:
219,337,111551,2,0,P|168:343|128:332,2,80,6|8|8,0:0|0:0|0:0,0:0:0:0:
128,234,112080,2,0,P|88:227|49:234,2,80,6|8|8,0:0|0:0|0:0,0:0:0:0:
214,265,112609,5,6,0:0:0:0:
198,179,112786,1,8,0:0:0:0:
301,118,112962,1,8,0:0:0:0:
285,204,113139,1,4,0:0:0:0:
380,199,113315,2,0,L|384:284,2,80,8|8|8,0:1|0:0|0:0,0:0:0:0:
391,292,113845,6,0,L|382:381,2,80,6|8|8,0:0|0:0|0:0,0:0:0:0:
491,258,114374,2,0,L|482:178,2,80,6|8|8,0:0|0:0|0:0,0:0:0:0:
477,81,114903,6,0,L|469:161,2,80,6|8|8,0:0|0:0|0:0,0:0:0:0:
377,0,115433,1,6,0:0:0:0:
392,93,115609,1,8,0:0:0:0:
283,156,115786,1,8,0:0:0:0:
298,63,115962,1,6,0:0:0:0:
199,106,116139,2,0,L|144:115,1,40,8|0,0:1|0:0,0:0:0:0:
116,129,116315,2,0,P|161:122|205:147,1,80,8|8,0:0|0:0,0:0:0:0:
38,204,116668,6,0,P|16:156|44:90,2,119.999996337891,6|8|8,0:0|0:0|0:0,0:0:0:0:
134,291,117198,2,0,P|85:311|20:281,2,119.999996337891,6|8|8,0:0|0:0|0:0,0:0:0:0:
211,349,117727,2,0,P|268:328|321:348,2,100,6|8|8,0:0|0:0|0:0,0:0:0:0:
326,250,118256,2,0,P|383:268|413:316,2,100,6|8|8,0:0|0:0|0:0,0:0:0:0:
417,373,118786,2,0,P|420:321|433:265,2,100,6|8|8,0:0|0:1|0:0,0:0:0:0:
510,261,119315,1,8,0:0:0:0:
454,199,119492,6,0,B|427:185|395:199|395:199|356:191,2,100,6|8|8,0:0|0:0|0:0,0:0:0:0:
238,281,120021,2,0,B|264:267|296:281|296:281|335:273,2,100,6|8|8,0:0|0:0|0:0,0:0:0:0:
146,283,120551,2,0,B|138:319|164:346|164:346|150:370|154:386,1,100,6|8,0:0|0:0,0:0:0:0:
45,309,120903,6,0,L|53:199,2,100,8|6|8,0:0|0:0|0:0,0:0:0:0:
23,206,121433,2,0,B|12:173|18:157|18:157|29:137|21:103,2,100,6|8|6,0:0|0:0|0:2,0:0:0:0:
34,88,121962,1,8,0:1:0:0:
126,157,122139,1,8,0:1:0:0:
126,157,122227,1,0,0:0:0:0:
126,157,122315,6,0,P|181:160|222:114,1,112.500004291535,12|0,0:1|0:0,0:0:0:0:
293,78,122668,1,0,0:1:0:0:
420,107,122845,2,0,P|385:113|367:132,1,50,0|8,0:0|2:1,0:0:0:0:
338,212,123021,2,0,P|359:144|311:82,1,150,0|0,0:0|0:0,0:0:0:0:
247,229,123374,1,0,0:1:0:0:
489,304,123551,2,0,P|454:298|436:279,1,50,0|0,0:1|0:0,0:0:0:0:
456,273,123727,2,0,B|416:258|384:281|384:281|351:303|310:290,1,150.000005722046,8|0,2:1|2:1,0:0:0:0:
238,222,124256,1,0,2:1:0:0:
117,297,124433,6,0,P|172:289|221:325,1,112.500004291535,0|0,2:1|0:0,0:0:0:0:
57,347,124786,2,0,P|37:315|43:273,1,75.0000028610231,0|0,0:0|0:0,0:0:0:0:
98,217,125051,1,0,0:0:0:0:
98,217,125139,2,0,B|107:192|110:162|110:162|85:131|96:98,1,112.500004291535,8|0,0:1|0:0,0:0:0:0:
177,61,125492,6,0,P|213:106|203:154,2,100,8|0|0,0:1|0:0|0:0,0:0:0:0:
95,86,126021,1,0,0:0:0:0:
20,69,126198,1,8,2:1:0:0:
120,184,126374,2,0,L|182:174,1,50,8|0,2:1|0:0,0:0:0:0:
184,146,126551,6,0,P|241:141|288:215,1,150.000005722046,8|0,2:1|3:1,0:0:0:0:
235,285,127080,1,0,3:1:0:0:
221,291,127256,6,0,P|203:252|212:218,1,75.0000028610231,0|0,0:1|0:0,0:0:0:0:
322,305,127609,2,0,L|315:382,1,75.0000028610231,0|0,0:0|0:0,0:0:0:0:
429,354,127962,2,0,P|425:285|410:239,1,112.500004291535,12|0,0:1|0:0,0:0:0:0:
391,249,128315,2,0,L|396:164,2,75.0000028610231,0|0|0,2:1|2:1|2:1,0:0:0:0:
322,305,128845,1,0,0:1:0:0:
245,265,129021,2,0,P|227:227|234:183,1,75.0000028610231,0|8,0:1|0:1,0:0:0:0:
304,90,129374,2,0,P|320:130|226:111,1,187.500007152558,8|0,0:1|0:0,0:0:0:0:
154,157,129903,2,0,P|157:91|216:56,1,139.999995727539,0|0,0:1|0:0,0:0:0:0:
318,116,130433,1,0,0:1:0:0:
313,143,130786,6,0,B|341:155|367:139|367:139|373:146|373:146|402:130|435:139,1,119.999996337891,8|0,0:1|0:1,0:0:0:0:
512,230,131315,2,0,P|487:216|447:218,1,59.9999981689454,0|0,0:1|0:0,0:0:0:0:
423,317,131668,2,0,P|366:336|312:309,1,119.999996337891,0|8,0:1|0:1,0:0:0:0:
234,229,132198,2,0,P|187:221|149:248,1,89.9999972534181,8|0,0:1|0:0,0:0:0:0:
77,222,132551,1,0,0:1:0:0:
210,339,132727,1,0,0:0:0:0:
118,339,133256,5,0,0:1:0:0:
1,318,133609,1,4,0:1:0:0:
