osu file format v14

[General]
AudioFilename: ignotus.mp3
AudioLeadIn: 0
PreviewTime: 215060
Countdown: 0
SampleSet: Soft
StackLeniency: 0.3
Mode: 0
LetterboxInBreaks: 0
WidescreenStoryboard: 1

[Editor]
Bookmarks: 17413,40001,51295,62589,73883,88001,99295,110589,121883,133177,147295,160001,171295,193883,205177,217883,229177,240471,251766,263060
DistanceSpacing: 1.5
BeatDivisor: 6
GridSize: 4
TimelineZoom: 4.899997

[Metadata]
Title:Ignotus (Extended ver.)
TitleUnicode:Ignotus (Extended ver.)
Artist:ak+q
ArtistUnicode:ak+q
Creator:ScubDomino
Version:realazy.com/ryuusei_aika.extra
Source:Arcaea
Tags:Sound Collection MEMORIES OF CONFLICT IROCD-002 Original Soundtrack CD lowiro ajkoramusic drum and bass dnb piano electronic lanota groove coaster cybernetic future rhythm video game anime girl anime_girl scubdomino jungkyuyoung natsume shiki natsume_shiki 8972308 dark kloyd iii 1574070 shota on osu shota_on_osu cubbby cubby 10914582 freeform heilia 9823042 3626063 chinochan beomsan chinochan 918297 real realazy neanmoins 7777875 ryuusei aika acyl acylica iedesu 1943309 iljaaz 8501291 instrumental
BeatmapID:2402115
BeatmapSetID:1084205

[Difficulty]
HPDrainRate:6
CircleSize:5
OverallDifficulty:8.5
ApproachRate:9.2
SliderMultiplier:1.8
SliderTickRate:1

[Events]
//Background and Video events
0,0,"RED CIRCL POG.jpg",0,0
//Break Periods
2,160200,169666
//Storyboard Layer 0 (Background)
//Storyboard Layer 1 (Fail)
//Storyboard Layer 2 (Pass)
//Storyboard Layer 3 (Foreground)
//Storyboard Layer 4 (Overlay)
//Storyboard Sound Samples

[TimingPoints]
472,352.941176470588,4,2,1,60,1,0
472,-250,4,2,1,60,0,0
4619,-250,4,2,1,70,0,0
4707,-50,4,2,42,60,0,0
4795,-50,4,2,42,70,0,0
4883,-250,4,2,42,70,0,0
4971,-250,4,2,42,60,0,0
5060,-125,4,2,42,60,0,0
5324,-25,4,2,42,60,0,0
5346,-25,4,2,42,70,0,0
5368,-25,4,2,42,60,0,0
5390,-25,4,2,42,70,0,0
5412,-25,4,2,42,60,0,0
5434,-25,4,2,42,70,0,0
5456,-25,4,2,42,60,0,0
5478,-25,4,2,42,70,0,0
5500,-25,4,2,42,60,0,0
5589,-125,4,2,42,70,0,0
5648,-125,4,2,42,60,0,0
5766,-83.3333333333333,4,2,42,60,0,0
5854,-83.3333333333333,4,2,42,70,0,0
6119,-55.5555555555556,4,2,42,60,0,0
6471,-166.666666666667,4,2,42,60,0,0
6647,-166.666666666667,4,2,42,70,0,0
6824,-500.000000000003,4,2,42,50,0,0
7176,-500.000000000003,4,2,42,40,0,0
8766,-166.666666666667,4,2,42,60,0,0
8942,-55.5555555555556,4,2,42,70,0,0
9295,-166.666666666667,4,2,42,60,0,0
9648,-250,4,2,42,60,0,0
10001,-500,4,2,42,60,0,0
11413,-83.3333333333333,4,2,42,60,0,0
12119,-83.3333333333333,4,2,42,50,0,0
12471,-83.3333333333333,4,2,42,40,0,0
12824,-83.3333333333333,4,2,42,60,0,0
14589,-83.3333333333333,4,2,42,70,0,0
14942,-166.666666666667,4,2,42,60,0,0
15118,-166.666666666667,4,2,42,70,0,0
15295,-166.666666666667,4,2,42,60,0,0
15471,-166.666666666667,4,2,42,70,0,0
15648,-166.666666666667,4,2,42,60,0,0
16354,-166.666666666667,4,2,42,70,0,0
16707,-83.3333333333334,4,2,42,70,0,0
17060,-166.666666666667,4,2,42,70,0,0
17413,-125,4,2,1,80,0,0
17501,-125,4,2,1,70,0,0
17677,-125,4,2,1,80,0,0
18119,-125,4,2,1,70,0,0
18208,-125,4,2,1,80,0,0
18384,-125,4,2,1,70,0,0
18471,-125,4,2,1,80,0,0
18560,-125,4,2,1,70,0,0
18648,-125,4,2,1,80,0,0
18824,-166.666666666667,4,2,1,80,0,0
19795,-166.666666666667,4,2,1,70,0,0
19883,-166.666666666667,4,2,1,80,0,0
20059,-166.666666666667,4,2,1,70,0,0
20236,-166.666666666667,4,2,1,80,0,0
21119,-142.857142857143,4,2,1,80,0,0
21207,-142.857142857143,4,2,1,70,0,0
21295,-142.857142857143,4,2,1,80,0,0
21383,-142.857142857143,4,2,1,70,0,0
21471,-142.857142857143,4,2,1,80,0,0
21648,-200,4,2,1,80,0,0
22266,-200,4,2,1,70,0,0
22530,-200,4,2,1,80,0,0
22707,-166.666666666667,4,2,1,80,0,0
23060,-125,4,2,1,80,0,0
23148,-125,4,2,1,70,0,0
23324,-125,4,2,1,80,0,0
23766,-125,4,2,1,70,0,0
23855,-125,4,2,1,80,0,0
24031,-125,4,2,1,70,0,0
24118,-125,4,2,1,80,0,0
24207,-125,4,2,1,70,0,0
24295,-125,4,2,1,80,0,0
24471,-166.666666666667,4,2,1,80,0,0
25089,-166.666666666667,4,2,1,70,0,0
25265,-166.666666666667,4,2,1,80,0,0
25441,-166.666666666667,4,2,1,70,0,0
25530,-166.666666666667,4,2,1,80,0,0
25706,-166.666666666667,4,2,1,70,0,0
25883,-166.666666666667,4,2,1,80,0,0
26766,-142.857142857143,4,2,1,80,0,0
26854,-142.857142857143,4,2,1,70,0,0
26942,-142.857142857143,4,2,1,80,0,0
27030,-142.857142857143,4,2,1,70,0,0
27119,-142.857142857143,4,2,1,80,0,0
27295,-200,4,2,1,80,0,0
27912,-200,4,2,1,70,0,0
28089,-200,4,2,1,80,0,0
28265,-200,4,2,1,70,0,0
28354,-142.857142857143,4,2,1,80,0,0
28442,-142.857142857143,4,2,1,70,0,0
28619,-142.857142857143,4,2,1,80,0,0
28707,-100,4,2,1,90,0,0
29236,-125,4,2,1,90,0,0
29677,-125,4,2,1,70,0,0
29765,-125,4,2,1,90,0,0
30030,-125,4,2,1,70,0,0
30119,-125,4,2,1,90,0,0
30736,-125,4,2,1,70,0,0
30824,-100,4,2,1,90,0,0
31089,-100,4,2,1,70,0,0
31177,-100,4,2,1,90,0,0
31354,-100,4,2,1,70,0,0
31442,-100,4,2,1,90,0,0
31530,-125,4,2,1,90,0,0
32501,-125,4,2,1,70,0,0
32589,-125,4,2,1,90,0,0
33118,-125,4,2,1,70,0,0
33207,-125,4,2,1,90,0,0
33560,-125,4,2,1,70,0,0
33648,-100,4,2,1,70,0,0
33824,-100,4,2,1,90,0,0
33913,-100,4,2,1,70,0,0
34001,-100,4,2,1,90,0,0
34177,-100,4,2,1,70,0,0
34266,-100,4,2,1,90,0,0
34354,-125,4,2,1,90,0,0
35059,-125,4,2,1,70,0,0
35147,-125,4,2,1,90,0,0
35677,-125,4,2,1,70,0,0
35766,-125,4,2,1,90,0,0
36383,-125,4,2,1,70,0,0
36559,-125,4,2,1,90,0,0
37000,-125,4,2,1,70,0,0
37089,-125,4,2,1,90,0,0
37177,-100,4,2,1,90,0,0
37441,-100,4,2,1,70,0,0
37530,-100,4,2,1,90,0,0
37883,-100,4,2,1,70,0,0
38060,-100,4,2,1,90,0,0
38589,-200,4,2,1,90,0,0
38633,-200,4,2,1,70,0,0
38766,-200,4,2,1,90,0,0
38810,-200,4,2,1,70,0,0
39030,-200,4,2,1,90,0,0
39074,-200,4,2,1,70,0,0
39207,-200,4,2,1,90,0,0
39251,-200,4,2,1,70,0,0
39383,-200,4,2,1,90,0,0
39427,-200,4,2,1,70,0,0
39648,-200,4,2,1,90,0,0
39692,-200,4,2,1,70,0,0
40001,-125,4,2,1,90,0,0
40177,-125,4,2,1,70,0,0
40354,-125,4,2,1,80,0,0
40883,-125,4,2,1,70,0,0
41060,-125,4,2,1,80,0,0
41236,-125,4,2,1,70,0,0
41413,-125,4,2,1,80,0,0
41501,-125,4,2,1,70,0,0
41589,-125,4,2,1,80,0,0
41854,-125,4,2,1,70,0,0
41942,-125,4,2,1,80,0,0
43088,-125,4,2,1,70,0,0
43177,-125,4,2,1,80,0,0
43265,-125,4,2,1,70,0,0
43354,-125,4,2,1,80,0,0
44854,-125,4,2,1,70,0,0
44942,-41.6666666666667,4,2,1,80,0,0
45207,-83.3333333333333,4,2,1,70,0,0
45295,-83.3333333333333,4,2,1,80,0,0
45383,-83.3333333333333,4,2,1,70,0,0
45559,-83.3333333333333,4,2,1,80,0,0
45648,-100,4,2,1,80,0,0
46795,-100,4,2,1,70,0,0
47060,-100,4,2,1,80,0,0
47854,-100,4,2,1,70,0,0
47942,-100,4,2,1,80,0,0
48295,-100,4,2,1,70,0,0
48471,-100,4,2,1,80,0,0
49265,-100,4,2,1,70,0,0
49354,-100,4,2,1,80,0,0
49618,-100,4,2,1,70,0,0
49707,-100,4,2,1,80,0,0
49795,-100,4,2,1,70,0,0
49883,-200,4,2,1,70,0,0
49971,-200,4,2,1,60,0,0
50059,-200,4,2,1,50,0,0
50147,-200,4,2,1,45,0,0
50235,-200,4,2,1,40,0,0
50324,-200,4,2,1,45,0,0
50412,-200,4,2,1,50,0,0
50500,-200,4,2,1,65,0,0
50589,-200,4,2,1,80,0,0
51119,-200,4,2,1,80,0,0
51295,-100,4,2,1,80,0,0
53766,-80,4,2,1,80,0,0
54119,-100,4,2,1,80,0,0
56942,-200,4,2,1,80,0,0
57295,-100,4,2,1,80,0,0
58001,-66.6666666666667,4,2,1,80,0,0
58354,-100,4,2,1,80,0,0
59501,-100,4,2,1,70,0,0
59589,-100,4,2,1,80,0,0
61177,-133.333333333333,4,2,1,80,0,0
61441,-133.333333333333,4,2,1,70,0,0
61530,-133.333333333333,4,2,1,80,0,0
61707,-100,4,2,1,80,0,0
61795,-100,4,2,1,70,0,0
62060,-100,4,2,1,80,0,0
62236,-57.1428571428571,4,2,1,80,0,0
62589,-100,4,2,1,80,0,0
63295,-100,4,2,1,70,0,0
63383,-100,4,2,1,80,0,0
63648,-66.6666666666667,4,2,1,80,0,0
64001,-100,4,2,1,80,0,0
64177,-100,4,2,1,70,0,0
64266,-100,4,2,1,80,0,0
64442,-100,4,2,1,70,0,0
64530,-100,4,2,1,80,0,0
64706,-100,4,2,1,70,0,0
64883,-100,4,2,1,80,0,0
65060,-66.6666666666667,4,2,1,80,0,0
65413,-100,4,2,1,80,0,0
66118,-100,4,2,1,70,0,0
66207,-100,4,2,1,80,0,0
66471,-66.6666666666667,4,2,1,80,0,0
66736,-66.6666666666667,4,2,1,70,0,0
66824,-100,4,2,1,80,0,0
67088,-100,4,2,1,70,0,0
67177,-66.6666666666667,4,2,1,80,0,0
67707,-100,4,2,1,80,0,0
67795,-100,4,2,1,70,0,0
67883,-66.6666666666667,4,2,1,80,0,0
68236,-100,4,2,1,80,0,0
68942,-100,4,2,1,70,0,0
69030,-100,4,2,1,80,0,0
69295,-66.6666666666667,4,2,1,80,0,0
69648,-100,4,2,1,80,0,0
70089,-100,4,2,1,70,0,0
70177,-100,4,2,1,80,0,0
70354,-100,4,2,1,70,0,0
70442,-100,4,2,1,80,0,0
73354,-66.6666666666667,4,2,1,70,0,0
73530,-50,4,2,1,80,0,0
73883,-133.333333333333,4,2,1,80,0,0
74059,-133.333333333333,4,2,1,70,0,0
74766,-133.333333333333,4,2,69,70,0,0
79177,-100,4,2,69,70,0,0
79530,-133.333333333333,4,2,69,70,0,0
85177,-33.3333333333333,4,2,1,80,0,0
85206,-33.3333333333333,4,2,1,70,0,0
85354,-333.333333333333,4,2,1,70,0,0
85619,-66.6666666666667,4,2,1,70,0,0
85883,-100,4,2,1,70,0,0
86236,-66.6666666666667,4,2,1,70,0,0
86589,-66.6666666666667,4,2,1,60,0,0
86810,-66.6666666666667,4,2,1,70,0,0
86942,-133.333333333333,4,2,1,60,0,0
87162,-133.333333333333,4,2,1,70,0,0
87207,-66.6666666666667,4,2,1,60,0,0
87471,-66.6666666666667,4,2,1,80,0,0
87530,-66.6666666666667,4,2,1,70,0,0
87648,-57.1428571428571,4,2,1,80,0,0
88001,-80,4,2,1,90,0,0
88442,-80,4,2,1,70,0,0
88530,-80,4,2,1,90,0,0
88707,-74.0740740740741,4,2,1,70,0,0
88971,-74.0740740740741,4,2,1,90,0,0
89060,-66.6666666666667,4,2,1,90,0,0
89324,-66.6666666666667,4,2,1,70,0,0
89413,-66.6666666666667,4,2,1,90,0,0
89942,-100,4,2,1,90,0,0
90119,-100,4,2,1,70,0,0
90207,-100,4,2,1,90,0,0
90383,-100,4,2,1,70,0,0
90472,-100,4,2,1,90,0,0
90824,-80,4,2,1,90,0,0
91088,-80,4,2,1,70,0,0
91177,-80,4,2,1,90,0,0
91265,-80,4,2,1,70,0,0
91354,-80,4,2,1,90,0,0
91530,-80,4,2,1,70,0,0
91618,-80,4,2,1,90,0,0
91883,-66.6666666666667,4,2,1,90,0,0
92236,-100,4,2,1,90,0,0
92412,-100,4,2,1,70,0,0
92589,-100,4,2,1,90,0,0
92766,-80,4,2,1,90,0,0
92942,-80,4,2,1,70,0,0
93030,-80,4,2,1,90,0,0
93295,-133.333333333333,4,2,1,90,0,0
93648,-100,4,2,1,90,0,0
94001,-80,4,2,1,90,0,0
94089,-80,4,2,1,70,0,0
94177,-80,4,2,1,90,0,0
94353,-80,4,2,1,70,0,0
94441,-80,4,2,1,90,0,0
94707,-66.6666666666667,4,2,1,90,0,0
95060,-74.0740740740741,4,2,1,90,0,0
95148,-74.0740740740741,4,2,1,70,0,0
95324,-74.0740740740741,4,2,1,90,0,0
95501,-74.0740740740741,4,2,1,70,0,0
95589,-74.0740740740741,4,2,1,90,0,0
95766,-133.333333333333,4,2,1,90,0,0
96471,-80,4,2,1,90,0,0
96647,-80,4,2,1,70,0,0
96824,-80,4,2,1,90,0,0
97177,-80,4,2,1,70,0,0
97354,-80,4,2,1,90,0,0
97442,-80,4,2,1,70,0,0
97531,-80,4,2,1,90,0,0
97883,-66.6666666666667,4,2,1,90,0,0
98236,-74.0740740740741,4,2,1,90,0,0
98501,-74.0740740740741,4,2,1,70,0,0
98589,-83.3333333333333,4,2,1,90,0,0
98854,-83.3333333333333,4,2,1,70,0,0
98942,-74.0740740740741,4,2,1,90,0,0
99295,-80,4,2,1,90,0,0
99736,-80,4,2,1,70,0,0
99824,-80,4,2,1,90,0,0
100001,-74.0740740740741,4,2,1,70,0,0
100265,-74.0740740740741,4,2,1,90,0,0
100354,-66.6666666666667,4,2,1,90,0,0
100618,-66.6666666666667,4,2,1,70,0,0
100707,-133.333333333333,4,2,1,90,0,0
100883,-133.333333333333,4,2,1,70,0,0
100971,-133.333333333333,4,2,1,90,0,0
101413,-133.333333333333,4,2,1,70,0,0
101589,-133.333333333333,4,2,1,90,0,0
102119,-79.9999999999999,4,2,1,90,0,0
102471,-74.0740740740741,4,2,1,90,0,0
102736,-133.333333333333,4,2,1,90,0,0
103089,-133.333333333333,4,2,1,70,0,0
103177,-100,4,2,1,90,0,0
103265,-100,4,2,1,70,0,0
103354,-100,4,2,1,90,0,0
103530,-80,4,2,1,90,0,0
104148,-80,4,2,1,70,0,0
104236,-80,4,2,1,90,0,0
104589,-74.0740740740741,4,2,1,90,0,0
104942,-100,4,2,1,90,0,0
105295,-80,4,2,1,90,0,0
106001,-74.0740740740741,4,2,1,90,0,0
106265,-74.0740740740741,4,2,1,70,0,0
106354,-74.0740740740741,4,2,1,90,0,0
106442,-74.0740740740741,4,2,1,70,0,0
106530,-74.0740740740741,4,2,1,90,0,0
106883,-100,4,2,1,90,0,0
107060,-83.3333333333333,4,2,1,70,0,0
107148,-83.3333333333333,4,2,1,90,0,0
107236,-71.4285714285714,4,2,1,90,0,0
107324,-71.4285714285714,4,2,1,70,0,0
107413,-62.5,4,2,1,90,0,0
107589,-55.5555555555556,4,2,1,90,0,0
107677,-55.5555555555556,4,2,1,70,0,0
107766,-79.9999999999999,4,2,1,90,0,0
108295,-74.0740740740741,4,2,1,90,0,0
108383,-74.0740740740741,4,2,1,70,0,0
108559,-74.0740740740741,4,2,1,90,0,0
108912,-74.0740740740741,4,2,1,70,0,0
109001,-74.0740740740741,4,2,1,90,0,0
109530,-250,4,2,1,90,0,0
109883,-50,4,2,1,90,0,0
110589,-133.333333333333,4,2,1,90,0,0
110677,-133.333333333333,4,2,1,80,0,0
111296,-133.333333333333,4,2,1,70,0,0
111384,-133.333333333333,4,2,1,80,0,0
112795,-133.333333333333,4,2,1,70,0,0
112883,-133.333333333333,4,2,1,80,0,0
113148,-133.333333333333,4,2,1,70,0,0
113236,-133.333333333333,4,2,1,80,0,0
113501,-133.333333333333,4,2,1,70,0,0
113677,-133.333333333333,4,2,1,80,0,0
115530,-133.333333333333,4,2,1,70,0,0
115619,-133.333333333333,4,2,1,80,0,0
115971,-133.333333333333,4,2,1,70,0,0
116060,-133.333333333333,4,2,1,80,0,0
116148,-133.333333333333,4,2,1,70,0,0
116236,-125,4,2,1,80,0,0
116942,-125,4,2,1,70,0,0
117030,-125,4,2,1,80,0,0
117207,-125,4,2,1,70,0,0
117295,-125,4,2,1,80,0,0
117559,-125,4,2,1,70,0,0
117648,-125,4,2,1,80,0,0
117912,-125,4,2,1,70,0,0
118001,-125,4,2,1,80,0,0
118265,-125,4,2,1,70,0,0
118353,-125,4,2,1,80,0,0
118442,-125,4,2,1,70,0,0
118707,-125,4,2,1,80,0,0
118795,-125,4,2,1,70,0,0
118883,-125,4,2,1,80,0,0
119148,-125,4,2,1,70,0,0
119324,-125,4,2,1,80,0,0
119765,-125,4,2,1,70,0,0
119853,-125,4,2,1,80,0,0
120207,-125,4,2,1,70,0,0
120295,-125,4,2,1,80,0,0
120471,-250,4,2,1,80,0,0
120912,-250,4,2,1,70,0,0
121001,-250,4,2,1,80,0,0
121530,-250,4,2,1,70,0,0
121707,-125,4,2,1,80,0,0
121883,-100,4,2,1,80,0,0
122589,-100,4,2,1,70,0,0
122766,-100,4,2,1,80,0,0
123030,-100,4,2,1,70,0,0
123119,-100,4,2,1,80,0,0
123295,-166.666666666667,4,2,1,80,0,0
123471,-166.666666666667,4,2,1,70,0,0
123560,-166.666666666667,4,2,1,80,0,0
123956,-166.666666666667,4,2,1,70,0,0
124001,-100,4,2,1,70,0,0
124177,-100,4,2,1,80,0,0
124266,-100,4,2,1,70,0,0
124619,-100,4,2,1,80,0,0
124707,-125,4,2,1,80,0,0
124971,-125,4,2,1,70,0,0
125060,-125,4,2,1,80,0,0
125148,-125,4,2,1,70,0,0
125236,-125,4,2,1,80,0,0
125413,-125,4,2,1,70,0,0
125589,-125,4,2,1,80,0,0
125677,-125,4,2,1,70,0,0
125766,-125,4,2,1,80,0,0
126030,-125,4,2,1,70,0,0
126119,-100,4,2,1,80,0,0
126559,-100,4,2,1,70,0,0
126648,-100,4,2,1,80,0,0
126736,-100,4,2,1,70,0,0
126824,-111.111111111111,4,2,1,70,0,0
126912,-111.111111111111,4,2,1,80,0,0
127089,-111.111111111111,4,2,1,70,0,0
127177,-111.111111111111,4,2,1,80,0,0
127265,-111.111111111111,4,2,1,70,0,0
127354,-111.111111111111,4,2,1,80,0,0
127530,-125,4,2,1,80,0,0
128677,-125,4,2,1,70,0,0
128766,-125,4,2,1,80,0,0
128854,-125,4,2,1,70,0,0
128942,-125,4,2,1,80,0,0
129118,-125,4,2,1,70,0,0
129207,-125,4,2,1,80,0,0
129559,-125,4,2,1,70,0,0
129735,-125,4,2,1,80,0,0
130354,-142.857142857143,4,2,1,80,0,0
130530,-142.857142857143,4,2,1,70,0,0
130707,-142.857142857143,4,2,1,80,0,0
131059,-142.857142857143,4,2,1,70,0,0
131236,-142.857142857143,4,2,1,80,0,0
131501,-142.857142857143,4,2,1,70,0,0
131589,-142.857142857143,4,2,1,80,0,0
131677,-142.857142857143,4,2,1,70,0,0
131766,-200,4,2,1,80,0,0
132030,-200,4,2,1,70,0,0
132119,-200,4,2,1,80,0,0
133177,-111.111111111111,4,2,1,80,0,0
133265,-111.111111111111,4,2,1,70,0,0
133353,-111.111111111111,4,2,1,80,0,0
134324,-111.111111111111,4,2,1,70,0,0
134412,-111.111111111111,4,2,1,80,0,0
134501,-111.111111111111,4,2,1,70,0,0
134589,-111.111111111111,4,2,1,80,0,0
136442,-111.111111111111,4,2,1,70,0,0
136530,-111.111111111111,4,2,1,80,0,0
136971,-111.111111111111,4,2,1,70,0,0
137060,-111.111111111111,4,2,1,80,0,0
137854,-111.111111111111,4,2,1,70,0,0
137942,-111.111111111111,4,2,1,80,0,0
138119,-83.3333333333333,4,2,1,80,0,0
138736,-83.3333333333333,4,2,1,70,0,0
138824,-333.333333333333,4,2,1,80,0,0
139088,-333.333333333333,4,2,1,70,0,0
139177,-83.3333333333333,4,2,1,80,0,0
139221,-83.3333333333333,4,2,1,70,0,0
139266,-83.3333333333333,4,2,1,80,0,0
139310,-83.3333333333333,4,2,1,70,0,0
139354,-83.3333333333333,4,2,1,80,0,0
139398,-83.3333333333333,4,2,1,70,0,0
139442,-83.3333333333333,4,2,1,80,0,0
139486,-83.3333333333333,4,2,1,70,0,0
139530,-83.3333333333333,4,2,1,80,0,0
139619,-83.3333333333333,4,2,1,70,0,0
139707,-83.3333333333333,4,2,1,80,0,0
139796,-83.3333333333333,4,2,1,70,0,0
139883,-83.3333333333333,4,2,1,80,0,0
140236,-100,4,2,1,80,0,0
140854,-100,4,2,1,70,0,0
140942,-100,4,2,1,80,0,0
141207,-100,4,2,1,70,0,0
141295,-100,4,2,1,80,0,0
141383,-100,4,2,1,70,0,0
141471,-100,4,2,1,80,0,0
141560,-100,4,2,1,70,0,0
141648,-66.6666666666667,4,2,1,80,0,0
142001,-100,4,2,1,80,0,0
142266,-100,4,2,1,70,0,0
142354,-100,4,2,1,80,0,0
142442,-100,4,2,1,70,0,0
142530,-100,4,2,1,80,0,0
142619,-100,4,2,1,70,0,0
142707,-100,4,2,1,80,0,0
142795,-100,4,2,1,70,0,0
142883,-100,4,2,1,80,0,0
142972,-100,4,2,1,70,0,0
143060,-66.6666666666667,4,2,1,80,0,0
143148,-66.6666666666667,4,2,1,70,0,0
143236,-100,4,2,1,80,0,0
143324,-100,4,2,1,70,0,0
143413,-100,4,2,1,80,0,0
143501,-100,4,2,1,70,0,0
143589,-100,4,2,1,80,0,0
143677,-100,4,2,1,70,0,0
143766,-66.6666666666667,4,2,1,80,0,0
144119,-100,4,2,1,80,0,0
144471,-66.6666666666667,4,2,1,90,0,0
145883,-166.666666666667,4,2,1,65,0,0
146500,-166.666666666667,4,2,1,70,0,0
146589,-55.5555555555556,4,2,1,65,0,0
146633,-55.5555555555556,4,2,1,70,0,0
146677,-55.5555555555556,4,2,1,65,0,0
146721,-55.5555555555556,4,2,1,70,0,0
146765,-55.5555555555556,4,2,1,65,0,0
146809,-55.5555555555556,4,2,1,70,0,0
146942,-83.3333333333333,4,2,1,65,0,0
147295,-100,4,2,1,80,0,0
147471,-100,4,2,1,70,0,0
147560,-100,4,2,1,80,0,0
148001,-100,4,2,1,70,0,0
148089,-100,4,2,1,80,0,0
148266,-100,4,2,1,70,0,0
148354,-83.3333333333333,4,2,1,80,0,0
148442,-83.3333333333333,4,2,1,70,0,0
148530,-83.3333333333333,4,2,1,80,0,0
148707,-100,4,2,1,80,0,0
148883,-100,4,2,1,70,0,0
148971,-100,4,2,1,80,0,0
149324,-100,4,2,1,70,0,0
149500,-100,4,2,1,80,0,0
149766,-83.3333333333333,4,2,1,80,0,0
149854,-83.3333333333333,4,2,1,70,0,0
149942,-100,4,2,1,70,0,0
150030,-100,4,2,1,80,0,0
150295,-100,4,2,1,70,0,0
150383,-100,4,2,1,80,0,0
150824,-100,4,2,1,70,0,0
150912,-100,4,2,1,80,0,0
151089,-100,4,2,1,70,0,0
151177,-83.3333333333333,4,2,1,80,0,0
151265,-83.3333333333333,4,2,1,70,0,0
151354,-83.3333333333333,4,2,1,80,0,0
151530,-100,4,2,1,80,0,0
151706,-100,4,2,1,70,0,0
151795,-100,4,2,1,80,0,0
152060,-83.3333333333333,4,2,1,80,0,0
152236,-83.3333333333333,4,2,1,70,0,0
152324,-83.3333333333333,4,2,1,80,0,0
152589,-90.9090909090909,4,2,1,80,0,0
152677,-90.9090909090909,4,2,1,70,0,0
152854,-90.9090909090909,4,2,1,80,0,0
152942,-100,4,2,1,80,0,0
153207,-111.111111111111,4,2,1,80,0,0
153560,-125,4,2,1,80,0,0
153648,-125,4,2,1,70,0,0
153736,-125,4,2,1,80,0,0
153913,-125,4,2,1,70,0,0
154001,-83.3333333333333,4,2,1,80,0,0
154089,-83.3333333333333,4,2,1,70,0,0
154177,-83.3333333333333,4,2,1,80,0,0
154354,-100,4,2,1,80,0,0
154618,-100,4,2,1,70,0,0
154707,-100,4,2,1,80,0,0
155059,-100,4,2,1,70,0,0
155147,-100,4,2,1,80,0,0
155413,-83.3333333333333,4,2,1,80,0,0
155678,-83.3333333333333,4,2,1,70,0,0
155766,-100,4,2,1,80,0,0
156472,-100,4,2,1,70,0,0
156560,-100,4,2,1,80,0,0
157177,-400,4,2,1,80,0,0
157706,-400,4,2,1,70,0,0
159295,-100,4,2,1,70,0,0
159648,-133.333333333333,4,2,1,70,0,0
170236,-200,4,2,22,60,0,0
170501,-200,4,2,22,70,0,0
170589,-66.6666666666667,4,2,22,60,0,0
170677,-66.6666666666667,4,2,22,70,0,0
170766,-100,4,2,22,70,0,0
170854,-100,4,2,22,60,0,0
170942,-100,4,2,1,70,0,0
170986,-100,4,2,1,60,0,0
171295,-100,4,2,1,80,0,0
171383,-100,4,2,1,70,0,0
171559,-100,4,2,1,80,0,0
172001,-100,4,2,1,70,0,0
172090,-100,4,2,1,80,0,0
172265,-100,4,2,1,70,0,0
172353,-100,4,2,1,80,0,0
172441,-100,4,2,1,70,0,0
172530,-100,4,2,1,80,0,0
172707,-125,4,2,1,80,0,0
173412,-125,4,2,1,70,0,0
173501,-125,4,2,1,80,0,0
173942,-125,4,2,1,70,0,0
174030,-125,4,2,1,80,0,0
175089,-125,4,2,1,70,0,0
175177,-125,4,2,1,80,0,0
175266,-125,4,2,1,70,0,0
175354,-125,4,2,1,80,0,0
175530,-100,4,2,1,80,0,0
175971,-100,4,2,1,70,0,0
176060,-100,4,2,1,80,0,0
176148,-100,4,2,1,70,0,0
176324,-100,4,2,1,80,0,0
176501,-100,4,2,1,70,0,0
176589,-100,4,2,1,80,0,0
176765,-100,4,2,1,70,0,0
176854,-100,4,2,1,80,0,0
177030,-100,4,2,1,70,0,0
177207,-100,4,2,1,80,0,0
177648,-100,4,2,1,70,0,0
177736,-100,4,2,1,80,0,0
178089,-100,4,2,1,70,0,0
178177,-100,4,2,1,80,0,0
178354,-125,4,2,1,80,0,0
179059,-125,4,2,1,70,0,0
179148,-125,4,2,1,80,0,0
179324,-125,4,2,1,70,0,0
179413,-100,4,2,1,80,0,0
179589,-100,4,2,1,70,0,0
179766,-100,4,2,1,80,0,0
180030,-100,4,2,1,70,0,0
180119,-100,4,2,1,80,0,0
180471,-100,4,2,1,70,0,0
180560,-100,4,2,1,80,0,0
180736,-100,4,2,1,70,0,0
180824,-100,4,2,1,80,0,0
180913,-100,4,2,1,70,0,0
181001,-100,4,2,1,80,0,0
181177,-80,4,2,1,70,0,0
181442,-100,4,2,1,70,0,0
181619,-33.3333333333333,4,2,1,45,0,0
181707,-33.3333333333333,4,2,1,50,0,0
181795,-33.3333333333333,4,2,1,65,0,0
181883,-100,4,2,1,90,0,0
182589,-166.666666666667,4,2,1,90,0,0
182942,-83.3333333333333,4,2,1,90,0,0
183912,-83.3333333333333,4,2,1,70,0,0
184001,-83.3333333333333,4,2,1,90,0,0
185060,-66.6666666666667,4,2,1,90,0,0
185413,-83.3333333333333,4,2,1,90,0,0
186119,-100,4,2,1,90,0,0
186735,-100,4,2,1,70,0,0
186824,-100,4,2,1,90,0,0
187177,-83.3333333333333,4,2,1,90,0,0
188280,-83.3333333333333,4,2,1,70,0,0
188324,-83.3333333333333,4,2,1,90,0,0
188457,-83.3333333333333,4,2,1,70,0,0
188501,-83.3333333333333,4,2,1,90,0,0
188633,-83.3333333333333,4,2,1,70,0,0
188677,-83.3333333333333,4,2,1,90,0,0
188810,-83.3333333333333,4,2,1,70,0,0
188854,-83.3333333333333,4,2,1,90,0,0
188942,-100,4,2,1,90,0,0
189295,-66.6666666666667,4,2,1,90,0,0
189648,-83.3333333333333,4,2,1,90,0,0
190001,-100,4,2,1,90,0,0
190707,-83.3333333333333,4,2,1,90,0,0
191060,-100,4,2,1,90,0,0
192119,-66.6666666666667,4,2,1,90,0,0
192207,-66.6666666666667,4,2,1,70,0,0
192471,-166.666666666667,4,2,1,90,0,0
192735,-166.666666666667,4,2,1,70,0,0
192824,-166.666666666667,4,2,1,90,0,0
193530,-83.3333333333334,4,2,1,90,0,0
193552,-83.3333333333334,4,2,1,70,0,0
193794,-83.3333333333334,4,2,1,90,0,0
193883,-166.666666666667,4,2,1,90,0,0
194235,-166.666666666667,4,2,85,75,0,0
195295,-142.857142857143,4,2,85,75,0,0
196707,-125,4,2,85,75,0,0
198119,-142.857142857143,4,2,85,75,0,0
198295,-142.857142857143,4,2,85,70,0,0
198471,-142.857142857143,4,2,85,75,0,0
199001,-166.666666666667,4,2,85,75,0,0
199530,-200,4,2,85,75,0,0
201295,-66.6666666666667,4,2,85,75,0,0
201559,-66.6666666666667,4,2,85,70,0,0
201648,-66.6666666666667,4,2,85,75,0,0
201736,-66.6666666666667,4,2,85,70,0,0
201824,-66.6666666666667,4,2,85,75,0,0
202354,-66.6666666666667,4,2,1,90,0,0
202707,-66.6666666666667,4,2,1,70,0,0
205177,-200,4,2,1,90,0,0
212853,-200,4,2,1,70,0,0
212942,-166.666666666667,4,2,42,60,0,0
213559,-166.666666666667,4,2,42,70,0,0
213648,-166.666666666667,4,2,42,60,0,0
214265,-166.666666666667,4,2,42,70,0,0
214530,-166.666666666667,4,2,42,60,0,0
214574,-166.666666666667,4,2,42,70,0,0
214707,-83.3333333333333,4,2,42,60,0,0
215059,-83.3333333333333,4,2,3,80,0,0
216471,-66.6666666666667,4,2,3,80,0,0
216647,-66.6666666666667,4,2,3,70,0,0
216736,-166.666666666667,4,2,3,70,0,0
217530,-83.3333333333334,4,2,3,80,0,0
217883,-66.6666666666667,4,2,1,90,0,0
218324,-66.6666666666667,4,2,1,70,0,0
218413,-74.0740740740741,4,2,1,90,0,0
218942,-83.3333333333333,4,2,1,90,0,0
219207,-83.3333333333333,4,2,1,70,0,0
219295,-100,4,2,1,90,0,0
220000,-100,4,2,1,70,0,0
220088,-100,4,2,1,90,0,0
220442,-100,4,2,1,70,0,0
220707,-83.3333333333333,4,2,1,90,0,0
220883,-83.3333333333333,4,2,1,70,0,0
220971,-83.3333333333333,4,2,1,90,0,0
221148,-83.3333333333333,4,2,1,70,0,0
221236,-68.9655172413793,4,2,1,90,0,0
221766,-100,4,2,1,90,0,0
221854,-100,4,2,1,70,0,0
221942,-100,4,2,1,90,0,0
222119,-83.3333333333333,4,2,1,90,0,0
222559,-83.3333333333333,4,2,1,70,0,0
222648,-83.3333333333333,4,2,1,90,0,0
222736,-83.3333333333333,4,2,1,70,0,0
222824,-83.3333333333333,4,2,1,90,0,0
223089,-83.3333333333333,4,2,1,70,0,0
223177,-100,4,2,1,90,0,0
223442,-100,4,2,1,70,0,0
223530,-83.3333333333333,4,2,1,90,0,0
223971,-83.3333333333333,4,2,1,70,0,0
224060,-83.3333333333333,4,2,1,90,0,0
224589,-71.4285714285714,4,2,1,90,0,0
224677,-71.4285714285714,4,2,1,70,0,0
224766,-71.4285714285714,4,2,1,90,0,0
224854,-71.4285714285714,4,2,1,70,0,0
224942,-100,4,2,1,90,0,0
225030,-100,4,2,1,70,0,0
225295,-66.6666666666667,4,2,1,90,0,0
225647,-66.6666666666667,4,2,1,70,0,0
225736,-66.6666666666667,4,2,1,90,0,0
226265,-66.6666666666667,4,2,1,70,0,0
226354,-76.9230769230769,4,2,1,90,0,0
226795,-76.9230769230769,4,2,1,70,0,0
226883,-76.9230769230769,4,2,1,90,0,0
227413,-71.4285714285714,4,2,1,90,0,0
227501,-71.4285714285714,4,2,1,70,0,0
227589,-71.4285714285714,4,2,1,90,0,0
227677,-71.4285714285714,4,2,1,70,0,0
227766,-71.4285714285714,4,2,1,90,0,0
228119,-80,4,2,1,90,0,0
228471,-50,4,2,1,90,0,0
228824,-66.6666666666667,4,2,1,90,0,0
229177,-83.3333333333333,4,2,1,90,0,0
229707,-71.4285714285714,4,2,1,90,0,0
229883,-71.4285714285714,4,2,1,70,0,0
230060,-71.4285714285714,4,2,1,90,0,0
230765,-71.4285714285714,4,2,1,70,0,0
230854,-71.4285714285714,4,2,1,90,0,0
231295,-71.4285714285714,4,2,1,70,0,0
231383,-71.4285714285714,4,2,1,90,0,0
231471,-83.3333333333333,4,2,1,90,0,0
231648,-71.4285714285714,4,2,1,90,0,0
231824,-62.5,4,2,1,90,0,0
232266,-62.5,4,2,1,70,0,0
232354,-62.5,4,2,1,90,0,0
232442,-62.5,4,2,1,70,0,0
232530,-62.5,4,2,1,90,0,0
232707,-62.5,4,2,1,70,0,0
232795,-62.5,4,2,1,90,0,0
232883,-71.4285714285714,4,2,1,90,0,0
233060,-62.5,4,2,1,90,0,0
233148,-62.5,4,2,1,70,0,0
233236,-55.5555555555556,4,2,1,90,0,0
233942,-62.5,4,2,1,90,0,0
234119,-62.5,4,2,1,70,0,0
234295,-62.5,4,2,1,90,0,0
234383,-62.5,4,2,1,70,0,0
234471,-62.5,4,2,1,90,0,0
234560,-62.5,4,2,1,70,0,0
234648,-62.5,4,2,1,90,0,0
234824,-71.4285714285714,4,2,1,90,0,0
235265,-71.4285714285714,4,2,1,70,0,0
235353,-71.4285714285714,4,2,1,90,0,0
235530,-71.4285714285714,4,2,1,70,0,0
235618,-71.4285714285714,4,2,1,90,0,0
236060,-83.3333333333333,4,2,1,90,0,0
236148,-83.3333333333333,4,2,1,70,0,0
236236,-83.3333333333333,4,2,1,90,0,0
236324,-83.3333333333333,4,2,1,70,0,0
236501,-83.3333333333333,4,2,1,90,0,0
236854,-83.3333333333333,4,2,1,70,0,0
237030,-83.3333333333333,4,2,1,90,0,0
237207,-83.3333333333333,4,2,1,70,0,0
237295,-83.3333333333333,4,2,1,90,0,0
237383,-83.3333333333333,4,2,1,70,0,0
237559,-83.3333333333333,4,2,1,90,0,0
237648,-100,4,2,1,90,0,0
238089,-100,4,2,1,70,0,0
238177,-100,4,2,1,90,0,0
238353,-100,4,2,1,70,0,0
238530,-100,4,2,1,90,0,0
239060,-125,4,2,1,90,0,0
239766,-83.3333333333333,4,2,1,90,0,0
240471,-83.3333333333333,4,2,1,80,0,0
241354,-100,4,2,1,80,0,0
241442,-100,4,2,1,70,0,0
241530,-100,4,2,1,80,0,0
241795,-100,4,2,1,70,0,0
241883,-100,4,2,1,80,0,0
242236,-100,4,2,1,70,0,0
242413,-100,4,2,1,80,0,0
242501,-100,4,2,1,70,0,0
242589,-100,4,2,1,80,0,0
242766,-83.3333333333333,4,2,1,80,0,0
242854,-83.3333333333333,4,2,1,70,0,0
242942,-83.3333333333333,4,2,1,80,0,0
243030,-83.3333333333333,4,2,1,70,0,0
243118,-83.3333333333333,4,2,1,80,0,0
243206,-83.3333333333333,4,2,1,70,0,0
243295,-83.3333333333333,4,2,1,80,0,0
244177,-71.4285714285714,4,2,1,80,0,0
244618,-71.4285714285714,4,2,1,70,0,0
244707,-71.4285714285714,4,2,1,80,0,0
245060,-71.4285714285714,4,2,1,70,0,0
245236,-71.4285714285714,4,2,1,80,0,0
245589,-76.9230769230769,4,2,1,80,0,0
245677,-76.9230769230769,4,2,1,70,0,0
245766,-76.9230769230769,4,2,1,80,0,0
245854,-76.9230769230769,4,2,1,70,0,0
245942,-76.9230769230769,4,2,1,80,0,0
246030,-76.9230769230769,4,2,1,70,0,0
246119,-83.3333333333333,4,2,1,80,0,0
246383,-83.3333333333333,4,2,1,70,0,0
246471,-83.3333333333333,4,2,1,80,0,0
246824,-83.3333333333333,4,2,1,70,0,0
246913,-83.3333333333333,4,2,1,80,0,0
247177,-100,4,2,1,80,0,0
247442,-100,4,2,1,70,0,0
247530,-83.3333333333333,4,2,1,80,0,0
247883,-83.3333333333333,4,2,1,70,0,0
248060,-83.3333333333333,4,2,1,80,0,0
248148,-83.3333333333333,4,2,1,70,0,0
248236,-83.3333333333333,4,2,1,80,0,0
248942,-125,4,2,1,80,0,0
249030,-125,4,2,1,70,0,0
249119,-125,4,2,1,80,0,0
249207,-125,4,2,1,70,0,0
249295,-100,4,2,1,80,0,0
249383,-100,4,2,1,70,0,0
249471,-83.3333333333333,4,2,1,80,0,0
249559,-83.3333333333333,4,2,1,70,0,0
249648,-71.4285714285714,4,2,1,80,0,0
249824,-71.4285714285714,4,2,1,70,0,0
250001,-100,4,2,1,80,0,0
250089,-100,4,2,1,70,0,0
250177,-100,4,2,1,80,0,0
250265,-100,4,2,1,70,0,0
250354,-62.5,4,2,1,80,0,0
251060,-250,4,2,1,80,0,0
251766,-83.3333333333333,4,2,1,80,0,0
252471,-83.3333333333333,4,2,1,70,0,0
252560,-83.3333333333333,4,2,1,80,0,0
253089,-83.3333333333333,4,2,1,70,0,0
253177,-83.3333333333333,4,2,1,80,0,0
253442,-83.3333333333333,4,2,1,70,0,0
253530,-83.3333333333333,4,2,1,80,0,0
253619,-83.3333333333333,4,2,1,70,0,0
253707,-83.3333333333333,4,2,1,80,0,0
254148,-83.3333333333333,4,2,1,70,0,0
254412,-83.3333333333333,4,2,1,80,0,0
254853,-83.3333333333333,4,2,1,70,0,0
254941,-83.3333333333333,4,2,1,80,0,0
255295,-83.3333333333333,4,2,1,70,0,0
255383,-83.3333333333333,4,2,1,80,0,0
255560,-83.3333333333333,4,2,1,70,0,0
255648,-83.3333333333333,4,2,1,80,0,0
255736,-83.3333333333333,4,2,1,70,0,0
255824,-83.3333333333333,4,2,1,80,0,0
255913,-83.3333333333333,4,2,1,70,0,0
256001,-66.6666666666667,4,2,1,80,0,0
256442,-66.6666666666667,4,2,1,70,0,0
256530,-66.6666666666667,4,2,1,80,0,0
256618,-66.6666666666667,4,2,1,70,0,0
256707,-41.6666666666667,4,2,1,80,0,0
257104,-41.6666666666667,4,2,1,70,0,0
257236,-83.3333333333333,4,2,1,80,0,0
257501,-83.3333333333333,4,2,1,70,0,0
257589,-83.3333333333333,4,2,1,80,0,0
257677,-83.3333333333333,4,2,1,70,0,0
257765,-83.3333333333333,4,2,1,80,0,0
257854,-83.3333333333333,4,2,1,70,0,0
257942,-83.3333333333333,4,2,1,80,0,0
258118,-83.3333333333333,4,2,1,70,0,0
258206,-83.3333333333333,4,2,1,80,0,0
258560,-83.3333333333333,4,2,1,70,0,0
258648,-83.3333333333333,4,2,1,80,0,0
258736,-83.3333333333333,4,2,1,70,0,0
258824,-83.3333333333333,4,2,1,80,0,0
258912,-83.3333333333333,4,2,1,70,0,0
259001,-83.3333333333333,4,2,1,80,0,0
259089,-83.3333333333333,4,2,1,70,0,0
259177,-83.3333333333333,4,2,1,80,0,0
259265,-83.3333333333333,4,2,1,70,0,0
259354,-83.3333333333333,4,2,1,80,0,0
259442,-83.3333333333333,4,2,1,70,0,0
259531,-83.3333333333333,4,2,1,80,0,0
259619,-83.3333333333333,4,2,1,70,0,0
259708,-83.3333333333333,4,2,1,80,0,0
259971,-83.3333333333333,4,2,1,70,0,0
260060,-83.3333333333333,4,2,1,80,0,0
260412,-83.3333333333333,4,2,1,70,0,0
260589,-83.3333333333333,4,2,1,80,0,0
261207,-83.3333333333333,4,2,1,70,0,0
261295,-83.3333333333333,4,2,1,80,0,0
261383,-83.3333333333333,4,2,1,70,0,0
261471,-83.3333333333333,4,2,1,80,0,0
261648,-125,4,2,1,80,0,0
261736,-125,4,2,1,70,0,0
262001,-250,4,2,1,80,0,0
262266,-250,4,2,1,70,0,0
262354,-100,4,2,1,70,0,0
262530,-100,4,2,1,80,0,0
262971,-100,4,2,1,70,0,0
263060,-100,4,2,1,100,0,0

[Colours]
Combo1 : 236,182,172
Combo2 : 29,90,109
Combo3 : 117,162,172
Combo4 : 69,142,167
Combo5 : 136,192,212
Combo6 : 243,90,86

[HitObjects]
187,12,472,6,0,B|147:99|182:215|450:146|445:83|429:-16|347:-44|223:-179|150:78|275:165|235:179|346:208|291:175|348:161|408:148|443:215|328:298|337:339|351:228|317:313|249:210|207:269|201:346|261:363,1,846,2|0,2:1|0:0,0:0:0:0:
271,356,4707,6,0,B|311:332|343:342|343:342|336:361|320:352,1,90,0|0,3:0|0:0,2:0:0:0:
400,373,4883,6,0,L|399:398,1,18,0|0,0:0|2:0,0:0:0:0:
453,335,5060,6,0,P|471:285|464:257,1,72,2|0,3:2|2:0,2:0:0:0:
453,205,5324,38,0,B|446:181|439:174|446:211,8,45,2|0|0|0|0|0|0|0|0,3:0|0:0|2:0|0:0|2:0|0:0|2:0|0:0|2:0,2:0:0:0:
384,231,5589,5,0,0:0:0:0:
378,238,5648,2,0,L|346:236,1,24,0|0,0:0|2:0,0:0:0:0:
309,186,5766,6,0,B|288:183|288:183|276:189|276:189|255:187,1,53.9999983520508,0|0,3:0|0:0,2:0:0:0:
280,172,5942,2,0,B|279:182|279:182|282:188|282:188|281:199,2,26.9999991760254
243,116,6119,6,0,P|272:90|318:108,2,80.9999975280763,2|0|2,1:2|2:0|1:3,2:0:0:0:
239,120,6471,38,0,L|175:115,1,53.9999983520508,0|0,3:0|0:0,2:0:0:0:
121,111,6824,2,0,L|126:150,1,36,0|0,3:0|3:0,2:0:0:0:
129,150,8766,6,0,L|84:156,1,26.9999991760254,2|0,1:2|2:0,2:0:0:0:
78,214,8942,6,0,P|110:234|147:217,2,80.9999975280763,2|0|0,1:3|0:0|2:0,2:0:0:0:
49,112,9295,6,0,P|48:86|66:62,2,53.9999983520508,2|0|2,2:0|2:0|2:0,2:0:0:0:
12,169,9824,2,0,P|2:187|5:217,1,36,0|2,2:0|2:0,0:0:0:0:
0,202,10177,1,0,2:0:0:0:
18,301,11413,38,0,B|85:325|55:276|130:309,1,107.999996704102,2|0,1:2|2:0,2:0:0:0:
173,349,11677,1,0,3:2:0:0:
185,341,11766,5,2,1:3:0:0:
115,384,11854,1,0,2:0:0:0:
48,372,12119,5,0,3:2:0:0:
256,373,12471,1,0,3:2:0:0:
256,384,12824,1,0,3:2:0:0:
397,384,14589,6,0,B|408:359|408:359|403:333,1,53.9999983520508,0|0,1:2|0:0,2:0:0:0:
362,277,14766,1,0,2:0:0:0:
301,298,14942,38,0,P|328:298|362:283,1,53.9999983520508,2|0,2:0|0:0,2:0:0:0:
461,301,15295,2,0,P|487:307|516:331,1,53.9999983520508,0|0,2:0|0:0,0:0:0:0:
509,322,15648,1,0,2:0:0:0:
434,44,16354,1,0,3:2:0:0:
437,57,16442,1,2,3:0:0:0:
440,70,16530,2,0,L|401:67,1,26.9999991760254,2|0,3:2|0:0,0:0:0:0:
363,21,16707,6,0,P|312:44|335:102,1,107.999996704102,2|0,3:0|0:0,2:0:0:0:
375,143,16971,1,0,2:0:0:0:
380,127,17060,6,0,B|344:109|344:109|303:115,1,80.9999975280763,2|0,3:2|2:0,2:0:0:0:
222,185,17413,5,4,1:2:0:0:
204,149,17501,1,0,0:0:0:0:
173,125,17589,1,0,0:0:0:0:
135,117,17677,1,0,2:0:0:0:
97,127,17765,37,8,2:1:0:0:
103,147,17854,1,0,2:0:0:0:
106,168,17942,2,0,P|105:185|99:202,1,36,0|0,3:0|1:2,0:0:0:0:
168,240,18119,5,0,0:0:0:0:
153,255,18208,1,0,2:0:0:0:
136,268,18296,2,0,P|120:276|102:279,1,36,8|0,2:1|0:0,0:0:0:0:
104,357,18471,5,0,3:2:0:0:
84,352,18560,1,0,0:0:0:0:
64,343,18648,2,0,P|48:333|36:319,1,36,0|0,3:2|3:2,0:0:0:0:
203,379,18824,6,0,B|238:372|238:372|257:345|257:345|294:338,1,107.999996704102,8|0,2:1|3:2,2:0:0:0:
287,332,19354,2,0,B|249:338|249:338|230:366|230:366|195:372,1,107.999996704102,8|0,2:1|3:2,2:0:0:0:
183,371,19795,1,0,0:0:0:0:
172,368,19883,2,0,L|162:314,1,53.9999983520508,8|0,2:1|0:0,2:0:0:0:
387,368,20236,37,0,1:2:0:0:
368,198,20589,1,8,2:1:0:0:
402,351,20854,5,0,1:2:0:0:
386,215,21119,2,0,L|390:246,1,31.4999990386963,8|0,2:1|0:0,0:0:0:0:
368,198,21295,2,0,L|372:229,1,31.4999990386963,0|0,3:2|0:0,0:0:0:0:
350,181,21471,2,0,L|354:212,1,31.4999990386963,0|0,3:2|3:2,0:0:0:0:
386,102,21648,6,0,B|411:84|411:84|470:91,1,90,8|0,2:1|3:2,2:0:0:0:
478,161,22177,1,8,2:1:0:0:
478,161,22266,1,0,0:0:0:0:
478,161,22354,2,0,B|433:155,1,45,0|0,0:0|3:2,0:0:0:0:
276,358,22707,6,0,P|284:332|282:305,1,53.9999983520508,8|8,2:1|2:1,2:0:0:0:
224,197,22971,1,8,2:1:0:0:
203,207,23060,37,0,1:2:0:0:
237,225,23148,1,0,0:0:0:0:
275,226,23236,1,0,0:0:0:0:
311,210,23324,1,0,2:0:0:0:
337,180,23412,5,8,2:1:0:0:
333,158,23501,1,0,2:0:0:0:
329,136,23589,2,0,L|322:100,1,36,0|0,3:0|1:2,0:0:0:0:
424,198,23766,5,0,0:0:0:0:
420,176,23855,1,0,2:0:0:0:
416,154,23943,2,0,L|409:118,1,36,8|0,2:1|0:0,0:0:0:0:
511,216,24118,5,0,3:2:0:0:
507,194,24207,1,0,0:0:0:0:
503,172,24295,2,0,L|496:136,1,36,0|0,3:2|3:2,0:0:0:0:
363,21,24471,38,0,L|256:39,1,107.999996704102,8|0,2:1|3:2,2:0:0:0:
267,49,25001,1,8,2:1:0:0:
267,49,25089,2,0,L|320:39,2,53.9999983520508,0|0|0,0:0|2:0|0:0,0:0:0:0:
215,98,25530,2,0,P|190:87|163:87,1,53.9999983520508,8|0,2:1|0:0,2:0:0:0:
30,4,25883,5,0,1:2:0:0:
70,181,26236,1,8,2:1:0:0:
20,26,26501,5,0,1:2:0:0:
52,167,26766,2,0,L|82:159,1,31.4999990386963,8|0,2:1|0:0,0:0:0:0:
70,181,26942,2,0,L|100:173,1,31.4999990386963,0|0,3:2|0:0,0:0:0:0:
88,195,27119,2,0,L|118:187,1,31.4999990386963,0|0,3:2|3:2,0:0:0:0:
174,252,27295,6,0,P|209:223|253:220,1,90,8|0,2:1|3:2,2:0:0:0:
259,206,27824,2,0,P|270:210|281:212,1,22.5,8|0,2:1|0:0,2:0:0:0:
343,256,28001,1,0,0:0:0:0:
333,266,28089,2,0,P|354:260|377:259,1,45,0|0,2:0|0:0,0:0:0:0:
433,216,28354,38,0,L|428:184,1,31.4999990386963,8|0,2:1|0:0,2:0:0:0:
404,44,28530,1,0,0:0:0:0:
418,69,28619,1,8,2:1:0:0:
392,79,28707,6,0,P|327:76|297:18,1,135,2|0,1:0|3:0,0:0:0:0:
300,0,29060,1,8,2:1:0:0:
205,55,29236,1,2,3:0:0:0:
205,55,29324,2,0,L|275:41,1,72,0|0,1:2|2:0,2:0:0:0:
224,144,29589,1,8,2:1:0:0:
188,136,29677,1,0,0:0:0:0:
153,129,29765,1,2,3:0:0:0:
43,255,29942,6,0,L|78:247,1,36,0|0,1:2|0:0,0:0:0:0:
33,246,30119,2,0,L|138:224,1,108,0|0,1:2|2:0,2:0:0:0:
159,222,30471,1,2,3:2:0:0:
261,319,30648,1,8,2:1:0:0:
261,319,30736,1,0,0:0:0:0:
261,319,30824,6,0,P|301:298|346:296,1,90,0|2,3:0|3:2,0:0:0:0:
310,285,31089,2,0,P|333:284|355:287,1,45,0|8,0:0|2:1,0:0:0:0:
480,381,31354,1,0,0:0:0:0:
480,381,31442,1,0,2:0:0:0:
480,381,31530,38,0,B|452:350|452:350|465:283,1,108,0|0,1:0|2:0,2:0:0:0:
470,263,31883,1,8,2:1:0:0:
388,150,32060,1,2,3:0:0:0:
388,150,32148,2,0,L|398:221,1,72,0|0,1:2|2:0,2:0:0:0:
354,286,32413,1,8,2:1:0:0:
324,268,32501,1,0,0:0:0:0:
288,265,32589,1,2,3:0:0:0:
141,360,32766,6,0,P|151:344|155:327,1,36,0|0,1:2|2:0,2:0:0:0:
148,377,32942,2,0,P|165:345|170:310,1,72,0|0,1:2|0:0,2:0:0:0:
135,244,33207,1,0,2:0:0:0:
127,254,33295,1,2,3:2:0:0:
26,159,33471,1,8,2:1:0:0:
26,159,33560,1,0,0:0:0:0:
26,159,33648,6,0,L|115:146,1,90,0|2,0:0|3:2,0:0:0:0:
89,132,33913,2,0,L|133:138,1,45,0|8,0:0|2:1,0:0:0:0:
245,21,34177,1,0,0:0:0:0:
245,21,34266,1,8,2:1:0:0:
245,21,34354,6,0,B|221:53|221:53|232:119,1,108,2|0,1:0|3:0,0:0:0:0:
236,136,34707,1,8,2:1:0:0:
331,210,34883,1,2,3:0:0:0:
310,197,34971,1,0,1:2:0:0:
345,191,35059,1,0,0:0:0:0:
381,186,35147,1,0,2:0:0:0:
416,181,35235,1,8,2:1:0:0:
243,268,35413,1,2,3:0:0:0:
351,363,35589,38,0,L|315:355,1,36,0|0,1:2|0:0,0:0:0:0:
308,345,35766,2,0,L|413:366,1,108,0|0,1:2|2:0,2:0:0:0:
430,372,36119,1,2,3:2:0:0:
512,300,36295,5,8,2:1:0:0:
486,286,36383,1,0,0:0:0:0:
468,264,36471,1,0,0:0:0:0:
460,236,36559,1,0,2:0:0:0:
462,208,36647,1,2,3:2:0:0:
398,296,36824,2,0,P|369:276|334:268,1,72,8|0,2:1|0:0,2:0:0:0:
253,288,37089,1,0,2:0:0:0:
266,299,37177,6,0,L|250:164,1,135,0|0,1:0|0:0,2:0:0:0:
248,145,37530,1,8,2:1:0:0:
334,268,37707,2,0,L|328:223,2,45,2|0|0,3:0|1:2|0:0,0:0:0:0:
214,375,38060,1,8,2:1:0:0:
187,370,38148,1,0,2:0:0:0:
160,365,38236,1,2,3:0:0:0:
46,288,38413,6,0,L|89:276,1,45,0|0,1:2|2:0,2:0:0:0:
26,276,38589,38,0,L|24:264,1,11.25,0|0,1:2|0:0,0:0:0:0:
10,188,38766,2,0,L|8:176,1,11.25,8|0,2:1|0:0,2:0:0:0:
46,288,39030,6,0,L|44:276,1,11.25,8|0,2:1|0:0,0:0:0:0:
30,200,39207,2,0,L|28:188,1,11.25,8|0,2:1|0:0,2:0:0:0:
10,89,39383,2,0,L|11:100,1,11.25,0|0,3:1|0:0,2:0:0:0:
66,300,39648,6,0,L|67:311,2,11.25,8|0|0,2:1|0:0|0:0,2:0:0:0:
32,23,40001,6,0,B|76:25|76:25|103:50,1,72,8|0,1:3|0:0,0:0:0:0:
91,51,40354,2,0,B|111:69|111:69|155:71,1,72,2|8,1:2|2:1,0:0:0:0:
160,63,40707,1,2,1:2:0:0:
69,130,40883,2,0,B|113:132,1,36,2|0,0:3|0:0,0:0:0:0:
165,55,41060,2,0,B|239:58,1,72,8|0,1:0|0:0,2:0:0:0:
428,51,41413,54,0,L|425:92,1,36,2|0,1:2|0:0,2:0:0:0:
382,143,41589,1,8,2:1:0:0:
287,101,41766,2,0,L|328:104,1,36,2|0,1:2|0:0,2:0:0:0:
378,139,41942,1,8,3:1:0:0:
363,21,42119,1,2,1:2:0:0:
323,103,42295,1,0,3:2:0:0:
284,187,42471,2,0,B|280:233|280:233|286:248|286:248|281:293,1,108,8|0,1:0|2:0,2:0:0:0:
218,320,42824,6,0,B|270:315|270:315|314:349,1,108,0|0,1:3|0:0,0:0:0:0:
332,345,43177,2,0,L|370:336,1,36,2|0,1:2|0:0,0:0:0:0:
431,323,43354,1,8,2:1:0:0:
250,384,43530,1,2,1:2:0:0:
250,384,43707,1,0,3:0:0:0:
160,288,43883,2,0,P|158:253|190:219,1,72,8|0,1:0|3:0,2:0:0:0:
98,323,44236,6,0,P|67:345|18:329,1,72,2|8,1:2|2:1,0:0:0:0:
144,378,44589,1,2,1:2:0:0:
25,333,44766,2,0,P|16:310|16:295,1,36,8|0,3:1|0:0,0:0:0:0:
109,184,44942,38,0,P|131:154|117:188,2,107.999996704102,2|0|0,1:2|3:0|3:2,2:0:0:0:
87,250,45207,1,0,0:0:0:0:
87,250,45295,6,0,L|25:258,1,53.9999983520508,2|0,1:3|0:0,2:0:0:0:
1,193,45471,2,0,B|-5:165|-5:165|12:134,1,53.9999983520508,0|0,0:0|2:0,0:0:0:0:
59,92,45648,5,8,1:3:0:0:
63,95,46001,2,0,P|82:62|77:-14,1,90,2|8,1:2|2:1,0:0:0:0:
77,1,46266,1,0,2:0:0:0:
71,13,46354,2,0,P|103:31|180:26,1,90,2|0,1:2|3:0,0:0:0:0:
283,17,46707,2,0,L|336:21,1,45,8|0,1:0|0:0,2:0:0:0:
341,20,47060,6,0,B|365:58|365:58|352:127,1,90,2|8,1:2|2:1,2:0:0:0:
267,159,47413,2,0,B|243:121|243:121|256:52,1,90,2|8,1:2|3:1,0:0:0:0:
465,10,47766,2,0,P|487:9|506:20,1,45,2|0,1:2|0:0,2:0:0:0:
512,27,47942,1,0,2:0:0:0:
434,71,48119,2,0,P|417:109|434:178,1,90,8|0,1:0|0:0,2:0:0:0:
475,234,48471,37,0,1:3:0:0:
485,250,48648,1,2,2:0:0:0:
509,174,48824,2,0,B|467:157|467:157|401:167,1,90,2|8,1:2|2:1,0:0:0:0:
311,223,49177,2,0,B|355:216,1,45,2|0,1:2|0:0,2:0:0:0:
404,167,49354,1,0,3:0:0:0:
429,283,49530,2,0,B|384:276,1,45,8|0,1:0|0:0,2:0:0:0:
333,322,49707,2,0,P|307:329|282:350,1,45,0|0,2:0|0:0,0:0:0:0:
235,372,49883,6,0,L|233:383,14,11.25,2|2|2|2|2|2|2|2|2|2|2|2|2|2|2,1:2|2:0|2:0|2:0|2:0|2:0|2:0|2:0|2:0|2:0|2:0|2:0|2:0|2:0|2:0,2:0:0:0:
251,285,50589,5,2,1:2:0:0:
230,221,50677,1,0,3:1:0:0:
194,196,50765,1,8,3:1:0:0:
158,194,50853,1,2,3:2:0:0:
136,201,50942,1,8,1:0:0:0:
124,214,51030,1,0,3:1:0:0:
120,222,51119,2,0,L|116:249,1,22.5,8|2,3:1|3:2,0:0:0:0:
107,324,51295,21,0,3:2:0:0:
101,315,51471,1,0,2:0:0:0:
266,163,51648,6,0,P|288:163|309:169,1,45,2|0,1:0|3:2,2:0:0:0:
380,125,51824,1,8,2:1:0:0:
400,114,51912,1,8,2:1:0:0:
408,90,52001,2,0,P|391:105|380:125,1,45,8|0,1:0|3:2,2:0:0:0:
383,209,52177,1,8,2:1:0:0:
388,230,52265,1,8,2:1:0:0:
400,250,52353,1,2,1:3:0:0:
400,250,52707,70,0,P|380:238|360:229,1,45,2|0,1:3|3:2,2:0:0:0:
271,223,52883,1,8,2:1:0:0:
247,384,53060,6,0,P|241:362|233:341,1,45,2|0,1:2|3:2,2:0:0:0:
174,273,53236,1,8,2:1:0:0:
44,370,53413,70,0,P|55:350|64:330,1,45,8|0,1:0|3:2,2:0:0:0:
71,241,53589,1,8,2:1:0:0:
62,364,53766,2,0,P|93:287|77:205,1,168.75,2|2,1:3|3:2,2:0:0:0:
157,139,54119,6,0,L|201:146,1,45,2|0,1:3|2:0,2:0:0:0:
269,63,54295,1,2,3:2:0:0:
247,67,54383,1,0,2:0:0:0:
225,71,54471,2,0,L|269:78,1,45,4|0,1:3|3:2,2:0:0:0:
147,11,54648,2,0,L|102:18,1,45,8|8,2:1|2:1,0:0:0:0:
269,216,54824,70,0,P|278:236|279:258,1,45,0|0,1:0|2:0,2:0:0:0:
180,283,55001,1,8,3:1:0:0:
172,263,55089,1,2,2:0:0:0:
170,241,55177,1,2,1:3:0:0:
170,241,55530,5,10,1:3:0:0:
279,259,55707,1,2,3:2:0:0:
304,238,55795,1,8,3:1:0:0:
333,227,55883,1,0,1:0:0:0:
364,226,55971,1,2,3:2:0:0:
394,235,56060,2,0,P|371:233|349:234,1,45,4|2,3:1|3:2,0:0:0:0:
279,259,56236,69,2,1:2:0:0:
295,217,56324,1,2,3:2:0:0:
326,185,56412,1,8,2:1:0:0:
369,171,56500,1,2,3:2:0:0:
413,174,56589,5,2,1:2:0:0:
367,124,56677,1,2,3:2:0:0:
306,96,56765,1,8,3:1:0:0:
239,93,56853,1,8,3:1:0:0:
177,117,56942,70,0,L|173:139,1,22.5,0|0,1:0|3:2,2:0:0:0:
183,131,57119,2,0,L|179:153,1,22.5,2|2,2:3|2:0,0:0:0:0:
115,81,57295,6,0,P|94:91|73:95,1,45,0|0,1:3|3:2,2:0:0:0:
25,211,57471,1,8,2:1:0:0:
10,193,57559,1,8,2:1:0:0:
1,172,57648,2,0,P|22:177|42:187,1,45,2|2,1:3|2:0,2:0:0:0:
160,316,57824,1,8,2:1:0:0:
155,329,57913,1,2,2:0:0:0:
101,277,58001,70,0,B|195:268|195:268|191:277|191:277|289:268,1,202.500007724762,2|0,1:3|2:0,2:0:0:0:
289,268,58354,6,0,B|285:223,1,45,2|0,1:0|3:2,2:0:0:0:
375,291,58530,1,8,2:1:0:0:
371,299,58618,1,2,2:2:0:0:
367,308,58707,2,0,B|363:263,1,45,2|0,1:2|3:2,2:0:0:0:
406,171,58883,1,8,2:1:0:0:
410,179,58971,1,8,2:1:0:0:
414,188,59060,70,0,L|458:179,1,45,8|0,1:0|3:2,2:0:0:0:
325,138,59236,1,8,2:1:0:0:
493,0,59413,2,0,L|484:44,1,45,2|0,1:3|0:0,2:0:0:0:
481,68,59589,2,0,L|472:112,1,45,0|2,3:0|3:2,0:0:0:0:
363,21,59766,6,0,P|329:49|285:53,1,90,6|2,1:3|3:2,2:0:0:0:
276,41,60030,1,0,2:0:0:0:
227,95,60119,1,0,1:3:0:0:
227,95,60295,2,0,L|182:88,1,45,8|8,2:1|2:1,0:0:0:0:
23,22,60471,70,0,L|33:65,1,45,0|0,1:0|2:0,2:0:0:0:
79,142,60648,1,8,3:1:0:0:
73,163,60736,1,2,2:0:0:0:
68,185,60824,5,2,1:3:0:0:
97,172,60913,1,2,2:0:0:0:
141,179,61001,1,8,2:1:0:0:
184,223,61089,1,8,2:1:0:0:
139,273,61177,6,0,L|239:262,1,101.250003862381,0|0,1:3|0:0,2:0:0:0:
124,290,61530,1,8,2:1:0:0:
325,157,61707,6,0,P|342:171|363:179,1,45,0|0,1:0|0:0,2:0:0:0:
379,250,61883,1,0,0:0:0:0:
441,240,61971,1,0,0:0:0:0:
503,230,62060,1,8,2:1:0:0:
503,230,62236,6,0,B|390:220|390:220|388:214|388:214|271:204,1,236.250002253056,0|0,1:3|2:0,2:0:0:0:
101,220,62589,6,0,P|112:156|174:154,1,135,4|0,1:2|2:0,2:0:0:0:
180,163,62942,1,10,3:2:0:0:
257,59,63119,2,0,B|277:100|277:100|259:150,1,90,0|0,1:0|0:0,0:0:0:0:
251,137,63383,1,0,2:0:0:0:
240,132,63471,1,0,1:0:0:0:
326,33,63648,38,0,B|355:35|355:35|359:39|359:39|393:42,2,67.5000025749208,10|0|0,3:2|2:0|1:0,2:0:0:0:
214,0,64001,5,0,1:0:0:0:
104,28,64177,1,0,0:0:0:0:
109,39,64266,1,0,2:0:0:0:
114,50,64354,2,0,L|164:47,1,45,10|0,3:2|0:0,0:0:0:0:
44,57,64530,2,0,B|23:112|23:112|47:174,1,90,0|0,1:0|0:0,0:0:0:0:
34,141,64883,1,0,1:0:0:0:
17,242,65060,6,0,P|42:174|110:193,1,135.000005149842,10|0,3:2|1:0,0:0:0:0:
259,297,65413,6,0,L|108:304,1,135,0|0,1:0|2:0,2:0:0:0:
114,312,65766,1,10,3:2:0:0:
50,386,65942,2,0,B|31:344|31:344|49:303,1,90,0|0,1:0|0:0,0:0:0:0:
90,249,66207,1,0,2:0:0:0:
100,240,66295,2,0,L|167:236,1,45,0|0,1:0|2:0,2:0:0:0:
267,228,66471,38,0,P|324:242|322:322,1,135.000005149842,10|0,3:2|1:0,2:0:0:0:
325,315,66736,1,0,0:0:0:0:
259,297,66824,6,0,P|339:296|403:237,1,135,0|0,1:0|0:0,2:0:0:0:
487,181,67177,6,0,B|467:153|467:153|399:156|399:156|419:184,1,135.000005149842,10|0,3:2|1:0,0:0:0:0:
413,192,67442,2,0,B|432:219|432:219|500:215|500:215|480:188,1,135.000005149842,2|2,1:3|3:0,2:0:0:0:
406,198,67707,6,0,L|335:203,1,45,0|0,1:0|0:0,0:0:0:0:
272,208,67883,38,0,B|261:170|261:170|285:98|285:98|300:123,1,135.000005149842,10|0,3:2|1:0,2:0:0:0:
299,124,68148,1,2,3:2:0:0:
303,134,68236,6,0,B|223:139|223:139|209:160|209:160|119:167,1,180,0|10,1:0|3:2,2:0:0:0:
243,72,68766,2,0,L|182:75,1,45,0|2,1:0|1:3,0:0:0:0:
131,45,68942,1,0,0:0:0:0:
119,42,69030,1,0,2:0:0:0:
107,39,69119,1,0,1:0:0:0:
18,170,69295,6,0,P|22:111|94:121,1,135.000005149842,10|0,3:2|1:0,2:0:0:0:
202,184,69648,6,0,B|224:223|224:223|212:266,1,90,0|0,1:0|1:0,2:0:0:0:
28,298,70001,2,0,L|90:295,1,45,10|0,3:2|0:0,0:0:0:0:
123,339,70177,1,0,1:0:0:0:
31,312,70354,38,0,L|83:278,1,45,0|0,0:0|2:0,0:0:0:0:
107,237,70530,2,0,L|167:243,1,45,0|0,1:0|2:0,2:0:0:0:
281,271,70707,5,8,1:2:0:0:
287,315,70795,1,2,1:2:0:0:
266,353,70883,1,0,1:0:0:0:
226,372,70971,1,8,1:0:0:0:
183,363,71060,5,0,1:3:0:0:
370,381,71589,5,0,2:0:0:0:
419,201,72119,37,0,2:0:0:0:
232,183,72648,5,0,2:0:0:0:
506,283,73177,5,0,2:0:0:0:
506,283,73354,2,0,B|478:285|478:285|470:292|470:292|441:294,1,67.5000025749208
411,352,73530,6,0,B|398:52,1,270,2|0,2:0|2:0,2:0:0:0:
468,47,73883,38,0,L|471:114,1,67.5000025749208,8|0,1:3|2:0,0:0:0:0:
361,21,74236,1,0,3:0:0:0:
342,33,74324,1,0,0:0:0:0:
324,46,74412,1,0,2:0:0:0:
301,44,74500,1,2,3:0:0:0:
279,41,74588,1,0,2:0:0:0:
227,125,74766,1,2,2:0:0:0:
227,125,74854,1,0,0:0:0:0:
227,125,74942,2,0,L|220:91,2,33.7500012874604,0|0|0,3:0|0:0|2:0,0:0:0:0:
274,242,75295,5,2,2:0:0:0:
101,210,75648,1,0,3:0:0:0:
285,255,76001,1,0,2:0:0:0:
274,253,76089,1,0,2:0:0:0:
263,251,76177,1,2,2:0:0:0:
90,219,76354,1,0,3:0:0:0:
90,219,76530,6,0,P|95:235|97:251,1,33.7500012874604,0|0,2:0|0:0,0:0:0:0:
56,353,76707,1,2,2:3:0:0:
56,353,76795,1,0,0:0:0:0:
56,353,76883,1,0,2:0:0:0:
8,205,77060,1,0,3:0:0:0:
127,101,77236,1,0,2:0:0:0:
137,102,77324,1,0,0:0:0:0:
147,103,77413,2,0,L|180:106,3,33.7500012874604,0|0|2|0,2:0|2:0|2:0|0:0,0:0:0:0:
244,44,77766,5,0,3:0:0:0:
263,73,77854,1,0,0:0:0:0:
270,105,77942,1,0,2:0:0:0:
263,138,78030,1,0,0:0:0:0:
245,167,78118,37,2,2:3:0:0:
179,229,78295,1,0,2:0:0:0:
236,291,78471,1,0,3:0:0:0:
303,230,78648,2,0,L|336:235,1,33.7500012874604,0|0,2:0|0:0,0:0:0:0:
440,251,78824,1,0,2:0:0:0:
429,249,78913,1,0,0:0:0:0:
419,247,79001,1,0,3:0:0:0:
221,371,79177,6,0,B|193:354|193:354|136:361,1,90,8|0,3:2|2:0,0:0:0:0:
47,302,79442,1,8,2:0:0:0:
61,319,79530,6,0,L|51:253,1,67.5000025749208,2|0,2:0|2:0,0:0:0:0:
218,142,79883,1,8,2:0:0:0:
203,172,79971,1,0,0:0:0:0:
176,192,80059,1,0,2:0:0:0:
143,197,80147,1,0,0:0:0:0:
111,186,80236,1,0,2:0:0:0:
113,176,80324,1,0,2:0:0:0:
115,166,80413,2,0,L|121:133,1,33.7500012874604,8|0,2:0|0:0,0:0:0:0:
40,26,80589,5,0,3:0:0:0:
41,32,80677,1,0,0:0:0:0:
42,38,80766,1,0,2:0:0:0:
43,44,80854,1,0,0:0:0:0:
30,77,80942,1,10,2:0:0:0:
143,17,81295,37,0,3:0:0:0:
30,77,81471,1,10,2:0:0:0:
143,17,81648,1,0,2:0:0:0:
152,18,81736,1,0,2:0:0:0:
161,19,81824,1,2,2:0:0:0:
30,77,82001,1,8,2:0:0:0:
129,140,82177,1,0,2:0:0:0:
129,140,82266,1,0,0:0:0:0:
129,140,82354,6,0,L|122:106,2,33.7500012874604,2|0|0,2:3|0:0|2:0,0:0:0:0:
153,296,82707,1,10,2:0:0:0:
63,230,82883,1,0,2:0:0:0:
219,206,83060,1,0,2:0:0:0:
219,206,83148,1,0,0:0:0:0:
219,205,83236,2,0,P|234:200|251:198,1,33.7500012874604,0|0,3:2|0:0,0:0:0:0:
296,118,83413,1,8,2:0:0:0:
334,129,83501,1,8,2:0:0:0:
372,141,83589,1,0,0:0:0:0:
492,15,83766,38,0,L|358:37,1,135.000005149842,0|0,3:2|0:0,0:0:0:0:
361,30,84207,1,0,0:0:0:0:
363,23,84295,1,0,0:0:0:0:
257,54,84471,1,0,0:0:0:0:
260,47,84559,1,0,0:0:0:0:
262,40,84647,1,0,0:0:0:0:
156,71,84825,1,0,0:0:0:0:
161,57,85001,1,0,0:0:0:0:
232,185,85177,70,0,B|249:171|249:171|228:177,4,45.0000017166138,4|0|0|0|0,3:0|0:0|0:0|0:0|0:0,0:0:0:0:
220,186,85354,6,0,L|187:180,1,33.7499989700318
174,180,85619,70,0,B|160:189|160:189|176:185,4,33.7500012874604
193,261,85883,5,0,0:0:0:0:
199,272,85942,69,0,0:0:0:0:
210,265,86001,5,0,0:0:0:0:
203,254,86060,70,0,L|190:297,1,45
87,384,86236,6,0,P|72:316|101:379,1,202.500007724762
83,349,86589,69,2,3:0:0:0:
74,309,86677,1,2,2:0:0:0:
65,268,86766,2,0,L|59:303,2,33.7500012874604,0|0|0,3:2|0:0|0:0,0:0:0:0:
131,188,86942,6,0,L|214:200,1,84.3750032186509,2|0,3:0|0:0,2:0:0:0:
239,185,87207,70,0,L|105:204,1,135.000005149842,2|0,2:3|2:0,2:0:0:0:
49,113,87471,5,2,3:2:0:0:
47,121,87530,69,0,0:0:0:0:
45,129,87589,5,0,0:0:0:0:
43,137,87648,70,0,B|-13:92|-13:92|149:115,1,236.250002253056,2|0,3:2|2:0,2:0:0:0:
286,133,88001,6,0,B|392:149|392:149|416:134|416:134|339:121,1,168.75,4|0,1:2|2:0,2:0:0:0:
364,126,88354,2,0,B|350:150|350:150|356:181,1,56.25,8|0,3:2|0:0,0:0:0:0:
424,265,88530,2,0,B|429:292|429:292|415:316,1,56.25,2|2,2:0|1:3,0:0:0:0:
307,263,88707,6,0,B|387:256|387:256|399:244|399:244|500:233,1,182.250000695229,0|0,0:0|2:0,0:0:0:0:
316,272,89060,2,0,P|236:283|261:189,1,202.500007724762,8|0,3:2|0:0,0:0:0:0:
266,193,89413,69,0,1:0:0:0:
240,256,89589,1,0,3:0:0:0:
120,315,89766,1,8,3:2:0:0:
184,295,89942,6,0,L|196:359,1,45,0|2,1:0|3:2,0:0:0:0:
53,306,90119,2,0,L|-11:300,2,45,0|0|8,0:0|2:3|3:2,0:0:0:0:
120,315,90383,1,0,0:0:0:0:
120,315,90472,2,0,B|146:282|146:282|120:172,1,135,0|0,1:0|2:0,2:0:0:0:
140,201,90824,70,0,B|127:147|127:147|164:112|164:112|228:119,1,168.75,4|0,1:3|0:0,2:0:0:0:
290,136,91177,2,0,L|225:130,1,56.25,8|0,3:2|0:0,0:0:0:0:
162,125,91354,5,2,1:2:0:0:
128,116,91442,1,2,1:3:0:0:
104,91,91530,1,0,0:0:0:0:
96,57,91618,1,0,3:0:0:0:
107,24,91706,1,2,1:2:0:0:
59,180,91883,69,8,3:2:0:0:
40,119,92059,1,0,1:0:0:0:
207,8,92236,6,0,P|251:3|308:35,1,90,0|0,1:0|0:0,2:0:0:0:
422,63,92589,1,8,3:2:0:0:
324,82,92766,70,0,P|377:94|424:59,1,112.5,0|0,1:0|0:0,2:0:0:0:
451,0,93030,1,0,3:0:0:0:
465,14,93118,1,8,3:2:0:0:
383,128,93295,6,0,B|381:174|381:174|378:168|378:168|375:220,1,101.250003862381,0|0,1:0|2:0,2:0:0:0:
374,231,93648,70,0,B|423:203|471:244|471:244|439:303,1,135,2|0,1:0|2:0,2:0:0:0:
448,285,94001,2,0,P|449:311|464:293,1,56.25,8|0,3:2|0:0,0:0:0:0:
501,364,94177,5,2,2:0:0:0:
473,348,94265,1,2,1:3:0:0:
442,344,94353,1,0,0:0:0:0:
412,354,94441,1,0,3:0:0:0:
389,375,94529,1,0,1:0:0:0:
300,286,94707,70,0,P|239:322|261:369,1,135.000005149842,8|2,3:2|1:2,0:0:0:0:
272,375,94971,1,0,2:0:0:0:
278,364,95060,6,0,L|197:368,1,60.7500002317429,0|0,1:0|0:0,2:0:0:0:
153,370,95236,2,0,B|131:371|131:371|114:380|114:380|93:381,2,60.7500002317429,0|0|8,0:0|1:2|3:2,0:0:0:0:
170,376,95501,1,0,0:0:0:0:
187,382,95589,69,0,1:0:0:0:
183,305,95766,2,0,L|186:259,1,33.7500012874604,0|0,2:0|2:0,2:0:0:0:
191,207,95942,1,8,3:2:0:0:
60,311,96119,1,0,1:0:0:0:
66,312,96207,1,0,2:0:0:0:
72,313,96295,1,2,3:2:0:0:
78,314,96383,1,0,2:0:0:0:
84,315,96471,6,0,P|115:257|86:213,1,112.5,8|0,1:3|0:0,2:0:0:0:
35,61,96824,2,0,L|27:187,1,112.5,8|2,3:2|1:2,0:0:0:0:
19,163,97089,2,0,L|83:156,1,56.25,2|0,1:3|0:0,2:0:0:0:
197,100,97354,1,2,1:2:0:0:
197,100,97442,1,0,0:0:0:0:
197,100,97531,2,0,L|208:3,2,56.25,8|0|0,3:2|2:0|1:0,2:0:0:0:
140,172,97883,70,0,B|160:128|160:128|267:124|267:124|295:163,1,202.500007724762,4|0,1:0|3:0,2:0:0:0:
276,230,98236,2,0,B|223:262|223:262|167:240,1,121.500000463486,8|0,3:2|1:0,0:0:0:0:
163,244,98501,1,0,0:0:0:0:
159,248,98589,6,0,L|223:273,1,53.9999983520508,8|0,3:2|3:0,2:0:0:0:
219,193,98766,1,2,1:2:0:0:
219,193,98854,1,0,0:0:0:0:
280,234,98942,70,0,B|304:267|304:267|294:307|294:307|244:331|244:331,1,121.500000463486,0|2,1:0|1:2,0:0:0:0:
200,352,99207,1,2,1:2:0:0:
287,384,99295,6,0,B|350:352|350:352|374:257,1,168.75,2|0,1:0|2:0,2:0:0:0:
381,242,99648,70,0,L|436:231,1,56.25,8|0,3:2|0:0,0:0:0:0:
512,162,99824,2,0,L|456:151,1,56.25,2|2,2:0|1:3,0:0:0:0:
354,35,100001,6,0,B|282:47|282:47|259:80|259:80|190:93,1,182.250000695229,0|0,0:0|2:0,0:0:0:0:
363,21,100354,2,0,B|426:9|426:9|468:67|468:67|402:78,1,202.500007724762,8|0,3:2|0:0,0:0:0:0:
195,11,100707,70,0,L|128:23,1,67.5000025749208,0|0,1:0|0:0,2:0:0:0:
202,1,100971,1,0,1:2:0:0:
264,26,101060,1,8,3:2:0:0:
181,221,101236,5,0,1:0:0:0:
168,216,101324,1,2,3:2:0:0:
155,211,101413,1,0,0:0:0:0:
303,220,101589,1,8,3:2:0:0:
232,173,101766,1,0,1:0:0:0:
297,305,101942,1,2,3:2:0:0:
141,206,102119,70,0,B|25:227|25:227|74:237,1,168.75,4|0,1:3|3:0,2:0:0:0:
91,240,102471,2,0,B|71:120,1,121.500000463486,8|2,3:2|1:2,0:0:0:0:
58,141,102736,2,0,L|47:75,1,67.5000025749208,2|0,1:3|3:0,2:0:0:0:
116,33,103001,2,0,L|110:0,1,33.7500012874604,2|0,1:2|0:0,0:0:0:0:
163,110,103177,6,0,L|216:101,1,45,8|0,3:2|0:0,2:0:0:0:
321,82,103354,1,0,1:0:0:0:
427,64,103530,70,0,B|467:137|467:137|449:220,1,168.75,0|0,1:0|3:0,2:0:0:0:
432,46,103883,1,8,3:2:0:0:
430,214,104060,5,0,1:0:0:0:
393,234,104148,1,0,0:0:0:0:
356,254,104236,1,0,3:0:0:0:
314,245,104324,1,0,3:0:0:0:
273,236,104412,1,8,3:2:0:0:
119,349,104589,70,0,B|83:312|83:312|210:339,1,182.250000695229,0|2,1:0|3:2,2:0:0:0:
34,370,104942,6,0,B|4:332|4:332|22:247,1,135,2|2,1:0|3:2,2:0:0:0:
1,261,105295,70,0,B|7:235|7:235|-4:208,1,56.25,8|0,3:2|2:0,2:0:0:0:
54,99,105471,1,2,2:0:0:0:
48,90,105559,1,2,2:0:0:0:
42,81,105648,6,0,B|72:164|72:164|109:92,1,168.75,2|0,3:0|2:0,0:0:0:0:
288,119,106001,2,0,B|199:103|199:103|206:98|206:98|124:83,1,182.250000695229,8|0,3:2|0:0,0:0:0:0:
304,112,106354,69,0,1:0:0:0:
307,134,106442,1,0,0:0:0:0:
311,156,106530,1,0,3:0:0:0:
315,178,106618,1,0,1:2:0:0:
318,200,106706,1,8,3:2:0:0:
306,384,106883,6,0,L|299:340,1,45,0|2,1:0|3:2,0:0:0:0:
407,306,107060,2,0,L|366:270,1,53.9999983520508,0|0,0:0|2:0,0:0:0:0:
439,157,107236,2,0,L|375:155,1,62.9999980773926,8|0,3:2|0:0,0:0:0:0:
412,326,107413,70,0,L|367:271,1,72,0|0,1:0|2:0,2:0:0:0:
455,170,107589,2,0,L|376:155,1,80.9999975280763,2|0,3:2|0:0,0:0:0:0:
363,21,107766,6,0,B|289:62|289:62|207:40,1,168.75,8|0,1:3|3:0,2:0:0:0:
192,37,108119,1,8,3:2:0:0:
33,125,108295,1,2,1:2:0:0:
33,125,108383,2,0,B|62:96|62:96|76:175,1,121.500000463486,0|0,0:0|3:0,0:0:0:0:
78,191,108648,1,2,1:3:0:0:
246,112,108824,70,0,L|304:123,1,60.7500002317429,8|0,3:2|0:0,2:0:0:0:
379,139,109001,1,0,1:0:0:0:
512,166,109177,6,0,B|459:156|459:156|420:213|420:213|360:216,1,182.250000695229,4|0,1:0|3:0,2:0:0:0:
350,199,109530,70,0,L|357:252,1,54,8|0,3:2|2:0,2:0:0:0:
329,311,109883,70,0,L|379:139,1,180,8|10,3:2|3:2,2:0:0:0:
305,124,110236,5,0,1:0:0:0:
257,290,110412,1,2,1:2:0:0:
253,272,110501,1,2,1:2:0:0:
249,254,110589,22,0,L|192:257,1,33.7500012874604,2|2,1:0|2:0,0:0:0:0:
147,260,110766,1,2,3:0:0:0:
130,260,110854,1,0,3:0:0:0:
113,261,110942,1,8,2:1:0:0:
38,130,111119,6,0,L|41:187,1,33.7500012874604,2|0,3:0|1:0,0:0:0:0:
44,232,111296,1,0,0:0:0:0:
44,249,111384,1,0,2:0:0:0:
45,266,111472,1,8,2:1:0:0:
53,384,111648,5,2,3:0:0:0:
53,384,111736,1,0,3:0:0:0:
53,384,111824,1,0,1:0:0:0:
3,324,112001,5,0,1:0:0:0:
95,326,112177,1,8,2:1:0:0:
95,326,112354,1,0,3:0:0:0:
178,197,112530,38,0,B|190:165|190:165|181:131,1,67.5000025749208,0|8,1:0|2:1,0:0:0:0:
171,127,112795,1,0,0:0:0:0:
160,121,112883,1,0,3:2:0:0:
54,37,113060,5,2,1:3:0:0:
53,44,113148,1,0,0:0:0:0:
52,51,113236,1,0,3:0:0:0:
51,58,113324,1,0,2:0:0:0:
50,65,113413,6,0,L|5:68,2,33.7500012874604,0|0|0,1:0|0:0|0:0,2:0:0:0:
128,54,113677,1,0,3:0:0:0:
128,54,113766,2,0,L|161:51,2,33.7500012874604,8|0|2,2:1|2:0|3:0,2:0:0:0:
117,60,114030,1,0,1:0:0:0:
294,11,114295,5,8,2:1:0:0:
229,19,114471,1,2,3:0:0:0:
228,31,114559,1,0,3:0:0:0:
227,43,114648,1,0,1:0:0:0:
363,21,114824,38,0,L|446:17,1,67.5000025749208,0|8,1:0|2:1,2:0:0:0:
430,17,115177,1,0,3:0:0:0:
431,18,115354,6,0,L|348:22,1,67.5000025749208,0|0,1:0|0:0,0:0:0:0:
356,30,115619,1,0,2:0:0:0:
348,38,115707,1,0,3:2:0:0:
270,126,115883,6,0,P|291:123|319:113,1,33.7500012874604,0|0,1:0|0:0,2:0:0:0:
368,134,116060,2,0,P|346:136|318:146,1,33.7500012874604,0|0,3:0|0:0,0:0:0:0:
255,166,116236,5,2,1:0:0:0:
230,177,116324,1,2,2:0:0:0:
214,199,116412,1,2,3:0:0:0:
211,226,116500,1,0,3:0:0:0:
221,250,116589,2,0,P|217:272|201:302,1,36,8|0,2:1|2:0,2:0:0:0:
158,332,116766,37,2,3:0:0:0:
147,334,116854,1,0,1:0:0:0:
136,336,116942,2,0,L|92:334,1,36,0|0,0:0|2:0,0:0:0:0:
27,379,117119,6,0,L|32:344,1,36,8|0,2:1|0:0,0:0:0:0:
89,266,117295,5,2,3:0:0:0:
100,264,117383,1,0,3:0:0:0:
111,262,117471,2,0,L|155:264,1,36,0|0,1:0|0:0,0:0:0:0:
266,327,117648,5,0,1:0:0:0:
379,257,117824,2,0,L|383:208,1,36,8|0,2:1|0:0,2:0:0:0:
383,210,118001,1,0,3:0:0:0:
330,308,118177,37,0,1:0:0:0:
298,295,118265,1,0,0:0:0:0:
295,265,118353,1,8,2:1:0:0:
295,265,118442,1,0,0:0:0:0:
432,159,118707,6,0,P|450:165|471:179,1,36,2|0,1:3|0:0,2:0:0:0:
505,230,118883,1,0,3:0:0:0:
504,248,118971,1,0,2:0:0:0:
503,266,119060,6,0,L|457:269,1,36,0|0,1:0|0:0,2:0:0:0:
416,317,119236,1,0,0:0:0:0:
404,334,119324,1,0,3:0:0:0:
405,355,119412,1,8,2:1:0:0:
294,310,119589,6,0,L|340:307,1,36,2|0,3:0|1:0,0:0:0:0:
381,259,119765,1,0,0:0:0:0:
393,242,119853,1,0,2:0:0:0:
391,220,119942,2,0,P|388:185|392:149,1,72,8|2,2:1|3:0,2:0:0:0:
397,142,120207,2,0,B|397:138|397:138|396:137|396:137|397:136|397:136|399:135|399:135|400:133|400:133|403:132|403:132|406:134|406:134|407:135|407:135|409:137|409:137|410:140|410:140|409:142|409:142|408:145|408:145|407:146|407:146|404:147|404:147|402:146|402:146|400:146|400:146|400:146|399:145|399:145|397:144,1,36,0|0,0:0|1:0,0:0:0:0:
316,243,120471,37,8,2:1:0:0:
263,279,120560,2,0,L|178:284,1,72,8|0,2:1|0:0,0:0:0:0:
199,274,121001,5,8,2:1:0:0:
261,290,121089,1,8,2:1:0:0:
323,306,121177,1,8,2:1:0:0:
221,345,121441,1,8,2:1:0:0:
223,356,121530,1,0,0:0:0:0:
125,297,121707,2,0,L|129:260,1,36,8|8,2:1|2:1,0:0:0:0:
147,82,121883,70,0,P|198:125|264:133,1,135,2|0,1:0|2:0,2:0:0:0:
245,145,122236,1,8,2:1:0:0:
363,21,122413,1,2,3:0:0:0:
363,21,122501,1,0,1:2:0:0:
363,21,122589,1,0,0:0:0:0:
472,152,122766,1,8,2:1:0:0:
471,160,122854,1,0,2:0:0:0:
470,168,122942,2,0,L|462:212,1,45,2|0,3:0|0:0,0:0:0:0:
451,278,123119,2,0,L|444:323,1,45,0|0,1:2|2:0,2:0:0:0:
385,371,123295,22,0,B|361:358|361:358|334:359,1,53.9999983520508,0|0,1:2|0:0,2:0:0:0:
326,361,123560,1,0,2:0:0:0:
318,363,123648,1,2,3:2:0:0:
209,251,123824,6,0,L|201:291,1,40.4999987640381,8|0,2:1|0:0,2:0:0:0:
201,291,124001,38,0,P|172:257|169:174,2,120,0|2|0,0:0|3:2|0:0,0:0:0:0:
246,230,124530,1,0,3:0:0:0:
246,230,124619,1,0,3:1:0:0:
246,230,124707,6,0,B|240:202|259:181|259:181|278:159|272:131,1,108,0|0,1:0|0:0,2:0:0:0:
238,75,125060,2,0,P|245:92|256:107,1,36,8|0,2:1|0:0,0:0:0:0:
328,61,125236,1,2,3:0:0:0:
318,58,125324,1,0,1:2:0:0:
308,55,125413,1,0,0:0:0:0:
463,284,125589,6,0,L|476:250,1,36,8|0,2:1|0:0,0:0:0:0:
497,182,125766,1,2,3:0:0:0:
479,184,125854,1,0,2:0:0:0:
461,187,125942,1,0,1:2:0:0:
443,189,126030,1,0,0:0:0:0:
425,192,126119,6,0,B|388:194|368:224|368:224|348:254|312:257,1,135,0|0,1:2|2:0,2:0:0:0:
246,230,126471,2,0,P|269:233|287:245,1,45,2|0,3:2|0:0,0:0:0:0:
260,370,126648,37,8,2:1:0:0:
260,370,126736,1,0,0:0:0:0:
260,370,126824,2,0,P|249:311|190:333,2,107.999996704102,0|2|0,0:0|2:0|2:0,0:0:0:0:
182,384,127354,5,0,3:0:0:0:
182,384,127442,1,8,3:1:0:0:
182,384,127530,2,0,P|140:350|87:340,1,108,2|0,1:0|2:0,2:0:0:0:
6,296,127883,1,8,2:1:0:0:
2,282,127971,1,0,2:0:0:0:
0,269,128060,1,2,3:0:0:0:
14,247,128148,2,0,P|46:232|82:230,1,72,0|0,1:2|2:0,2:0:0:0:
100,233,128413,1,8,2:1:0:0:
131,76,128589,5,2,3:0:0:0:
120,81,128677,1,0,0:0:0:0:
109,87,128766,2,0,L|144:80,1,36,0|0,1:2|0:0,0:0:0:0:
286,57,128942,2,0,L|214:68,1,72,0|0,1:2|0:0,2:0:0:0:
227,71,129207,1,0,2:0:0:0:
240,72,129295,1,2,3:2:0:0:
49,134,129471,5,8,2:1:0:0:
37,118,129559,1,0,0:0:0:0:
25,102,129647,1,0,0:0:0:0:
33,83,129735,1,0,2:0:0:0:
41,65,129823,1,2,3:2:0:0:
148,248,130001,38,0,B|178:219|178:219|243:226,1,108,8|0,2:1|2:0,0:0:0:0:
192,209,130354,6,0,L|254:215,1,62.9999980773926,0|0,1:0|0:0,2:0:0:0:
370,121,130707,1,8,2:1:0:0:
353,121,130795,1,0,2:0:0:0:
338,121,130883,1,2,3:0:0:0:
327,110,130971,1,0,1:2:0:0:
316,99,131059,1,0,0:0:0:0:
458,37,131236,6,0,P|465:50|470:65,1,31.4999990386963,8|0,2:1|2:0,2:0:0:0:
512,132,131413,1,2,3:0:0:0:
507,147,131501,1,0,0:0:0:0:
500,161,131589,2,0,P|491:174|481:186,1,31.4999990386963,0|0,1:2|0:0,0:0:0:0:
429,241,131766,6,0,P|400:223|367:219,1,67.5,0|0,1:2|0:0,2:0:0:0:
355,221,132119,1,2,3:2:0:0:
311,161,132207,1,8,2:1:0:0:
249,205,132383,1,8,2:1:0:0:
205,143,132559,1,8,2:1:0:0:
143,187,132736,1,8,2:1:0:0:
99,126,132913,37,8,2:1:0:0:
143,187,133001,1,8,2:1:0:0:
205,143,133089,1,8,2:1:0:0:
161,82,133177,6,0,P|154:61|157:24,2,40.4999987640381,8|0|0,1:3|0:0|2:0,2:0:0:0:
11,47,133530,2,0,P|54:37|108:65,1,80.9999975280763,0|0,1:0|3:0,2:0:0:0:
84,55,133795,1,0,3:0:0:0:
79,62,133883,1,8,1:2:0:0:
29,206,134060,2,0,L|35:113,1,80.9999975280763,0|0,2:0|1:0,0:0:0:0:
40,115,134324,2,0,L|0:119,1,40.4999987640381,0|0,0:0|3:0,0:0:0:0:
110,141,134501,1,0,0:0:0:0:
103,151,134589,22,0,L|97:231,1,80.9999975280763,0|0,1:0|2:0,2:0:0:0:
62,295,134854,1,2,2:0:0:0:
61,311,134942,1,0,1:0:0:0:
8,254,135119,1,0,3:0:0:0:
7,238,135207,1,0,3:0:0:0:
6,222,135295,1,8,1:2:0:0:
129,251,135471,37,0,2:0:0:0:
174,305,135648,2,0,B|214:313|214:313|249:292,1,80.9999975280763,0|0,1:0|3:0,2:0:0:0:
259,287,135913,1,0,3:0:0:0:
269,281,136001,5,0,1:0:0:0:
360,337,136177,2,0,B|320:329|320:329|285:350,1,80.9999975280763,0|0,2:0|1:0,0:0:0:0:
291,360,136442,1,0,0:0:0:0:
296,370,136530,5,0,3:0:0:0:
424,364,136707,2,0,B|432:324|432:324|411:289,1,80.9999975280763,8|0,1:2|2:0,2:0:0:0:
423,293,136971,1,0,0:0:0:0:
434,296,137060,5,0,1:0:0:0:
296,370,137236,1,0,3:0:0:0:
362,237,137413,1,0,1:0:0:0:
500,311,137589,1,0,3:0:0:0:
466,171,137766,38,0,P|467:150|474:132,2,40.4999987640381,0|0|0,1:0|0:0|3:0,2:0:0:0:
506,229,138030,1,0,3:0:0:0:
506,229,138119,6,0,P|400:229|389:129,1,215.999993408203,8|0,1:2|2:1,2:0:0:0:
394,142,138736,5,0,0:0:0:0:
400,136,138824,2,0,P|407:105|405:91,1,40.4999987640381,4|0,2:3|0:0,0:0:0:0:
369,48,139177,22,0,L|365:19,1,26.9999991760254,0|0,3:0|0:0,0:0:0:0:
369,48,139266,2,0,L|365:19,1,26.9999991760254,2|0,3:2|0:0,0:0:0:0:
369,48,139354,2,0,L|365:19,1,26.9999991760254,8|0,2:1|0:0,0:0:0:0:
369,48,139442,2,0,L|365:19,1,26.9999991760254,8|0,2:1|0:0,0:0:0:0:
292,14,139530,5,0,1:0:0:0:
276,18,139619,1,0,0:0:0:0:
289,5,139707,1,0,3:0:0:0:
273,9,139796,1,0,0:0:0:0:
228,63,139883,5,0,3:0:0:0:
212,59,139972,1,0,3:0:0:0:
209,68,140060,1,2,3:0:0:0:
225,72,140148,1,8,3:1:0:0:
295,96,140236,6,0,B|292:138|292:138|296:143|296:143|293:184,1,90,8|0,3:0|3:0,2:0:0:0:
404,256,140589,2,0,P|374:227|315:245,1,90,0|0,1:0|3:0,2:0:0:0:
320,242,140854,1,0,0:0:0:0:
370,286,140942,2,0,P|400:257|459:275,1,90,0|8,1:0|3:1,2:0:0:0:
454,272,141207,1,0,0:0:0:0:
402,315,141295,5,0,1:0:0:0:
370,286,141383,1,0,0:0:0:0:
326,291,141471,1,0,3:0:0:0:
318,301,141560,1,0,0:0:0:0:
264,348,141648,6,0,B|205:379|205:379|137:361,1,135.000005149842,8|0,1:0|3:0,2:0:0:0:
76,343,141913,1,0,3:0:0:0:
13,324,142001,38,0,B|1:283|1:283|23:220,1,90,0|0,1:0|2:0,2:0:0:0:
28,244,142266,1,0,0:0:0:0:
59,186,142354,5,0,1:0:0:0:
102,197,142442,1,0,0:0:0:0:
144,182,142530,1,8,3:1:0:0:
138,171,142619,1,0,0:0:0:0:
114,109,142707,5,0,1:0:0:0:
157,98,142795,1,0,0:0:0:0:
199,113,142883,1,0,3:0:0:0:
193,124,142972,1,0,0:0:0:0:
154,178,143060,6,0,L|150:256,1,67.5000025749208,8|0,1:0|0:0,2:0:0:0:
209,302,143236,1,0,2:0:0:0:
209,290,143324,1,0,0:0:0:0:
210,279,143413,5,0,1:0:0:0:
232,275,143501,1,0,0:0:0:0:
254,272,143589,1,0,2:0:0:0:
276,269,143677,1,0,0:0:0:0:
299,266,143766,6,0,P|307:340|250:342,1,135.000005149842,8|0,1:0|3:0,2:0:0:0:
430,384,144119,1,0,1:0:0:0:
430,384,144295,2,0,P|424:359|421:332,1,45,0|0,3:0|2:0,0:0:0:0:
412,243,144471,70,0,B|381:245|381:245|361:279|361:279|509:263,1,202.500007724762,2|0,1:3|2:0,2:0:0:0:
481,283,144824,2,0,B|511:280|511:280|531:246|531:246|383:262,1,202.500007724762,2|0,1:3|2:0,2:0:0:0:
384,277,145177,2,0,B|493:264|493:264|504:215|504:215|482:177,1,202.500007724762,2|0,1:3|2:0,2:0:0:0:
469,165,145530,2,0,B|360:178|360:178|349:227|349:227|371:265,1,202.500007724762,2|0,1:3|2:0,2:0:0:0:
406,200,145883,6,0,L|399:146,1,53.9999983520508,2|0,3:2|2:0,2:0:0:0:
357,88,146148,2,0,B|305:73|305:73|258:103,1,107.999996704102,0|0,3:2|0:0,2:0:0:0:
216,221,146589,6,0,B|217:224|217:224|218:225|218:225|218:226|218:226|217:228|217:228|216:230|216:230|214:232|214:232|211:231|211:231|209:231|209:231|207:230|207:230|204:228|204:228|205:225|205:225|204:222|204:222|205:221|205:221|207:219|207:219|209:219|209:219|211:218|211:218|211:218|212:219|212:219|215:219,6,40.4999987640381,10|0|2|0|2|0|0,3:2|0:0|3:2|0:0|3:2|0:0|0:0,2:0:0:0:
260,116,146942,2,0,P|205:189|106:177,1,161.999995056153,0|0,3:2|2:0,2:0:0:0:
12,110,147295,6,0,L|101:117,1,90,2|0,1:0|0:0,2:0:0:0:
113,109,147560,1,0,3:0:0:0:
113,95,147648,1,8,2:1:0:0:
113,81,147736,1,0,2:0:0:0:
185,25,147913,1,0,1:2:0:0:
194,35,148001,2,0,L|243:33,1,45,0|0,0:0|2:0,0:0:0:0:
304,59,148177,1,8,2:1:0:0:
313,66,148266,1,0,0:0:0:0:
323,74,148354,6,0,P|348:82|375:83,1,53.9999983520508,2|0,3:0|0:0,0:0:0:0:
437,37,148530,2,0,P|459:51|476:72,1,53.9999983520508,0|0,1:2|2:0,2:0:0:0:
512,129,148707,6,0,L|498:217,1,90,0|0,1:2|0:0,2:0:0:0:
496,231,148971,1,0,2:0:0:0:
494,244,149060,1,2,3:2:0:0:
395,155,149236,1,8,2:1:0:0:
392,168,149324,1,0,0:0:0:0:
390,181,149412,1,0,0:0:0:0:
388,195,149500,1,0,2:0:0:0:
386,208,149588,1,2,3:2:0:0:
402,386,149766,38,0,P|423:369|449:363,1,53.9999983520508,8|0,2:1|0:0,2:0:0:0:
498,319,149942,1,0,0:0:0:0:
480,305,150030,1,0,2:0:0:0:
458,298,150118,1,0,1:0:0:0:
318,315,150295,6,0,L|362:322,2,45,0|0|8,0:0|2:0|2:1,0:0:0:0:
178,384,150648,1,2,3:0:0:0:
200,382,150736,1,0,1:2:0:0:
221,375,150824,1,0,0:0:0:0:
239,361,150912,1,0,2:0:0:0:
252,343,151001,2,0,L|248:298,1,45,8|0,2:1|0:0,0:0:0:0:
306,238,151177,70,0,P|328:223|355:220,1,53.9999983520508,2|0,3:0|0:0,0:0:0:0:
183,245,151354,2,0,P|158:233|131:234,1,53.9999983520508,0|0,1:2|2:0,2:0:0:0:
33,330,151530,6,0,P|54:291|53:246,1,90,0|0,1:2|0:0,2:0:0:0:
48,233,151795,1,0,2:0:0:0:
42,220,151883,1,2,3:2:0:0:
12,78,152060,5,8,2:1:0:0:
8,90,152148,1,0,2:0:0:0:
4,102,152236,2,0,L|57:92,2,53.9999983520508,0|0|2,0:0|2:0|3:2,0:0:0:0:
150,72,152589,2,0,L|198:63,1,49.5000015106202,8|0,2:1|0:0,2:0:0:0:
313,41,152766,1,0,0:0:0:0:
296,21,152854,1,8,2:1:0:0:
279,1,152942,6,0,P|319:20|363:21,1,90,2|2,1:0|3:0,0:0:0:0:
475,115,153207,1,0,3:0:0:0:
462,113,153295,1,8,2:1:0:0:
449,111,153383,2,0,L|444:70,1,40.4999987640381,0|2,2:0|3:0,0:0:0:0:
407,172,153560,1,0,1:2:0:0:
394,170,153648,1,0,0:0:0:0:
381,168,153736,2,0,L|377:132,1,36,0|8,2:0|2:1,0:0:0:0:
448,234,153913,1,0,0:0:0:0:
448,234,154001,38,0,L|501:225,1,53.9999983520508,2|0,3:0|0:0,0:0:0:0:
328,220,154177,2,0,L|276:202,1,53.9999983520508,0|0,1:2|2:0,2:0:0:0:
382,276,154354,6,0,P|352:333|288:333,1,135,0|0,1:2|0:0,2:0:0:0:
273,310,154707,1,2,3:2:0:0:
369,354,154883,1,8,2:1:0:0:
389,345,154971,1,0,2:0:0:0:
411,340,155059,1,0,0:0:0:0:
433,339,155147,1,0,2:0:0:0:
455,343,155235,1,2,3:2:0:0:
202,384,155413,6,0,L|197:330,1,53.9999983520508,8|0,2:1|3:1,2:0:0:0:
97,310,155589,1,0,2:0:0:0:
103,323,155678,1,0,0:0:0:0:
110,338,155766,2,0,L|102:248,1,90,0|0,1:0|2:0,2:0:0:0:
244,136,156119,5,8,2:1:0:0:
233,144,156207,1,0,2:0:0:0:
222,152,156295,1,2,3:0:0:0:
211,160,156384,2,0,L|166:153,2,45,0|0|0,1:2|0:0|2:0,2:0:0:0:
74,97,156648,1,8,2:1:0:0:
96,93,156736,1,0,2:0:0:0:
118,90,156824,1,2,3:0:0:0:
295,20,157001,38,0,P|304:40|306:62,1,45,0|0,1:2|2:0,2:0:0:0:
226,25,157177,6,0,P|226:59|240:90,2,67.5,0|0|0,1:2|3:2|3:2,2:0:0:0:
226,25,158942,5,0,3:2:0:0:
344,90,159295,2,0,L|376:84,3,30,0|2|2|0,3:2|0:0|3:2|0:0,2:0:0:0:
363,21,159648,2,0,L|342:159,1,135.000005149842,0|8,3:2|1:3,2:0:0:0:
326,171,170236,69,2,3:2:0:0:
326,171,170324,1,0,2:0:0:0:
326,171,170413,2,0,L|284:176,1,22.5,0|0,2:0|0:0,0:0:0:0:
191,148,170589,6,0,P|197:116|205:123,1,67.5000025749208,2|0,1:2|0:0,2:0:0:0:
240,195,170766,2,0,L|235:265,1,45,0|0,0:0|2:0,0:0:0:0:
251,306,170942,6,0,L|279:303,6,22.5,2|2|2|2|2|2|2,3:2|2:0|2:0|2:0|2:0|2:0|2:0,2:0:0:0:
184,316,171295,37,4,1:2:0:0:
150,318,171383,1,0,0:0:0:0:
120,304,171471,1,0,0:0:0:0:
101,277,171559,1,0,2:0:0:0:
97,244,171647,5,8,2:1:0:0:
109,252,171736,1,0,2:0:0:0:
121,240,171824,1,0,3:0:0:0:
109,232,171913,1,0,1:2:0:0:
132,227,172001,1,0,0:0:0:0:
120,219,172090,1,0,2:0:0:0:
128,194,172177,5,8,2:1:0:0:
109,167,172265,1,0,0:0:0:0:
79,153,172353,1,0,3:2:0:0:
46,156,172441,1,0,0:0:0:0:
2,206,172530,5,0,3:2:0:0:
2,206,172619,1,0,3:2:0:0:
2,206,172707,38,0,B|19:171|19:171|5:98,1,108,8|0,2:1|2:0,2:0:0:0:
0,110,173060,1,0,3:2:0:0:
90,70,173236,2,0,B|126:64|126:64|155:85,1,72,8|0,2:1|0:0,2:0:0:0:
163,100,173501,1,0,2:0:0:0:
171,114,173589,1,0,3:2:0:0:
262,36,173766,2,0,L|255:107,1,72,8|0,2:1|0:0,2:0:0:0:
255,108,174030,1,0,2:0:0:0:
255,108,174119,6,0,L|351:99,1,72,0|0,1:2|2:0,2:0:0:0:
414,204,174471,1,8,2:1:0:0:
464,160,174648,1,0,3:0:0:0:
453,147,174736,2,0,B|418:132|418:132|381:143,1,72,0|0,1:2|2:0,2:0:0:0:
310,199,175001,5,8,2:1:0:0:
278,230,175089,1,0,0:0:0:0:
268,264,175177,1,0,3:2:0:0:
270,291,175266,1,0,0:0:0:0:
277,307,175354,1,0,3:2:0:0:
282,315,175442,1,0,3:2:0:0:
344,348,175530,6,0,B|314:330|314:330|290:349|290:349|217:353,1,135,8|0,2:1|2:0,2:0:0:0:
134,301,175883,2,0,B|149:284|149:284|165:299,1,45,0|0,3:2|0:0,0:0:0:0:
210,346,176060,37,8,2:1:0:0:
167,343,176148,1,0,0:0:0:0:
135,342,176236,1,0,0:0:0:0:
114,341,176324,1,0,2:0:0:0:
93,340,176413,1,0,3:2:0:0:
83,339,176501,1,0,0:0:0:0:
18,334,176589,6,0,P|-6:295|14:255,1,90,8|0,2:1|0:0,2:0:0:0:
64,213,176854,1,8,2:1:0:0:
77,230,176942,6,0,L|134:223,1,45,0|0,1:2|0:0,2:0:0:0:
195,166,177119,2,0,L|150:160,1,45,0|0,0:0|2:0,0:0:0:0:
111,102,177295,1,8,2:1:0:0:
97,85,177383,1,0,2:0:0:0:
83,68,177471,2,0,P|87:40|99:22,1,45,0|0,3:0|1:2,0:0:0:0:
51,139,177648,5,0,0:0:0:0:
26,155,177736,1,0,2:0:0:0:
0,159,177824,1,8,2:1:0:0:
177,88,178001,37,0,3:2:0:0:
219,80,178089,1,0,0:0:0:0:
254,93,178177,1,0,3:2:0:0:
273,119,178266,1,0,3:2:0:0:
281,145,178354,2,0,P|330:99|324:56,1,108,8|0,2:1|2:0,2:0:0:0:
316,54,178707,1,0,3:2:0:0:
420,10,178883,6,0,P|404:42|412:76,1,72,8|0,2:1|0:0,2:0:0:0:
464,114,179148,1,0,2:0:0:0:
477,125,179236,1,0,3:2:0:0:
466,189,179324,1,0,0:0:0:0:
461,206,179413,2,0,B|422:228|422:228|359:213,1,90,8|0,2:1|0:0,2:0:0:0:
266,196,179766,5,0,1:2:0:0:
266,196,179854,1,0,2:0:0:0:
266,196,179942,2,0,L|257:252,1,45,0|0,2:0|0:0,0:0:0:0:
320,274,180119,5,8,2:1:0:0:
326,289,180207,1,0,2:0:0:0:
345,296,180295,1,0,3:0:0:0:
351,311,180383,1,0,1:2:0:0:
367,287,180471,37,0,0:0:0:0:
321,281,180560,1,0,2:0:0:0:
286,298,180648,1,8,2:1:0:0:
267,323,180736,1,0,0:0:0:0:
260,345,180824,1,0,3:2:0:0:
261,369,180913,1,0,0:0:0:0:
265,384,181001,2,0,P|240:385|208:369,1,45,0|0,3:2|3:2,0:0:0:0:
109,331,181177,6,0,B|87:280|87:280|114:230,1,112.5,8|0,2:1|0:0,2:0:0:0:
175,206,181442,2,0,P|195:216|183:224,1,45,0|2,2:0|3:0,0:0:0:0:
122,242,181619,6,0,L|80:244,8,33.7500012874604,2|0|2|0|2|0|2|0|2,3:2|2:0|2:0|2:0|2:0|2:0|2:0|2:0|2:0,2:0:0:0:
30,199,181883,69,2,1:2:0:0:
16,133,181971,1,0,3:1:0:0:
34,93,182059,1,8,3:1:0:0:
65,73,182147,1,2,3:2:0:0:
87,68,182236,1,8,1:0:0:0:
104,74,182324,1,0,3:1:0:0:
132,109,182413,5,8,3:1:0:0:
169,84,182501,69,2,3:2:0:0:
171,66,182589,38,0,L|174:32,2,26.9999991760254,0|0|0,3:2|2:0|2:0,2:0:0:0:
245,197,182942,5,2,1:0:0:0:
245,197,183030,1,0,3:2:0:0:
238,157,183118,69,8,2:1:0:0:
232,117,183207,1,8,2:1:0:0:
273,110,183295,5,8,1:0:0:0:
273,110,183383,1,0,3:2:0:0:
315,104,183471,69,8,2:1:0:0:
315,104,183560,1,8,2:1:0:0:
321,144,183648,6,0,B|393:132|393:132|380:37,1,161.999995056153,2|0,1:3|0:0,2:0:0:0:
327,9,184001,69,2,1:3:0:0:
363,21,184089,1,0,3:2:0:0:
399,33,184178,1,8,2:1:0:0:
435,45,184266,1,8,2:1:0:0:
471,57,184354,5,2,1:2:0:0:
463,78,184442,1,0,3:2:0:0:
456,100,184530,2,0,B|463:153,1,53.9999983520508,8|0,2:1|2:0,2:0:0:0:
468,224,184707,69,8,1:0:0:0:
446,254,184795,1,0,3:2:0:0:
412,270,184883,1,8,2:1:0:0:
412,270,185060,6,0,P|357:251|407:185,1,135.000005149842,2|0,1:3|3:0,2:0:0:0:
493,332,185413,70,0,P|472:360|405:359,1,107.999996704102,2|2,1:3|3:2,2:0:0:0:
394,351,185677,1,0,2:0:0:0:
425,292,185766,2,0,P|404:320|337:319,1,107.999996704102,4|8,1:0|2:1,0:0:0:0:
326,311,186030,1,8,2:1:0:0:
278,262,186119,5,0,1:0:0:0:
241,269,186207,1,0,2:0:0:0:
224,295,186295,2,0,L|230:349,1,45,8|0,3:1|2:0,2:0:0:0:
161,322,186471,2,0,B|134:280|134:280|169:167,1,135,2|0,1:3|0:0,2:0:0:0:
171,207,186824,2,0,L|109:221,1,45,10|0,1:3|2:0,2:0:0:0:
59,185,187001,69,2,3:2:0:0:
46,181,187089,1,8,3:1:0:0:
22,157,187177,5,0,1:0:0:0:
17,121,187266,1,2,3:2:0:0:
37,88,187354,69,4,3:0:0:0:
41,100,187442,1,2,3:2:0:0:
102,126,187530,5,2,1:2:0:0:
109,105,187619,1,2,3:2:0:0:
163,110,187707,1,8,2:1:0:0:
158,89,187796,1,2,3:2:0:0:
195,50,187883,1,2,1:2:0:0:
209,64,187972,1,2,3:2:0:0:
253,34,188060,1,8,3:1:0:0:
259,54,188149,1,8,3:1:0:0:
303,83,188236,70,0,L|328:74,1,26.9999991760254,2|0,1:0|0:0,2:0:0:0:
299,102,188324,1,0,3:2:0:0:
270,146,188413,6,0,L|294:157,1,26.9999991760254,2|0,2:3|0:0,2:0:0:0:
253,156,188501,1,2,2:0:0:0:
223,187,188589,70,0,L|196:184,1,26.9999991760254,0|0,1:3|0:0,0:0:0:0:
231,204,188677,1,0,3:2:0:0:
271,239,188766,6,0,L|250:256,1,26.9999991760254,8|0,2:1|0:0,2:0:0:0:
290,244,188854,1,8,2:1:0:0:
322,229,188942,70,0,P|344:230|366:242,1,45,2|2,1:3|2:0,0:0:0:0:
325,348,189119,2,0,P|314:328|314:303,1,45,8|2,2:1|2:0,2:0:0:0:
365,165,189295,6,0,P|424:150|403:262,1,202.500007724762,2|0,1:3|2:0,2:0:0:0:
313,306,189648,70,0,P|289:320|253:321,1,53.9999983520508,2|0,1:3|3:2,2:0:0:0:
185,299,189824,1,8,2:1:0:0:
162,276,189913,1,0,2:3:0:0:
169,316,190001,5,2,1:2:0:0:
165,336,190089,1,0,3:2:0:0:
161,356,190177,2,0,L|102:363,1,45,8|8,2:1|2:1,2:0:0:0:
52,375,190354,1,8,1:0:0:0:
52,375,190442,1,0,3:2:0:0:
52,375,190530,1,8,2:1:0:0:
7,251,190707,70,0,B|-13:195|-13:195|14:133|14:133|40:188,1,161.999995056153,2|2,1:3|3:2,2:0:0:0:
32,182,191060,6,0,L|86:184,1,45,12|0,1:0|2:0,2:0:0:0:
105,301,191236,2,0,L|61:299,1,45,2|0,3:2|2:0,2:0:0:0:
142,218,191413,1,0,1:3:0:0:
149,187,191501,1,0,3:2:0:0:
156,156,191589,70,0,B|164:114|164:114|135:75,1,90,8|0,2:1|1:0,2:0:0:0:
124,63,191854,1,0,2:0:0:0:
105,76,191942,1,8,3:1:0:0:
116,89,192031,1,2,2:0:0:0:
135,76,192119,6,0,P|174:56|213:53,1,67.5000025749208,2|0,1:3|0:0,2:0:0:0:
298,100,192295,1,0,0:0:0:0:
298,100,192471,6,0,L|290:184,1,80.9999975280763,0|0,1:3|0:0,2:0:0:0:
251,233,192824,1,8,2:1:0:0:
195,309,193001,1,0,1:0:0:0:
213,289,193089,1,0,2:0:0:0:
238,278,193177,1,8,2:1:0:0:
265,277,193265,1,8,2:1:0:0:
290,286,193353,1,8,2:1:0:0:
396,360,193530,2,0,L|412:374,12,13.4999995880127,0|0|0|0|0|0|0|0|0|0|0|0|0,1:3|0:0|0:0|0:0|0:0|0:0|0:0|0:0|0:0|0:0|0:0|0:0|2:0,2:0:0:0:
396,360,193883,54,0,L|503:348,1,107.999996704102,4|8,1:2|2:0,2:0:0:0:
439,277,194413,1,2,3:2:0:0:
440,273,194501,1,0,2:0:0:0:
441,269,194589,1,2,3:2:0:0:
442,265,194677,1,2,3:2:0:0:
443,261,194766,1,0,3:0:0:0:
444,257,194854,1,2,2:0:0:0:
445,253,194942,2,0,L|456:200,1,53.9999983520508,8|0,2:0|3:0,2:0:0:0:
432,98,195295,38,0,P|473:79|442:112,1,125.999996154785,0|8,3:0|2:0,2:0:0:0:
298,22,195824,1,2,3:2:0:0:
342,82,196001,1,2,3:2:0:0:
343,95,196089,1,2,3:2:0:0:
343,108,196177,1,0,3:0:0:0:
340,122,196265,1,0,3:2:0:0:
335,134,196354,1,8,2:0:0:0:
331,147,196442,1,2,2:0:0:0:
329,159,196530,1,2,3:2:0:0:
328,174,196618,1,0,2:0:0:0:
328,186,196707,6,0,P|275:139|205:144,1,144,0|8,1:2|2:0,2:0:0:0:
98,83,197236,1,2,3:2:0:0:
116,76,197324,1,0,2:0:0:0:
134,69,197413,1,2,3:2:0:0:
141,87,197501,1,2,3:2:0:0:
142,108,197589,1,0,3:0:0:0:
136,127,197677,1,2,2:0:0:0:
125,144,197765,1,8,2:0:0:0:
110,157,197854,1,0,3:2:0:0:
91,164,197942,1,0,3:0:0:0:
71,165,198030,1,0,2:0:0:0:
51,160,198119,2,0,P|21:148|-9:144,1,62.9999980773926,0|0,3:0|0:0,2:0:0:0:
18,311,198471,5,8,2:0:0:0:
18,311,198648,2,0,L|12:341,2,31.4999990386963,2|0|2,3:2|2:0|3:2,0:0:0:0:
94,252,199001,2,0,L|99:278,2,26.9999991760254,0|0|8,3:0|3:2|2:0,0:0:0:0:
179,337,199354,1,2,3:2:0:0:
179,337,199530,38,0,P|220:319|264:324,1,90,4|8,1:2|2:0,2:0:0:0:
303,265,200060,1,2,3:2:0:0:
303,265,200148,1,0,2:0:0:0:
303,265,200236,2,0,L|294:220,1,45,2|8,3:2|3:2,2:0:0:0:
369,305,200589,2,0,P|369:282|376:261,1,45,0|8,2:0|3:2,0:0:0:0:
447,276,200942,2,0,P|446:298|439:319,1,45,8|0,3:2|2:0,2:0:0:0:
502,232,201295,6,0,B|403:237|403:237|406:233|406:233|307:238,1,202.500007724762,8|0,2:0|0:0,0:0:0:0:
256,192,201648,5,2,3:2:0:0:
257,185,201736,1,0,0:0:0:0:
258,178,201824,1,0,3:0:0:0:
209,243,202001,1,8,2:0:0:0:
260,289,202177,1,0,2:0:0:0:
252,95,202354,5,4,2:1:0:0:
252,95,202707,1,0,0:0:0:0:
260,289,202883,1,0,0:0:0:0:
252,95,203060,37,0,0:0:0:0:
260,289,203236,1,0,0:0:0:0:
260,289,203589,1,0,0:0:0:0:
252,95,203942,5,0,0:0:0:0:
260,289,204119,1,0,0:0:0:0:
252,95,204471,1,0,0:0:0:0:
260,289,204824,1,0,0:0:0:0:
256,192,205177,6,0,B|272:118|272:118|261:108|261:108|67:127|67:127|61:120|61:120|17:202|17:202|21:201|21:201|229:276|229:276|233:273|233:273|214:373|214:373|220:376|220:376|163:389|163:389|123:355|123:355|126:354|126:354|193:25|193:25|299:2|299:2|378:74|378:74|331:297|331:297|335:304|335:304|472:300|472:300|474:303|474:303|479:224|479:224|473:226|473:226|379:167,1,1957.5,2|0,1:0|0:0,0:0:0:0:
371,164,212942,2,0,B|358:231|358:231|376:278|376:278|363:346,1,188.999994232178,2|0,2:0|0:0,2:0:0:0:
361,362,213648,6,0,B|381:385|409:373|423:316|354:292|340:383|268:344,1,188.999994232178,2|0,3:0|0:0,2:0:0:0:
260,336,214354,38,0,L|263:317,6,13.4999995880127,0|0|0|0|0|0|0,0:0|0:0|0:0|0:0|2:0|0:0|0:0,0:0:0:0:
228,265,214707,6,0,P|114:280|84:371,1,215.999993408203,2|6,3:0|2:3,2:0:0:0:
83,364,216119,2,0,B|96:359|96:359|84:353,6,26.9999991760254,0|0|0|0|0|0|0,2:0|2:0|2:0|2:0|2:0|2:0|2:0,2:0:0:0:
14,378,216471,70,0,B|-1:368|-1:368|2:336|2:336|18:330,2,67.5000025749208,12|0|0,2:1|2:0|0:0,2:0:0:0:
14,378,216736,2,0,L|38:152,1,215.999993408203
29,155,217530,70,0,B|124:145|124:145|152:163|152:163|184:128,1,161.999995056153,0|0,2:0|2:0,2:0:0:0:
282,0,217883,70,0,B|253:58|253:58|284:125,1,135.000005149842,4|2,1:2|3:2,2:0:0:0:
451,20,218148,1,0,2:0:0:0:
430,30,218236,2,0,L|363:21,1,67.5000025749208,8|0,3:2|0:0,0:0:0:0:
174,138,218413,5,2,2:0:0:0:
192,121,218501,2,0,L|175:241,1,121.500000463486,2|0,1:3|3:0,2:0:0:0:
193,226,218766,2,0,L|132:217,1,60.7500002317429,0|0,1:0|2:0,2:0:0:0:
0,364,218942,70,0,P|21:348|47:341,1,53.9999983520508,8|0,3:2|2:0,2:0:0:0:
46,271,219119,2,0,P|72:276|95:290,1,53.9999983520508,2|0,1:2|0:0,0:0:0:0:
203,373,219295,6,0,B|303:358|303:358|275:377,1,135,0|0,1:0|1:2,2:0:0:0:
264,382,219648,1,10,3:2:0:0:
347,292,219824,69,0,1:0:0:0:
369,295,219912,1,2,3:2:0:0:
391,298,220000,1,0,0:0:0:0:
413,302,220088,1,0,2:0:0:0:
436,305,220176,1,10,3:2:0:0:
451,122,220354,6,0,B|444:142|444:142|451:165,1,45,0|0,1:0|0:0,2:0:0:0:
512,140,220530,1,0,0:0:0:0:
363,21,220707,70,0,B|360:66|360:66|348:80|348:80|344:124,1,107.999996704102,4|0,1:3|0:0,2:0:0:0:
218,34,220971,1,0,3:0:0:0:
232,23,221060,2,0,L|284:33,1,53.9999983520508,8|0,3:2|0:0,0:0:0:0:
375,200,221236,5,2,1:2:0:0:
393,205,221324,2,0,P|344:163|280:157,1,130.500003982544,2|0,1:3|3:0,2:0:0:0:
266,141,221589,2,0,P|233:142|201:134,1,65.250001991272,2|0,1:2|2:0,2:0:0:0:
14,17,221766,70,0,B|12:40|12:40|23:58,1,45,8|0,3:2|0:0,2:0:0:0:
80,4,221942,2,0,B|91:22|91:22|89:45,1,45,0|2,1:0|3:2,0:0:0:0:
45,180,222119,6,0,P|66:116|111:166,1,161.999995056153,0|0,1:3|3:0,2:0:0:0:
114,123,222471,2,0,P|123:149|121:176,1,53.9999983520508,8|0,3:2|0:0,0:0:0:0:
67,309,222648,69,0,1:0:0:0:
40,313,222736,1,0,0:0:0:0:
16,303,222824,1,2,3:0:0:0:
1,281,222912,1,0,3:0:0:0:
0,254,223001,2,0,L|53:261,1,53.9999983520508,8|0,3:2|0:0,0:0:0:0:
143,371,223177,6,0,P|163:362|185:361,1,45,0|2,1:0|3:2,2:0:0:0:
229,309,223354,2,0,P|250:316|266:331,1,45,2|0,3:2|0:0,0:0:0:0:
331,374,223530,70,0,P|291:304|294:224,1,161.999995056153,2|0,1:0|3:0,2:0:0:0:
362,185,223883,2,0,P|386:195|413:197,1,53.9999983520508,8|0,3:2|0:0,0:0:0:0:
254,238,224060,5,2,2:0:0:0:
274,230,224148,2,0,P|290:178|281:126,1,107.999996704102,2|0,1:3|3:0,2:0:0:0:
233,79,224413,2,0,P|217:101|213:128,1,53.9999983520508,0|0,1:0|2:0,2:0:0:0:
363,21,224589,70,0,L|370:83,1,62.9999980773926,8|0,3:2|0:0,2:0:0:0:
448,18,224766,2,0,L|455:80,1,62.9999980773926,2|0,1:2|0:0,0:0:0:0:
421,184,224942,6,0,L|416:139,2,45,0|0|0,1:3|0:0|0:0,2:0:0:0:
504,268,225295,70,0,B|467:267|448:297|448:297|435:263|397:256,2,135.000005149842,8|0|0,3:2|1:0|0:0,0:0:0:0:
435,384,225736,1,0,2:0:0:0:
438,364,225824,1,8,3:2:0:0:
404,172,226001,6,0,P|346:251|249:243,1,202.500007724762,0|0,1:0|0:0,2:0:0:0:
258,257,226354,70,0,B|212:247|177:278|177:278|141:309|95:300,1,175.499991966248,4|0,1:0|3:0,2:0:0:0:
8,251,226707,1,8,3:2:0:0:
14,231,226795,1,0,0:0:0:0:
34,238,226883,1,2,1:2:0:0:
26,257,226971,2,0,L|16:140,1,116.999994644165,2|0,1:3|3:1,2:0:0:0:
0,154,227236,2,0,L|4:95,1,58.4999973220826,2|0,1:2|2:0,2:0:0:0:
98,25,227413,6,0,P|122:46|151:57,1,62.9999980773926,8|0,3:2|0:0,0:0:0:0:
158,73,227589,2,0,P|190:72|218:58,1,62.9999980773926,0|0,1:0|0:0,0:0:0:0:
296,1,227766,70,0,B|361:0|361:0|404:42|404:42|468:39,1,188.999994232178,8|0,1:3|3:0,2:0:0:0:
489,54,228119,6,0,L|493:110,1,56.25,8|0,3:2|2:0,2:0:0:0:
500,217,228295,1,0,1:0:0:0:
468,38,228471,70,0,L|475:127,1,90,8|0,3:2|3:0,2:0:0:0:
483,203,228648,2,0,L|490:292,1,90,2|0,1:2|2:0,2:0:0:0:
429,374,228824,6,0,P|381:328|315:327,1,135.000005149842,0|2,1:0|1:2,2:0:0:0:
259,278,229089,1,2,1:2:0:0:
234,288,229177,70,0,B|211:256|211:256|222:187,1,107.999996704102,2|2,1:0|3:2,2:0:0:0:
229,120,229442,1,0,2:0:0:0:
229,120,229530,2,0,L|74:140,1,107.999996704102,8|2,3:2|2:0,0:0:0:0:
106,136,229795,2,0,P|89:110|91:75,1,62.9999980773926,2|0,1:3|0:0,2:0:0:0:
363,21,230060,1,0,1:0:0:0:
123,20,230236,6,0,P|154:18|183:37,1,62.9999980773926,8|0,3:2|3:2,0:0:0:0:
213,93,230413,1,2,1:2:0:0:
151,343,230589,2,0,P|90:379|34:353,1,125.999996154785,0|0,1:3|0:0,2:0:0:0:
0,309,230854,1,0,1:2:0:0:
0,309,230942,2,0,B|10:222|10:222|53:206,1,125.999996154785,8|0,3:2|1:0,0:0:0:0:
217,304,231295,69,0,0:0:0:0:
247,314,231383,1,0,2:0:0:0:
277,324,231471,2,0,L|346:316,1,53.9999983520508,8|0,3:2|2:0,2:0:0:0:
444,256,231648,2,0,P|474:262|510:288,1,62.9999980773926,0|0,1:0|2:0,0:0:0:0:
407,378,231824,2,0,P|394:343|413:301,1,72,2|0,3:2|2:0,2:0:0:0:
501,197,232001,6,0,P|515:136|433:95,1,144,4|0,1:3|3:0,2:0:0:0:
456,91,232266,1,0,0:0:0:0:
411,142,232354,2,0,P|381:161|344:163,1,72,8|0,3:2|0:0,0:0:0:0:
249,136,232530,1,2,1:2:0:0:
189,101,232619,1,2,1:3:0:0:
146,107,232707,1,0,0:0:0:0:
122,133,232795,1,0,3:0:0:0:
116,161,232883,70,0,L|126:237,1,62.9999980773926,2|0,1:2|2:0,2:0:0:0:
47,129,233060,2,0,P|35:101|63:33,1,72,8|0,3:2|0:0,0:0:0:0:
132,6,233236,2,0,P|171:6|203:30,1,80.9999975280763,0|2,1:0|3:2,2:0:0:0:
260,149,233413,6,0,B|253:218|253:218|265:237|265:237|258:311,2,161.999995056153,8|8|2,1:3|3:2|3:2,0:0:0:0:
226,210,233854,1,0,2:0:0:0:
193,272,233942,2,0,P|183:306|192:340,1,72,0|0,1:0|2:0,2:0:0:0:
273,374,234119,69,0,0:0:0:0:
304,367,234207,1,0,0:0:0:0:
336,360,234295,1,0,1:2:0:0:
367,353,234383,1,0,0:0:0:0:
384,367,234471,5,0,3:0:0:0:
336,360,234560,1,0,0:0:0:0:
288,353,234648,1,2,3:2:0:0:
240,346,234736,1,2,3:2:0:0:
192,340,234824,70,0,L|116:348,1,62.9999980773926,2|0,1:0|2:0,2:0:0:0:
47,339,235001,2,0,L|109:332,1,62.9999980773926,2|0,3:2|2:0,2:0:0:0:
134,257,235177,5,8,3:2:0:0:
122,228,235265,1,0,0:0:0:0:
97,209,235353,1,2,2:0:0:0:
66,205,235441,1,2,1:3:0:0:
37,218,235530,1,0,0:0:0:0:
40,186,235618,1,0,3:0:0:0:
17,164,235707,69,0,1:0:0:0:
20,132,235795,1,0,2:0:0:0:
7,89,235883,5,8,3:2:0:0:
31,67,235971,1,0,3:2:0:0:
41,24,236060,69,2,1:2:0:0:
73,16,236148,1,0,0:0:0:0:
137,0,236236,6,0,P|163:4|196:28,1,53.9999983520508,8|0,1:3|0:0,2:0:0:0:
267,52,236413,2,0,P|257:27|261:-14,1,53.9999983520508,0|0,0:0|1:2,0:0:0:0:
175,84,236589,2,0,P|204:53|278:58,1,107.999996704102,8|0,3:2|1:0,0:0:0:0:
324,91,236854,1,0,0:0:0:0:
345,157,236942,69,0,0:0:0:0:
340,200,237030,1,0,2:0:0:0:
314,220,237119,2,0,P|289:231|263:231,1,53.9999983520508,8|0,3:2|0:0,0:0:0:0:
201,212,237295,5,0,1:0:0:0:
199,199,237383,1,0,0:0:0:0:
198,186,237471,1,0,0:0:0:0:
197,172,237559,1,0,2:0:0:0:
195,159,237648,70,0,P|118:187|129:282,1,180,4|8,1:0|3:2,2:0:0:0:
181,311,238089,1,0,0:0:0:0:
191,322,238177,2,0,L|186:372,2,45,2|2|0,1:2|1:3|0:0,0:0:0:0:
80,363,238530,2,0,P|102:362|132:341,1,45,2|0,1:2|2:0,2:0:0:0:
245,277,238707,2,0,B|284:281|284:281|292:286|292:286|333:290,1,90,8|0,3:2|1:0,0:0:0:0:
483,280,239060,6,0,L|495:357,1,72,4|0,1:3|2:0,2:0:0:0:
494,351,239413,2,0,L|440:358,1,36,8|0,3:2|2:0,2:0:0:0:
395,365,239589,1,0,1:0:0:0:
412,242,239766,22,0,L|419:181,1,53.9999983520508,8|0,3:2|2:0,2:0:0:0:
427,118,239942,2,0,L|434:57,1,53.9999983520508,10|0,3:2|2:0,2:0:0:0:
433,64,240119,2,0,P|390:97|337:96,1,107.999996704102,0|2,1:0|1:2,2:0:0:0:
269,58,240383,1,2,1:2:0:0:
204,10,240471,70,0,L|96:23,1,107.999996704102,8|2,1:3|3:0,2:0:0:0:
36,75,240736,1,0,3:0:0:0:
50,82,240824,1,8,2:1:0:0:
161,207,241001,5,2,3:0:0:0:
171,195,241089,2,0,L|157:87,1,107.999996704102,0|0,1:0|2:0,2:0:0:0:
141,80,241354,2,0,L|146:124,1,45,8|0,2:1|0:0,0:0:0:0:
216,254,241530,1,2,3:0:0:0:
237,237,241618,1,0,3:0:0:0:
261,226,241707,2,0,L|305:231,1,45,0|0,1:0|0:0,0:0:0:0:
242,316,241883,6,0,B|195:327|195:327|161:294,1,90,0|8,1:0|2:1,0:0:0:0:
94,269,242148,1,0,2:0:0:0:
108,259,242236,1,0,0:0:0:0:
14,384,242413,5,0,1:0:0:0:
39,377,242501,1,0,0:0:0:0:
66,371,242589,1,8,2:1:0:0:
92,365,242677,1,0,2:0:0:0:
118,358,242766,2,0,P|144:355|171:361,1,53.9999983520508,0|0,3:2|0:0,0:0:0:0:
242,316,242942,2,0,P|266:327|286:345,1,53.9999983520508,2|0,1:3|0:0,0:0:0:0:
366,319,243118,2,0,P|381:340|389:366,1,53.9999983520508,0|0,3:0|0:0,0:0:0:0:
478,376,243295,38,0,B|505:338|505:338|494:223,1,161.999995056153,0|0,1:0|3:0,2:0:0:0:
494,223,243648,2,0,L|440:228,1,53.9999983520508,8|0,2:1|2:0,2:0:0:0:
325,140,243824,1,2,3:0:0:0:
340,150,243913,2,0,L|447:139,1,107.999996704102,0|0,1:0|2:0,2:0:0:0:
503,88,244177,6,0,P|491:32|436:46,1,125.999996154785,8|2,2:1|3:0,0:0:0:0:
363,21,244442,1,0,3:0:0:0:
348,30,244530,2,0,P|318:41|287:46,1,62.9999980773926,0|0,1:0|0:0,0:0:0:0:
210,66,244707,6,0,P|271:68|311:114,1,125.999996154785,0|8,1:0|2:1,0:0:0:0:
343,181,244971,1,0,2:0:0:0:
333,198,245060,1,0,0:0:0:0:
490,202,245236,6,0,P|428:204|388:250,1,125.999996154785,0|2,1:0|3:0,0:0:0:0:
357,316,245500,1,0,2:0:0:0:
367,329,245589,38,0,P|390:346|418:353,1,58.4999973220826,2|0,3:2|0:0,0:0:0:0:
274,314,245766,2,0,P|279:342|294:367,1,58.4999973220826,0|0,1:0|0:0,0:0:0:0:
219,238,245942,2,0,P|202:261|193:288,1,58.4999973220826,0|0,3:0|0:0,0:0:0:0:
157,366,246119,6,0,P|116:331|64:329,1,107.999996704102,2|2,1:0|3:0,2:0:0:0:
10,258,246383,1,0,0:0:0:0:
0,271,246471,5,8,2:1:0:0:
30,264,246560,1,0,2:0:0:0:
62,255,246648,2,0,P|85:208|81:154,1,107.999996704102,2|0,3:0|0:0,0:0:0:0:
75,140,246913,1,0,2:0:0:0:
65,125,247001,1,8,2:1:0:0:
15,15,247177,6,0,L|59:21,1,45,2|0,3:0|3:0,2:0:0:0:
96,10,247354,2,0,L|140:16,1,45,0|0,1:0|0:0,0:0:0:0:
211,57,247530,38,0,B|224:109|224:109|200:157,1,107.999996704102,0|8,1:0|2:1,0:0:0:0:
192,172,247795,1,0,2:0:0:0:
183,186,247883,1,0,0:0:0:0:
289,11,248060,5,0,1:0:0:0:
294,37,248148,1,0,0:0:0:0:
300,63,248236,1,8,2:1:0:0:
306,90,248324,1,0,2:0:0:0:
312,116,248412,1,0,3:2:0:0:
433,0,248589,1,2,1:3:0:0:
456,105,248766,1,0,3:0:0:0:
478,209,248942,6,0,P|461:202|443:197,1,36,0|0,1:0|0:0,0:0:0:0:
471,219,249119,2,0,P|454:212|436:207,1,36,2|0,3:0|0:0,2:0:0:0:
463,228,249295,6,0,P|443:220|420:217,1,45,8|0,2:1|0:0,0:0:0:0:
379,161,249471,2,0,P|354:173|336:193,1,53.9999983520508,2|0,3:0|0:0,0:0:0:0:
267,182,249648,2,0,P|258:244|287:299,1,125.999996154785,2|0,3:2|0:0,0:0:0:0:
412,93,250001,69,2,3:0:0:0:
393,90,250089,1,0,0:0:0:0:
374,87,250177,2,0,L|329:90,1,45,0|0,1:0|0:0,0:0:0:0:
244,48,250354,38,0,B|235:101|235:101|261:136|261:136|256:182,1,144,8|8,2:1|2:1,0:0:0:0:
130,252,250707,1,0,3:0:0:0:
295,307,250883,1,8,2:1:0:0:
261,300,250971,1,8,2:1:0:0:
228,293,251060,6,0,B|225:324|225:324|221:329|221:329|218:363,1,72,8|0,2:1|3:0,2:0:0:0:
313,384,251589,1,8,2:1:0:0:
403,369,251766,70,0,L|510:360,2,107.999996704102,2|0|8,1:0|2:0|2:1,2:0:0:0:
410,376,252295,5,2,3:0:0:0:
423,343,252383,1,0,1:2:0:0:
453,323,252471,1,0,0:0:0:0:
486,336,252560,1,0,2:0:0:0:
506,367,252648,1,8,2:1:0:0:
417,383,252824,5,2,3:0:0:0:
406,332,252913,1,0,2:0:0:0:
452,306,253001,1,0,1:2:0:0:
501,322,253089,1,0,0:0:0:0:
501,374,253177,1,0,1:2:0:0:
447,236,253354,6,0,L|444:183,1,53.9999983520508,2|0,3:0|0:0,2:0:0:0:
449,114,253530,1,2,3:2:0:0:
449,114,253619,1,0,0:0:0:0:
449,114,253707,1,8,2:1:0:0:
449,114,253883,5,0,3:0:0:0:
363,21,254060,1,2,2:0:0:0:
369,40,254148,1,0,0:0:0:0:
443,1,254324,1,0,0:0:0:0:
437,20,254412,1,0,2:0:0:0:
353,132,254589,37,0,1:0:0:0:
338,154,254677,1,0,2:0:0:0:
316,170,254765,1,0,2:0:0:0:
290,176,254853,1,0,0:0:0:0:
263,173,254941,1,8,2:1:0:0:
143,144,255119,5,2,3:0:0:0:
145,163,255207,2,0,L|202:156,2,53.9999983520508,0|0|0,1:2|0:0|2:0,2:0:0:0:
80,169,255471,1,8,2:1:0:0:
38,194,255560,1,0,0:0:0:0:
22,234,255648,1,2,3:0:0:0:
19,266,255736,1,0,0:0:0:0:
27,285,255824,1,0,1:2:0:0:
30,274,255913,1,0,0:0:0:0:
33,263,256001,6,0,P|101:275|118:349,2,135.000005149842,0|0|2,1:2|2:0|3:2,0:0:0:0:
43,356,256442,1,0,0:0:0:0:
43,356,256530,2,0,L|131:345,1,67.5000025749208,8|0,2:1|0:0,0:0:0:0:
166,260,256707,6,0,P|144:230|158:264,2,107.999996704102,0|0|2,2:0|2:0|3:2,2:0:0:0:
197,322,256972,1,0,2:0:0:0:
197,322,257060,38,0,P|211:347|212:373,1,53.9999983520508,8|0,2:1|0:0,2:0:0:0:
264,284,257236,1,0,3:1:0:0:
297,263,257324,1,8,2:1:0:0:
332,273,257413,5,2,1:0:0:0:
329,299,257501,1,0,0:0:0:0:
327,326,257589,1,0,2:0:0:0:
324,353,257677,1,0,0:0:0:0:
322,380,257765,5,8,2:1:0:0:
313,373,257854,1,0,0:0:0:0:
304,366,257942,5,2,3:0:0:0:
329,358,258030,1,0,1:2:0:0:
356,351,258118,1,0,0:0:0:0:
382,343,258206,1,0,2:0:0:0:
407,336,258295,38,0,L|415:276,1,53.9999983520508,8|0,2:1|2:0,2:0:0:0:
427,199,258471,1,2,3:0:0:0:
438,187,258560,1,0,0:0:0:0:
454,190,258648,2,0,P|465:163|462:136,1,53.9999983520508,0|0,1:2|0:0,0:0:0:0:
416,18,258824,6,0,L|346:22,1,53.9999983520508,0|0,1:2|0:0,0:0:0:0:
424,26,259001,2,0,L|354:30,1,53.9999983520508,2|0,3:0|0:0,2:0:0:0:
432,34,259177,2,0,L|362:38,1,53.9999983520508,2|0,3:2|0:0,0:0:0:0:
297,86,259354,5,8,2:1:0:0:
276,62,259442,1,0,0:0:0:0:
267,32,259531,1,2,3:0:0:0:
243,53,259619,1,0,0:0:0:0:
213,62,259708,1,2,3:2:0:0:
57,21,259883,5,8,2:1:0:0:
57,21,259971,1,0,0:0:0:0:
57,21,260060,1,0,2:0:0:0:
57,21,260148,1,2,2:0:0:0:
57,21,260236,38,0,L|169:11,1,107.999996704102,0|0,1:0|0:0,2:0:0:0:
0,155,260589,2,0,B|19:125|11:75|11:75|40:110,1,107.999996704102,8|2,2:1|3:0,2:0:0:0:
32,103,260854,2,0,P|80:104|119:54,1,107.999996704102,0|0,1:2|2:0,2:0:0:0:
174,108,261119,2,0,P|184:133|181:174,1,53.9999983520508,8|0,2:1|0:0,0:0:0:0:
188,163,261295,2,0,P|158:163|112:185,1,53.9999983520508,2|0,3:0|0:0,0:0:0:0:
40,214,261471,1,0,1:2:0:0:
75,335,261648,6,0,L|80:299,1,36,0|0,1:2|0:0,2:0:0:0:
150,323,261824,2,0,L|155:287,1,36
225,311,262001,6,0,L|230:275,1,36,0|0,2:0|3:2,0:0:0:0:
235,258,262266,1,0,0:0:0:0:
224,242,262354,6,0,L|343:231,1,90,0|0,0:0|2:0,0:0:0:0:
374,145,262707,1,0,0:0:0:0:
308,165,262883,2,0,B|301:144|301:144|308:122,1,45,0|0,2:0|0:0,0:0:0:0:
363,36,263060,5,8,1:3:0:0:
