osu file format v14

[General]
AudioFilename: ignotus.mp3
AudioLeadIn: 0
PreviewTime: 215060
Countdown: 0
SampleSet: Soft
StackLeniency: 0.3
Mode: 0
LetterboxInBreaks: 0
WidescreenStoryboard: 1

[Editor]
Bookmarks: 17148,51648,67883,133619,182589,202354,205177,217883,263060
DistanceSpacing: 1.5
BeatDivisor: 8
GridSize: 4
TimelineZoom: 2.699999

[Metadata]
Title:Ignotus (Extended ver.)
TitleUnicode:Ignotus (Extended ver.)
Artist:ak+q
ArtistUnicode:ak+q
Creator:ScubDomino
Version:SH:o:tA's[An[x]ther]
Source:Arcaea
Tags:Sound Collection MEMORIES OF CONFLICT IROCD-002 Original Soundtrack CD lowiro ajkoramusic drum and bass dnb piano electronic lanota groove coaster cybernetic future rhythm video game anime girl anime_girl scubdomino jungkyuyoung natsume shiki natsume_shiki 8972308 dark kloyd iii 1574070 shota on osu shota_on_osu cubbby cubby 10914582 freeform heilia 9823042 3626063 chinochan beomsan chinochan 918297 real realazy neanmoins 7777875 ryuusei aika acyl acylica iedesu 1943309 iljaaz 8501291 instrumental
BeatmapID:2267412
BeatmapSetID:1084205

[Difficulty]
HPDrainRate:5
CircleSize:5.5
OverallDifficulty:7.4
ApproachRate:9.1
SliderMultiplier:1.83
SliderTickRate:1

[Events]
//Background and Video events
0,0,"RED CIRCL POG.jpg",0,0
//Break Periods
2,202554,204593
//Storyboard Layer 0 (Background)
//Storyboard Layer 1 (Fail)
//Storyboard Layer 2 (Pass)
//Storyboard Layer 3 (Foreground)
//Storyboard Layer 4 (Overlay)
//Storyboard Sound Samples

[TimingPoints]
472,352.941176470588,4,2,1,60,1,0
472,-133.333333333333,4,2,1,60,0,0
648,-133.333333333333,4,2,42,60,0,0
5324,-66.6666666666667,4,2,42,60,0,0
6119,-100,4,2,42,60,0,0
6471,-111.111111111111,4,2,42,60,0,0
6824,-125,4,2,42,50,0,0
7177,-142.857142857143,4,2,42,40,0,0
7530,-133.333333333333,4,2,42,50,0,0
8766,-133.333333333333,4,2,42,60,0,0
8942,-100,4,2,42,70,0,0
9295,-100,4,2,42,60,0,0
9648,-133.333333333333,4,2,42,60,0,0
11766,-100,4,2,42,60,0,0
12119,-133.333333333333,4,2,42,50,0,0
12471,-133.333333333333,4,2,42,40,0,0
12824,-133.333333333333,4,2,42,60,0,0
14589,-100,4,2,42,70,0,0
14942,-100,4,2,42,60,0,0
15295,-133.333333333333,4,2,42,60,0,0
16354,-133.333333333333,4,2,42,70,0,0
16707,-117.647058823529,4,2,42,70,0,0
17413,-100,4,2,1,80,0,0
18471,-133.333333333333,4,2,1,80,0,0
23060,-100,4,2,1,80,0,0
23413,-111.111111111111,4,2,1,80,0,0
23766,-125,4,2,1,80,0,0
24119,-133.333333333333,4,2,1,80,0,0
28707,-100,4,2,1,90,0,0
34707,-111.111111111111,4,2,1,90,0,0
35060,-125,4,2,1,90,0,0
35766,-100,4,2,1,90,0,0
39383,-80,4,2,1,90,0,0
39648,-44.4444444444445,4,2,1,90,0,0
40001,-105.263157894737,4,2,1,90,0,0
40354,-105.263157894737,4,2,1,80,0,0
45295,-74.0740740740742,4,2,1,80,0,0
46707,-105.263157894737,4,2,1,80,0,0
47766,-74.0740740740742,4,2,1,80,0,0
48119,-105.263157894737,4,2,1,80,0,0
49883,-57.1428571428571,4,2,1,70,0,0
49971,-57.1428571428571,4,2,1,60,0,0
50059,-57.1428571428571,4,2,1,50,0,0
50147,-57.1428571428571,4,2,1,45,0,0
50235,-57.1428571428571,4,2,1,40,0,0
50324,-57.1428571428571,4,2,1,45,0,0
50412,-57.1428571428571,4,2,1,50,0,0
50500,-57.1428571428571,4,2,1,65,0,0
50589,-57.1428571428571,4,2,1,80,0,0
51295,-133.333333333333,4,2,1,80,0,0
51648,-90.9090909090909,4,2,1,80,0,0
58001,-74.0740740740741,4,2,1,80,0,0
58354,-90.9090909090909,4,2,1,80,0,0
61177,-125,4,2,1,80,0,0
62236,-74.0740740740741,4,2,1,80,0,0
62589,-90.9090909090909,4,2,1,80,0,0
71060,-181.818181818181,4,2,1,80,0,0
73177,-125,4,2,1,80,0,0
73530,-74.0740740740741,4,2,1,80,0,0
74060,-74.0740740740741,4,2,1,70,0,0
74236,-133.333333333333,4,2,1,70,0,0
74766,-133.333333333333,4,2,69,70,0,0
84119,-133.333333333333,4,2,1,80,0,0
84824,-125,4,2,1,80,0,0
85177,-75.7575757575758,4,2,1,80,0,0
85354,-75.7575757575758,4,2,1,60,0,0
86236,-125,4,2,1,60,0,0
86942,-75.7575757575758,4,2,1,60,0,0
87471,-75.7575757575758,4,2,1,80,0,0
87648,-125,4,2,1,80,0,0
88001,-74.0740740740741,4,2,1,90,0,0
90471,-117.647058823529,4,2,1,90,0,0
90824,-74.0740740740741,4,2,1,90,0,0
93295,-117.647058823529,4,2,1,90,0,0
93648,-74.0740740740741,4,2,1,90,0,0
95060,-117.647058823529,4,2,1,90,0,0
95413,-74.0740740740741,4,2,1,90,0,0
104589,-117.647058823529,4,2,1,90,0,0
104942,-74.0740740740741,4,2,1,90,0,0
109530,-181.818181818181,4,2,1,90,0,0
109883,-64.5161290322581,4,2,1,90,0,0
110589,-80,4,2,1,90,0,0
110677,-80,4,2,1,80,0,0
110942,-86.9565217391304,4,2,1,80,0,0
111295,-95.2380952380952,4,2,1,80,0,0
112089,-80,4,2,1,80,0,0
112354,-86.9565217391304,4,2,1,80,0,0
113413,-80,4,2,1,80,0,0
113766,-86.9565217391304,4,2,1,80,0,0
114119,-95.2380952380952,4,2,1,80,0,0
114913,-80,4,2,1,80,0,0
115177,-86.9565217391304,4,2,1,80,0,0
116589,-80,4,2,1,80,0,0
133177,-105.263157894737,4,2,1,80,0,0
138119,-74.0740740740741,4,2,1,80,0,0
138824,-133.333333333333,4,2,1,80,0,0
141119,-105.263157894737,4,2,1,80,0,0
143766,-74.0740740740741,4,2,1,80,0,0
144471,-86.9565217391304,4,2,1,90,0,0
145883,-125,4,2,1,65,0,0
146589,-57.1428571428571,4,2,1,65,0,0
146942,-125,4,2,1,65,0,0
147295,-90.9090909090909,4,2,1,80,0,0
153295,-100,4,2,1,80,0,0
153648,-111.111111111111,4,2,1,80,0,0
154354,-90.9090909090909,4,2,1,80,0,0
157177,-133.333333333333,4,2,1,80,0,0
157707,-133.333333333333,4,2,1,70,0,0
159648,-125,4,2,1,70,0,0
160001,-250,4,2,1,70,0,0
160177,-250,4,2,22,60,0,0
162824,-100,4,2,22,60,0,0
164236,-133.333333333333,4,2,22,60,0,0
165648,-100,4,2,22,60,0,0
166707,-133.333333333333,4,2,22,60,0,0
168471,-100,4,2,22,60,0,0
168824,-111.111111111111,4,2,22,60,0,0
169177,-125,4,2,22,60,0,0
169530,-142.857142857143,4,2,22,60,0,0
170589,-100,4,2,22,60,0,0
170942,-100,4,2,1,70,0,0
170986,-100,4,2,1,60,0,0
171295,-100,4,2,1,80,0,0
172707,-133.333333333333,4,2,1,80,0,0
174471,-100,4,2,1,80,0,0
175530,-133.333333333333,4,2,1,80,0,0
176589,-100,4,2,1,80,0,0
177295,-111.111111111111,4,2,1,80,0,0
177648,-125,4,2,1,80,0,0
178001,-133.333333333333,4,2,1,80,0,0
181177,-100,4,2,1,70,0,0
181619,-57.1428571428571,4,2,1,45,0,0
181707,-57.1428571428571,4,2,1,50,0,0
181795,-57.1428571428571,4,2,1,65,0,0
181883,-57.1428571428571,4,2,1,90,0,0
182589,-133.333333333333,4,2,1,90,0,0
182942,-90.9090909090909,4,2,1,90,0,0
189295,-74.0740740740741,4,2,1,90,0,0
190707,-90.9090909090909,4,2,1,90,0,0
192119,-74.0740740740741,4,2,1,90,0,0
192471,-133.333333333333,4,2,1,90,0,0
193530,-117.647058823529,4,2,1,90,0,0
193883,-133.333333333333,4,2,1,90,0,0
194235,-133.333333333333,4,2,85,75,0,0
201295,-74.0740740740741,4,2,85,75,0,0
202354,-74.0740740740741,4,2,1,90,0,0
205177,-133.333333333333,4,2,1,90,0,0
205353,-133.333333333333,4,2,42,60,0,0
209413,-153.846153846153,4,2,42,60,0,0
210824,-181.818181818181,4,2,42,60,0,0
212236,-222.222222222221,4,2,42,60,0,0
213648,-285.714285714284,4,2,42,60,0,0
214354,-399.999999999997,4,2,42,60,0,0
214707,-117.647058823529,4,2,42,60,0,0
215060,-117.647058823529,4,2,3,80,0,0
216119,-86.9565217391302,4,2,3,80,0,0
216471,-133.333333333333,4,2,3,80,0,0
217530,-133.333333333334,4,2,3,80,0,0
217883,-80,4,2,1,90,0,0
220354,-117.647058823529,4,2,1,90,0,0
220707,-80,4,2,1,90,0,0
227766,-117.647058823529,4,2,1,90,0,0
228471,-74.0740740740741,4,2,1,90,0,0
233589,-52.6315789473684,4,2,1,90,0,0
233942,-74.0740740740741,4,2,1,90,0,0
234824,-80,4,2,1,90,0,0
239413,-117.647058823529,4,2,1,90,0,0
239766,-74.0740740740741,4,2,1,90,0,0
240471,-86.9565217391304,4,2,1,80,0,0
251060,-74.0740740740741,4,2,1,80,0,0
251766,-86.9565217391304,4,2,1,80,0,0
256707,-74.0740740740741,4,2,1,80,0,0
258824,-80,4,2,1,80,0,0
261648,-133.333333333333,4,2,1,80,0,0
262354,-117.647058823529,4,2,1,80,0,0
263060,-117.647058823529,4,2,1,100,0,0

[Colours]
Combo1 : 236,182,172
Combo2 : 29,90,109
Combo3 : 117,162,172
Combo4 : 69,142,167
Combo5 : 136,192,212
Combo6 : 243,90,86

[HitObjects]
77,31,472,6,0,P|109:22|142:32,1,68.8080026178361,2|2,2:1|2:0,0:0:0:0:
144,12,824,2,0,P|176:20|199:45,1,68.8080026178361,2|0,2:0|2:0,0:0:0:0:
211,28,1177,2,0,P|235:51|242:84,1,68.8080026178361,2|2,2:0|2:0,0:0:0:0:
261,75,1530,2,0,P|270:107|260:139,1,68.8080026178361,0|2,2:0|2:0,0:0:0:0:
160,200,1883,6,0,P|192:209|224:199,1,68.8080026178361,2|0,2:0|0:0,0:0:0:0:
304,204,2236,2,0,P|336:214|368:204,1,68.8080026178361,2|0,2:0|0:0,0:0:0:0:
304,280,2589,6,0,L|297:355,1,68.8080026178361,2|2,2:0|2:0,0:0:0:0:
212,348,2942,2,0,L|206:279,1,68.8080026178361,2|2,2:0|2:0,0:0:0:0:
224,180,3295,6,0,P|191:189|159:179,1,68.8080026178361,0|2,0:0|2:0,0:0:0:0:
157,199,3648,2,0,P|124:190|101:165,1,68.4191276178361,2|0,2:0|0:0,0:0:0:0:
90,183,4001,2,0,P|65:159|58:126,1,68.4191276178361,2|2,2:0|2:0,0:0:0:0:
40,136,4354,2,0,P|30:103|40:71,1,68.4191276178361,0|2,0:0|2:0,0:0:0:0:
112,24,4707,6,0,L|131:25,6,17.202000654459,0|0|0|0|0|0|0,3:0|0:0|0:0|0:0|0:0|0:0|0:0,0:0:0:0:
100,32,5060,2,0,B|93:69|93:69|103:87|103:87|122:71,1,68.8080026178361,2|0,3:2|0:0,0:0:0:0:
144,84,5324,6,0,B|156:80|156:80|163:85,6,22.936000872612,2|0|0|0|0|0|0,3:0|0:0|0:0|0:0|0:0|0:0|0:0,0:0:0:0:
83,123,5589,2,0,L|31:118,2,45.7500017452241
144,96,5766,1,0,3:0:0:0:
140,160,5942,1,0,0:0:0:0:
196,136,6119,6,0,B|204:133|204:133|210:97,2,45.872,2|0|2,1:2|0:0|1:3,0:0:0:0:
184,28,6471,2,0,L|287:37,1,82.5695974868774,0|0,3:0|0:0,0:0:0:0:
312,80,6824,6,0,L|415:89,1,73.3951999999999,0|0,3:0|0:0,0:0:0:0:
428,136,7177,6,0,L|507:142,1,64.2207980453491,0|0,3:0|0:0,0:0:0:0:
388,216,7530,6,0,L|319:210,1,68.8080026178361,2|0,2:0|0:0,0:0:0:0:
256,204,7883,1,2,2:0:0:0:
256,204,8060,1,0,0:0:0:0:
319,210,8236,2,0,L|324:278,1,68.8080026178361,2|0,2:0|0:0,0:0:0:0:
332,336,8589,1,2,2:0:0:0:
320,220,8766,5,2,1:2:0:0:
332,326,8942,2,0,B|340:323|340:323|346:287,2,45.872,2|0|0,1:3|0:0|0:0,0:0:0:0:
272,288,9295,1,2,2:0:0:0:
262,287,9471,1,0,0:0:0:0:
192,276,9648,6,0,L|198:355,1,68.8080026178361,2|0,2:0|0:0,0:0:0:0:
120,268,10001,2,0,L|126:347,1,68.8080026178361,2|0,2:0|0:0,0:0:0:0:
128,360,10354,5,2,2:0:0:0:
128,360,10530,1,2,2:0:0:0:
53,332,10707,2,0,L|48:264,1,68.8080026178361,2|0,2:0|3:2,0:0:0:0:
114,199,11060,2,0,L|119:267,1,68.8080026178361,0|0,3:2|0:0,0:0:0:0:
43,192,11413,5,2,1:2:0:0:
181,209,11589,1,0,0:0:0:0:
181,219,11677,1,0,3:2:0:0:
182,229,11766,6,0,B|185:237|185:237|221:243,2,45.872,2|0|0,1:3|0:0|0:0,0:0:0:0:
119,130,12119,2,0,L|113:198,1,68.8080026178361,0|0,3:2|0:0,0:0:0:0:
104,256,12471,2,0,L|98:324,1,68.8080026178361,0|0,3:2|0:0,0:0:0:0:
92,384,12824,1,0,3:2:0:0:
92,384,13001,1,0,0:0:0:0:
164,378,13177,6,0,L|170:310,1,68.8080026178361,0|0,2:0|0:0,0:0:0:0:
230,372,13530,2,0,L|236:304,1,68.8080026178361,0|0,2:0|0:0,0:0:0:0:
242,235,13883,1,0,2:0:0:0:
236,303,14060,1,0,0:0:0:0:
301,363,14236,2,0,L|307:295,1,68.8080026178361,0|0,2:0|0:0,0:0:0:0:
256,195,14589,6,0,B|248:198|248:198|242:234,2,45.872,0|0|0,1:2|0:0|0:0,0:0:0:0:
317,235,14942,1,2,2:0:0:0:
327,234,15119,1,0,0:0:0:0:
393,223,15295,2,0,L|387:291,1,68.8080026178361,0|0,2:0|0:0,0:0:0:0:
463,212,15648,2,0,L|457:280,1,68.8080026178361,0|0,2:0|0:0,0:0:0:0:
399,154,16001,2,0,L|393:222,1,68.8080026178361,2|0,2:0|0:0,0:0:0:0:
383,285,16354,1,0,3:2:0:0:
382,295,16442,1,2,3:0:0:0:
381,305,16530,1,2,3:2:0:0:
284,368,16707,6,0,B|343:378|343:378|361:365|361:365|290:352,1,155.964802966881,2|2,3:0|3:2,0:0:0:0:
216,316,17413,6,0,L|210:375,3,45.872,4|0|0|0,1:2|0:0|0:0|0:0,0:0:0:0:
208,308,17766,2,0,L|108:316,1,91.7439999999999,8|0,2:1|3:0,0:0:0:0:
96,320,18030,1,0,1:2:0:0:
148,240,18295,5,8,2:1:0:0:
140,176,18471,2,0,L|136:130,2,34.4040013089181,0|0|0,3:2|0:0|3:2,0:0:0:0:
152,252,18824,6,0,B|240:236|240:236|250:222|250:222|374:200,1,206.035132853508,8|8,2:1|2:1,0:0:0:0:
368,204,19530,1,0,0:0:0:0:
440,216,19707,1,0,3:2:0:0:
438,198,19795,1,0,3:2:0:0:
437,181,19883,2,0,B|430:109|430:109|414:150,1,103.212003926754,8|0,2:1|0:0,0:0:0:0:
504,160,20236,5,0,1:2:0:0:
443,249,20589,2,0,L|436:177,1,68.8080026178361,8|0,2:1|3:0,0:0:0:0:
428,105,20854,5,0,1:2:0:0:
337,71,21119,1,8,2:1:0:0:
400,40,21295,2,0,L|403:-5,2,34.4040013089181,0|0|0,3:2|0:0|3:2,0:0:0:0:
328,80,21648,6,0,B|239:64|239:64|229:50|229:50|105:28,1,206.035132853508,8|8,2:1|2:1,0:0:0:0:
64,56,22354,2,0,L|60:10,2,34.4040013089181,0|0|0,0:0|0:0|3:2,0:0:0:0:
109,104,22707,2,0,P|63:124|17:103,1,103.212003926754,8|8,2:1|2:1,0:0:0:0:
32,157,23060,6,0,L|26:219,3,45.872,0|0|0|0,1:2|0:0|0:0|0:0,0:0:0:0:
64,205,23413,6,0,L|27:256,3,41.2847987434388,8|0|0|0,2:1|0:0|3:0|1:2,0:0:0:0:
65,260,23766,6,0,L|8:286,3,36.6976,0|0|8|0,0:0|0:0|2:1|0:0,0:0:0:0:
156,280,24119,6,0,L|152:234,2,34.4040013089181,0|0|0,3:2|0:0|3:2,0:0:0:0:
172,368,24471,6,0,B|156:277|156:277|176:257|176:257|192:348,1,206.035132853508,8|8,2:1|2:1,0:0:0:0:
252,296,25177,2,0,L|298:292,2,34.4040013089181,0|0|0,0:0|0:0|3:2,0:0:0:0:
278,357,25530,1,8,2:1:0:0:
278,357,25707,1,0,0:0:0:0:
350,333,25883,5,0,1:2:0:0:
348,319,25971,1,0,0:0:0:0:
347,305,26060,1,0,0:0:0:0:
425,308,26236,5,8,2:1:0:0:
423,294,26324,1,0,0:0:0:0:
422,280,26413,1,0,3:0:0:0:
460,216,26589,6,0,L|506:220,2,34.4040013089181,0|0|8,0:0|0:0|2:1,0:0:0:0:
376,216,26942,2,0,L|384:121,1,68.8080026178361,0|0,3:2|3:2,0:0:0:0:
300,164,27295,6,0,B|272:121|272:121|231:155,1,103.212003926754,8|0,2:1|0:0,0:0:0:0:
256,216,27648,1,0,3:2:0:0:
243,285,27824,1,8,2:1:0:0:
240,301,27913,1,0,0:0:0:0:
238,318,28001,2,0,L|284:314,2,34.4040013089181,0|0|0,0:0|0:0|3:2,0:0:0:0:
156,332,28354,5,8,2:1:0:0:
96,368,28530,1,8,2:1:0:0:
83,337,28619,1,8,2:1:0:0:
93,306,28707,6,0,B|105:277|101:221|58:217|27:245|36:273|42:280,1,137.616,2|0,1:0|3:0,0:0:0:0:
24,284,29060,2,0,L|20:330,2,45.872,8|0|2,2:1|0:0|3:0,0:0:0:0:
44,268,29324,2,0,L|34:161,1,91.7439999999999,0|0,1:2|0:0,0:0:0:0:
32,154,29589,5,8,2:1:0:0:
103,160,29766,2,0,L|149:164,2,45.872,2|0|0,3:0|0:0|1:2,0:0:0:0:
40,62,30119,2,0,L|31:153,1,91.7439999999999,0|0,1:2|0:0,0:0:0:0:
45,220,30471,1,2,3:2:0:0:
103,160,30648,1,8,2:1:0:0:
38,233,30824,6,0,B|73:251|73:251|183:231,2,137.35675,0|0|0,3:0|0:0|0:0,0:0:0:0:
103,160,31530,1,0,1:0:0:0:
85,331,31883,6,0,L|81:377,2,45.872,8|0|2,2:1|0:0|3:0,0:0:0:0:
88,320,32148,2,0,L|195:310,1,91.7439999999999,0|0,1:2|0:0,0:0:0:0:
248,295,32413,5,8,2:1:0:0:
249,276,32501,1,0,0:0:0:0:
251,258,32589,1,2,3:0:0:0:
182,248,32766,1,0,1:2:0:0:
316,334,32942,6,0,L|326:227,1,91.7439999999999,0|0,1:2|0:0,0:0:0:0:
328,222,33207,1,0,0:0:0:0:
330,204,33295,1,2,3:2:0:0:
393,270,33471,1,8,2:1:0:0:
411,268,33560,1,0,0:0:0:0:
429,266,33648,2,0,L|475:262,2,45.872,0|0|2,0:0|0:0|3:2,0:0:0:0:
444,375,34001,6,0,B|422:368|422:368|407:281|407:281|428:265,1,137.616,8|8,2:1|2:1,0:0:0:0:
456,192,34354,6,0,L|502:196,3,45.872,2|2|2|0,1:0|2:0|3:0|3:0,0:0:0:0:
413,120,34707,6,0,L|459:124,3,41.2847987434388,8|0|2|0,2:1|0:0|3:0|1:2,0:0:0:0:
364,54,35060,6,0,L|410:58,3,36.6976,0|0|8|0,0:0|0:0|2:1|0:0,0:0:0:0:
290,22,35413,5,2,3:0:0:0:
291,36,35501,1,0,0:0:0:0:
292,51,35589,1,0,1:2:0:0:
224,128,35766,6,0,B|246:115|279:133|279:133|253:100|190:109|167:150,1,183.488,0|2,1:2|3:2,0:0:0:0:
108,160,36295,1,8,2:1:0:0:
109,178,36383,1,0,0:0:0:0:
111,196,36471,2,0,L|115:242,2,45.872,0|0|2,3:0|0:0|3:2,0:0:0:0:
100,96,36824,1,8,2:1:0:0:
108,160,37001,1,0,0:0:0:0:
205,75,37177,6,0,B|239:40|239:40|221:142,1,137.616,0|0,1:0|0:0,0:0:0:0:
212,156,37530,2,0,L|315:165,1,91.7439999999999,8|2,2:1|3:0,0:0:0:0:
359,202,37795,1,0,1:2:0:0:
365,138,37883,1,0,0:0:0:0:
296,224,38060,5,8,2:1:0:0:
416,240,38236,1,2,3:0:0:0:
365,138,38413,1,0,1:2:0:0:
352,264,38589,6,0,L|350:292,1,22.936,0|0,1:2|0:0,0:0:0:0:
352,264,38766,2,0,L|350:292,1,22.936,8|0,2:1|0:0,0:0:0:0:
260,332,39030,6,0,L|258:360,1,22.936,8|0,2:1|0:0,0:0:0:0:
260,332,39207,2,0,L|258:360,1,22.936,8|0,2:1|0:0,0:0:0:0:
180,260,39383,6,0,L|177:232,1,28.67,0|0,3:1|0:0,0:0:0:0:
352,264,39648,6,0,B|328:268|328:268|319:265|319:265|292:270,1,51.6060019633771,8|0,2:1|0:0,0:0:0:0:
488,352,40001,6,0,B|456:370|456:370|349:352,1,130.735196518278,8|0,1:3|0:0,0:0:0:0:
348,348,40354,1,2,1:2:0:0:
348,348,40530,1,8,2:1:0:0:
421,351,40707,1,2,1:2:0:0:
275,346,40883,1,0,3:0:0:0:
284,240,41060,2,0,L|278:299,1,43.5783988394261,8|0,1:0|0:0,0:0:0:0:
112,204,41413,5,2,1:2:0:0:
112,204,41589,1,8,2:1:0:0:
39,207,41766,1,2,1:2:0:0:
185,202,41942,1,8,3:1:0:0:
176,96,42119,2,0,L|181:155,1,43.5783988394261,2|0,1:2|0:0,0:0:0:0:
185,202,42295,1,0,3:2:0:0:
120,48,42471,6,0,B|151:29|151:29|258:47,1,130.735196518278,8|0,1:0|0:0,0:0:0:0:
301,60,42824,1,0,1:3:0:0:
364,168,43177,5,2,1:2:0:0:
364,168,43354,1,8,2:1:0:0:
437,171,43530,1,2,1:2:0:0:
291,166,43707,1,0,3:0:0:0:
300,60,43883,2,0,L|294:119,1,43.5783988394261,8|0,1:0|0:0,0:0:0:0:
291,166,44060,1,0,3:0:0:0:
362,241,44236,5,2,1:2:0:0:
364,168,44413,1,8,2:1:0:0:
359,314,44589,1,2,1:2:0:0:
362,241,44766,1,8,3:1:0:0:
256,288,44942,6,0,L|319:282,1,43.5783988394261,2|0,1:2|3:0,0:0:0:0:
212,356,45119,2,0,L|275:350,1,43.5783988394261,0|0,3:2|0:0,0:0:0:0:
152,312,45295,6,0,B|139:334|139:334|146:373,1,61.9272002356052,2|0,1:3|0:0,0:0:0:0:
88,308,45471,2,0,B|75:330|75:330|82:369,1,61.9272002356052
20,304,45648,1,8,1:3:0:0:
20,304,46001,5,2,1:2:0:0:
20,304,46177,1,8,2:1:0:0:
30,182,46354,1,2,1:2:0:0:
25,243,46530,1,0,3:0:0:0:
106,237,46707,6,0,B|79:222|54:232|73:246|36:254|13:236,1,87.1567976788521,8|0,1:0|0:0,0:0:0:0:
33,109,47060,5,2,1:2:0:0:
35,36,47236,1,8,2:1:0:0:
30,182,47413,1,2,1:2:0:0:
33,109,47589,1,8,3:1:0:0:
106,205,47766,6,0,B|137:199|137:199|143:161|143:161|5:186,1,185.781600706816,2|0,1:2|0:0,0:0:0:0:
52,260,48119,6,0,B|45:296|45:296|40:299|40:299|33:343,1,87.1567976788521,8|0,1:0|0:0,0:0:0:0:
104,380,48471,2,0,L|199:371,1,87.1567976788521,0|2,1:3|2:0,0:0:0:0:
272,364,48824,1,2,1:2:0:0:
190,372,49001,1,8,2:1:0:0:
266,290,49177,5,2,1:2:0:0:
348,298,49354,1,0,3:0:0:0:
268,376,49530,2,0,L|258:272,1,87.1567976788521,8|0,1:0|0:0,0:0:0:0:
228,192,49883,6,0,B|237:174|237:174|251:187,14,40.0731878817677,2|2|2|2|2|2|2|2|2|2|2|2|2|2|2,1:2|2:0|2:0|2:0|2:0|2:0|2:0|2:0|2:0|2:0|2:0|2:0|2:0|2:0|2:0,0:0:0:0:
196,252,50589,5,2,1:2:0:0:
166,214,50677,1,0,3:1:0:0:
164,167,50766,1,8,3:1:0:0:
189,127,50854,1,2,3:2:0:0:
248,104,50942,5,8,1:0:0:0:
260,124,51030,1,0,3:1:0:0:
259,148,51119,1,8,3:1:0:0:
244,167,51207,1,2,3:2:0:0:
189,127,51295,6,0,P|173:79|194:33,1,103.212003926754,0|0,3:2|0:0,0:0:0:0:
260,0,51648,6,0,L|331:6,1,50.4592015357972,2|0,1:0|3:2,0:0:0:0:
388,16,51824,1,8,2:1:0:0:
400,47,51913,1,8,2:1:0:0:
391,79,52001,1,8,1:0:0:0:
480,120,52177,5,8,2:1:0:0:
459,145,52266,1,8,2:1:0:0:
426,154,52354,2,0,P|442:202|421:248,1,100.918403071594,2|0,1:3|2:0,0:0:0:0:
408,332,52707,5,2,1:3:0:0:
372,200,52883,1,8,2:1:0:0:
440,256,53060,1,2,1:2:0:0:
400,348,53236,2,0,L|332:342,1,50.4592015357972,8|8,2:1|2:1,0:0:0:0:
284,336,53413,5,8,1:0:0:0:
285,356,53501,1,0,3:2:0:0:
287,376,53589,1,8,2:1:0:0:
352,284,53766,6,0,B|321:248|321:248|215:267,1,151.377604607391,2|2,1:3|3:2,0:0:0:0:
152,280,54119,1,2,1:3:0:0:
215,306,54295,5,2,3:2:0:0:
217,286,54383,1,0,0:0:0:0:
218,266,54471,1,4,1:3:0:0:
89,243,54648,2,0,L|84:293,1,50.4592015357972,8|8,2:1|2:1,0:0:0:0:
25,304,54824,1,0,1:0:0:0:
149,320,55001,5,8,3:1:0:0:
151,300,55089,1,2,0:0:0:0:
152,280,55177,1,2,1:3:0:0:
74,94,55530,5,10,1:3:0:0:
48,160,55707,1,2,3:2:0:0:
80,169,55795,1,8,3:1:0:0:
111,157,55883,2,0,L|106:207,1,50.4592015357972,0|2,1:0|3:2,0:0:0:0:
179,190,56060,2,0,L|174:240,1,50.4592015357972,4|2,3:1|3:2,0:0:0:0:
164,120,56236,5,2,1:2:0:0:
192,99,56324,1,2,3:2:0:0:
226,93,56413,1,8,2:1:0:0:
260,101,56501,1,2,3:2:0:0:
288,123,56589,5,2,1:2:0:0:
286,137,56677,1,2,3:2:0:0:
282,165,56766,5,8,3:1:0:0:
280,179,56854,1,8,3:1:0:0:
275,210,56942,5,0,1:0:0:0:
271,245,57030,1,0,3:2:0:0:
268,280,57119,1,2,2:3:0:0:
253,248,57207,1,2,2:0:0:0:
238,217,57295,1,0,1:3:0:0:
332,324,57471,5,8,2:1:0:0:
329,344,57560,1,8,2:1:0:0:
327,364,57648,1,2,1:3:0:0:
400,312,57824,5,8,2:1:0:0:
397,332,57913,1,2,2:0:0:0:
395,352,58001,2,0,B|401:276|401:276|426:262|426:262|434:178,1,185.781600706816,2|0,1:3|0:0,0:0:0:0:
440,104,58354,6,0,L|372:109,1,50.4592015357972,2|0,1:0|3:2,0:0:0:0:
324,68,58530,1,8,2:1:0:0:
312,99,58619,1,2,2:2:0:0:
321,131,58707,1,2,1:2:0:0:
358,198,58883,5,8,2:1:0:0:
367,230,58971,1,8,2:1:0:0:
355,261,59060,1,8,1:0:0:0:
296,223,59236,1,8,2:1:0:0:
424,167,59413,6,0,B|462:206|462:206|444:312,1,151.377604607391,2|2,1:3|3:2,0:0:0:0:
435,367,59766,1,6,1:3:0:0:
405,296,59942,1,2,3:2:0:0:
425,298,60030,1,0,0:0:0:0:
445,301,60119,1,0,1:3:0:0:
512,312,60295,1,8,2:1:0:0:
426,377,60471,1,0,1:0:0:0:
461,241,60648,5,8,3:1:0:0:
502,247,60824,1,2,1:3:0:0:
401,182,61001,5,8,2:1:0:0:
392,150,61089,1,8,2:1:0:0:
404,119,61177,6,0,L|413:7,1,110.0928,0|0,1:3|0:0,0:0:0:0:
416,0,61530,1,8,2:1:0:0:
344,64,61707,1,0,1:0:0:0:
330,65,61795,1,0,0:0:0:0:
315,67,61883,2,0,L|267:71,2,36.6976,8|8|8,2:1|2:1|2:1,0:0:0:0:
491,118,62236,6,0,B|443:109|443:109|402:183|402:183|343:173,1,185.781600706816,0|0,1:3|0:0,0:0:0:0:
280,188,62589,6,0,B|309:219|299:277|270:250|263:300|285:333,1,151.377604607391,4|0,1:2|0:0,0:0:0:0:
288,344,62942,1,10,3:2:0:0:
199,206,63119,6,0,B|209:248|171:293|159:255|128:295|130:334,1,151.377604607391,0|0,1:0|0:0,0:0:0:0:
127,345,63471,1,0,1:0:0:0:
136,170,63648,6,0,L|131:238,1,50.4592015357972,10|0,3:2|0:0,0:0:0:0:
199,206,63824,1,0,1:0:0:0:
73,136,64001,6,0,L|60:304,1,151.377604607391,0|0,1:0|0:0,0:0:0:0:
57,320,64354,2,0,L|-11:325,1,50.4592015357972,10|0,3:2|0:0,0:0:0:0:
132,232,64530,2,0,L|119:400,1,151.377604607391,0|0,1:0|0:0,0:0:0:0:
108,380,64883,1,0,1:0:0:0:
196,272,65060,2,0,L|191:340,1,50.4592015357972,10|2,3:2|1:2,0:0:0:0:
188,384,65236,1,0,1:0:0:0:
139,248,65413,6,0,P|203:209|256:256,1,150.975004607391,0|0,1:0|0:0,0:0:0:0:
196,272,65766,1,10,3:2:0:0:
328,191,65942,2,0,L|315:359,1,151.377604607391,0|0,1:0|0:0,0:0:0:0:
305,351,66295,1,0,1:0:0:0:
452,264,66471,2,0,L|367:257,1,50.4592015357972,10|0,3:2|0:0,0:0:0:0:
433,197,66648,1,0,1:0:0:0:
464,331,66824,6,0,L|296:318,1,151.377604607391,0|0,1:0|0:0,0:0:0:0:
225,310,67177,2,0,L|230:373,1,50.4592015357972,10|0,3:2|0:0,0:0:0:0:
264,364,67354,1,0,1:0:0:0:
208,376,67442,1,2,1:3:0:0:
61,365,67707,5,0,1:0:0:0:
136,232,67883,2,0,B|156:207|156:207|85:194|85:194|50:233,1,151.377604607391,10|2,3:2|3:2,0:0:0:0:
56,272,68236,2,0,B|27:241|37:183|66:210|73:160|53:130,1,151.377604607391,0|0,1:0|0:0,0:0:0:0:
36,72,68589,2,0,P|60:66|84:73,1,50.4592015357972,10|0,3:2|0:0,0:0:0:0:
154,16,68766,2,0,L|143:167,1,151.377604607391,0|0,1:0|0:0,0:0:0:0:
118,172,69119,1,0,1:0:0:0:
216,84,69295,2,0,P|240:77|265:83,1,50.4592015357972,10|0,3:2|0:0,0:0:0:0:
241,142,69471,1,0,1:0:0:0:
345,22,69648,6,0,L|356:172,1,151.377604607391,0|0,1:0|0:0,0:0:0:0:
360,244,70001,2,0,L|284:237,1,50.4592015357972,10|0,3:2|0:0,0:0:0:0:
432,188,70177,2,0,L|439:293,1,100.918403071594,0|0,1:0|0:0,0:0:0:0:
442,306,70442,1,0,0:0:0:0:
444,322,70530,1,0,1:0:0:0:
336,372,70707,5,8,1:2:0:0:
308,360,70795,1,2,1:2:0:0:
310,330,70883,1,0,1:0:0:0:
340,323,70971,1,8,1:0:0:0:
355,349,71060,6,0,B|304:315|248:330|269:374|190:360|153:337|153:337|204:348|244:328,1,302.184859214783,0|0,1:3|2:0,0:0:0:0:
83,35,73177,6,0,B|71:98|71:98|80:115|80:115|85:88,1,110.0928,0|0,2:0|0:0,0:0:0:0:
5,141,73530,6,0,B|14:172|14:172|124:191|124:191|150:160,1,185.781600706816,2|0,2:0|0:0,0:0:0:0:
56,248,73883,1,8,1:3:0:0:
176,348,74236,6,0,L|178:313,3,34.4040013089181,0|0|0|2,3:0|0:0|2:0|3:0,0:0:0:0:
208,364,74589,1,0,2:0:0:0:
218,363,74677,1,0,0:0:0:0:
228,362,74766,1,2,2:0:0:0:
272,320,74942,1,0,3:0:0:0:
282,321,75030,1,0,0:0:0:0:
292,322,75119,1,0,2:0:0:0:
360,364,75295,5,2,2:0:0:0:
360,352,75471,1,0,2:0:0:0:
432,352,75648,5,0,3:0:0:0:
432,340,75824,1,0,2:0:0:0:
503,348,76001,5,0,2:0:0:0:
502,338,76089,1,0,0:0:0:0:
501,328,76177,1,2,2:0:0:0:
496,260,76354,5,0,3:0:0:0:
496,248,76530,1,0,2:0:0:0:
460,180,76707,6,0,L|494:182,2,34.4040013089181,2|0|0,2:3|0:0|2:0,0:0:0:0:
492,120,77060,1,0,3:0:0:0:
492,108,77236,1,0,2:0:0:0:
430,68,77413,5,0,2:0:0:0:
429,58,77501,1,0,0:0:0:0:
428,48,77589,1,2,2:0:0:0:
364,12,77766,6,0,L|329:14,2,34.4040013089181,0|0|0,3:0|0:0|2:0,0:0:0:0:
344,76,78119,1,2,2:3:0:0:
344,88,78295,1,0,2:0:0:0:
308,141,78471,5,0,3:0:0:0:
309,151,78560,1,0,0:0:0:0:
310,161,78648,1,0,2:0:0:0:
352,219,78824,2,0,L|349:253,2,34.4040013089181,0|0|0,2:0|0:0|3:0,0:0:0:0:
368,324,79177,2,0,L|280:316,1,68.8080026178361,8|0,3:2|0:0,0:0:0:0:
289,318,79442,1,8,2:0:0:0:
275,316,79530,1,2,2:0:0:0:
449,198,79883,5,8,2:0:0:0:
447,211,79971,1,0,0:0:0:0:
446,225,80060,1,0,2:0:0:0:
445,239,80148,1,0,3:0:0:0:
444,252,80236,2,0,L|441:286,2,34.4040013089181,0|0|8,2:0|0:0|2:0,0:0:0:0:
384,312,80589,5,0,3:0:0:0:
383,322,80677,1,0,0:0:0:0:
382,332,80766,1,0,2:0:0:0:
324,376,80942,2,0,L|236:368,1,68.8080026178361,10|0,2:0|2:0,0:0:0:0:
188,352,81295,1,0,3:0:0:0:
245,308,81471,1,10,2:0:0:0:
181,359,81648,2,0,L|184:325,2,34.4040013089181,0|0|2,2:0|0:0|2:0,0:0:0:0:
119,285,82001,5,8,2:0:0:0:
117,272,82089,1,0,0:0:0:0:
116,258,82177,1,0,2:0:0:0:
115,244,82266,1,0,0:0:0:0:
114,231,82354,2,0,L|111:197,2,34.4040013089181,2|0|0,2:3|0:0|2:0,0:0:0:0:
104,132,82707,1,10,2:0:0:0:
170,166,82883,1,0,2:0:0:0:
44,197,83060,5,0,2:0:0:0:
41,181,83148,1,0,0:0:0:0:
40,164,83236,1,0,3:2:0:0:
39,147,83324,1,0,0:0:0:0:
37,132,83413,2,0,L|33:91,2,34.3125013089181,8|8|0,2:0|2:0|2:0,0:0:0:0:
24,36,83766,6,0,L|99:42,1,68.8080026178361,0|0,3:2|0:0,0:0:0:0:
172,80,84119,1,2,2:0:0:0:
184,48,84207,1,2,2:0:0:0:
179,14,84295,1,2,2:0:0:0:
106,6,84471,5,2,2:0:0:0:
92,41,84560,1,2,2:0:0:0:
98,78,84648,1,2,2:0:0:0:
128,168,84824,6,0,L|132:120,1,36.6976,2|0,3:2|0:0,0:0:0:0:
61,198,85001,2,0,L|65:150,1,36.6976,2|0,3:2|0:0,0:0:0:0:
28,280,85177,6,0,B|81:289|81:289|81:304|81:304|35:296,1,90.8265597235564,4|0,3:0|0:0,0:0:0:0:
76,328,85354,2,0,B|90:244|90:244|113:245|113:245|103:308,1,151.377599539261,0|0,3:2|0:0,0:0:0:0:
136,316,85619,2,0,B|131:339|131:339|159:364|159:364|187:349|187:349|191:321,1,121.102079631409,0|0,3:2|0:0,0:0:0:0:
176,248,85883,6,0,L|181:188,2,40.4814298771362,0|0|0,2:0|2:0|2:0,0:0:0:0:
176,259,86060,1,0,3:0:0:0:
203,134,86236,6,0,B|170:128|170:128|167:130|167:130|115:121,1,73.3951999999999,0|0,3:0|0:0,0:0:0:0:
104,118,86501,1,0,0:0:0:0:
164,51,86677,1,2,2:0:0:0:
164,51,86766,1,0,3:2:0:0:
104,118,86942,6,0,B|118:35|118:35|148:3|148:3|167:31|167:31|163:59,1,181.653119447113,2|2,3:0|2:3,0:0:0:0:
124,216,87471,2,0,L|171:220,2,40.4814298771362,2|0|0,3:2|0:0|0:0,0:0:0:0:
112,216,87648,6,0,B|84:196|102:164|102:164|130:184|112:219,1,110.0928,2|0,3:2|0:0,0:0:0:0:
24,140,88001,6,0,B|12:89|42:78|71:30|71:30|48:71|67:102,1,185.781600706816,4|0,1:2|0:0,0:0:0:0:
180,80,88354,2,0,B|143:81|143:81|116:68,1,61.9272002356052,8|0,3:2|0:0,0:0:0:0:
152,16,88530,1,2,2:0:0:0:
152,16,88619,1,2,1:3:0:0:
152,16,88707,1,0,0:0:0:0:
208,144,88883,1,0,1:3:0:0:
112,264,89060,6,0,B|41:275|49:232|-5:218|-5:218|30:225|62:206,1,185.781600706816,8|2,3:2|3:2,0:0:0:0:
134,201,89413,2,0,P|178:275|115:334,1,185.781600706816,0|0,1:0|1:2,0:0:0:0:
53,377,89766,2,0,L|47:316,1,61.9272002356052,8|0,3:2|0:0,0:0:0:0:
112,264,89942,6,0,B|194:277|194:277|200:270|200:270|297:288,1,185.781600706816,0|0,1:0|2:3,0:0:0:0:
350,276,90295,2,0,L|344:337,1,61.9272002356052,8|0,3:2|0:0,0:0:0:0:
303,222,90471,6,0,B|361:199|361:199|409:240,1,116.973602225161,0|0,1:0|0:0,0:0:0:0:
440,361,90824,6,0,B|409:335|422:258|474:297|480:232|448:183,1,185.781600706816,4|0,1:3|0:0,0:0:0:0:
429,118,91177,2,0,B|459:111|459:111|485:128,1,61.9272002356052,8|0,3:2|0:0,0:0:0:0:
460,200,91354,1,2,1:2:0:0:
460,200,91442,1,2,1:3:0:0:
460,200,91530,1,0,0:0:0:0:
404,44,91707,1,2,1:2:0:0:
490,123,91883,6,0,L|406:115,1,61.9272002356052,8|0,3:2|0:0,0:0:0:0:
352,109,92060,1,0,1:0:0:0:
216,24,92236,6,0,B|251:54|251:54|226:192,1,185.781600706816,0|0,1:0|3:0,0:0:0:0:
248,216,92589,2,0,L|242:277,1,61.9272002356052,8|0,3:2|0:0,0:0:0:0:
232,344,92766,1,0,1:0:0:0:
316,264,92942,1,2,3:0:0:0:
314,276,93030,1,0,3:0:0:0:
313,288,93119,2,0,L|307:349,1,61.9272002356052,8|0,3:2|0:0,0:0:0:0:
287,204,93295,6,0,B|329:163|329:163|352:217,1,116.973602225161,0|0,1:0|0:0,0:0:0:0:
376,77,93648,6,0,B|380:118|340:119|329:154|329:154|332:118|298:103|316:66,1,185.781600706816,2|0,1:0|0:0,0:0:0:0:
358,12,94001,2,0,L|286:5,1,61.9272002356052,8|0,3:2|0:0,0:0:0:0:
232,0,94177,1,2,2:0:0:0:
232,0,94266,1,2,1:3:0:0:
232,0,94354,1,0,0:0:0:0:
347,11,94530,1,0,1:0:0:0:
211,159,94707,6,0,B|254:130|254:130|231:-2,1,185.781600706816,8|0,3:2|0:0,0:0:0:0:
152,16,95060,6,0,B|123:34|123:34|138:120,1,116.973602225161,0|0,1:0|1:2,0:0:0:0:
149,164,95413,2,0,L|224:157,1,61.9272002356052,8|0,3:2|0:0,0:0:0:0:
272,152,95589,1,0,1:0:0:0:
148,88,95766,5,0,0:0:0:0:
89,133,95942,1,8,3:2:0:0:
101,231,96119,1,0,1:0:0:0:
218,267,96295,1,2,3:2:0:0:
218,267,96383,1,0,0:0:0:0:
218,267,96471,6,0,B|219:230|168:214|126:254|134:322|189:361,1,185.781600706816,8|0,1:3|3:0,0:0:0:0:
168,368,96824,2,0,P|194:382|225:379,1,61.9272002356052,8|0,3:2|0:0,0:0:0:0:
296,344,97001,1,2,1:2:0:0:
296,344,97089,1,2,1:3:0:0:
296,344,97177,1,0,0:0:0:0:
156,372,97354,1,2,1:2:0:0:
224,208,97530,6,0,L|217:287,1,61.9272002356052,8|0,3:2|0:0,0:0:0:0:
216,292,97707,1,0,1:0:0:0:
279,172,97883,6,0,B|291:137|286:117|241:83|191:101|176:123|176:160,1,185.781600706816,4|0,1:0|3:0,0:0:0:0:
156,236,98236,6,0,L|149:315,1,61.9272002356052,8|0,3:2|0:0,0:0:0:0:
149,320,98413,1,0,1:0:0:0:
84,272,98589,5,8,3:2:0:0:
81,302,98677,1,0,3:0:0:0:
79,333,98766,1,2,1:2:0:0:
156,236,98942,1,0,1:0:0:0:
16,285,99119,5,2,1:2:0:0:
14,315,99207,1,2,1:2:0:0:
12,346,99295,2,0,B|99:360|99:360|102:365|102:365|208:384,1,185.781600706816,2|0,1:0|0:0,0:0:0:0:
280,384,99648,6,0,L|274:322,1,61.9272002356052,8|0,3:2|0:0,0:0:0:0:
264,252,99824,1,2,2:0:0:0:
264,252,99913,1,2,1:3:0:0:
264,252,100001,1,0,0:0:0:0:
280,372,100177,1,0,1:0:0:0:
368,240,100354,6,0,L|362:301,1,61.9272002356052,8|0,3:2|3:2,0:0:0:0:
360,324,100530,1,2,1:2:0:0:
376,178,100707,6,0,B|360:150|374:122|374:122|351:135|337:189|401:181|357:262,1,185.781600706816,0|0,1:0|1:2,0:0:0:0:
441,152,101060,2,0,L|447:91,1,61.9272002356052,8|0,3:2|0:0,0:0:0:0:
444,27,101236,1,0,1:0:0:0:
366,69,101413,1,0,0:0:0:0:
506,130,101589,2,0,L|512:69,1,61.9272002356052,8|0,3:2|0:0,0:0:0:0:
435,24,101766,1,0,1:0:0:0:
441,152,101942,5,2,3:2:0:0:
443,127,102030,1,0,0:0:0:0:
445,102,102119,2,0,B|396:77|341:91|370:133|303:142|265:106,1,185.781600706816,4|0,1:3|3:0,0:0:0:0:
196,80,102471,2,0,L|202:141,1,61.9272002356052,8|0,3:2|0:0,0:0:0:0:
180,207,102648,1,2,1:2:0:0:
249,196,102736,1,2,1:3:0:0:
148,16,103001,5,2,1:2:0:0:
196,80,103177,2,0,B|186:24|186:24|115:12|115:12|83:59,1,185.781600706816,8|2,3:2|3:2,0:0:0:0:
6,146,103530,6,0,B|-16:113|22:93|20:57|20:57|30:91|66:89|61:134,1,185.781600706816,0|0,1:0|3:0,0:0:0:0:
16,164,103883,2,0,L|10:225,1,61.9272002356052,8|0,3:2|0:0,0:0:0:0:
73,287,104060,6,0,B|106:264|126:303|162:300|162:300|127:310|129:347|85:342,1,185.781600706816,0|0,1:0|3:0,0:0:0:0:
59,291,104413,2,0,L|53:352,1,61.9272002356052,8|0,3:2|0:0,0:0:0:0:
160,234,104589,6,0,L|147:111,1,116.973602225161,0|2,1:0|3:2,0:0:0:0:
141,40,104942,6,0,B|133:19|116:14|116:14|150:-13|233:2|243:55,1,185.781600706816,2|2,1:0|3:2,0:0:0:0:
308,38,105295,2,0,P|312:69|298:96,1,61.9272002356052,8|0,3:2|0:0,0:0:0:0:
249,55,105471,1,2,2:0:0:0:
249,55,105560,1,2,0:0:0:0:
249,55,105648,1,2,3:0:0:0:
371,21,105824,1,0,1:0:0:0:
299,186,106001,6,0,L|305:125,1,61.9272002356052,8|0,3:2|3:2,0:0:0:0:
308,38,106177,1,2,1:2:0:0:
364,225,106354,6,0,B|344:260|344:260|232:250|232:250|216:213,1,185.781600706816,0|0,1:0|1:2,0:0:0:0:
305,124,106707,2,0,L|299:185,1,61.9272002356052,8|0,3:2|0:0,0:0:0:0:
292,256,106883,1,0,1:0:0:0:
233,153,107060,1,0,0:0:0:0:
377,92,107236,2,0,L|371:153,1,61.9272002356052,8|0,3:2|0:0,0:0:0:0:
364,225,107413,1,0,1:0:0:0:
233,153,107589,1,2,3:2:0:0:
432,261,107766,6,0,B|412:296|412:296|300:286|300:286|284:249,1,185.781600706816,8|0,1:3|3:0,0:0:0:0:
370,163,108119,2,0,L|364:224,1,61.9272002356052,8|0,3:2|0:0,0:0:0:0:
381,293,108295,1,2,1:2:0:0:
323,287,108383,1,2,1:3:0:0:
370,163,108648,5,2,1:3:0:0:
432,261,108824,2,0,L|512:269,1,61.7625002356052,8|0,3:2|0:0,0:0:0:0:
474,206,109001,1,0,1:0:0:0:
410,119,109177,6,0,B|380:35|380:35|325:115,1,185.781600706816,4|0,1:0|3:0,0:0:0:0:
240,152,109530,6,0,L|242:124,1,25.2296007678986,8|0,3:2|0:0,0:0:0:0:
176,152,109707,2,0,L|178:124,1,25.2296007678986,0|0,1:0|0:0,0:0:0:0:
96,24,109883,6,0,B|111:58|111:58|102:95,1,71.1016005410194,8|0,3:2|0:0,0:0:0:0:
26,39,110060,2,0,B|41:73|41:73|32:110,1,71.1016005410194,10|0,3:2|0:0,0:0:0:0:
10,130,110236,1,0,1:0:0:0:
32,248,110413,1,2,1:2:0:0:
34,276,110501,1,2,1:2:0:0:
36,304,110589,6,0,P|43:331|35:358,3,57.34,2|2|2|0,1:0|2:0|3:0|3:0,0:0:0:0:
132,304,110942,6,0,P|125:331|104:350,3,52.7528010035038,8|0|2|0,2:1|0:0|3:0|1:0,0:0:0:0:
215,352,111295,6,0,P|195:372|167:378,3,48.1655985340119,2|0|8|0,3:2|0:0|2:1|0:0,0:0:0:0:
284,304,111648,1,2,3:0:0:0:
285,318,111736,1,0,3:0:0:0:
286,332,111824,1,0,1:0:0:0:
328,240,112001,5,0,1:0:0:0:
328,240,112089,2,0,P|338:213|331:186,2,57.34,0|8|0,0:0|2:1|0:0,0:0:0:0:
260,234,112354,6,0,P|254:206|265:180,3,52.7528010035038,0|0|0|0,3:0|0:0|1:0|0:0,0:0:0:0:
304,128,112707,1,8,2:1:0:0:
305,114,112795,1,0,0:0:0:0:
306,100,112883,1,0,3:2:0:0:
316,16,113060,1,2,1:3:0:0:
244,76,113236,5,0,3:0:0:0:
243,90,113324,1,0,0:0:0:0:
242,104,113413,2,0,L|237:164,3,57.34,0|2|2|0,1:0|2:0|3:0|3:0,0:0:0:0:
140,144,113766,6,0,L|166:198,3,52.7528010035038,8|0|2|0,2:1|0:0|3:0|1:0,0:0:0:0:
71,229,114119,6,0,L|121:262,3,48.1655985340119,2|0|8|0,3:2|0:0|2:1|0:0,0:0:0:0:
16,292,114471,1,2,3:0:0:0:
17,306,114560,1,0,3:0:0:0:
18,320,114648,1,0,1:0:0:0:
144,360,114824,5,0,1:0:0:0:
144,360,114913,2,0,L|148:303,2,57.34,0|8|0,0:0|2:1|0:0,0:0:0:0:
228,336,115177,6,0,L|232:279,3,52.7528010035038,0|0|0|8,3:0|0:0|1:0|2:1,0:0:0:0:
316,284,115530,5,0,0:0:0:0:
315,298,115619,1,0,0:0:0:0:
314,312,115707,1,0,3:2:0:0:
228,336,115883,1,0,1:0:0:0:
256,232,116060,5,0,3:0:0:0:
255,246,116148,1,0,3:0:0:0:
254,260,116236,5,2,1:0:0:0:
227,276,116324,1,2,2:0:0:0:
196,281,116413,1,2,3:0:0:0:
166,272,116501,1,0,3:0:0:0:
142,252,116589,6,0,B|119:378|119:378|121:345|112:328,1,172.02,8|0,2:1|1:0,0:0:0:0:
4,358,116942,1,2,3:2:0:0:
4,358,117030,2,0,P|31:368|58:361,2,57.34,0|8|0,0:0|2:1|0:0,0:0:0:0:
30,306,117295,5,2,3:0:0:0:
14,279,117383,1,0,3:0:0:0:
9,248,117471,1,0,1:0:0:0:
18,218,117560,1,0,0:0:0:0:
38,194,117648,6,0,L|95:198,3,57.34,0|0|8|0,1:0|0:0|2:1|0:0,0:0:0:0:
57,132,118001,1,0,3:0:0:0:
57,132,118089,2,0,L|0:128,2,57.34,0|0|0,0:0|1:0|0:0,0:0:0:0:
103,86,118354,5,8,2:1:0:0:
119,113,118442,1,0,0:0:0:0:
124,144,118530,1,0,3:2:0:0:
115,174,118619,1,0,0:0:0:0:
95,198,118707,2,0,L|38:194,3,57.34,2|0|0|0,1:3|0:0|3:0|0:0,0:0:0:0:
132,276,119060,5,0,1:0:0:0:
159,260,119148,1,2,2:0:0:0:
190,255,119236,1,2,3:0:0:0:
220,264,119324,1,0,3:0:0:0:
244,284,119413,2,0,L|240:341,3,57.34,8|0|2|0,2:1|0:0|3:0|1:0,0:0:0:0:
334,267,119766,1,2,3:2:0:0:
334,267,119854,2,0,L|338:210,2,57.34,0|8|0,0:0|2:1|0:0,0:0:0:0:
291,171,120119,5,2,3:0:0:0:
318,155,120207,1,0,3:0:0:0:
349,150,120295,1,0,1:0:0:0:
379,159,120383,1,0,0:0:0:0:
403,179,120471,6,0,L|399:236,1,57.34,8|8,2:1|2:1,0:0:0:0:
394,302,120648,1,8,2:1:0:0:
469,220,120824,2,0,L|465:277,1,57.34,0|0,3:0|0:0,0:0:0:0:
506,344,121001,2,0,L|449:348,1,57.34,8|8,2:1|2:1,0:0:0:0:
360,300,121177,5,8,2:1:0:0:
377,301,121266,1,0,0:0:0:0:
394,302,121354,1,0,3:0:0:0:
297,354,121530,2,0,L|293:297,1,57.34,0|0,0:0|3:0,0:0:0:0:
287,231,121707,1,8,2:1:0:0:
286,214,121795,1,8,2:1:0:0:
285,197,121883,6,0,B|278:125|278:125|269:110|269:110|275:93|275:93|270:25,1,172.02,2|0,1:0|0:0,0:0:0:0:
336,108,122236,1,8,2:1:0:0:
319,109,122324,1,0,3:2:0:0:
302,110,122413,1,2,3:0:0:0:
272,112,122501,1,0,1:2:0:0:
363,21,122766,5,8,2:1:0:0:
287,28,122942,1,2,3:0:0:0:
270,29,123030,1,0,0:0:0:0:
253,30,123119,1,0,1:2:0:0:
144,100,123295,5,0,1:2:0:0:
216,88,123471,1,0,0:0:0:0:
172,36,123648,1,2,3:2:0:0:
177,72,123824,1,8,2:1:0:0:
165,179,124001,6,0,B|190:141|190:141|168:15,2,152.5,0|2|0,3:0|0:0|3:0,0:0:0:0:
12,156,124707,1,0,1:0:0:0:
122,125,124883,1,0,0:0:0:0:
122,125,124971,1,0,0:0:0:0:
122,125,125060,1,8,2:1:0:0:
91,360,125236,5,2,3:0:0:0:
85,297,125324,1,0,1:2:0:0:
91,360,125589,5,8,2:1:0:0:
79,232,125766,1,2,3:0:0:0:
96,233,125854,1,0,0:0:0:0:
113,234,125942,1,0,1:2:0:0:
232,272,126119,6,0,B|273:251|328:265|299:307|366:316|404:280,1,172.02,0|0,1:2|0:0,0:0:0:0:
432,240,126471,1,2,3:2:0:0:
448,267,126560,1,0,0:0:0:0:
453,298,126648,1,8,2:1:0:0:
444,328,126736,1,0,0:0:0:0:
424,352,126824,6,0,B|399:314|399:314|418:200,2,152.5,0|2|0,0:0|0:0|3:1,0:0:0:0:
448,267,127442,1,8,2:1:0:0:
448,267,127530,2,0,L|368:260,1,57.34,2|0,1:0|0:0,0:0:0:0:
327,255,127707,1,0,0:0:0:0:
224,248,127883,5,8,2:1:0:0:
223,265,127971,1,0,0:0:0:0:
222,282,128060,1,2,3:0:0:0:
220,312,128148,1,0,1:2:0:0:
358,142,128413,5,8,2:1:0:0:
361,55,128589,1,2,3:0:0:0:
362,38,128677,1,0,0:0:0:0:
363,21,128766,1,0,1:2:0:0:
228,24,128942,6,0,B|199:90|199:90|324:63,1,172.02,0|0,1:2|0:0,0:0:0:0:
361,55,129295,1,2,3:2:0:0:
296,69,129471,1,8,2:1:0:0:
359,89,129648,1,0,3:0:0:0:
360,72,129736,1,0,0:0:0:0:
361,55,129824,1,2,3:2:0:0:
236,80,130001,2,0,L|231:136,2,57.34,8|0|0,2:1|0:0|0:0,0:0:0:0:
164,148,130266,5,0,0:0:0:0:
164,148,130354,2,0,P|228:199|300:152,1,172.02,0|0,1:0|0:0,0:0:0:0:
368,144,130707,1,8,2:1:0:0:
367,161,130795,1,0,0:0:0:0:
366,178,130883,1,2,3:0:0:0:
364,208,130971,1,0,1:2:0:0:
363,21,131236,5,8,2:1:0:0:
437,107,131413,1,2,3:0:0:0:
436,124,131501,1,0,0:0:0:0:
435,141,131589,1,0,1:2:0:0:
460,248,131766,6,0,B|385:234|385:234|376:216|376:216|289:201,1,172.02,0|0,1:2|0:0,0:0:0:0:
284,200,132119,1,2,3:2:0:0:
274,198,132207,1,8,2:1:0:0:
204,128,132383,6,0,L|201:159,1,28.67,8|0,2:1|0:0,0:0:0:0:
144,80,132560,2,0,L|141:108,1,28.67,8|0,2:1|0:0,0:0:0:0:
84,32,132736,2,0,L|81:63,1,28.67,8|0,2:1|0:0,0:0:0:0:
72,131,132913,5,8,2:1:0:0:
70,148,133001,1,8,2:1:0:0:
69,165,133089,1,8,2:1:0:0:
67,182,133177,6,0,B|58:277|58:277|60:253|50:236,1,130.735196518278,8|0,1:3|0:0,0:0:0:0:
128,232,133530,1,0,1:0:0:0:
56,336,133707,1,0,3:0:0:0:
56,336,133795,1,0,3:0:0:0:
56,336,133883,2,0,B|24:306|24:306|135:325,1,130.735196518278,8|0,1:2|0:0,0:0:0:0:
175,326,134236,1,0,1:0:0:0:
245,336,134413,1,0,3:0:0:0:
256,165,134589,6,0,P|234:201|252:239,1,87.1567976788521,0|0,1:0|0:0,0:0:0:0:
212,254,134854,1,2,0:0:0:0:
212,254,134942,2,0,P|253:254|278:220,1,87.1567976788521,0|0,1:0|3:0,0:0:0:0:
311,247,135207,1,0,3:0:0:0:
311,247,135295,2,0,B|293:214|272:204|236:216|236:216|256:212|280:220,1,130.735196518278,8|0,1:2|0:0,0:0:0:0:
381,206,135648,5,0,1:0:0:0:
374,281,135824,1,0,3:0:0:0:
372,298,135913,1,0,3:0:0:0:
370,315,136001,1,0,1:0:0:0:
304,323,136177,1,0,0:0:0:0:
440,290,136354,5,0,1:0:0:0:
438,307,136442,1,0,0:0:0:0:
436,324,136530,1,0,3:0:0:0:
435,341,136619,1,0,3:0:0:0:
433,359,136707,2,0,B|406:325|406:325|508:343,1,130.735196518278,8|0,1:2|0:0,0:0:0:0:
504,344,137060,5,0,1:0:0:0:
510,266,137236,1,0,3:0:0:0:
434,212,137413,5,0,1:0:0:0:
440,290,137589,1,0,3:0:0:0:
504,164,137766,6,0,B|514:154|514:154|507:114,1,43.5783988394261,0|0,1:0|0:0,0:0:0:0:
440,121,137942,2,0,B|450:111|450:111|443:71,1,43.5783988394261,0|0,3:0|3:0,0:0:0:0:
312,16,138119,6,0,B|324:86|324:86|360:108|360:108|383:76|383:76|375:29,1,185.781600706816,8|0,1:2|0:0,0:0:0:0:
377,43,138471,1,0,2:1:0:0:
312,275,138736,5,0,0:0:0:0:
316,279,138824,2,0,P|357:306|404:291,1,103.212003926754,4|0,2:3|0:0,0:0:0:0:
453,249,139177,1,0,3:0:0:0:
425,281,139266,1,2,3:2:0:0:
417,313,139354,1,8,2:1:0:0:
421,337,139442,1,8,2:1:0:0:
429,353,139530,1,0,1:0:0:0:
482,310,139707,1,0,3:0:0:0:
477,145,139883,5,0,3:0:0:0:
485,161,139971,1,0,3:0:0:0:
489,185,140060,1,2,3:0:0:0:
481,217,140148,1,8,3:1:0:0:
453,249,140236,1,8,3:0:0:0:
424,184,140413,1,0,3:0:0:0:
482,310,140589,5,0,1:0:0:0:
417,313,140766,1,0,3:0:0:0:
415,330,140854,1,0,0:0:0:0:
413,347,140942,1,0,1:0:0:0:
348,367,141119,2,0,L|353:307,1,43.5783988394261,8|0,3:1|0:0,0:0:0:0:
355,251,141295,1,0,1:0:0:0:
482,310,141471,1,0,3:0:0:0:
512,120,141648,6,0,B|496:29|496:29|497:61|484:80,1,130.735196518278,8|0,1:0|3:0,0:0:0:0:
428,40,142001,1,0,1:0:0:0:
363,22,142177,1,0,0:0:0:0:
361,43,142266,1,0,0:0:0:0:
359,65,142354,1,0,1:0:0:0:
418,150,142530,2,0,L|423:90,1,43.5783988394261,8|0,3:1|0:0,0:0:0:0:
463,38,142707,5,0,1:0:0:0:
454,38,142795,1,0,0:0:0:0:
445,39,142883,1,0,3:0:0:0:
437,40,142971,1,0,0:0:0:0:
428,40,143060,2,0,L|384:43,1,43.5783988394261,8|0,1:0|0:0,0:0:0:0:
359,65,143236,5,0,0:0:0:0:
350,65,143324,1,0,0:0:0:0:
341,64,143413,1,0,1:0:0:0:
274,56,143589,1,0,0:0:0:0:
418,150,143766,6,0,B|406:220|406:220|370:242|370:242|347:210|347:210|355:163,1,185.781600706816,8|0,1:0|0:0,0:0:0:0:
351,171,144119,1,0,1:0:0:0:
364,108,144295,1,0,3:0:0:0:
445,330,144471,6,0,B|408:307|348:325|376:350|328:366|285:338,1,158.258403010511,2|0,1:3|0:0,0:0:0:0:
203,345,144824,2,0,B|170:366|123:350|151:325|91:307|54:330,1,158.258403010511,2|0,1:3|0:0,0:0:0:0:
56,360,145177,6,0,B|92:381|152:363|124:339|171:323|203:345,1,158.258403010511,2|0,1:3|0:0,0:0:0:0:
296,344,145530,2,0,B|328:322|375:338|347:362|407:380|443:359,1,158.258403010511,2|0,1:3|0:0,0:0:0:0:
409,299,145883,6,0,B|463:292|463:292|512:320,1,110.0928,2|0,3:2|3:2,0:0:0:0:
376,96,146589,6,0,B|318:85|318:85|311:76|311:76|229:61|229:61|216:67|216:67|145:55,1,240.828002290606,10|0,3:2|0:0,0:0:0:0:
126,61,146942,6,0,B|136:112|136:112|134:125|134:125|140:135|140:135|147:175,1,110.0928,0|0,3:2|0:0,0:0:0:0:
156,264,147295,6,0,P|220:232|279:273,1,151.377604607391,2|0,1:0|3:0,0:0:0:0:
391,273,147648,2,0,L|386:328,2,50.4592015357972,8|0|2,2:1|0:0|3:0,0:0:0:0:
395,253,147913,2,0,L|283:262,1,100.918403071594,0|0,1:2|0:0,0:0:0:0:
279,273,148177,1,8,2:1:0:0:
336,220,148354,1,2,3:0:0:0:
205,259,148530,1,0,1:2:0:0:
296,344,148707,5,0,1:2:0:0:
279,273,148883,1,0,0:0:0:0:
275,256,148971,1,0,0:0:0:0:
272,240,149060,1,2,3:2:0:0:
205,259,149236,1,8,2:1:0:0:
336,220,149413,2,0,L|340:169,2,50.4592015357972,0|0|2,3:0|0:0|3:2,0:0:0:0:
344,107,149766,5,8,2:1:0:0:
272,172,149942,1,0,0:0:0:0:
273,156,150030,1,0,0:0:0:0:
274,141,150119,1,0,1:0:0:0:
414,73,150295,1,0,0:0:0:0:
436,228,150471,6,0,L|335:219,1,100.918403071594,8|2,2:1|3:0,0:0:0:0:
322,232,150736,1,0,1:2:0:0:
463,369,151001,5,8,2:1:0:0:
488,288,151177,1,0,1:2:0:0:
468,353,151354,1,2,3:0:0:0:
351,239,151530,6,0,L|452:230,1,100.918403071594,0|0,1:2|0:0,0:0:0:0:
464,230,151795,1,0,0:0:0:0:
476,229,151883,1,2,3:2:0:0:
465,166,152060,1,8,2:1:0:0:
297,277,152236,6,0,B|273:250|279:193|310:222|316:178|300:152,2,134.200004095459,0|2|0,0:0|0:0|3:1,0:0:0:0:
244,172,152854,5,8,2:1:0:0:
244,172,152942,2,0,P|219:166|196:173,3,50.4592015357972,2|2|2|0,1:0|2:0|3:0|3:0,0:0:0:0:
128,136,153295,6,0,P|110:153|105:178,3,45.872,8|0|2|0,2:1|0:0|3:0|1:2,0:0:0:0:
20,172,153648,6,0,P|26:195|45:212,3,41.2847987434388,0|0|8|0,0:0|0:0|2:1|0:0,0:0:0:0:
24,160,154001,1,2,3:0:0:0:
0,268,154177,1,0,1:2:0:0:
201,255,154354,2,0,L|95:245,1,100.918403071594,0|0,1:2|0:0,0:0:0:0:
101,263,154619,1,0,0:0:0:0:
101,279,154707,1,2,3:2:0:0:
194,336,154883,5,8,2:1:0:0:
195,320,154971,1,0,0:0:0:0:
196,305,155060,2,0,L|200:255,2,50.4592015357972,0|0|2,3:0|0:0|3:2,0:0:0:0:
161,175,155413,1,8,2:1:0:0:
177,176,155501,1,0,3:1:0:0:
193,177,155589,1,0,0:0:0:0:
210,179,155677,1,0,0:0:0:0:
226,180,155766,5,0,1:0:0:0:
313,178,155942,1,0,0:0:0:0:
236,20,156119,1,8,2:1:0:0:
217,36,156207,1,0,0:0:0:0:
208,59,156295,1,2,3:0:0:0:
209,84,156383,1,0,1:2:0:0:
221,106,156471,6,0,L|276:110,3,50.3250015357972,0|0|8|0,0:0|0:0|2:1|0:0,0:0:0:0:
368,28,156824,2,0,L|373:87,1,50.4592015357972,2|0,3:0|0:0,0:0:0:0:
380,140,157001,1,0,1:2:0:0:
276,291,157177,6,0,B|380:138|380:138|441:251|441:251|377:239,1,377.666264398099,0|0,1:2|0:0,0:0:0:0:
376,256,158236,2,0,L|377:273,10,11.442075436306,0|0|0|0|0|0|0|0|0|0|0,3:2|0:0|0:0|0:0|0:0|0:0|0:0|0:0|0:0|0:0|0:0,0:0:0:0:
426,221,158589,6,0,P|383:193|336:210,1,103.212003926754,0|0,3:2|0:0,0:0:0:0:
295,249,158942,2,0,P|247:264|206:236,1,103.212003926754,0|0,3:2|0:0,0:0:0:0:
257,197,159295,2,0,L|260:157,3,22.884150872612,0|2|2|2,3:2|0:0|0:0|3:2,0:0:0:0:
156,196,159648,6,0,B|92:184|92:184|103:239,1,110.0928,0|0,3:2|0:0,0:0:0:0:
184,252,160001,6,0,B|-9:217|-9:217|27:289|27:289|271:332,1,512.522,8|2,1:3|2:0,0:0:0:0:
321,342,162648,1,2,2:0:0:0:
328,232,162824,2,0,B|335:237|335:237|328:273,2,45.872,2|0|0,2:0|0:0|0:0,0:0:0:0:
268,264,163177,1,2,2:0:0:0:
256,264,163354,1,0,0:0:0:0:
328,232,163530,1,2,2:0:0:0:
392,204,163707,1,0,0:0:0:0:
333,161,163883,1,2,2:0:0:0:
333,161,164060,1,2,2:0:0:0:
396,192,164236,6,0,L|404:96,1,68.8080026178361,2|0,2:0|0:0,0:0:0:0:
472,148,164589,2,0,L|480:52,1,68.8080026178361,2|2,2:0|2:0,0:0:0:0:
401,123,164942,2,0,L|395:191,1,68.8080026178361,2|0,2:0|0:0,0:0:0:0:
389,261,165295,1,2,3:0:0:0:
386,330,165471,1,0,0:0:0:0:
386,340,165560,1,2,2:0:0:0:
387,350,165648,6,0,B|390:358|390:358|426:364,2,45.872,2|0|0,1:3|0:0|0:0,0:0:0:0:
452,296,166001,1,0,3:0:0:0:
452,308,166177,1,0,0:0:0:0:
389,249,166354,5,0,3:0:0:0:
389,261,166530,1,0,0:0:0:0:
487,227,166707,2,0,L|481:158,1,68.8080026178361,0|0,3:0|0:0,0:0:0:0:
410,167,167060,2,0,L|404:98,1,68.8080026178361,2|0,2:0|0:0,0:0:0:0:
321,38,167413,2,0,L|327:107,1,68.8080026178361,2|0,2:0|0:0,0:0:0:0:
331,177,167766,1,2,2:0:0:0:
331,177,167942,1,2,2:0:0:0:
258,127,168119,2,0,L|189:121,1,68.8080026178361,0|2,0:0|2:0,0:0:0:0:
118,27,168471,6,0,B|110:30|110:30|104:66,2,45.872,2|0|0,2:0|0:0|0:0,0:0:0:0:
132,128,168824,6,0,L|122:239,1,82.5695974868774,2|0,2:0|0:0,0:0:0:0:
76,268,169177,6,0,L|67:367,1,73.3951999999999
148,320,169530,6,0,L|141:389,1,64.2207980453491,2|0,2:0|0:0,0:0:0:0:
76,268,169883,1,2,3:2:0:0:
76,268,170060,1,2,3:0:0:0:
152,220,170236,1,2,3:2:0:0:
152,230,170324,1,0,0:0:0:0:
152,240,170413,1,0,0:0:0:0:
192,316,170589,6,0,B|174:325|174:325|142:319,2,45.872,2|0|0,1:2|0:0|0:0,0:0:0:0:
314,272,170942,2,0,L|316:288,10,15.2561,2|0|0|2|0|0|2|0|0|2|0,3:2|0:0|0:0|2:0|0:0|0:0|2:0|0:0|0:0|2:0|0:0,0:0:0:0:
316,260,171295,6,0,L|321:196,3,45.872,4|0|0|0,1:2|0:0|0:0|0:0,0:0:0:0:
328,260,171648,2,0,L|423:268,1,91.7439999999999,8|0,2:1|3:0,0:0:0:0:
428,256,171913,1,0,1:2:0:0:
228,264,172177,5,8,2:1:0:0:
276,204,172354,2,0,L|271:140,2,45.872,0|0|0,3:2|0:0|3:2,0:0:0:0:
204,312,172707,6,0,B|148:321|148:321|142:330|142:330|95:339,1,103.212003926754,8|0,2:1|0:0,0:0:0:0:
88,340,173060,1,0,3:2:0:0:
164,240,173236,2,0,B|108:249|108:249|102:258|102:258|55:267,1,103.212003926754,8|0,2:1|0:0,0:0:0:0:
48,256,173589,1,0,3:2:0:0:
46,274,173677,1,0,3:2:0:0:
44,293,173766,1,8,2:1:0:0:
8,192,173942,5,0,0:0:0:0:
6,176,174030,1,0,0:0:0:0:
4,162,174119,1,0,1:2:0:0:
168,48,174471,6,0,L|64:57,1,91.7439999999999,8|0,2:1|3:0,0:0:0:0:
76,80,174736,1,0,1:2:0:0:
248,16,175001,1,8,2:1:0:0:
264,13,175089,1,0,0:0:0:0:
281,11,175177,2,0,L|277:57,3,45.872,0|0|0|0,3:2|0:0|3:2|3:2,0:0:0:0:
284,120,175530,6,0,B|232:129|232:129|226:138|226:138|179:147,1,103.212003926754,8|0,2:1|0:0,0:0:0:0:
168,152,175883,1,0,3:2:0:0:
276,192,176060,6,0,L|269:263,1,68.8080026178361,8|0,2:1|0:0,0:0:0:0:
268,288,176324,1,0,0:0:0:0:
267,305,176413,1,0,3:2:0:0:
154,321,176589,6,0,P|211:289|263:328,1,137.616,8|8,2:1|2:1,0:0:0:0:
336,352,176942,6,0,L|341:284,3,45.872,0|0|0|0,1:2|0:0|0:0|0:0,0:0:0:0:
384,304,177295,6,0,L|355:242,3,41.2847987434388,8|0|0|0,2:1|0:0|3:0|1:2,0:0:0:0:
408,248,177648,6,0,L|352:208,3,36.6976,0|0|8|0,0:0|0:0|2:1|0:0,0:0:0:0:
488,272,178001,6,0,L|484:226,2,34.4040013089181,0|0|0,3:2|0:0|3:2,0:0:0:0:
459,131,178354,6,0,B|388:115|388:115|408:253,1,206.035132853508,8|8,2:1|2:1,0:0:0:0:
448,300,179060,2,0,L|494:304,2,34.4040013089181,0|0|0,0:0|0:0|3:2,0:0:0:0:
408,244,179413,1,8,2:1:0:0:
424,364,179589,1,0,0:0:0:0:
404,227,179766,5,0,1:2:0:0:
386,228,179854,1,0,0:0:0:0:
369,229,179942,1,0,0:0:0:0:
331,286,180119,5,8,2:1:0:0:
313,287,180207,1,0,0:0:0:0:
296,288,180295,1,0,3:0:0:0:
248,348,180471,5,0,0:0:0:0:
230,349,180560,1,0,0:0:0:0:
213,350,180648,1,8,2:1:0:0:
112,356,180824,6,0,L|108:312,2,34.4040013089181,0|0|0,3:2|0:0|3:2,0:0:0:0:
32,112,181177,6,0,B|63:106|63:106|84:135|89:183|57:213,1,137.616,8|0,2:1|0:0,0:0:0:0:
52,220,181530,1,2,3:0:0:0:
52,220,181619,2,0,B|103:210|103:210|110:193|110:193|156:185|156:185|165:173|165:173|221:163,1,160.552001527071,2|2,3:2|2:0,0:0:0:0:
224,172,181883,5,2,1:2:0:0:
252,212,181971,1,0,3:1:0:0:
252,262,182060,1,8,3:1:0:0:
224,303,182148,1,2,3:2:0:0:
173,336,182236,5,8,1:0:0:0:
159,316,182324,1,0,3:1:0:0:
159,291,182413,1,8,3:1:0:0:
173,270,182501,1,2,3:2:0:0:
224,303,182589,6,0,L|283:308,2,34.4040013089181,0|0|0,3:2|0:0|0:0,0:0:0:0:
336,296,182942,6,0,L|330:355,1,50.4592015357972,2|0,1:0|3:2,0:0:0:0:
296,248,183119,1,8,2:1:0:0:
342,231,183207,1,8,2:1:0:0:
385,253,183295,1,8,1:0:0:0:
508,292,183471,5,8,2:1:0:0:
471,305,183560,1,8,2:1:0:0:
436,288,183648,1,2,1:3:0:0:
476,240,183824,6,0,L|481:189,1,50.4592015357972,0|0,2:0|3:2,0:0:0:0:
488,132,184001,1,2,1:3:0:0:
475,256,184177,1,8,2:1:0:0:
408,167,184354,5,2,1:2:0:0:
407,177,184442,1,0,3:2:0:0:
406,187,184530,1,8,2:1:0:0:
349,219,184707,5,8,1:0:0:0:
348,229,184795,1,0,3:2:0:0:
347,239,184883,1,8,2:1:0:0:
346,325,185060,6,0,L|286:319,1,50.4592015357972,2|0,1:3|0:0,0:0:0:0:
206,314,185236,2,0,L|155:318,1,50.4592015357972,0|2,3:0|3:2,0:0:0:0:
177,256,185413,1,2,1:3:0:0:
239,369,185589,1,2,3:2:0:0:
128,332,185766,5,4,1:0:0:0:
128,321,185854,1,0,3:2:0:0:
129,311,185942,1,8,2:1:0:0:
82,256,186119,5,0,1:0:0:0:
83,246,186207,1,0,0:0:0:0:
84,236,186295,1,8,3:1:0:0:
104,144,186471,6,0,B|182:157|182:157|190:204|190:204|147:196,1,151.377604607391,2|0,1:3|0:0,0:0:0:0:
148,84,186824,1,10,1:3:0:0:
192,32,187001,1,2,3:2:0:0:
214,33,187089,1,8,3:1:0:0:
237,34,187177,2,0,L|231:101,3,50.4592015357972,0|2|4|2,1:0|3:2|3:0|3:2,0:0:0:0:
288,132,187530,5,2,1:2:0:0:
314,108,187619,1,2,3:2:0:0:
348,100,187707,1,8,2:1:0:0:
381,108,187795,1,2,3:2:0:0:
408,131,187883,5,2,1:2:0:0:
404,144,187971,1,2,3:2:0:0:
446,161,188060,5,8,3:1:0:0:
432,172,188148,1,8,3:1:0:0:
436,212,188236,5,2,1:0:0:0:
458,258,188324,1,0,3:2:0:0:
479,304,188413,1,2,2:3:0:0:
483,254,188501,1,2,2:0:0:0:
487,203,188589,1,0,1:3:0:0:
344,272,188766,5,8,2:1:0:0:
369,274,188854,1,8,2:1:0:0:
394,276,188942,1,2,1:3:0:0:
368,204,189119,1,8,2:1:0:0:
272,296,189295,6,0,B|286:378|286:378|309:394|309:394|327:379|327:379|317:324,1,185.781600706816,2|0,1:3|0:0,0:0:0:0:
344,272,189648,1,2,1:3:0:0:
192,320,189824,1,8,2:1:0:0:
253,229,190001,5,2,1:2:0:0:
253,218,190089,1,0,3:2:0:0:
254,208,190177,1,8,2:1:0:0:
207,153,190354,5,8,1:0:0:0:
208,143,190442,1,0,3:2:0:0:
209,133,190530,1,8,2:1:0:0:
220,20,190707,6,0,B|186:-6|186:-6|72:13,1,151.377604607391,2|2,1:3|3:2,0:0:0:0:
16,36,191060,1,12,1:0:0:0:
68,72,191236,1,2,3:2:0:0:
4,156,191413,1,0,1:3:0:0:
70,85,191589,2,0,L|74:135,1,50.4592015357972,8|8,2:1|2:1,0:0:0:0:
1,197,191766,5,0,1:0:0:0:
2,176,191854,1,0,0:0:0:0:
4,156,191942,1,8,3:1:0:0:
210,28,192119,6,0,B|162:19|162:19|121:93|121:93|62:83,1,185.781600706816,2|8,1:3|2:1,0:0:0:0:
200,96,192471,6,0,L|210:211,1,103.212003926754,0|0,1:3|0:0,0:0:0:0:
220,264,192824,1,8,2:1:0:0:
292,264,193001,1,0,1:0:0:0:
291,274,193089,1,0,0:0:0:0:
290,284,193177,2,0,L|286:323,2,34.4040013089181,8|8|8,2:1|2:1|2:1,0:0:0:0:
432,248,193530,6,0,B|415:228|371:225|365:256|365:256|354:319,1,116.973602225161,0|0,1:3|0:0,0:0:0:0:
353,315,193883,6,0,B|390:296|434:323|400:341|440:371|478:361,1,137.616005235672,4|8,1:2|2:0,0:0:0:0:
472,304,194413,2,0,L|475:260,4,34.4040013089181,2|0|2|2|0,3:2|0:0|3:2|3:2|3:0,0:0:0:0:
480,200,194942,2,0,L|483:156,2,34.4040013089181,8|0|0,2:0|3:2|3:0,0:0:0:0:
488,76,195295,6,0,P|428:107|366:84,1,137.616005235672,0|8,3:0|2:0,0:0:0:0:
280,64,195824,1,2,3:2:0:0:
280,64,195913,1,0,0:0:0:0:
280,64,196001,2,0,P|282:80|280:97,3,34.4040013089181,2|2|0|0,3:2|3:2|3:0|3:2,0:0:0:0:
224,72,196354,2,0,L|180:68,3,34.4040013089181,8|2|2|0,2:0|2:0|3:2|2:0,0:0:0:0:
155,15,196707,6,0,P|123:74|162:132,1,137.616005235672,0|8,1:2|2:0,0:0:0:0:
208,189,197236,1,2,3:2:0:0:
208,189,197324,1,0,0:0:0:0:
208,189,197413,2,0,P|210:205|208:222,3,34.4040013089181,2|2|0|2,3:2|3:2|3:0|2:0,0:0:0:0:
140,205,197766,2,0,L|96:201,3,34.4040013089181,8|0|0|0,2:0|3:2|3:0|0:0,0:0:0:0:
156,292,198119,6,0,L|279:281,1,103.212003926754,0|0,3:0|0:0,0:0:0:0:
288,300,198471,2,0,L|284:343,3,34.4040013089181,8|0|2|0,2:0|0:0|3:2|0:0,0:0:0:0:
364,336,198824,2,0,L|361:370,2,34.4040013089181,2|2|0,3:2|2:0|3:0,0:0:0:0:
448,267,199177,5,8,2:0:0:0:
430,265,199266,1,0,0:0:0:0:
413,264,199354,1,2,3:2:0:0:
396,262,199442,1,0,2:0:0:0:
379,261,199530,6,0,P|326:221|266:246,1,137.616005235672,4|8,1:2|2:0,0:0:0:0:
204,220,200060,1,2,3:2:0:0:
202,237,200148,1,0,0:0:0:0:
200,254,200236,1,2,3:2:0:0:
199,271,200324,1,2,3:2:0:0:
197,288,200412,1,8,3:2:0:0:
240,340,200589,5,0,2:0:0:0:
219,352,200677,1,0,3:2:0:0:
196,356,200766,1,8,3:2:0:0:
172,351,200854,1,0,0:0:0:0:
152,337,200942,1,8,3:2:0:0:
197,288,201119,1,0,0:0:0:0:
32,360,201295,6,0,B|76:335|76:335|95:233|95:233|64:268,1,185.781600706816,8|0,2:0|0:0,0:0:0:0:
44,200,201648,1,2,3:2:0:0:
45,181,201736,1,0,0:0:0:0:
47,163,201824,6,0,L|50:123,2,30.9636001178026,0|0|0,3:0|0:0|3:2,0:0:0:0:
20,60,202001,5,8,2:0:0:0:
38,61,202089,1,0,0:0:0:0:
56,63,202177,1,0,2:0:0:0:
75,64,202266,1,0,0:0:0:0:
93,66,202354,1,4,2:1:0:0:
48,28,205177,6,0,L|120:34,1,68.8080026178361,2|2,1:0|2:0,0:0:0:0:
96,100,205530,2,0,L|168:106,1,68.8080026178361,2|2,2:0|2:0,0:0:0:0:
224,176,205883,2,0,L|155:170,1,68.8080026178361,2|0,2:0|0:0,0:0:0:0:
88,164,206236,1,0,0:0:0:0:
116,228,206413,1,2,2:0:0:0:
155,170,206589,6,0,L|161:101,1,68.8080026178361,2|0,2:0|0:0,0:0:0:0:
231,104,206942,2,0,L|237:35,1,68.8080026178361,2|0,2:0|0:0,0:0:0:0:
160,101,207295,2,0,L|154:170,1,68.8080026178361,2|2,2:0|2:0,0:0:0:0:
224,176,207648,1,2,2:0:0:0:
224,176,207824,1,2,2:0:0:0:
147,232,208001,6,0,L|141:301,1,68.8080026178361,2|0,2:0|0:0,0:0:0:0:
212,298,208354,2,0,L|206:367,1,68.8080026178361,2|2,2:0|2:0,0:0:0:0:
135,360,208707,1,0,0:0:0:0:
135,360,208883,1,0,0:0:0:0:
141,301,209060,2,0,L|147:232,1,68.8080026178361,2|0,2:0|0:0,0:0:0:0:
117,150,209413,6,0,L|176:155,1,59.6335972774506,2|0,2:0|0:0,0:0:0:0:
201,93,209766,2,0,L|260:98,1,59.6335972774506,2|2,2:0|2:0,0:0:0:0:
300,45,210119,1,2,2:0:0:0:
300,45,210295,1,0,0:0:0:0:
352,84,210471,2,0,P|366:58|360:28,1,59.6335972774506,2|0,2:0|0:0,0:0:0:0:
444,56,210824,6,0,L|448:111,1,50.4592015357972,2|0,2:0|0:0,0:0:0:0:
424,136,211177,2,0,L|428:191,1,50.4592015357972,2|0,2:0|0:0,0:0:0:0:
400,212,211530,1,2,2:0:0:0:
400,212,211707,1,2,2:0:0:0:
418,271,211883,2,0,P|393:276|370:267,1,50.4592015357972,2|2,2:0|2:0,0:0:0:0:
308,296,212236,6,0,L|311:340,1,41.2847987434388,2|0,2:0|0:0,0:0:0:0:
292,340,212589,2,0,L|295:384,1,41.2847987434388,2|0,2:0|0:0,0:0:0:0:
272,380,212942,1,2,2:0:0:0:
272,380,213119,1,0,0:0:0:0:
232,360,213295,2,0,L|228:318,1,41.2847987434388,2|0,2:0|0:0,0:0:0:0:
200,248,213648,6,0,P|177:253|154:245,1,48.1655985340119,2|0,3:0|0:0,0:0:0:0:
96,272,214001,2,0,P|79:255|75:231,1,48.1655985340119,0|0,3:0|0:0,0:0:0:0:
12,192,214354,6,0,L|8:227,1,34.404
84,144,214707,2,0,B|96:125|96:125|81:107|81:107|2:121,1,116.973602225161,2|0,3:0|0:0,0:0:0:0:
12,132,215060,1,6,2:3:0:0:
152,160,215236,2,0,B|191:166|191:166|183:214,1,77.9824014834403
184,252,215501,2,0,B|177:214|177:214|216:207,1,77.9824014834403
248,196,215766,2,0,L|249:227,2,26.0675879944801
363,22,216119,6,0,B|347:19|347:19|349:7|349:7|372:11|372:11|368:39|368:39|360:37|360:37|344:124,1,158.258403010511
396,177,216471,6,0,P|450:139|512:161,1,137.616005235672,12|0,2:1|0:0,0:0:0:0:
95,338,217530,6,0,P|63:298|71:249,1,103.212003926754
86,191,217883,6,0,B|56:184|34:200|34:200|58:171|117:165|148:200,1,172.02,4|0,1:2|0:0,0:0:0:0:
200,240,218236,2,0,P|213:215|210:187,1,57.34,8|0,3:2|0:0,0:0:0:0:
148,200,218413,1,2,2:0:0:0:
148,200,218501,1,2,1:3:0:0:
148,200,218589,1,0,0:0:0:0:
252,288,218766,1,0,1:0:0:0:
257,96,218942,6,0,B|244:166|244:166|210:177|210:177|195:259,1,172.02,8|2,3:2|3:2,0:0:0:0:
252,288,219295,2,0,B|300:268|346:304|305:329|360:363|407:347,1,172.02,0|0,1:0|1:2,0:0:0:0:
392,232,219648,2,0,L|384:315,1,57.34,10|0,3:2|0:0,0:0:0:0:
464,268,219824,1,0,1:0:0:0:
332,152,220001,1,0,0:0:0:0:
330,174,220089,1,0,2:0:0:0:
328,197,220177,2,0,L|320:280,1,57.34,10|0,3:2|0:0,0:0:0:0:
388,104,220354,6,0,B|339:76|339:76|281:95,1,116.973602225161,0|0,1:0|0:0,0:0:0:0:
216,192,220707,2,0,B|227:128|227:128|275:109|275:109|286:46,1,172.02,4|0,1:3|3:0,0:0:0:0:
224,4,221060,6,0,L|216:87,1,57.34,8|0,3:2|0:0,0:0:0:0:
216,88,221236,1,2,1:2:0:0:
284,54,221324,1,2,1:3:0:0:
79,31,221589,5,2,1:2:0:0:
0,168,221766,2,0,L|56:172,1,57.34,8|0,3:2|0:0,0:0:0:0:
36,100,221942,1,0,1:0:0:0:
172,248,222119,6,0,B|181:196|181:196|155:173|155:173|122:185|122:185|112:237,1,172.02,0|0,1:3|3:0,0:0:0:0:
148,324,222471,2,0,L|204:320,1,57.34,8|0,3:2|0:0,0:0:0:0:
172,248,222648,1,0,1:0:0:0:
272,352,222824,1,2,3:0:0:0:
273,329,222913,1,0,3:0:0:0:
275,306,223001,2,0,L|279:250,1,57.34,8|0,3:2|0:0,0:0:0:0:
282,191,223177,1,0,1:0:0:0:
352,316,223354,5,2,3:2:0:0:
363,315,223442,1,0,0:0:0:0:
374,314,223530,2,0,B|496:292|496:292|468:297|446:288,1,172.02,2|0,1:0|3:0,0:0:0:0:
484,172,223883,2,0,L|477:247,1,57.34,8|0,3:2|0:0,0:0:0:0:
380,144,224060,2,0,L|384:87,1,57.34,2|2,2:0|1:3,0:0:0:0:
386,19,224236,1,0,0:0:0:0:
363,21,224324,1,0,3:0:0:0:
340,23,224413,1,0,1:0:0:0:
134,65,224589,6,0,B|167:71|167:71|187:60,1,57.34,8|0,3:2|3:2,0:0:0:0:
248,16,224766,1,2,1:2:0:0:
74,41,224942,1,0,1:3:0:0:
65,61,225030,1,0,0:0:0:0:
67,84,225119,1,0,3:0:0:0:
236,152,225295,6,0,L|240:95,1,57.34,8|0,3:2|0:0,0:0:0:0:
248,16,225471,1,0,1:0:0:0:
234,170,225648,1,0,0:0:0:0:
356,75,225824,6,0,B|322:81|322:81|302:70,1,57.34,8|0,3:2|0:0,0:0:0:0:
248,16,226001,2,0,L|243:72,2,57.34,0|0|2,1:0|0:0|3:2,0:0:0:0:
408,16,226354,6,0,B|447:43|447:43|423:181,1,172.02,4|0,1:0|3:0,0:0:0:0:
508,224,226707,2,0,L|451:228,1,57.34,8|0,3:2|0:0,0:0:0:0:
388,232,226883,1,2,1:2:0:0:
432,288,226971,1,2,1:3:0:0:
356,75,227236,5,2,1:2:0:0:
323,212,227413,2,0,B|317:245|317:245|328:265,1,57.34,8|0,3:2|0:0,0:0:0:0:
388,232,227589,1,0,1:0:0:0:
248,184,227766,6,0,L|259:319,1,116.973602225161,8|0,1:3|3:0,0:0:0:0:
216,360,228119,6,0,L|152:354,1,38.9912007417202,8|0,3:2|0:0,0:0:0:0:
188,292,228295,2,0,L|124:286,1,38.9912007417202,0|0,1:0|0:0,0:0:0:0:
28,220,228471,6,0,B|45:213|45:213|93:217,1,61.9272002356052,8|0,3:2|3:0,0:0:0:0:
16,156,228648,2,0,B|32:149|32:149|80:153,1,61.9272002356052,2|0,1:2|0:0,0:0:0:0:
0,92,228824,1,0,1:0:0:0:
176,48,229001,5,2,1:2:0:0:
172,91,229089,1,2,1:2:0:0:
168,134,229177,2,0,B|154:212|154:212|122:231|122:231|109:302,1,185.781600706816,2|0,1:0|0:0,0:0:0:0:
88,368,229530,2,0,L|152:362,1,61.9272002356052,8|0,3:2|0:0,0:0:0:0:
220,380,229707,1,2,2:0:0:0:
212,312,229795,2,0,B|256:287|313:313|274:347|334:378|381:362,1,185.781600706816,2|0,1:3|1:0,0:0:0:0:
368,236,230236,6,0,L|362:300,1,61.9272002356052,8|0,3:2|3:2,0:0:0:0:
444,272,230413,1,2,1:2:0:0:
304,144,230589,2,0,L|284:348,1,185.781600706816,0|0,1:3|1:2,0:0:0:0:
212,312,230942,6,0,L|148:318,1,61.9272002356052,8|0,3:2|0:0,0:0:0:0:
180,248,231119,1,0,1:0:0:0:
104,368,231295,1,0,0:0:0:0:
176,236,231471,2,0,L|112:242,1,61.9272002356052,8|0,3:2|0:0,0:0:0:0:
44,248,231648,1,0,1:0:0:0:
212,312,231824,1,2,3:2:0:0:
216,120,232001,6,0,B|236:92|219:46|160:56|130:94|148:148|183:182,1,185.781600706816,4|0,1:3|0:0,0:0:0:0:
176,236,232354,2,0,L|240:230,1,61.9272002356052,8|0,3:2|0:0,0:0:0:0:
308,224,232530,1,2,1:2:0:0:
268,164,232619,1,2,1:3:0:0:
344,284,232883,5,2,1:2:0:0:
408,128,233060,2,0,L|344:122,1,61.9272002356052,8|0,3:2|0:0,0:0:0:0:
444,52,233236,2,0,P|484:130|430:207,1,185.781600706816,0|0,1:0|0:0,0:0:0:0:
488,296,233589,6,0,L|494:220,1,43.5783988394261,8|0,3:2|0:0,0:0:0:0:
224,288,233942,6,0,B|125:270|125:270|136:325|136:325|175:332,1,185.781600706816,0|0,1:0|0:0,0:0:0:0:
28,332,234295,2,0,B|126:349|126:349|115:294|115:294|76:287,1,185.781600706816,0|0,1:2|0:0,0:0:0:0:
30,243,234648,1,2,3:2:0:0:
29,255,234736,1,2,3:2:0:0:
28,268,234824,6,0,B|34:196|34:196|63:182|63:182|71:91,1,172.02,2|0,1:0|0:0,0:0:0:0:
0,48,235177,2,0,L|64:42,1,57.34,8|0,3:2|0:0,0:0:0:0:
128,36,235354,1,2,2:0:0:0:
100,96,235442,1,2,1:3:0:0:
256,8,235707,5,0,1:0:0:0:
200,168,235883,2,0,L|136:162,1,57.34,8|0,3:2|3:2,0:0:0:0:
72,156,236060,1,2,1:2:0:0:
240,96,236236,6,0,B|279:123|279:123|254:265,1,172.02,8|0,1:3|1:2,0:0:0:0:
192,281,236589,2,0,L|198:345,1,57.34,8|0,3:2|0:0,0:0:0:0:
128,309,236766,1,0,1:0:0:0:
252,204,236942,1,0,0:0:0:0:
254,226,237030,1,0,2:0:0:0:
256,249,237119,2,0,L|262:313,1,57.34,8|0,3:2|0:0,0:0:0:0:
163,312,237295,5,0,1:0:0:0:
145,310,237383,1,0,0:0:0:0:
128,309,237471,1,2,3:2:0:0:
111,307,237560,1,0,0:0:0:0:
93,305,237648,6,0,B|114:182|114:182|112:219|117:236,1,172.02,4|0,1:0|3:0,0:0:0:0:
42,185,238001,2,0,L|53:121,1,57.34,8|0,3:2|0:0,0:0:0:0:
31,58,238177,1,2,1:2:0:0:
103,74,238266,1,2,1:3:0:0:
24,251,238530,5,2,1:2:0:0:
169,171,238707,2,0,L|105:177,1,57.34,8|0,3:2|0:0,0:0:0:0:
42,185,238883,1,0,1:0:0:0:
200,244,239060,6,0,P|245:175|204:104,1,172.02,4|0,1:3|3:0,0:0:0:0:
120,52,239413,6,0,B|163:44|163:44|178:37|178:37|194:38|194:38|242:30,1,116.973602225161,8|0,3:2|0:0,0:0:0:0:
336,20,239766,6,0,B|322:29|322:29|314:73,1,61.9272002356052,8|0,3:2|0:0,0:0:0:0:
392,72,239942,2,0,B|378:81|378:81|370:125,1,61.9272002356052,10|0,3:2|0:0,0:0:0:0:
448,120,240119,1,0,1:0:0:0:
328,192,240295,1,2,1:2:0:0:
330,222,240383,1,2,1:2:0:0:
333,253,240471,6,0,L|344:388,1,105.505602007008,8|2,1:3|3:0,0:0:0:0:
256,304,240824,2,0,P|207:286|162:309,1,105.505602007008,8|2,2:1|3:0,0:0:0:0:
148,324,241089,1,0,1:0:0:0:
148,324,241177,1,2,3:2:0:0:
188,197,241354,6,0,L|181:123,1,52.7528010035038,8|0,2:1|0:0,0:0:0:0:
158,71,241530,1,2,3:0:0:0:
178,72,241619,1,0,3:0:0:0:
199,74,241707,1,0,1:0:0:0:
271,180,241883,1,0,1:0:0:0:
188,197,242060,1,8,2:1:0:0:
358,158,242236,1,0,3:0:0:0:
271,180,242413,1,0,1:0:0:0:
362,210,242589,6,0,L|357:157,2,52.7528010035038,8|0|0,2:1|0:0|3:2,0:0:0:0:
370,298,242942,1,2,1:3:0:0:
370,298,243119,1,0,3:0:0:0:
492,344,243295,6,0,B|451:320|392:334|435:366|372:375|328:347,1,158.258403010511,0|0,1:0|3:0,0:0:0:0:
332,360,243648,1,8,2:1:0:0:
488,312,243824,1,2,3:0:0:0:
492,344,243913,1,0,1:0:0:0:
320,368,244177,5,8,2:1:0:0:
370,298,244354,1,2,3:0:0:0:
368,277,244442,1,0,3:0:0:0:
366,256,244530,1,0,1:0:0:0:
300,284,244707,5,0,1:0:0:0:
300,284,244883,1,8,2:1:0:0:
424,224,245060,1,0,3:0:0:0:
422,203,245148,1,0,0:0:0:0:
420,182,245236,1,0,1:0:0:0:
352,152,245413,6,0,L|347:99,2,52.7528010035038,0|0|0,0:0|0:0|3:2,0:0:0:0:
280,128,245766,1,0,1:0:0:0:
280,128,245942,1,0,3:0:0:0:
244,188,246119,6,0,P|205:124|251:65,1,158.258403010511,2|0,1:0|3:0,0:0:0:0:
184,24,246471,2,0,L|116:18,1,52.7528010035038,8|0,2:1|0:0,0:0:0:0:
22,80,246648,1,2,3:0:0:0:
42,81,246736,1,0,1:0:0:0:
63,83,246824,1,2,3:2:0:0:
184,24,247001,1,8,2:1:0:0:
121,120,247177,5,2,3:0:0:0:
134,92,247266,1,0,3:0:0:0:
128,61,247354,1,0,1:0:0:0:
0,196,247530,6,0,L|163:210,1,158.258403010511,0|0,1:0|0:0,0:0:0:0:
212,256,247883,1,0,3:0:0:0:
232,254,247971,1,0,0:0:0:0:
253,252,248060,1,0,1:0:0:0:
348,280,248236,2,0,L|343:227,2,52.7528010035038,8|0|0,2:1|0:0|3:2,0:0:0:0:
356,356,248589,1,2,1:3:0:0:
464,312,248766,5,0,3:0:0:0:
444,310,248854,1,0,0:0:0:0:
423,308,248942,1,0,1:0:0:0:
356,356,249119,1,2,3:0:0:0:
475,251,249295,1,8,2:1:0:0:
344,248,249471,1,2,3:0:0:0:
348,280,249560,1,0,1:0:0:0:
324,157,249824,5,8,2:1:0:0:
413,181,250001,1,2,3:0:0:0:
433,179,250089,1,0,3:0:0:0:
454,177,250177,1,0,1:0:0:0:
335,25,250354,6,0,P|292:87|323:156,1,158.258403010511,8|0,2:1|0:0,0:0:0:0:
340,168,250707,1,0,3:0:0:0:
232,92,250883,1,8,2:1:0:0:
232,92,250971,1,8,2:1:0:0:
232,92,251060,6,0,B|149:77|149:77|96:124|96:124|214:145,1,247.708800942421,8|0,2:1|3:0,0:0:0:0:
186,140,251589,1,8,2:1:0:0:
129,275,251766,6,0,B|165:252|165:252|192:99,1,158.258403010511,2|0,1:0|0:0,0:0:0:0:
196,68,252119,1,8,2:1:0:0:
175,70,252207,1,0,3:2:0:0:
155,72,252295,1,2,3:0:0:0:
120,76,252383,1,0,1:2:0:0:
185,139,252648,5,8,2:1:0:0:
236,4,252824,1,2,3:0:0:0:
215,6,252913,1,0,0:0:0:0:
195,8,253001,1,0,1:2:0:0:
268,84,253177,5,0,1:2:0:0:
356,24,253354,1,0,0:0:0:0:
292,24,253530,1,2,3:2:0:0:
332,88,253707,1,8,2:1:0:0:
195,8,253883,6,0,B|164:86|164:86|204:156,2,157.960265510511,0|0|2,3:0|0:0|0:0,0:0:0:0:
240,80,254501,1,2,0:0:0:0:
240,80,254589,2,0,L|439:97,1,158.258403010511,0|0,1:0|0:0,0:0:0:0:
476,76,254942,1,8,2:1:0:0:
478,97,255030,1,0,0:0:0:0:
480,117,255119,1,2,3:0:0:0:
484,152,255207,1,0,1:2:0:0:
400,96,255471,5,8,2:1:0:0:
412,188,255648,1,2,3:0:0:0:
414,209,255736,1,0,0:0:0:0:
416,229,255824,1,0,1:2:0:0:
332,282,256001,6,0,B|289:253|241:275|267:313|206:321|172:289,1,157.837503010511,0|0,1:2|0:0,0:0:0:0:
168,292,256354,1,2,3:2:0:0:
304,336,256530,1,8,2:1:0:0:
240,208,256707,6,0,B|230:263|230:263|236:272|236:272|224:339|224:339|215:345|215:345|207:393,1,185.781600706816
188,376,257060,2,0,B|158:382|158:382|128:365,2,61.9272002356052,8|0|0,2:1|0:0|3:1,0:0:0:0:
168,292,257324,1,8,2:1:0:0:
168,292,257413,2,0,L|88:285,1,61.9272002356052,2|0,1:0|0:0,0:0:0:0:
47,280,257589,1,0,0:0:0:0:
139,164,257766,5,8,2:1:0:0:
138,181,257854,1,0,0:0:0:0:
137,198,257942,1,2,3:0:0:0:
135,228,258030,1,0,1:2:0:0:
45,154,258295,5,8,2:1:0:0:
48,67,258471,1,2,3:0:0:0:
49,50,258560,1,0,0:0:0:0:
50,33,258648,1,0,1:2:0:0:
180,40,258824,6,0,B|151:106|151:106|276:79,1,172.02,0|0,1:2|0:0,0:0:0:0:
313,71,259177,1,2,3:2:0:0:
248,85,259354,1,8,2:1:0:0:
311,105,259530,1,0,3:0:0:0:
312,88,259619,1,0,0:0:0:0:
313,71,259707,1,2,3:2:0:0:
188,96,259883,2,0,L|183:152,2,57.34,8|0|0,2:1|0:0|0:0,0:0:0:0:
113,171,260148,5,0,0:0:0:0:
113,171,260236,2,0,P|177:222|249:175,1,172.02,0|0,1:0|0:0,0:0:0:0:
320,160,260589,1,8,2:1:0:0:
319,177,260677,1,0,0:0:0:0:
318,194,260766,1,2,3:0:0:0:
316,224,260854,1,0,1:2:0:0:
315,37,261119,5,8,2:1:0:0:
389,123,261295,1,2,3:0:0:0:
388,140,261383,1,0,0:0:0:0:
387,157,261471,1,0,1:2:0:0:
373,252,261648,6,0,P|319:290|260:264,1,137.616005235672,0|0,1:2|0:0,0:0:0:0:
389,123,262354,6,0,B|401:139|401:139|401:167,1,38.9912007417202
325,87,262530,1,0,0:0:0:0:
397,135,262707,6,0,B|412:154|412:154|412:187,1,38.9912007417202,0|0,3:2|0:0,0:0:0:0:
317,83,262883,1,0,0:0:0:0:
363,21,263060,5,8,1:3:0:0:
