osu file format v14

[General]
AudioFilename: ignotus.mp3
AudioLeadIn: 0
PreviewTime: 215060
Countdown: 0
SampleSet: Soft
StackLeniency: 0.3
Mode: 0
LetterboxInBreaks: 0
WidescreenStoryboard: 1

[Editor]
Bookmarks: 17148,51648,52883,88001,133619,171207,182589,193883,202354,205177,217883,240494,263060
DistanceSpacing: 1.5
BeatDivisor: 6
GridSize: 4
TimelineZoom: 3.499999

[Metadata]
Title:Ignotus (Extended ver.)
TitleUnicode:Ignotus (Extended ver.)
Artist:ak+q
ArtistUnicode:ak+q
Creator:ScubDomino
Version:[acyl's_expert:::::::feat.iljaaz]
Source:Arcaea
Tags:Sound Collection MEMORIES OF CONFLICT IROCD-002 Original Soundtrack CD lowiro ajkoramusic drum and bass dnb piano electronic lanota groove coaster cybernetic future rhythm video game anime girl anime_girl scubdomino jungkyuyoung natsume shiki natsume_shiki 8972308 dark kloyd iii 1574070 shota on osu shota_on_osu cubbby cubby 10914582 freeform heilia 9823042 3626063 chinochan beomsan chinochan 918297 real realazy neanmoins 7777875 ryuusei aika acyl acylica iedesu 1943309 iljaaz 8501291 instrumental
BeatmapID:2355252
BeatmapSetID:1084205

[Difficulty]
HPDrainRate:5.5
CircleSize:4.5
OverallDifficulty:8.5
ApproachRate:9.6
SliderMultiplier:2.5
SliderTickRate:1

[Events]
//Background and Video events
0,0,"RED CIRCL POG.jpg",0,0
//Break Periods
2,160201,170786
//Storyboard Layer 0 (Background)
//Storyboard Layer 1 (Fail)
//Storyboard Layer 2 (Pass)
//Storyboard Layer 3 (Foreground)
//Storyboard Layer 4 (Overlay)
//Storyboard Sound Samples

[TimingPoints]
472,352.941176470588,4,2,1,60,1,0
648,-100,4,2,42,60,0,0
3471,-200,4,2,42,60,0,0
5060,-66.6666666666667,4,2,42,60,0,0
5766,-100,4,2,42,60,0,0
6824,-100,4,2,42,50,0,0
7177,-100,4,2,42,40,0,0
7530,-100,4,2,42,50,0,0
8766,-100,4,2,42,60,0,0
8942,-100,4,2,42,70,0,0
9295,-100,4,2,42,60,0,0
9824,-200,4,2,42,60,0,0
12119,-200,4,2,42,50,0,0
12471,-200,4,2,42,40,0,0
12824,-200,4,2,42,60,0,0
14589,-200,4,2,42,70,0,0
14942,-200,4,2,42,60,0,0
16354,-200,4,2,42,70,0,0
16619,-80,4,2,42,70,0,0
17413,-80,4,2,1,80,0,0
17589,-100,4,2,1,80,0,0
28354,-66.6666666666667,4,2,1,80,0,0
28707,-80,4,2,1,90,0,0
29413,-100,4,2,1,90,0,0
29766,-80,4,2,1,90,0,0
32060,-100,4,2,1,90,0,0
40354,-100,4,2,1,80,0,0
42824,-66.6666666666667,4,2,1,80,0,0
47942,-100,4,2,1,80,0,0
48119,-133.333333333333,4,2,1,80,0,0
49883,-133.333333333333,4,2,1,70,0,0
49971,-133.333333333333,4,2,1,60,0,0
50060,-133.333333333333,4,2,1,50,0,0
50148,-133.333333333333,4,2,1,45,0,0
50236,-133.333333333333,4,2,1,40,0,0
50324,-133.333333333333,4,2,1,45,0,0
50413,-133.333333333333,4,2,1,50,0,0
50501,-133.333333333333,4,2,1,65,0,0
50589,-133.333333333333,4,2,1,80,0,0
51295,-66.6666666666667,4,2,1,80,0,0
55530,-80,4,2,1,80,0,0
58001,-57.1428571428571,4,2,1,80,0,0
59060,-100,4,2,1,80,0,0
62589,-133.333333333333,4,2,1,80,0,0
72648,-250,4,2,1,80,0,0
73530,-100,4,2,1,80,0,0
74060,-100,4,2,1,70,0,0
74766,-100,4,2,69,70,0,0
78824,-133.333333333333,4,2,69,70,0,0
79530,-80,4,2,69,70,0,0
84119,-80,4,2,1,80,0,0
85177,-66.6666666666667,4,2,1,80,0,0
85354,-100,4,2,1,60,0,0
85619,-133.333333333333,4,2,1,60,0,0
85883,-333.333333333333,4,2,1,60,0,0
86236,-80,4,2,1,60,0,0
86766,-133.333333333333,4,2,1,60,0,0
86942,-66.6666666666667,4,2,1,60,0,0
87207,-133.333333333333,4,2,1,60,0,0
87471,-100,4,2,1,80,0,0
87648,-333.333333333333,4,2,1,80,0,0
88001,-66.6666666666667,4,2,1,90,0,0
89766,-100,4,2,1,90,0,0
89942,-66.6666666666667,4,2,1,90,0,0
90295,-133.333333333333,4,2,1,90,0,0
90471,-66.6666666666667,4,2,1,90,0,0
91177,-100,4,2,1,90,0,0
91354,-66.6666666666667,4,2,1,90,0,0
91707,-100,4,2,1,90,0,0
91883,-66.6666666666667,4,2,1,90,0,0
95413,-100,4,2,1,90,0,0
95589,-66.6666666666667,4,2,1,90,0,0
95766,-133.333333333333,4,2,1,90,0,0
96119,-100,4,2,1,90,0,0
96471,-66.6666666666667,4,2,1,90,0,0
97883,-100,4,2,1,90,0,0
98942,-66.6666666666667,4,2,1,90,0,0
101060,-100,4,2,1,90,0,0
101236,-66.6666666666667,4,2,1,90,0,0
101942,-100,4,2,1,90,0,0
102119,-50,4,2,1,90,0,0
103354,-133.333333333333,4,2,1,90,0,0
103530,-50,4,2,1,90,0,0
103883,-100,4,2,1,90,0,0
104060,-50,4,2,1,90,0,0
104413,-100,4,2,1,90,0,0
104589,-50,4,2,1,90,0,0
104942,-66.6666666666667,4,2,1,90,0,0
107060,-50,4,2,1,90,0,0
107413,-66.6666666666667,4,2,1,90,0,0
108471,-50,4,2,1,90,0,0
108648,-100,4,2,1,90,0,0
108824,-50,4,2,1,90,0,0
109177,-66.6666666666667,4,2,1,90,0,0
109530,-50,4,2,1,90,0,0
109707,-133.333333333333,4,2,1,90,0,0
110060,-66.6666666666667,4,2,1,90,0,0
110236,-100,4,2,1,90,0,0
110413,-133.333333333333,4,2,1,90,0,0
110677,-133.333333333333,4,2,1,80,0,0
121883,-80,4,2,1,80,0,0
127001,-200,4,2,1,80,0,0
127177,-80,4,2,1,80,0,0
133530,-133.333333333333,4,2,1,80,0,0
138119,-66.6666666666667,4,2,1,80,0,0
138471,-400,4,2,1,80,0,0
140236,-80,4,2,1,80,0,0
140942,-133.333333333333,4,2,1,80,0,0
143766,-66.6666666666667,4,2,1,80,0,0
144119,-133.333333333333,4,2,1,80,0,0
144471,-133.333333333333,4,2,1,90,0,0
145883,-133.333333333333,4,2,1,65,0,0
147295,-79.9999999999999,4,2,1,80,0,0
148707,-133.333333333333,4,2,1,80,0,0
157707,-399.999999999997,4,2,1,70,0,0
160177,-399.999999999997,4,2,22,60,0,0
170942,-399.999999999997,4,2,1,70,0,0
170986,-399.999999999997,4,2,1,60,0,0
171295,-79.9999999999999,4,2,1,80,0,0
171648,-133.333333333333,4,2,1,80,0,0
174119,-79.9999999999999,4,2,1,80,0,0
175530,-133.333333333333,4,2,1,80,0,0
181177,-133.333333333333,4,2,1,70,0,0
181619,-133.333333333333,4,2,1,45,0,0
181707,-133.333333333333,4,2,1,50,0,0
181795,-133.333333333333,4,2,1,65,0,0
181883,-133.333333333333,4,2,1,90,0,0
182942,-80,4,2,1,90,0,0
188236,-133.333333333333,4,2,1,90,0,0
189295,-50,4,2,1,90,0,0
190001,-80,4,2,1,90,0,0
192119,-50,4,2,1,90,0,0
192471,-200,4,2,1,90,0,0
193883,-100,4,2,1,90,0,0
194236,-100,4,2,85,75,0,0
202354,-100,4,2,1,90,0,0
205354,-100,4,2,42,60,0,0
213648,-333.333333333333,4,2,42,60,0,0
215060,-66.6666666666667,4,2,3,80,0,0
216119,-133.333333333333,4,2,3,80,0,0
216471,-40,4,2,3,80,0,0
217530,-100,4,2,3,80,0,0
217883,-50,4,2,1,90,0,0
218413,-66.6666666666667,4,2,1,90,0,0
218589,-57.1428571428571,4,2,1,90,0,0
219295,-66.6666666666667,4,2,1,90,0,0
219648,-100,4,2,1,90,0,0
220354,-66.6666666666667,4,2,1,90,0,0
228119,-100,4,2,1,90,0,0
228648,-66.6666666666667,4,2,1,90,0,0
228824,-80,4,2,1,90,0,0
230236,-66.6666666666667,4,2,1,90,0,0
231648,-100,4,2,1,90,0,0
232001,-66.6666666666667,4,2,1,90,0,0
233236,-133.333333333333,4,2,1,90,0,0
233589,-100,4,2,1,90,0,0
234824,-66.6666666666667,4,2,1,90,0,0
235177,-100,4,2,1,90,0,0
235354,-66.6666666666667,4,2,1,90,0,0
235707,-100,4,2,1,90,0,0
236236,-66.6666666666667,4,2,1,90,0,0
236589,-100,4,2,1,90,0,0
237295,-50,4,2,1,90,0,0
237648,-80,4,2,1,90,0,0
239060,-66.6666666666667,4,2,1,90,0,0
239942,-80,4,2,1,90,0,0
240119,-100,4,2,1,90,0,0
240471,-66.6666666666667,4,2,1,80,0,0
241354,-80,4,2,1,80,0,0
244707,-100,4,2,1,80,0,0
251060,-333.333333333333,4,2,1,80,0,0
251766,-80,4,2,1,80,0,0
253177,-100,4,2,1,80,0,0
254236,-80,4,2,1,80,0,0
256001,-100,4,2,1,80,0,0
261648,-133.333333333333,4,2,1,80,0,0
262177,-200,4,2,1,80,0,0
263060,-200,4,2,1,100,0,0

[Colours]
Combo1 : 236,182,172
Combo2 : 29,90,109
Combo3 : 117,162,172
Combo4 : 69,142,167
Combo5 : 136,192,212
Combo6 : 243,90,86

[HitObjects]
320,108,472,5,2,2:1:0:0:
280,212,648,1,2,2:0:0:0:
312,208,824,1,2,2:0:0:0:
336,180,1001,1,0,2:0:0:0:
220,160,1177,5,2,2:0:0:0:
180,56,1354,1,2,2:0:0:0:
212,60,1530,1,0,2:0:0:0:
236,88,1707,1,2,2:0:0:0:
124,100,1883,5,2,2:0:0:0:
72,16,2060,1,0,0:0:0:0:
54,86,2236,1,2,2:0:0:0:
141,28,2413,1,0,0:0:0:0:
12,224,2589,5,2,2:0:0:0:
80,192,2766,1,2,2:0:0:0:
12,304,2942,1,2,2:0:0:0:
144,348,3119,1,2,2:0:0:0:
192,296,3295,5,0,0:0:0:0:
304,384,3471,2,0,P|356:360|372:352,2,62.6562499999999,2|2|0,2:0|2:0|0:0,0:0:0:0:
224,368,4001,5,2,2:0:0:0:
356,288,4177,2,0,L|360:204,2,62.6562499999999,2|0|2,2:0|0:0|2:0,0:0:0:0:
420,320,4707,6,0,L|444:324,6,15.6493055555556,0|0|0|0|0|0|0,3:0|0:0|0:0|0:0|0:0|0:0|0:0,0:0:0:0:
288,216,5060,6,0,B|268:168|268:168|312:144,1,94.2500035762786,2|0,3:2|0:0,0:0:0:0:
423,75,5236,5,0,0:0:0:0:
428,86,5324,2,0,B|436:113|436:113|388:146|313:136|288:45,1,188.500007152558,2|0,3:0|0:0,0:0:0:0:
256,23,5589,6,0,P|234:44|230:75,2,62.6562523841859,0|0|0,3:0|0:0|0:0,0:0:0:0:
384,160,5766,6,0,L|398:220,1,62.8333333333332,0|0,3:0|0:0,0:0:0:0:
499,86,5942,2,0,L|484:25,1,62.8333333333332
364,21,6119,5,2,1:2:0:0:
263,143,6295,1,2,1:3:0:0:
191,131,6471,1,0,3:0:0:0:
264,217,6648,1,0,0:0:0:0:
144,191,6824,5,0,3:0:0:0:
171,0,7001,1,0,0:0:0:0:
116,45,7177,1,0,3:0:0:0:
239,18,7354,1,0,0:0:0:0:
47,31,7530,5,2,2:0:0:0:
194,136,7707,1,0,0:0:0:0:
194,136,7883,1,2,2:0:0:0:
144,191,8060,1,0,0:0:0:0:
236,356,8236,5,2,2:0:0:0:
197,295,8413,1,0,0:0:0:0:
130,322,8589,1,2,2:0:0:0:
306,337,8766,1,2,1:2:0:0:
306,337,8854,1,0,0:0:0:0:
306,337,8942,6,0,P|307:234|311:171,1,125.666666666666,2|0,1:3|0:0,0:0:0:0:
475,153,9295,1,2,2:0:0:0:
463,223,9471,1,0,0:0:0:0:
317,68,9648,5,2,2:0:0:0:
382,100,9824,2,0,P|446:73|464:65,2,62.6562499999999,0|2|0,0:0|2:0|0:0,0:0:0:0:
238,152,10354,1,2,2:0:0:0:
213,83,10530,2,0,P|164:73|137:66,1,62.8333333333332,2|2,2:0|2:0,0:0:0:0:
24,171,10883,1,0,3:2:0:0:
3,98,11060,5,0,3:2:0:0:
72,116,11236,1,0,0:0:0:0:
52,317,11413,5,2,1:2:0:0:
122,239,11589,1,0,0:0:0:0:
116,230,11677,1,0,3:2:0:0:
114,218,11766,6,0,P|82:241|41:234,1,62.8333333333332,2|0,1:3|0:0,0:0:0:0:
160,129,12119,1,0,3:2:0:0:
207,181,12295,1,0,0:0:0:0:
266,138,12471,2,0,P|273:92|279:55,1,62.8333333333332,0|0,3:2|0:0,0:0:0:0:
190,254,12824,2,0,P|197:300|203:337,1,62.8333333333332,0|0,3:2|0:0,0:0:0:0:
319,384,13177,5,0,2:0:0:0:
290,314,13354,1,0,0:0:0:0:
437,227,13530,1,0,2:0:0:0:
428,300,13707,1,0,0:0:0:0:
369,254,13883,5,0,2:0:0:0:
302,147,14060,1,0,0:0:0:0:
372,41,14236,1,0,2:0:0:0:
499,70,14413,1,0,0:0:0:0:
465,133,14589,5,0,1:2:0:0:
449,127,14677,1,0,0:0:0:0:
439,114,14766,1,0,0:0:0:0:
307,6,14942,1,2,2:0:0:0:
271,65,15119,1,0,0:0:0:0:
117,31,15295,5,0,2:0:0:0:
179,0,15471,2,0,P|186:35|197:78,2,62.6562499999999,0|0|0,0:0|2:0|0:0,0:0:0:0:
91,161,16001,5,2,2:0:0:0:
91,161,16177,1,0,0:0:0:0:
222,296,16354,1,0,3:2:0:0:
224,284,16442,1,2,3:0:0:0:
226,274,16530,1,2,3:2:0:0:
277,158,16707,6,0,B|314:172|314:172|238:172|202:209|202:209|216:189|212:157,1,156.25
127,284,16971,1,0,0:0:0:0:
125,272,17060,6,0,L|119:217,6,39.1232638888888,2|0|0|0|0|0|0,3:2|0:0|0:0|0:0|0:0|0:0|0:0,0:0:0:0:
79,358,17413,5,4,1:2:0:0:
79,358,17501,1,0,0:0:0:0:
79,358,17589,2,0,L|151:352,1,62.8333333333332
208,347,17766,1,8,2:1:0:0:
21,304,17942,5,0,3:0:0:0:
27,297,18030,2,0,L|50:144,1,125.666666666666,0|0,1:2|0:0,0:0:0:0:
131,97,18295,1,8,2:1:0:0:
131,97,18383,1,0,0:0:0:0:
131,97,18471,6,0,P|132:133|116:160,1,62.8333333333332,0|0,3:2|0:0,0:0:0:0:
27,51,18648,2,0,P|57:32|89:32,1,62.8333333333332,0|0,3:2|3:2,0:0:0:0:
0,48,18824,6,0,P|50:14|124:26,1,125.666666666666,8|0,2:1|0:0,0:0:0:0:
282,136,19089,1,0,0:0:0:0:
282,136,19177,2,0,L|272:32,1,62.8333333333332,0|0,3:2|0:0,0:0:0:0:
201,48,19354,6,0,L|217:221,1,125.666666666666,8|0,2:1|0:0,0:0:0:0:
85,247,19619,1,0,0:0:0:0:
74,255,19707,2,0,P|69:289|93:319,1,62.8333333333332,0|0,3:2|3:2,0:0:0:0:
155,333,19883,6,0,P|175:270|148:216,1,125.666666666666,8|0,2:1|0:0,0:0:0:0:
6,157,20236,5,0,1:2:0:0:
6,157,20324,1,0,0:0:0:0:
6,157,20413,2,0,L|81:161,1,62.8333333333332
193,36,20589,1,8,2:1:0:0:
126,9,20766,5,0,3:0:0:0:
122,18,20854,2,0,L|146:196,1,125.666666666666,0|0,1:2|0:0,0:0:0:0:
247,97,21119,5,8,2:1:0:0:
247,97,21207,1,0,0:0:0:0:
247,97,21295,2,0,P|267:63|261:26,1,62.8333333333332,0|0,3:2|0:0,0:0:0:0:
68,160,21471,2,0,P|87:194|122:207,1,62.8333333333332,0|0,3:2|3:2,0:0:0:0:
322,191,21648,6,0,L|178:164,1,125.666666666666,8|0,2:1|0:0,0:0:0:0:
215,247,21913,1,0,0:0:0:0:
215,247,22001,2,0,L|304:263,1,62.8333333333332,0|0,3:2|0:0,0:0:0:0:
384,142,22177,6,0,P|351:89|395:12,1,125.666666666666,8|0,2:1|0:0,0:0:0:0:
440,48,22442,1,0,0:0:0:0:
440,48,22530,2,0,P|455:85|428:126,1,62.8333333333332,0|0,3:2|3:2,0:0:0:0:
350,261,22707,6,0,L|493:240,1,125.666666666666,8|8,2:1|2:1,0:0:0:0:
512,315,22971,1,8,2:1:0:0:
512,315,23060,6,0,P|490:325|449:318,1,62.8333333333332,0|0,1:2|0:0,0:0:0:0:
411,375,23236,1,0,0:0:0:0:
263,216,23413,5,8,2:1:0:0:
253,295,23589,1,0,3:0:0:0:
249,286,23677,2,0,P|304:243|363:278,1,125.666666666666,0|0,1:2|0:0,0:0:0:0:
188,329,23942,5,8,2:1:0:0:
188,329,24030,1,0,0:0:0:0:
188,329,24119,2,0,P|167:294|169:268,1,62.8333333333332,0|0,3:2|0:0,0:0:0:0:
346,336,24295,2,0,P|326:371|302:382,1,62.8333333333332,0|0,3:2|3:2,0:0:0:0:
193,203,24471,6,0,L|179:66,1,125.666666666666,8|0,2:1|0:0,0:0:0:0:
259,101,24736,1,0,0:0:0:0:
259,101,24824,2,0,L|271:196,1,62.8333333333332,0|0,3:2|0:0,0:0:0:0:
386,199,25001,6,0,P|460:194|502:114,1,125.666666666666,8|0,2:1|0:0,0:0:0:0:
446,109,25266,1,0,0:0:0:0:
446,109,25354,2,0,P|409:112|380:142,1,62.8333333333332,0|0,3:2|3:2,0:0:0:0:
211,23,25530,6,0,L|354:39,1,125.666666666666,8|0,2:1|0:0,0:0:0:0:
510,69,25883,6,0,L|498:-33,1,62.8333333333332,0|0,1:2|0:0,0:0:0:0:
433,0,26060,1,0,0:0:0:0:
346,112,26236,5,8,2:1:0:0:
275,109,26413,1,0,3:0:0:0:
275,109,26501,2,0,P|287:177|299:248,1,125.666666666666,0|0,1:2|0:0,0:0:0:0:
330,316,26766,5,8,2:1:0:0:
330,316,26854,1,0,0:0:0:0:
330,316,26942,2,0,P|357:296|369:258,1,62.8333333333332,0|0,3:2|0:0,0:0:0:0:
170,296,27119,2,0,P|173:329|200:358,1,62.8333333333332,0|0,3:2|3:2,0:0:0:0:
263,357,27295,5,8,2:1:0:0:
263,357,27471,1,0,0:0:0:0:
242,272,27648,5,0,3:2:0:0:
159,221,27824,1,8,2:1:0:0:
59,240,28001,5,0,0:0:0:0:
43,256,28089,1,0,0:0:0:0:
63,254,28177,5,0,3:2:0:0:
47,270,28266,1,0,3:2:0:0:
76,344,28354,6,0,B|100:303|68:256|54:266|19:229|50:167,1,188.5,8|8,2:1|2:1,0:0:0:0:
153,125,28619,1,8,2:1:0:0:
159,137,28707,6,0,P|130:190|68:183,1,78.5416666666666,2|2,1:0|2:0,0:0:0:0:
3,13,28883,2,0,P|63:11|88:68,1,78.5416666666666,2|0,3:0|3:0,0:0:0:0:
164,50,29060,6,0,B|129:37|129:37|54:74|54:74|96:87,1,157.083333333334,8|2,2:1|3:0,0:0:0:0:
240,157,29324,1,0,1:2:0:0:
240,157,29413,2,0,L|222:80,1,62.8333333333332
383,181,29589,1,8,2:1:0:0:
383,181,29677,1,0,0:0:0:0:
412,115,29766,6,0,B|373:104|373:104|328:126,1,78.5416666666666,2|0,3:0|0:0,0:0:0:0:
309,182,29942,1,0,1:2:0:0:
133,201,30119,5,0,1:2:0:0:
158,271,30295,1,0,0:0:0:0:
237,142,30471,1,2,3:2:0:0:
237,142,30560,1,0,0:0:0:0:
237,142,30648,2,0,L|131:131,1,78.5416666666666,8|0,2:1|0:0,0:0:0:0:
22,260,30824,5,0,3:0:0:0:
47,184,31001,1,2,3:2:0:0:
47,184,31089,1,0,0:0:0:0:
47,184,31177,6,0,B|131:199|131:199|134:249|185:304|270:272,1,234.739583333333,8|0,2:1|0:0,0:0:0:0:
323,235,31530,5,0,1:0:0:0:
329,215,31619,1,0,0:0:0:0:
323,192,31707,1,0,0:0:0:0:
275,348,31883,1,8,2:1:0:0:
142,339,32060,2,0,L|225:354,1,62.8333333333332,2|0,3:0|1:2,0:0:0:0:
361,377,32236,5,0,0:0:0:0:
359,369,32324,1,0,0:0:0:0:
357,359,32413,5,8,2:1:0:0:
400,308,32501,1,0,0:0:0:0:
460,339,32589,1,2,3:0:0:0:
488,317,32677,1,0,0:0:0:0:
512,333,32766,1,0,1:2:0:0:
341,250,32942,6,0,P|351:182|363:95,1,125.666666666666,0|0,1:2|0:0,0:0:0:0:
270,65,33207,1,0,0:0:0:0:
270,65,33295,2,0,L|288:135,1,62.8333333333332,2|0,3:2|0:0,0:0:0:0:
418,184,33471,1,8,2:1:0:0:
378,55,33648,6,0,P|438:53|474:101,1,125.666666666666,0|2,0:0|3:2,0:0:0:0:
504,184,33913,1,0,0:0:0:0:
507,168,34001,2,0,P|470:173|478:299,1,187.791666666667,8|8,2:1|2:1,0:0:0:0:
504,184,34354,6,0,L|512:247,1,62.8333333333332,2|2,1:0|2:0,0:0:0:0:
418,384,34530,1,2,3:0:0:0:
264,313,34707,5,8,2:1:0:0:
270,304,34795,2,0,L|420:318,1,125.666666666666,0|0,0:0|1:2,0:0:0:0:
495,384,35060,5,0,0:0:0:0:
495,384,35148,1,0,0:0:0:0:
495,384,35236,2,0,L|479:303,1,62.8333333333332,8|0,2:1|0:0,0:0:0:0:
321,227,35413,2,0,L|337:308,1,62.8333333333332,2|0,3:0|0:0,0:0:0:0:
379,178,35589,1,0,1:2:0:0:
198,132,35766,5,0,1:2:0:0:
198,132,35854,2,0,B|181:90|204:63|213:75|233:37|203:-20,1,125.666666666666
73,136,36119,2,0,P|110:140|136:177,1,62.8333333333332,2|0,3:2|0:0,0:0:0:0:
250,193,36295,5,8,2:1:0:0:
250,193,36383,2,0,B|222:228|187:222|193:208|150:210|115:264,1,125.666666666666
85,295,36648,2,0,P|61:248|83:204,1,62.8333333333332,2|0,3:2|0:0,0:0:0:0:
224,296,36824,5,8,2:1:0:0:
234,338,36913,1,0,3:1:0:0:
214,374,37001,1,0,0:0:0:0:
53,214,37177,6,0,P|49:275|91:320,1,125.666666666666,0|0,1:0|0:0,0:0:0:0:
211,243,37442,1,0,0:0:0:0:
211,243,37530,2,0,P|206:204|175:180,1,62.8333333333332,8|0,2:1|0:0,0:0:0:0:
55,106,37707,6,0,L|208:118,1,125.666666666666,2|0,3:0|0:0,0:0:0:0:
318,196,37971,1,0,0:0:0:0:
318,196,38060,2,0,L|323:125,1,62.8333333333332,8|0,2:1|0:0,0:0:0:0:
328,64,38236,5,2,3:0:0:0:
307,269,38413,1,0,1:2:0:0:
420,345,38589,6,0,B|448:342|448:342|478:268,1,62.8333333333332,0|0,1:2|0:0,0:0:0:0:
435,236,38766,6,0,B|443:214|443:214|403:109,1,125.666666666666,8|0,2:1|0:0,0:0:0:0:
304,357,39030,6,0,B|325:381|325:381|404:370,1,62.8333333333332,8|0,2:1|0:0,0:0:0:0:
202,225,39207,2,0,B|226:203|226:203|215:124,1,62.8333333333332,8|0,2:1|0:0,0:0:0:0:
137,271,39383,6,0,B|152:288|152:288|262:306,1,125.666666666666,0|0,3:1|0:0,0:0:0:0:
373,276,39648,2,0,L|362:323,6,31.2986111111111,8|0|0|0|0|0|0,2:1|0:0|0:0|0:0|0:0|0:0|0:0,0:0:0:0:
363,22,40001,5,8,1:3:0:0:
340,89,40177,1,0,0:0:0:0:
192,127,40354,1,2,1:2:0:0:
62,8,40530,1,8,2:1:0:0:
84,116,40707,1,2,1:2:0:0:
122,53,40883,1,0,3:0:0:0:
25,70,41060,1,8,1:0:0:0:
363,22,41413,5,2,1:2:0:0:
340,89,41589,1,8,2:1:0:0:
384,213,41766,1,2,1:2:0:0:
363,281,41942,1,8,3:1:0:0:
189,300,42119,1,2,1:2:0:0:
217,372,42295,1,0,3:2:0:0:
435,270,42471,5,8,1:0:0:0:
52,160,42824,6,0,B|21:141|21:141|94:150|94:150|118:168|118:168|143:158|143:158|224:166|224:166|185:120,1,281.687510728836,0|0,1:3|0:0,0:0:0:0:
363,22,43177,5,2,1:2:0:0:
293,50,43354,1,8,2:1:0:0:
51,0,43530,1,2,1:2:0:0:
131,87,43707,1,0,3:0:0:0:
236,6,43883,1,8,1:0:0:0:
363,22,44236,5,2,1:2:0:0:
293,50,44413,1,8,2:1:0:0:
482,180,44589,1,2,1:2:0:0:
413,153,44766,1,8,3:1:0:0:
436,367,44942,1,2,1:2:0:0:
428,344,45030,1,0,3:0:0:0:
420,321,45119,1,0,3:2:0:0:
120,180,45295,6,0,B|95:220|95:220|109:273,1,94.2500035762786,2|0,1:3|0:0,0:0:0:0:
231,288,45471,2,0,B|256:248|256:248|242:195,1,94.2500035762786
189,148,45648,5,8,1:3:0:0:
0,186,45824,1,0,0:0:0:0:
36,285,46001,1,2,1:2:0:0:
127,107,46177,1,8,2:1:0:0:
89,9,46354,1,2,1:2:0:0:
60,75,46530,1,0,3:0:0:0:
158,37,46707,1,8,1:0:0:0:
189,148,47060,5,2,1:2:0:0:
118,132,47236,1,8,2:1:0:0:
305,156,47413,1,2,1:2:0:0:
247,198,47589,1,8,3:1:0:0:
451,132,47766,6,0,L|353:113,1,94.2500035762786,2|0,1:2|0:0,0:0:0:0:
301,59,47942,2,0,L|247:101,1,62.8333333333332
180,79,48119,2,0,L|158:155,1,47.1250017881394,8|0,1:0|0:0,0:0:0:0:
149,194,48295,5,0,0:0:0:0:
5,57,48471,5,0,1:3:0:0:
28,125,48648,1,2,2:0:0:0:
73,32,48824,1,2,1:2:0:0:
98,102,49001,1,8,2:1:0:0:
19,297,49177,1,2,1:2:0:0:
86,257,49354,1,0,3:0:0:0:
155,369,49530,1,8,1:0:0:0:
221,340,49707,1,0,0:0:0:0:
203,266,49883,6,0,L|208:231,6,23.4866080369268,2|2|2|2|2|2|2,1:2|2:0|2:0|2:0|2:0|2:0|2:0,0:0:0:0:
277,239,50236,2,0,L|309:225,6,23.4866080369268,2|2|2|2|2|2|2,2:0|2:0|2:0|2:0|2:0|2:0|2:0,0:0:0:0:
356,376,50589,5,2,1:2:0:0:
387,339,50677,1,0,3:1:0:0:
393,300,50766,1,8,3:1:0:0:
380,269,50854,1,2,3:2:0:0:
359,251,50942,1,8,1:0:0:0:
335,247,51030,1,0,3:1:0:0:
317,251,51119,1,8,3:1:0:0:
306,261,51207,1,2,3:2:0:0:
305,270,51295,6,0,B|374:314|481:233|379:148|380:211|394:210,1,188.500007152558,0|0,3:2|0:0,0:0:0:0:
363,22,51648,5,2,1:0:0:0:
322,86,51736,1,0,3:2:0:0:
301,66,51824,1,8,2:1:0:0:
275,65,51913,1,8,2:1:0:0:
270,77,52001,5,8,1:0:0:0:
211,30,52089,1,0,3:2:0:0:
183,38,52177,1,8,2:1:0:0:
169,60,52266,1,8,2:1:0:0:
96,75,52354,5,2,1:3:0:0:
96,75,52707,1,2,1:3:0:0:
134,260,52883,1,8,2:1:0:0:
134,260,52971,1,8,2:1:0:0:
210,261,53060,5,2,1:2:0:0:
175,194,53148,1,0,3:2:0:0:
202,186,53236,1,8,2:1:0:0:
216,164,53324,1,8,2:1:0:0:
253,95,53413,5,8,1:0:0:0:
293,158,53501,1,0,3:2:0:0:
312,138,53589,1,8,2:1:0:0:
339,138,53677,1,0,0:0:0:0:
397,179,53766,5,2,1:3:0:0:
397,179,54119,1,2,1:3:0:0:
476,31,54295,1,2,3:2:0:0:
476,31,54383,1,0,0:0:0:0:
489,102,54471,5,4,1:3:0:0:
422,81,54560,1,0,3:2:0:0:
399,96,54648,1,8,2:1:0:0:
368,94,54736,1,8,2:1:0:0:
317,2,54824,5,0,1:0:0:0:
250,23,54913,1,0,0:0:0:0:
227,8,55001,1,8,3:1:0:0:
196,10,55089,1,2,0:0:0:0:
138,118,55177,5,2,1:3:0:0:
69,92,55530,6,0,P|88:61|150:49,1,78.5416666666666,10|0,1:3|0:0,0:0:0:0:
63,217,55707,2,0,P|31:182|30:132,1,78.5416666666666,2|8,3:2|3:1,0:0:0:0:
172,282,55883,2,0,P|115:291|81:270,1,78.5416666666666,0|2,1:0|3:2,0:0:0:0:
201,91,56060,6,0,B|206:137|171:164|162:151|118:173|139:265,1,157.083333333334,4|2,3:1|1:2,0:0:0:0:
227,338,56324,1,2,3:2:0:0:
227,338,56413,2,0,P|250:305|241:253,1,78.5416666666666,8|2,2:1|3:2,0:0:0:0:
313,134,56589,5,2,1:2:0:0:
310,169,56677,1,2,3:2:0:0:
326,199,56766,1,8,3:1:0:0:
373,219,56854,1,8,3:1:0:0:
424,199,56942,6,0,P|443:145|396:183,1,157.083333333334,0|2,1:0|2:3,0:0:0:0:
504,276,57207,1,2,2:0:0:0:
500,265,57295,5,0,1:3:0:0:
447,320,57383,1,0,3:2:0:0:
434,308,57471,1,8,2:1:0:0:
415,306,57560,1,8,2:1:0:0:
349,340,57648,5,2,1:3:0:0:
312,279,57736,1,2,2:0:0:0:
292,296,57824,1,8,2:1:0:0:
264,299,57913,1,2,2:0:0:0:
227,359,58001,6,0,L|200:21,1,328.63541979591,2|0,1:3|0:0,0:0:0:0:
264,1,58354,5,2,1:0:0:0:
304,59,58442,1,0,3:2:0:0:
315,54,58530,1,8,2:1:0:0:
326,49,58619,1,2,2:2:0:0:
396,65,58707,5,2,1:2:0:0:
433,5,58795,1,0,3:2:0:0:
447,11,58883,1,8,2:1:0:0:
461,18,58971,1,8,2:1:0:0:
512,67,59060,6,0,L|498:-4,2,62.8333333333332,8|0|8,1:0|3:2|2:1,0:0:0:0:
389,133,59413,6,0,B|382:142|365:152|365:152|490:138|490:138|469:134|451:117,1,187.791666666667,2|2,1:3|3:2,0:0:0:0:
512,67,59766,5,6,1:3:0:0:
437,41,59854,1,0,0:0:0:0:
429,28,59942,1,2,3:2:0:0:
415,20,60030,1,0,0:0:0:0:
344,81,60119,5,0,1:3:0:0:
279,108,60207,1,0,3:2:0:0:
266,100,60295,1,8,2:1:0:0:
258,86,60383,1,8,2:1:0:0:
193,48,60471,6,0,L|181:160,1,62.8333333333332,0|0,1:0|0:0,0:0:0:0:
122,39,60648,2,0,L|110:151,1,62.8333333333332,8|2,3:1|2:0,0:0:0:0:
18,199,60824,5,2,1:3:0:0:
41,197,60913,1,2,2:0:0:0:
59,210,61001,1,8,2:1:0:0:
68,229,61089,1,8,2:1:0:0:
64,253,61177,6,0,B|140:266|115:204|212:227,1,125.666666666666,0|0,1:3|0:0,0:0:0:0:
229,315,61442,1,0,0:0:0:0:
229,315,61530,2,0,P|186:306|167:282,1,62.8333333333332,8|0,2:1|0:0,0:0:0:0:
241,179,61707,5,0,1:0:0:0:
299,356,61883,1,8,2:1:0:0:
301,339,61971,1,8,2:1:0:0:
303,322,62060,1,8,2:1:0:0:
229,315,62236,6,0,P|207:275|306:252,1,187.791666666667,0|0,1:3|0:0,0:0:0:0:
365,285,62589,6,0,P|395:249|386:188,1,94.2500035762786,4|0,1:2|0:0,0:0:0:0:
335,167,62854,1,0,0:0:0:0:
335,167,62942,1,10,3:2:0:0:
229,74,63119,2,0,P|233:125|288:150,1,94.2500035762786,0|0,1:0|0:0,0:0:0:0:
391,118,63383,1,0,0:0:0:0:
391,118,63471,2,0,L|381:54,1,47.1250017881394,0|0,1:0|0:0,0:0:0:0:
443,36,63648,2,0,P|389:-1|340:34,1,94.2500035762786,10|0,3:2|1:0,0:0:0:0:
314,62,64001,5,0,1:0:0:0:
477,182,64177,1,0,0:0:0:0:
477,182,64266,1,0,0:0:0:0:
477,182,64354,2,0,L|495:70,1,94.2500035762786,10|0,3:2|1:0,0:0:0:0:
294,221,64707,1,0,0:0:0:0:
294,221,64795,1,0,0:0:0:0:
294,221,64883,2,0,P|318:230|350:225,1,47.1250017881394,0|0,1:0|0:0,0:0:0:0:
397,171,65060,2,0,L|258:140,1,140.843755364418,10|0,3:2|0:0,0:0:0:0:
189,117,65413,5,0,1:0:0:0:
218,0,65589,1,0,0:0:0:0:
218,0,65677,1,0,0:0:0:0:
218,0,65766,2,0,L|201:66,1,47.1250017881394,10|0,3:2|0:0,0:0:0:0:
59,71,65942,1,0,1:0:0:0:
106,161,66119,2,0,L|120:96,2,47.1250017881394,0|0|0,0:0|0:0|1:0,0:0:0:0:
128,43,66471,5,10,3:2:0:0:
91,231,66648,1,0,1:0:0:0:
209,187,66824,5,0,1:0:0:0:
163,241,67001,1,2,3:0:0:0:
191,115,67177,1,10,3:2:0:0:
273,147,67354,5,0,1:0:0:0:
267,137,67442,2,0,L|373:126,1,94.2500035762786,2|2,1:3|3:0,0:0:0:0:
345,11,67707,2,0,L|322:97,1,47.1250017881394,0|0,1:0|0:0,0:0:0:0:
426,150,67883,1,10,3:2:0:0:
418,80,68060,1,0,1:0:0:0:
418,80,68148,1,2,3:2:0:0:
418,80,68236,6,0,L|526:67,1,94.2500035762786,0|0,1:0|0:0,0:0:0:0:
512,184,68501,2,0,L|483:107,1,47.1250017881394,0|10,0:0|3:2,0:0:0:0:
358,117,68766,5,0,1:0:0:0:
359,125,68854,1,2,1:3:0:0:
360,132,68942,2,0,P|384:150|421:149,1,47.1250017881394
235,10,69119,2,0,P|207:21|189:54,1,47.1250017881394,0|0,1:0|0:0,0:0:0:0:
279,148,69295,2,0,L|297:17,1,94.2500035762786,10|0,3:2|1:0,0:0:0:0:
176,103,69648,5,0,1:0:0:0:
128,48,69824,1,0,1:0:0:0:
63,75,70001,1,10,3:2:0:0:
149,175,70177,2,0,L|167:306,1,94.2500035762786,0|0,1:0|0:0,0:0:0:0:
161,267,70442,1,0,0:0:0:0:
161,267,70530,1,0,1:0:0:0:
33,220,70707,1,8,1:2:0:0:
44,221,70795,1,2,1:2:0:0:
56,222,70883,1,0,1:0:0:0:
67,224,70971,1,8,1:0:0:0:
79,225,71060,5,0,1:3:0:0:
136,177,71589,1,0,2:0:0:0:
141,108,72119,1,0,2:0:0:0:
89,56,72648,6,0,L|25:49,1,50.2666666666666,0|0,2:0|0:0,0:0:0:0:
39,50,73177,6,0,L|34:28,6,12.5194444444444,0|0|0|0|0|0|0,2:0|0:0|0:0|0:0|2:0|0:0|0:0,0:0:0:0:
141,108,73530,2,0,L|150:158,6,31.2986111111111,2|0|0|0|0|0|0,2:0|0:0|0:0|0:0|0:0|0:0|0:0,0:0:0:0:
187,48,73883,5,8,1:3:0:0:
347,168,74060,1,0,2:0:0:0:
281,203,74236,1,0,3:0:0:0:
281,203,74324,1,0,0:0:0:0:
281,203,74413,2,0,L|268:129,1,62.8333333333332,0|2,2:0|3:0,0:0:0:0:
332,95,74589,5,0,2:0:0:0:
203,183,74766,1,2,2:0:0:0:
353,244,74942,1,0,3:0:0:0:
368,240,75030,1,0,0:0:0:0:
383,237,75119,1,0,2:0:0:0:
398,234,75207,1,0,0:0:0:0:
414,231,75295,5,2,2:0:0:0:
492,359,75471,1,0,2:0:0:0:
419,340,75648,1,0,3:0:0:0:
512,289,75824,1,0,2:0:0:0:
419,340,76001,5,0,2:0:0:0:
419,340,76089,1,0,0:0:0:0:
419,340,76177,2,0,L|312:329,1,62.8333333333332,2|0,2:0|0:0,0:0:0:0:
297,372,76354,1,0,3:0:0:0:
177,251,76530,1,0,2:0:0:0:
237,206,76707,5,2,2:3:0:0:
249,276,76883,1,0,2:0:0:0:
71,315,77060,1,0,3:0:0:0:
52,248,77236,1,0,2:0:0:0:
52,248,77324,1,0,2:3:0:0:
52,248,77413,2,0,L|57:171,1,62.8333333333332,0|0,2:0|0:0,0:0:0:0:
189,321,77589,2,0,L|184:398,1,62.8333333333332,2|0,2:0|0:0,0:0:0:0:
0,300,77766,5,0,3:0:0:0:
23,371,77942,1,0,2:0:0:0:
125,261,78119,6,0,P|160:239|251:217,1,125.666666666666,2|0,2:3|2:0,0:0:0:0:
298,262,78471,1,0,3:0:0:0:
322,145,78648,1,0,2:0:0:0:
322,145,78736,1,0,2:3:0:0:
322,145,78824,2,0,P|375:169|410:231,1,94.2500035762786,0|0,2:0|3:0,0:0:0:0:
405,268,79177,5,8,3:2:0:0:
160,148,79442,1,8,2:0:0:0:
160,148,79530,2,0,B|188:128|183:79|183:79|203:124|252:128,1,157.083333333334,2|0,2:0|2:0,0:0:0:0:
286,31,79883,5,8,2:0:0:0:
280,38,79971,1,0,0:0:0:0:
273,46,80060,1,0,2:0:0:0:
265,51,80148,1,0,3:0:0:0:
256,54,80236,1,0,2:0:0:0:
128,18,80413,1,8,2:0:0:0:
117,85,80589,5,0,3:0:0:0:
107,83,80677,1,0,0:0:0:0:
97,81,80766,1,0,2:0:0:0:
89,76,80854,1,0,0:0:0:0:
82,70,80942,1,10,2:0:0:0:
60,0,81119,1,0,2:0:0:0:
60,0,81295,1,0,3:0:0:0:
156,224,81471,5,10,2:0:0:0:
185,156,81648,1,0,2:0:0:0:
185,156,81824,1,2,2:0:0:0:
332,34,82001,5,8,2:0:0:0:
351,101,82177,1,0,2:0:0:0:
281,90,82354,5,2,2:3:0:0:
281,90,82442,1,0,0:0:0:0:
281,90,82530,1,0,2:0:0:0:
403,52,82707,1,10,2:0:0:0:
454,195,82883,1,0,2:0:0:0:
454,195,82971,2,0,B|379:182|379:182|377:177|377:177|297:163,1,157.083333333334,0|0,2:3|0:0,0:0:0:0:
273,255,83236,2,0,B|310:267|310:267|340:239,1,78.5416666666666,0|0,3:2|0:0,0:0:0:0:
184,102,83413,5,8,2:0:0:0:
164,104,83501,1,8,2:0:0:0:
145,106,83589,1,0,2:0:0:0:
31,186,83766,5,0,3:2:0:0:
99,212,83942,1,0,0:0:0:0:
0,258,84119,1,2,2:0:0:0:
15,260,84207,1,2,2:0:0:0:
28,269,84295,1,2,2:0:0:0:
85,323,84471,1,2,2:0:0:0:
74,325,84560,1,2,2:0:0:0:
66,333,84648,1,2,2:0:0:0:
14,384,84824,5,2,3:2:0:0:
14,384,85001,1,2,3:2:0:0:
255,345,85177,6,0,L|159:333,1,94.2500035762786,4|0,3:0|0:0,0:0:0:0:
161,327,85354,6,0,L|157:287,4,31.4166666666666,0|0|0|0|0,3:2|0:0|0:0|0:0|0:0,0:0:0:0:
307,267,85619,6,0,L|271:273,4,23.5625008940697,0|0|0|0|0,3:2|0:0|0:0|0:0|0:0,0:0:0:0:
238,210,85883,6,0,L|241:191,2,12.5312496185303,0|0|0,2:0|2:0|2:0,0:0:0:0:
226,214,86060,2,0,L|233:181,1,25.0624992370606,0|0,3:0|0:0,0:0:0:0:
105,108,86236,6,0,B|160:171|160:171|90:190|90:190|105:93,1,234.739583333333,0|0,3:0|0:0,0:0:0:0:
247,24,86589,5,2,3:0:0:0:
255,43,86677,1,2,2:0:0:0:
264,60,86766,2,0,L|272:26,2,23.5625008940697,0|0|0,3:2|0:0|0:0,0:0:0:0:
274,76,86942,6,0,L|159:68,1,94.2500035762786,2|0,3:0|0:0,0:0:0:0:
180,69,87207,6,0,L|154:67,4,23.5625008940697,2|0|0|0|0,2:3|0:0|0:0|0:0|0:0,0:0:0:0:
250,214,87471,6,0,L|240:172,2,41.7708333333333,2|0|0,3:2|0:0|0:0,0:0:0:0:
254,226,87648,2,0,L|269:284,1,56.3374982833863,2|0,3:2|0:0,0:0:0:0:
363,22,88001,6,0,L|352:229,2,187.968757152558,4|2|8,1:2|3:2|3:2,0:0:0:0:
512,134,88530,5,2,2:0:0:0:
508,140,88619,1,2,1:3:0:0:
504,146,88707,2,0,P|445:135|433:72,1,94.2500035762786,0|0,0:0|3:0,0:0:0:0:
220,62,88883,2,0,P|265:16|325:37,1,94.2500035762786,0|0,1:3|0:0,0:0:0:0:
455,34,89060,6,0,B|401:13|366:57|377:62|338:114|274:84,1,188.500007152558,8|2,3:2|1:2,0:0:0:0:
39,132,89413,6,0,B|70:158|64:219|64:219|88:162|158:156,1,188.500007152558,0|0,1:0|3:0,0:0:0:0:
121,34,89677,1,0,1:2:0:0:
121,34,89766,2,0,L|102:105,1,62.8333333333332,8|0,3:2|0:0,0:0:0:0:
306,268,89942,6,0,B|323:274|323:274|303:188,1,94.2500035762786,0|2,1:0|3:2,0:0:0:0:
193,327,90119,1,0,0:0:0:0:
193,327,90207,1,0,2:3:0:0:
193,327,90295,2,0,L|133:311,1,47.1250017881394,8|0,3:2|0:0,0:0:0:0:
80,292,90471,6,0,B|123:312|163:262|143:259|186:205|251:239,1,188.500007152558,0|2,1:0|3:2,0:0:0:0:
440,353,90824,6,0,P|445:277|380:317,1,188.500007152558,4|0,1:3|3:0,0:0:0:0:
317,344,91089,1,0,0:0:0:0:
317,344,91177,2,0,P|331:371|371:382,1,62.8333333333332,8|0,3:2|0:0,0:0:0:0:
440,353,91354,6,0,P|439:254|469:158,1,188.500007152558,2|0,1:2|0:0,0:0:0:0:
302,120,91619,1,0,3:0:0:0:
302,120,91707,2,0,P|319:151|326:190,1,62.8333333333332,2|0,1:2|0:0,0:0:0:0:
455,93,91883,6,0,P|424:47|421:127,1,188.500007152558,8|0,3:2|1:0,0:0:0:0:
376,255,92236,5,0,1:0:0:0:
376,255,92324,1,0,0:0:0:0:
376,255,92413,2,0,B|423:268|423:268|460:243,1,94.2500035762786,0|0,0:0|3:0,0:0:0:0:
484,177,92589,1,8,3:2:0:0:
311,374,92766,5,0,1:0:0:0:
334,375,92854,1,0,0:0:0:0:
355,362,92942,2,0,B|380:308|349:269|342:283|301:238|327:179,1,188.500007152558,2|8,3:0|3:2,0:0:0:0:
186,294,93207,1,0,0:0:0:0:
165,368,93295,6,0,P|219:365|256:317,1,94.2500035762786,0|2,1:0|3:2,0:0:0:0:
207,223,93471,2,0,P|153:226|116:274,1,94.2500035762786,2|0,3:2|0:0,0:0:0:0:
50,230,93648,6,0,B|23:235|23:235|42:366|42:366|82:362,2,187.968757152558,2|2|8,1:0|3:2|3:2,0:0:0:0:
135,241,94177,5,2,2:0:0:0:
130,246,94266,1,2,1:3:0:0:
125,251,94354,2,0,L|111:143,1,94.2500035762786,0|0,0:0|3:0,0:0:0:0:
307,316,94530,2,0,B|315:361|315:361|219:381,1,94.2500035762786,0|0,1:0|0:0,0:0:0:0:
169,368,94707,6,0,B|184:303|184:303|236:283|236:283|254:196,1,188.500007152558,8|2,3:2|1:2,0:0:0:0:
49,125,95060,6,0,B|55:91|55:91|176:66|176:66|231:105,1,188.500007152558,0|0,1:0|3:0,0:0:0:0:
301,26,95324,1,0,1:2:0:0:
301,26,95413,2,0,L|215:17,1,62.8333333333332,8|0,3:2|0:0,0:0:0:0:
160,147,95589,6,0,B|143:163|143:163|149:186|149:186|168:169|168:169|158:141,1,94.2500035762786,0|2,1:0|3:2,0:0:0:0:
49,0,95766,6,0,P|64:22|64:57,1,47.1250017881394,0|0,0:0|2:0,0:0:0:0:
134,59,95942,2,0,P|125:82|105:100,1,47.1250017881394,8|0,3:2|0:0,0:0:0:0:
254,236,96119,6,0,P|240:215|234:176,1,62.8333333333332,0|0,1:0|0:0,0:0:0:0:
305,170,96295,2,0,P|309:146|333:115,1,62.8333333333332,2|0,3:2|0:0,0:0:0:0:
478,112,96471,6,0,B|413:130|389:73|399:77|374:15|284:52,1,188.500007152558,8|0,1:3|0:0,0:0:0:0:
363,239,96736,1,0,3:0:0:0:
363,239,96824,2,0,P|382:201|440:185,1,94.2500035762786,8|0,3:2|0:0,0:0:0:0:
183,31,97001,2,0,P|220:56|231:101,1,94.2500035762786,2|2,1:2|1:3,0:0:0:0:
125,185,97177,6,0,B|129:140|129:140|165:181,1,94.2500035762786,0|0,0:0|3:0,0:0:0:0:
292,372,97354,2,0,B|266:358|266:358|299:262,1,94.2500035762786,2|0,1:2|0:0,0:0:0:0:
69,346,97530,6,0,B|91:309|84:266|84:266|253:233|253:233|222:252|221:292,1,281.687510728836,8|0,3:2|0:0,0:0:0:0:
413,341,97883,6,0,L|317:329,1,62.8333333333332,4|0,1:0|0:0,0:0:0:0:
203,317,98060,1,0,0:0:0:0:
412,350,98236,6,0,L|316:338,1,62.8333333333332,8|0,3:2|0:0,0:0:0:0:
159,119,98413,2,0,B|147:151|147:151|176:206,1,62.8333333333332,0|0,1:0|0:0,0:0:0:0:
367,264,98589,5,8,3:2:0:0:
384,240,98677,1,0,3:0:0:0:
386,211,98766,1,2,1:2:0:0:
378,185,98854,1,0,0:0:0:0:
307,194,98942,6,0,B|273:133|301:55|379:43|379:43|343:75|346:128,1,281.687510728836,0|2,1:0|1:2,0:0:0:0:
492,74,99295,6,0,P|470:107|420:107,1,94.2500035762786,2|0,1:0|0:0,0:0:0:0:
221,42,99471,2,0,P|243:9|293:9,1,94.2500035762786,2|0,3:2|0:0,0:0:0:0:
307,194,99648,6,0,P|229:149|97:126,1,188.500007152558,8|2,3:2|2:0,0:0:0:0:
18,185,99913,1,2,1:3:0:0:
18,185,100001,6,0,B|-9:128|17:86|44:98|75:60|49:-2,2,187.968757152558,0|0|8,0:0|1:0|3:2,0:0:0:0:
173,61,100530,1,2,1:2:0:0:
173,61,100619,1,0,0:0:0:0:
173,61,100707,6,0,P|201:18|144:54,1,188.500007152558,0|0,1:0|3:0,0:0:0:0:
114,221,100971,1,0,1:2:0:0:
114,221,101060,2,0,P|87:185|89:135,1,62.8333333333332,8|0,3:2|0:0,0:0:0:0:
316,72,101236,2,0,B|306:128|306:128|234:112,1,94.2500035762786,0|2,1:0|3:2,0:0:0:0:
157,159,101413,5,0,0:0:0:0:
225,333,101589,1,8,3:2:0:0:
225,333,101677,1,0,0:0:0:0:
225,333,101766,2,0,B|192:294|192:294|210:226,1,94.2500035762786,0|0,1:0|0:0,0:0:0:0:
441,155,101942,2,0,L|321:132,1,62.8333333333332,2|0,3:2|0:0,0:0:0:0:
281,232,102119,6,0,B|265:200|238:190|238:190|433:230|433:230|388:227|349:246|326:312,1,375.583333333333,4|0,1:3|3:0,0:0:0:0:
277,85,102471,2,0,B|301:91|301:91|313:74|324:27|266:-17,1,125.666666666666,8|0,3:2|0:0,0:0:0:0:
5,126,102648,6,0,B|81:135|114:77|98:81|124:15|229:37,1,251.333333333332,2|0,1:2|0:0,0:0:0:0:
464,93,102913,5,0,3:0:0:0:
462,85,103001,1,2,1:2:0:0:
459,77,103089,1,0,0:0:0:0:
387,84,103177,5,8,3:2:0:0:
373,133,103266,1,0,0:0:0:0:
392,175,103354,2,0,L|450:181,1,47.1250017881394,0|2,1:0|3:2,0:0:0:0:
212,270,103530,6,0,B|218:311|218:311|282:255|282:255|253:88,1,251.333333333332,0|0,1:0|0:0,0:0:0:0:
136,191,103795,1,0,3:0:0:0:
136,191,103883,2,0,L|207:199,1,62.8333333333332,8|0,3:2|0:0,0:0:0:0:
497,339,104060,6,0,B|444:316|456:228|456:228|415:307|324:274,1,251.333333333332,0|0,1:0|3:0,0:0:0:0:
143,364,104324,1,0,3:0:0:0:
143,364,104413,2,0,P|135:327|167:291,1,62.8333333333332,8|0,3:2|0:0,0:0:0:0:
312,221,104589,6,0,B|290:239|286:264|286:264|313:90|313:90|323:30|279:-17|213:42|288:70,1,375.583333333333,0|2,1:0|3:2,0:0:0:0:
405,79,104942,6,0,P|419:122|398:163,1,94.2500035762786,2|0,1:0|0:0,0:0:0:0:
212,267,105119,2,0,P|197:223|219:183,1,94.2500035762786,0|2,0:0|3:2,0:0:0:0:
0,53,105295,6,0,B|48:78|94:44|77:30|125:-9|188:34,1,188.500007152558,8|2,3:2|2:0,0:0:0:0:
299,139,105560,1,2,0:0:0:0:
299,139,105648,6,0,P|224:182|246:110,2,187.968757152558,2|0|8,3:0|1:0|3:2,0:0:0:0:
412,162,106177,1,2,1:2:0:0:
396,91,106266,1,0,0:0:0:0:
330,61,106354,6,0,P|260:107|134:90,1,188.500007152558,0|0,1:0|3:0,0:0:0:0:
17,215,106619,1,0,1:2:0:0:
85,194,106707,6,0,P|64:156|6:143,1,94.2500035762786,8|0,3:2|0:0,0:0:0:0:
69,373,106883,2,0,P|112:373|152:330,1,94.2500035762786,0|2,1:0|3:2,0:0:0:0:
241,313,107060,6,0,P|293:267|200:295,1,251.333333333332,0|8,0:0|3:2,0:0:0:0:
0,384,107324,1,0,0:0:0:0:
0,384,107413,2,0,P|4:289|15:233,1,94.2500035762786,0|0,1:0|0:0,0:0:0:0:
147,61,107589,2,0,P|151:156|162:212,1,94.2500035762786,2|0,3:2|0:0,0:0:0:0:
308,384,107766,6,0,P|314:324|354:176,1,188.500007152558,8|2,1:3|3:2,0:0:0:0:
484,217,108030,1,0,3:0:0:0:
484,217,108119,2,0,P|438:252|376:273,1,94.2500035762786,8|0,3:2|0:0,0:0:0:0:
153,315,108295,2,0,P|190:348|232:418,1,94.2500035762786,2|2,1:2|1:3,0:0:0:0:
227,104,108471,6,0,B|204:89|204:89|212:52|212:52|246:76|246:76|244:103,1,125.666666666666,0|0,0:0|3:0,0:0:0:0:
397,339,108648,2,0,B|378:337|378:337|388:357|388:357|400:336,1,62.8333333333332,2|0,1:3|0:0,0:0:0:0:
508,125,108824,6,0,B|437:92|401:165|417:164|369:221|295:202|249:164|309:97,1,251.333333333332,8|0,3:2|1:0,0:0:0:0:
80,152,109089,1,2,3:2:0:0:
71,149,109177,6,0,P|40:112|42:54,1,94.2500035762786,4|0,1:0|0:0,0:0:0:0:
227,104,109354,2,0,P|222:56|180:16,1,94.2500035762786,0|0,0:0|3:0,0:0:0:0:
131,209,109530,6,0,B|158:193|160:158|160:158|182:186|229:183,1,125.666666666666,8|0,3:2|0:0,0:0:0:0:
77,373,109707,2,0,P|39:370|10:336,1,47.1250017881394,0|0,1:0|0:0,0:0:0:0:
0,302,109883,6,0,L|27:297,2,23.5625008940697,8|0|0,3:2|0:0|0:0,0:0:0:0:
163,360,110060,2,0,L|223:284,1,94.2500035762786,10|0,3:2|0:0,0:0:0:0:
334,287,110236,2,0,L|337:195,1,62.8333333333332,0|0,1:0|0:0,0:0:0:0:
394,177,110413,2,0,L|361:116,1,47.1250017881394,2|2,1:2|1:2,0:0:0:0:
381,57,110589,5,2,1:0:0:0:
377,48,110677,1,2,2:0:0:0:
310,23,110766,5,2,3:0:0:0:
281,54,110854,1,0,3:0:0:0:
241,48,110942,1,8,2:1:0:0:
215,78,111030,1,0,0:0:0:0:
133,50,111119,6,0,L|148:129,1,47.1250017881394,2|0,3:0|1:0,0:0:0:0:
243,146,111295,2,0,L|258:225,1,47.1250017881394,2|0,3:2|0:0,0:0:0:0:
190,299,111471,1,8,2:1:0:0:
192,287,111560,1,0,0:0:0:0:
140,239,111648,5,2,3:0:0:0:
105,273,111736,1,0,3:0:0:0:
59,274,111824,1,0,1:0:0:0:
39,260,111913,1,0,0:0:0:0:
27,240,112001,5,0,1:0:0:0:
118,384,112177,1,8,2:1:0:0:
118,384,112266,1,0,0:0:0:0:
118,384,112354,2,0,P|126:350|142:326,1,47.1250017881394,0|0,3:0|0:0,0:0:0:0:
262,278,112530,5,0,1:0:0:0:
194,189,112707,1,8,2:1:0:0:
194,189,112795,1,0,0:0:0:0:
194,189,112883,2,0,P|202:223|218:247,1,47.1250017881394,0|0,3:2|0:0,0:0:0:0:
333,290,113060,5,2,1:3:0:0:
352,275,113148,1,0,0:0:0:0:
382,283,113236,1,0,3:0:0:0:
407,266,113324,1,0,0:0:0:0:
432,281,113413,5,0,1:0:0:0:
309,205,113589,1,2,3:0:0:0:
309,205,113677,1,0,3:0:0:0:
309,205,113766,2,0,L|316:134,1,47.1250017881394,8|0,2:1|0:0,0:0:0:0:
435,98,113942,2,0,L|440:21,1,47.1250017881394,2|0,3:0|1:0,0:0:0:0:
379,2,114119,5,2,3:2:0:0:
434,179,114295,1,8,2:1:0:0:
434,179,114383,1,0,0:0:0:0:
434,179,114471,2,0,L|498:165,1,47.1250017881394,2|0,3:0|3:0,0:0:0:0:
252,130,114648,2,0,L|188:144,1,47.1250017881394,0|0,1:0|0:0,0:0:0:0:
289,70,114824,5,0,1:0:0:0:
190,222,115001,1,8,2:1:0:0:
194,232,115089,1,0,0:0:0:0:
131,269,115177,5,0,3:0:0:0:
128,260,115266,1,0,0:0:0:0:
55,251,115354,5,0,1:0:0:0:
66,317,115442,1,8,2:1:0:0:
77,384,115530,1,0,0:0:0:0:
110,357,115619,1,0,0:0:0:0:
149,353,115707,1,0,3:2:0:0:
187,368,115795,1,0,0:0:0:0:
257,338,115883,6,0,L|238:253,1,47.1250017881394,0|0,1:0|0:0,0:0:0:0:
410,336,116060,2,0,L|425:392,1,47.1250017881394,0|0,3:0|3:0,0:0:0:0:
459,280,116236,5,2,1:0:0:0:
460,272,116324,1,2,2:0:0:0:
384,224,116413,5,2,3:0:0:0:
394,194,116501,1,0,3:0:0:0:
370,172,116589,1,8,2:1:0:0:
378,143,116677,1,0,0:0:0:0:
327,94,116766,6,0,L|331:13,1,47.1250017881394,2|0,3:0|1:0,0:0:0:0:
512,177,116942,2,0,L|448:191,1,47.1250017881394,2|0,3:2|0:0,0:0:0:0:
256,136,117119,1,8,2:1:0:0:
260,144,117207,1,0,0:0:0:0:
224,208,117295,5,2,3:0:0:0:
192,220,117383,1,0,3:0:0:0:
160,216,117471,1,0,1:0:0:0:
132,200,117560,1,0,0:0:0:0:
72,248,117648,5,0,1:0:0:0:
228,328,117824,1,8,2:1:0:0:
228,328,117913,1,0,0:0:0:0:
228,328,118001,2,0,L|208:256,1,47.1250017881394,0|0,3:0|0:0,0:0:0:0:
156,360,118177,5,0,1:0:0:0:
316,212,118354,1,8,2:1:0:0:
316,212,118442,1,0,0:0:0:0:
316,212,118530,2,0,L|296:284,1,47.1250017881394,0|0,3:2|0:0,0:0:0:0:
336,348,118707,5,2,1:3:0:0:
336,348,118795,1,0,0:0:0:0:
400,312,118883,1,0,3:0:0:0:
400,312,118971,1,0,0:0:0:0:
464,348,119060,6,0,L|520:340,1,47.1250017881394,0|2,1:0|2:0,0:0:0:0:
376,192,119236,2,0,L|384:248,1,47.1250017881394,2|0,3:0|3:0,0:0:0:0:
404,384,119413,1,8,2:1:0:0:
506,213,119589,6,0,L|460:220,1,47.1250017881394,2|0,3:0|1:0,0:0:0:0:
280,288,119766,2,0,L|336:280,1,47.1250017881394,2|0,3:2|0:0,0:0:0:0:
368,120,119942,1,8,2:1:0:0:
368,112,120030,1,0,0:0:0:0:
300,152,120119,5,2,3:0:0:0:
253,148,120207,1,0,3:0:0:0:
206,144,120295,1,0,1:0:0:0:
159,140,120383,1,0,0:0:0:0:
88,180,120471,5,8,2:1:0:0:
88,180,120560,1,8,2:1:0:0:
88,180,120648,2,0,L|72:104,1,47.1250017881394,8|0,2:1|0:0,0:0:0:0:
104,256,120824,1,0,3:0:0:0:
184,72,121001,1,8,2:1:0:0:
184,72,121089,1,8,2:1:0:0:
184,72,121177,2,0,L|168:-4,1,47.1250017881394,8|0,2:1|0:0,0:0:0:0:
20,208,121354,1,0,3:0:0:0:
20,208,121442,2,0,L|36:284,1,47.1250017881394,8|0,2:1|0:0,0:0:0:0:
256,332,121619,1,0,3:0:0:0:
176,320,121707,5,8,2:1:0:0:
188,312,121795,1,8,2:1:0:0:
212,384,121883,6,0,P|220:280|224:172,1,157.083333333334,2|0,1:0|0:0,0:0:0:0:
40,352,122148,1,0,0:0:0:0:
40,352,122236,2,0,L|132:340,1,78.5416666666666,8|0,2:1|3:2,0:0:0:0:
316,384,122413,1,2,3:0:0:0:
0,332,122589,6,0,P|88:320|172:312,1,157.083333333334,0|8,0:0|2:1,0:0:0:0:
340,236,122854,1,0,0:0:0:0:
340,236,122942,2,0,L|328:328,1,78.5416666666666,2|0,3:0|0:0,0:0:0:0:
168,176,123119,2,0,L|180:84,1,78.5416666666666,0|0,1:2|0:0,0:0:0:0:
332,0,123295,6,0,B|352:48|316:80|308:72|268:96|300:180,1,157.083333333334,0|0,1:2|0:0,0:0:0:0:
412,264,123560,1,0,0:0:0:0:
424,268,123648,2,0,P|452:236|448:180,1,78.5416666666666,2|0,3:2|0:0,0:0:0:0:
212,260,123824,2,0,P|228:296|292:320,1,78.5416666666666,8|0,2:1|0:0,0:0:0:0:
328,384,124001,6,0,B|352:352|352:352|324:192,1,157.083333333334,0|2,3:0|3:2,0:0:0:0:
92,136,124354,2,0,B|68:168|68:168|96:328,1,157.083333333334,8|0,2:1|0:0,0:0:0:0:
100,382,124619,1,0,0:0:0:0:
104,376,124707,6,0,P|136:352|196:360,1,78.5416666666666,0|0,1:0|0:0,0:0:0:0:
388,324,124883,1,0,0:0:0:0:
384,336,124971,1,0,0:0:0:0:
328,384,125060,6,0,P|278:311|268:208,1,157.083333333334,8|2,2:1|3:0,0:0:0:0:
400,168,125324,1,0,1:2:0:0:
448,228,125413,6,0,P|476:188|460:136,1,78.5416666666666
264,64,125589,2,0,P|284:108|337:120,1,78.5416666666666,8|0,2:1|0:0,0:0:0:0:
480,8,125766,1,2,3:0:0:0:
468,16,125854,1,0,0:0:0:0:
460,28,125942,1,0,1:2:0:0:
320,192,126119,6,0,P|336:236|360:320,1,78.5416666666666,0|0,1:2|0:0,0:0:0:0:
236,376,126295,1,0,0:0:0:0:
232,364,126383,1,0,0:0:0:0:
160,368,126471,6,0,P|160:308|224:204,1,157.083333333334,2|8,3:2|2:1,0:0:0:0:
396,324,126736,1,0,0:0:0:0:
464,296,126824,5,0,0:0:0:0:
456,280,126913,1,0,0:0:0:0:
472,264,127001,2,0,L|464:212,1,31.4166666666666,2|0,3:2|0:0,0:0:0:0:
279,292,127177,6,0,P|295:272|351:268,1,78.5416666666666,8|0,2:1|0:0,0:0:0:0:
512,356,127354,2,0,P|496:376|440:380,1,78.5416666666666,0|8,3:1|2:1,0:0:0:0:
368,196,127530,6,0,L|384:104,1,78.5416666666666,2|0,1:0|0:0,0:0:0:0:
188,112,127707,1,0,0:0:0:0:
196,152,127795,1,0,0:0:0:0:
224,176,127883,6,0,L|336:164,1,78.5416666666666,8|0,2:1|0:0,0:0:0:0:
484,28,128060,2,0,L|372:40,1,78.5416666666666,2|0,3:0|1:2,0:0:0:0:
232,8,128236,1,0,0:0:0:0:
460,104,128413,5,8,2:1:0:0:
456,112,128501,1,0,0:0:0:0:
452,120,128589,2,0,L|256:84,1,157.083333333334,2|0,3:0|1:2,0:0:0:0:
72,8,128942,6,0,P|48:36|48:88,1,78.5416666666666,0|0,1:2|0:0,0:0:0:0:
144,184,129119,1,0,0:0:0:0:
160,180,129207,1,0,0:0:0:0:
176,176,129295,1,2,3:2:0:0:
32,172,129471,6,0,P|44:206|89:232,1,78.5416666666666,8|0,2:1|0:0,0:0:0:0:
268,144,129648,1,0,3:0:0:0:
261,152,129736,1,0,0:0:0:0:
256,168,129824,1,2,3:2:0:0:
80,312,130001,6,0,B|124:317|150:282|138:273|168:228|260:258,1,157.083333333334,8|0,2:1|0:0,0:0:0:0:
464,340,130354,6,0,P|516:308|440:220,1,157.083333333334,0|0,1:0|0:0,0:0:0:0:
348,340,130619,1,0,0:0:0:0:
348,340,130707,2,0,P|360:368|408:384,1,78.5416666666666,8|0,2:1|0:0,0:0:0:0:
496,228,130883,6,0,P|412:248|336:264,1,157.083333333334,2|0,3:0|0:0,0:0:0:0:
136,372,131148,1,0,0:0:0:0:
136,372,131236,2,0,L|212:304,1,78.5416666666666,8|0,2:1|0:0,0:0:0:0:
252,252,131413,6,0,L|284:368,1,78.5416666666666,2|0,3:0|0:0,0:0:0:0:
232,184,131589,1,0,1:2:0:0:
388,16,131766,6,0,L|368:200,1,157.083333333334,0|0,1:2|0:0,0:0:0:0:
184,116,132030,1,0,0:0:0:0:
248,84,132119,5,2,3:2:0:0:
248,84,132207,2,0,L|256:-4,1,78.5416666666666,8|0,2:1|0:0,0:0:0:0:
80,116,132383,2,0,L|72:204,1,78.5416666666666,8|0,2:1|0:0,0:0:0:0:
256,328,132560,2,0,L|264:240,1,78.5416666666666,8|0,2:1|0:0,0:0:0:0:
28,288,132736,2,0,L|116:280,1,78.5416666666666,8|0,2:1|0:0,0:0:0:0:
324,384,132913,5,8,2:1:0:0:
340,356,133001,1,8,2:1:0:0:
340,320,133089,1,8,2:1:0:0:
318,297,133177,6,0,B|238:293|260:363|140:331,1,157.083333333334,8|0,1:3|0:0,0:0:0:0:
353,192,133530,2,0,P|397:207|450:217,1,94.2500035762786,0|0,1:0|3:0,0:0:0:0:
489,277,133795,1,0,3:0:0:0:
489,277,133883,1,8,1:2:0:0:
353,192,134060,1,0,0:0:0:0:
471,86,134236,2,0,P|475:113|484:138,2,47.1250017881394,0|0|0,1:0|0:0|3:0,0:0:0:0:
371,20,134589,5,0,1:0:0:0:
193,156,134854,1,2,0:0:0:0:
185,146,134942,2,0,B|224:153|224:153|230:162|230:162|290:174,1,94.2500035762786,0|0,1:0|3:0,0:0:0:0:
340,188,135207,1,0,3:0:0:0:
353,192,135295,1,8,1:2:0:0:
256,75,135471,1,0,0:0:0:0:
341,110,135648,5,0,1:0:0:0:
207,234,135824,1,0,3:0:0:0:
207,234,135913,1,0,3:0:0:0:
207,234,136001,6,0,P|215:277|223:335,1,94.2500035762786,0|0,1:0|0:0,0:0:0:0:
384,202,136354,6,0,P|362:196|325:179,1,47.1250017881394,0|0,1:0|0:0,0:0:0:0:
247,90,136530,1,0,3:0:0:0:
84,266,136707,6,0,P|136:225|220:243,1,140.843755364418,8|0,1:2|0:0,0:0:0:0:
222,249,137060,1,0,1:0:0:0:
91,374,137236,2,0,L|43:361,1,47.1250017881394,0|0,3:0|0:0,0:0:0:0:
132,193,137413,5,0,1:0:0:0:
244,340,137589,2,0,L|352:314,1,94.2500035762786,0|0,3:0|1:0,0:0:0:0:
468,165,137942,1,0,3:0:0:0:
468,165,138030,1,0,3:0:0:0:
468,165,138119,6,0,B|497:115|424:51|361:153|443:202|443:202|481:254|447:302,1,281.687510728836,8|0,1:2|0:0,0:0:0:0:
409,327,138471,6,0,L|419:380,1,46.9479166666666,0|0,2:1|0:0,0:0:0:0:
437,384,138824,5,4,2:3:0:0:
83,101,139177,5,0,3:0:0:0:
128,83,139266,1,2,3:2:0:0:
190,106,139354,1,8,2:1:0:0:
212,171,139442,1,8,2:1:0:0:
161,221,139530,5,0,1:0:0:0:
151,224,139619,1,0,0:0:0:0:
140,227,139707,1,0,3:0:0:0:
131,232,139795,1,0,0:0:0:0:
53,291,139883,5,0,3:0:0:0:
46,294,139971,1,0,3:0:0:0:
37,294,140060,1,2,3:0:0:0:
28,291,140148,1,8,3:1:0:0:
0,219,140236,6,0,B|63:184|113:243|113:243|149:339|247:313,1,234.739583333333,8|0,3:0|3:0,0:0:0:0:
211,328,140589,1,0,1:0:0:0:
324,208,140766,1,0,3:0:0:0:
324,208,140854,1,0,0:0:0:0:
324,208,140942,2,0,B|286:216|286:216|273:230|273:230|229:244,1,94.2500035762786,0|8,1:0|3:1,0:0:0:0:
364,338,141295,1,0,1:0:0:0:
297,309,141471,1,0,3:0:0:0:
451,137,141648,6,0,B|408:161|408:161|379:227|446:257,1,140.843755364418,8|0,1:0|3:0,0:0:0:0:
466,302,142001,2,0,P|496:253|490:214,1,94.2500035762786,0|0,1:0|0:0,0:0:0:0:
440,128,142266,1,0,0:0:0:0:
428,119,142354,2,0,B|389:112|389:112|375:98|375:98|324:89,1,94.2500035762786,0|8,1:0|3:1,0:0:0:0:
191,223,142707,1,0,1:0:0:0:
224,242,142795,1,0,0:0:0:0:
262,239,142883,1,0,3:0:0:0:
286,208,142971,1,0,0:0:0:0:
288,196,143060,6,0,L|275:143,1,47.1250017881394,8|0,1:0|0:0,0:0:0:0:
276,150,143413,6,0,L|288:196,1,47.1250017881394,0|0,1:0|0:0,0:0:0:0:
110,78,143589,2,0,P|133:71|171:54,1,47.1250017881394
29,258,143766,6,0,B|172:215|147:395|345:349,1,281.687510728836,8|0,1:0|0:0,0:0:0:0:
307,371,144119,2,0,L|295:324,1,47.1250017881394,0|0,1:0|0:0,0:0:0:0:
178,193,144295,2,0,L|195:133,1,47.1250017881394,0|0,3:0|0:0,0:0:0:0:
288,14,144471,5,2,1:3:0:0:
184,69,144824,5,2,1:3:0:0:
392,184,145177,5,2,1:3:0:0:
196,301,145530,5,2,1:3:0:0:
277,356,145883,5,2,3:2:0:0:
364,36,146942,6,0,B|349:17|349:17|335:110|335:110|311:71,1,140.843755364418,0|0,3:2|0:0,0:0:0:0:
323,90,147295,2,0,B|382:106|382:106|400:138|400:138|471:156,1,157.083333333334,2|2,1:0|3:0,0:0:0:0:
292,304,147648,1,8,2:1:0:0:
270,267,147736,1,0,0:0:0:0:
283,224,147824,1,2,3:0:0:0:
318,166,147913,5,0,1:2:0:0:
332,129,148001,1,0,0:0:0:0:
323,90,148089,1,0,0:0:0:0:
291,57,148177,1,8,2:1:0:0:
247,47,148266,1,0,0:0:0:0:
193,97,148354,6,0,P|158:115|106:122,1,78.5416666666666,2|0,3:0|0:0,0:0:0:0:
16,10,148530,2,0,P|55:15|92:54,1,78.5416666666666,0|0,1:2|0:0,0:0:0:0:
186,189,148707,6,0,L|165:296,1,94.2500035762786,0|0,1:2|0:0,0:0:0:0:
120,122,149060,1,2,3:2:0:0:
7,259,149236,6,0,L|27:360,1,94.2500035762786,8|0,2:1|3:0,0:0:0:0:
56,199,149589,1,2,3:2:0:0:
188,309,149766,6,0,L|122:287,1,47.1250017881394,8|0,2:1|3:1,0:0:0:0:
27,189,149942,2,0,L|92:165,1,47.1250017881394
215,28,150119,6,0,P|272:77|255:152,1,140.843755364418,0|0,1:0|0:0,0:0:0:0:
277,159,150471,1,8,2:1:0:0:
462,357,150736,6,0,P|439:313|442:250,1,94.2500035762786,0|0,1:2|0:0,0:0:0:0:
450,249,151001,1,8,2:1:0:0:
308,365,151177,1,2,3:0:0:0:
360,277,151354,5,0,1:2:0:0:
277,159,151530,2,0,B|178:150|205:209|80:173,1,187.968757152558,0|2,1:2|3:2,0:0:0:0:
196,35,152060,1,8,2:1:0:0:
196,35,152148,1,0,0:0:0:0:
196,35,152236,6,0,P|200:62|212:99,1,47.1250017881394
77,150,152413,2,0,P|70:178|61:209,1,47.1250017881394,2|0,3:2|0:0,0:0:0:0:
226,366,152589,1,8,2:1:0:0:
253,345,152677,1,0,0:0:0:0:
262,312,152766,1,0,3:1:0:0:
248,275,152854,1,8,2:1:0:0:
235,263,152942,6,0,B|185:232|141:275|141:275|112:339|34:311,1,187.968757152558,2|8,1:0|2:1,0:0:0:0:
296,149,153560,2,0,P|337:163|394:179,1,94.2500035762786,0|0,1:2|0:0,0:0:0:0:
370,190,153824,2,0,P|346:184|324:174,1,47.1250017881394,8|0,2:1|0:0,0:0:0:0:
450,291,154001,1,2,3:0:0:0:
322,364,154177,6,0,L|335:312,1,47.1250017881394,0|0,1:2|0:0,0:0:0:0:
476,204,154354,2,0,B|466:165|466:165|490:116|490:116|475:61,1,140.843755364418,0|0,1:2|0:0,0:0:0:0:
489,54,154707,1,2,3:2:0:0:
296,149,154883,5,8,2:1:0:0:
262,155,154971,1,0,0:0:0:0:
232,138,155060,1,0,3:0:0:0:
223,101,155148,1,0,0:0:0:0:
240,72,155236,1,2,3:2:0:0:
370,190,155413,6,0,L|384:250,1,47.1250017881394,8|0,2:1|3:1,0:0:0:0:
207,306,155589,2,0,L|192:365,1,47.1250017881394
39,172,155766,6,0,B|34:219|68:234|68:234|108:251|113:299,1,140.843755364418,0|0,1:0|0:0,0:0:0:0:
110,282,156119,2,0,L|10:302,1,94.2500035762786,8|2,2:1|3:0,0:0:0:0:
3,315,156383,1,0,1:2:0:0:
221,105,156648,6,0,P|242:114|275:121,1,47.1250017881394,8|0,2:1|0:0,0:0:0:0:
385,219,156824,2,0,P|361:229|333:236,1,47.1250017881394,2|0,3:0|0:0,0:0:0:0:
264,290,157001,5,0,1:2:0:0:
347,50,157177,1,0,1:2:0:0:
293,105,157707,6,0,L|313:191,1,78.1875,0|0,3:2|0:0,0:0:0:0:
370,219,158236,6,0,L|363:262,2,31.3281249999999,0|0|0,3:2|0:0|3:2,0:0:0:0:
250,307,158942,5,0,3:2:0:0:
348,383,159295,5,0,3:2:0:0:
348,383,159354,1,2,3:2:0:0:
348,383,159413,1,2,3:2:0:0:
348,383,159471,2,0,L|340:341,1,31.4166666666666,2|0,3:2|3:2,0:0:0:0:
155,178,159824,5,0,0:0:0:0:
351,40,160001,5,8,1:3:0:0:
51,81,171295,6,0,B|83:80|110:58|110:58|74:98|79:150,1,157.083333333334,4|0,1:2|0:0,0:0:0:0:
159,169,171648,6,0,P|64:182|-15:205,1,140.843755364418,8|0,2:1|1:2,0:0:0:0:
346,347,172177,6,0,L|405:371,1,47.1250017881394,8|0,2:1|0:0,0:0:0:0:
293,177,172354,2,0,B|279:213|279:213|283:237|283:237|267:283,1,94.2500035762786,0|0,3:2|3:2,0:0:0:0:
497,119,172707,6,0,B|436:135|405:90|415:86|381:37|318:56,1,187.968757152558,8|0,2:1|3:2,0:0:0:0:
332,52,173236,6,0,B|305:94|305:94|451:64,1,187.968757152558,8|0,2:1|3:2,0:0:0:0:
440,66,173766,6,0,P|418:56|383:50,1,47.1250017881394,8|0,2:1|0:0,0:0:0:0:
368,186,173942,2,0,P|343:196|306:200,1,47.1250017881394
497,119,174119,6,0,B|367:102|408:212|258:170,1,234.739583333333,0|0,1:2|0:0,0:0:0:0:
266,159,174471,1,8,2:1:0:0:
60,81,174736,6,0,B|81:65|94:37|94:37|141:75|114:143,1,157.083333333334,0|0,1:2|0:0,0:0:0:0:
134,145,175001,1,8,2:1:0:0:
101,253,175177,5,0,3:2:0:0:
88,260,175266,1,0,0:0:0:0:
76,266,175354,1,0,3:2:0:0:
65,273,175442,1,0,3:2:0:0:
55,280,175530,6,0,B|150:256|136:342|252:312,1,187.968757152558,8|0,2:1|3:2,0:0:0:0:
232,316,176060,6,0,P|222:250|308:274,1,187.968757152558,8|0,2:1|3:2,0:0:0:0:
307,271,176589,6,0,P|325:251|328:224,1,47.1250017881394,8|0,2:1|0:0,0:0:0:0:
245,159,176766,2,0,P|227:139|224:112,1,47.1250017881394,8|8,2:1|2:1,0:0:0:0:
276,66,176942,5,0,1:2:0:0:
280,53,177030,1,0,0:0:0:0:
280,39,177119,1,0,0:0:0:0:
153,119,177295,1,8,2:1:0:0:
39,31,177471,5,0,3:0:0:0:
44,23,177560,2,0,P|91:23|103:90,1,94.2500035762786,0|0,1:2|0:0,0:0:0:0:
206,191,177824,5,8,2:1:0:0:
206,185,177913,1,0,0:0:0:0:
207,179,178001,1,0,3:2:0:0:
208,173,178089,1,0,0:0:0:0:
209,167,178177,1,0,3:2:0:0:
25,240,178354,6,0,B|76:190|76:190|156:226,1,140.843755364418,8|0,2:1|0:0,0:0:0:0:
139,229,178707,2,0,L|131:289,1,47.1250017881394,0|0,3:2|0:0,0:0:0:0:
223,382,178883,6,0,B|217:336|251:315|256:326|290:305|270:233,1,140.843755364418,8|0,2:1|0:0,0:0:0:0:
344,260,179236,2,0,P|366:249|411:241,1,47.1250017881394,0|0,3:2|3:2,0:0:0:0:
504,343,179413,5,8,2:1:0:0:
498,348,179501,2,0,P|438:333|393:317,1,94.2500035762786
310,196,179766,6,0,L|321:137,2,47.1250017881394,0|0|0,1:2|0:0|0:0,0:0:0:0:
275,259,180119,1,8,2:1:0:0:
345,109,180295,5,0,3:0:0:0:
345,109,180383,2,0,L|325:230,1,94.2500035762786,0|0,1:2|0:0,0:0:0:0:
214,299,180648,5,8,2:1:0:0:
201,279,180736,1,0,0:0:0:0:
198,256,180824,1,0,3:2:0:0:
204,233,180913,1,0,0:0:0:0:
218,215,181001,1,0,3:2:0:0:
275,259,181177,6,0,L|316:266,6,23.473959227403,8|0|0|0|0|0|0,2:1|0:0|0:0|0:0|0:0|0:0|0:0,0:0:0:0:
129,236,181530,2,0,L|88:229,6,23.473959227403,2|0|2|2|2|2|2,3:0|0:0|3:2|2:0|2:0|2:0|2:0,0:0:0:0:
57,180,181883,5,2,1:2:0:0:
50,154,181971,1,0,3:1:0:0:
53,126,182060,1,8,3:1:0:0:
69,102,182148,1,2,3:2:0:0:
64,31,182236,5,8,1:0:0:0:
87,16,182324,1,0,3:1:0:0:
114,13,182413,1,8,3:1:0:0:
142,21,182501,1,2,3:2:0:0:
255,0,182589,5,0,3:2:0:0:
252,14,182677,1,0,0:0:0:0:
299,66,182766,1,0,0:0:0:0:
363,20,182942,6,0,L|452:10,1,78.5416666666666,2|0,1:0|3:2,0:0:0:0:
504,64,183119,1,8,2:1:0:0:
504,64,183207,1,8,2:1:0:0:
504,64,183295,2,0,L|514:153,1,78.5416666666666,8|0,1:0|3:2,0:0:0:0:
417,273,183471,1,8,2:1:0:0:
360,219,183560,1,8,2:1:0:0:
372,209,183648,2,0,L|362:120,1,78.5416666666666,2|0,1:3|0:0,0:0:0:0:
237,67,184001,5,2,1:3:0:0:
177,95,184089,1,0,3:2:0:0:
180,107,184177,1,8,2:1:0:0:
187,118,184266,1,8,2:1:0:0:
207,183,184354,6,0,P|163:162|105:179,1,78.5416666666666,2|0,1:2|3:2,0:0:0:0:
62,142,184530,1,8,2:1:0:0:
62,142,184619,1,8,2:1:0:0:
62,142,184707,2,0,P|22:167|3:210,1,78.5416666666666,8|0,1:0|3:2,0:0:0:0:
109,383,184883,1,8,2:1:0:0:
123,308,184971,1,0,0:0:0:0:
131,320,185060,2,0,P|170:294|189:251,1,78.5416666666665,2|0,1:3|0:0,0:0:0:0:
252,29,185413,5,2,1:3:0:0:
273,101,185589,1,2,3:2:0:0:
386,104,185766,5,4,1:0:0:0:
394,90,185854,1,0,3:2:0:0:
395,73,185942,2,0,P|362:51|310:56,1,78.5416666666666,8|8,2:1|2:1,0:0:0:0:
205,141,186119,1,0,1:0:0:0:
213,155,186207,1,0,0:0:0:0:
214,172,186295,2,0,P|181:194|129:189,1,78.5416666666666,8|0,3:1|0:0,0:0:0:0:
0,75,186471,6,0,B|29:33|29:33|240:64,1,234.739583333333,2|0,1:3|0:0,0:0:0:0:
217,70,186824,6,0,P|199:38|217:-12,1,78.5416666666666,10|0,1:3|0:0,0:0:0:0:
328,156,187001,2,0,P|346:188|328:238,1,78.5416666666666,2|8,3:2|3:1,0:0:0:0:
271,263,187177,1,0,1:0:0:0:
257,165,187354,6,0,B|220:118|240:47|310:29|310:29|274:52|259:113,1,234.739583333333,4|2,3:0|3:2,0:0:0:0:
399,95,187707,5,8,2:1:0:0:
397,88,187795,1,2,3:2:0:0:
454,35,187883,5,2,1:2:0:0:
501,87,187971,1,2,3:2:0:0:
498,122,188060,1,8,3:1:0:0:
481,144,188148,1,8,3:1:0:0:
417,182,188236,6,0,L|425:245,1,47.1250017881394,2|0,1:0|3:2,0:0:0:0:
433,300,188413,2,0,L|441:363,1,47.1250017881394,2|2,2:3|2:0,0:0:0:0:
324,259,188589,5,0,1:3:0:0:
276,200,188677,1,0,3:2:0:0:
213,241,188766,1,8,2:1:0:0:
216,252,188854,1,8,2:1:0:0:
235,280,188942,5,2,1:3:0:0:
187,339,189030,1,2,2:0:0:0:
124,298,189119,1,8,2:1:0:0:
127,287,189207,1,2,2:0:0:0:
59,384,189295,6,0,B|39:318|39:318|65:289|65:289|67:278|67:278|77:280|77:280|111:249|111:249|87:167,2,250.624999999999,2|0|2,1:3|0:0|1:3,0:0:0:0:
244,384,189824,1,8,2:1:0:0:
241,372,189913,1,0,2:3:0:0:
294,330,190001,2,0,L|385:321,1,78.5416666666666,2|0,1:2|3:2,0:0:0:0:
496,369,190177,1,8,2:1:0:0:
484,372,190266,1,8,2:1:0:0:
442,319,190354,2,0,L|433:228,1,78.5416666666666,8|0,1:0|3:2,0:0:0:0:
488,191,190530,2,0,L|479:100,1,78.5416666666666,8|0,2:1|0:0,0:0:0:0:
296,62,190707,5,2,1:3:0:0:
363,21,190883,1,0,3:0:0:0:
318,151,191060,5,12,1:0:0:0:
158,43,191236,1,2,3:2:0:0:
170,39,191324,1,0,0:0:0:0:
181,41,191413,2,0,P|206:73|193:135,1,78.5416666666666,0|0,1:3|3:2,0:0:0:0:
314,222,191589,1,8,2:1:0:0:
302,218,191677,1,8,2:1:0:0:
291,220,191766,2,0,P|266:252|279:314,1,78.5416666666666,0|0,1:0|0:0,0:0:0:0:
327,332,191942,2,0,L|373:327,2,39.2708333333332,8|0|2,3:1|0:0|2:0,0:0:0:0:
247,304,192119,6,0,B|224:339|191:335|191:335|193:322|193:322|165:281|172:236|172:236|164:231|164:231|174:178|213:146|213:146|187:179|201:241,1,375.583333333333,2|8,1:3|2:1,0:0:0:0:
284,142,192471,6,0,P|313:125|343:127,2,62.6562499999999,0|0|8,1:3|0:0|2:1,0:0:0:0:
174,54,193001,1,0,1:0:0:0:
174,54,193089,1,0,0:0:0:0:
174,54,193177,2,0,L|180:106,2,31.4166666666666,8|8|8,2:1|2:1|2:1,0:0:0:0:
228,6,193530,5,0,1:3:0:0:
279,56,193707,1,0,0:0:0:0:
54,207,193883,6,0,P|123:142|224:157,1,187.791673819225,4|0,1:2|0:0,0:0:0:0:
234,215,194236,1,8,2:0:0:0:
402,188,194413,6,0,P|411:154|412:114,1,62.8333333333332,2|0,3:2|0:0,0:0:0:0:
395,60,194589,1,2,3:2:0:0:
384,63,194677,1,2,3:2:0:0:
375,70,194766,1,0,3:0:0:0:
478,191,194942,5,8,2:0:0:0:
297,94,195119,1,0,3:0:0:0:
320,17,195295,6,0,L|343:262,1,187.791666666667,0|0,3:0|0:0,0:0:0:0:
347,273,195648,1,8,2:0:0:0:
209,219,195824,6,0,P|240:207|267:186,1,62.8333333333332,2|0,3:2|0:0,0:0:0:0:
468,298,196001,1,2,3:2:0:0:
473,291,196089,1,2,3:2:0:0:
475,280,196177,2,0,P|443:263|391:256,1,62.8333333333332,0|0,3:0|3:2,0:0:0:0:
299,372,196354,5,8,2:0:0:0:
299,364,196442,1,2,2:0:0:0:
300,356,196530,1,2,3:2:0:0:
301,348,196619,1,0,2:0:0:0:
265,286,196707,6,0,B|208:264|177:321|189:321|161:370|103:356,1,187.791666666667,0|0,1:2|0:0,0:0:0:0:
46,318,197060,1,8,2:0:0:0:
156,150,197236,1,2,3:2:0:0:
154,159,197324,1,0,0:0:0:0:
86,186,197413,5,2,3:2:0:0:
58,176,197501,1,2,3:2:0:0:
44,152,197589,1,0,3:0:0:0:
42,123,197677,1,2,2:0:0:0:
97,72,197766,6,0,L|111:0,2,62.8333333333332,8|0|0,2:0|3:2|3:0,0:0:0:0:
269,107,198119,6,0,P|247:69|152:77,1,125.666666666666,0|0,3:0|0:0,0:0:0:0:
31,40,198383,1,0,0:0:0:0:
97,72,198471,5,8,2:0:0:0:
103,91,198560,1,0,0:0:0:0:
100,110,198648,1,2,3:2:0:0:
162,141,198736,1,0,0:0:0:0:
143,209,198824,6,0,L|160:292,3,62.5972222222221,2|2|0|0,3:2|2:0|3:0|3:2,0:0:0:0:
57,363,199177,5,8,2:0:0:0:
58,351,199266,1,0,0:0:0:0:
65,339,199354,1,2,3:2:0:0:
218,307,199530,6,0,L|414:290,1,187.791666666667,4|0,1:2|0:0,0:0:0:0:
476,283,199883,1,8,2:0:0:0:
357,192,200060,6,0,L|368:118,3,62.5972222222221,2|0|2|2,3:2|0:0|3:2|3:2,0:0:0:0:
374,57,200413,1,8,3:2:0:0:
232,141,200589,5,0,2:0:0:0:
247,139,200677,1,0,3:2:0:0:
263,137,200766,1,8,3:2:0:0:
278,135,200854,1,0,0:0:0:0:
263,208,200942,5,8,3:2:0:0:
191,25,201119,1,0,0:0:0:0:
135,87,201295,2,0,L|185:97,4,31.4166666666666,8|0|2|0|0,2:0|0:0|3:2|0:0|0:0,0:0:0:0:
53,73,201648,5,2,3:2:0:0:
43,84,201736,1,0,0:0:0:0:
40,96,201824,1,0,3:0:0:0:
66,160,201913,1,0,3:2:0:0:
139,181,202001,5,8,2:0:0:0:
165,252,202089,1,0,0:0:0:0:
108,302,202177,1,0,2:0:0:0:
105,293,202266,1,0,0:0:0:0:
103,284,202354,5,4,2:1:0:0:
303,365,202707,1,0,0:0:0:0:
287,295,202883,5,0,0:0:0:0:
432,245,203060,1,0,0:0:0:0:
417,316,203236,1,0,0:0:0:0:
387,179,203589,5,0,0:0:0:0:
473,39,203766,1,0,0:0:0:0:
509,106,203942,1,0,0:0:0:0:
505,128,204119,1,0,0:0:0:0:
319,57,204295,1,0,0:0:0:0:
383,27,204471,5,0,0:0:0:0:
378,10,204648,1,0,0:0:0:0:
271,129,204824,1,0,0:0:0:0:
292,200,205001,1,0,0:0:0:0:
341,149,205177,5,2,1:0:0:0:
395,174,205354,1,2,2:0:0:0:
422,227,205530,1,2,2:0:0:0:
435,225,205707,1,2,2:0:0:0:
483,353,205883,5,2,2:0:0:0:
304,332,206060,1,0,0:0:0:0:
245,376,206236,5,0,0:0:0:0:
245,376,206413,1,2,2:0:0:0:
31,238,206589,5,2,2:0:0:0:
76,181,206766,1,0,0:0:0:0:
134,192,206942,1,2,2:0:0:0:
162,241,207119,1,0,0:0:0:0:
85,365,207295,5,2,2:0:0:0:
205,168,207471,1,2,2:0:0:0:
279,211,207648,1,2,2:0:0:0:
234,286,207824,1,2,2:0:0:0:
92,281,208001,5,2,2:0:0:0:
93,292,208177,1,0,0:0:0:0:
239,367,208354,1,2,2:0:0:0:
300,331,208530,1,2,2:0:0:0:
465,366,208707,5,0,0:0:0:0:
425,205,208883,1,0,0:0:0:0:
355,196,209060,1,2,2:0:0:0:
310,11,209236,1,0,0:0:0:0:
384,16,209413,5,2,2:0:0:0:
382,26,209501,1,0,0:0:0:0:
381,37,209589,1,0,0:0:0:0:
236,0,209766,1,2,2:0:0:0:
252,69,209942,1,2,2:0:0:0:
108,156,210119,5,2,2:0:0:0:
168,204,210295,1,0,0:0:0:0:
227,199,210471,1,2,2:0:0:0:
267,242,210648,1,0,0:0:0:0:
340,218,210824,5,2,2:0:0:0:
342,206,211001,1,0,0:0:0:0:
404,187,211177,1,2,2:0:0:0:
432,223,211354,1,0,0:0:0:0:
477,223,211530,5,2,2:0:0:0:
445,56,211707,1,2,2:0:0:0:
389,100,211883,5,2,2:0:0:0:
330,56,212060,1,2,2:0:0:0:
274,39,212236,1,2,2:0:0:0:
223,64,212413,1,0,0:0:0:0:
212,171,212589,5,2,2:0:0:0:
178,198,212766,1,0,0:0:0:0:
142,207,212942,1,2,2:0:0:0:
128,197,213119,1,0,0:0:0:0:
35,147,213295,5,2,2:0:0:0:
29,143,213471,1,0,0:0:0:0:
0,207,213648,6,0,L|14:284,1,75.1874977111816,2|0,3:0|3:0,0:0:0:0:
30,350,214354,6,0,L|33:365,6,9.38958304723103
99,345,214707,2,0,L|97:335,6,9.38958304723103,2|0|0|0|0|0|0,3:0|0:0|0:0|0:0|0:0|0:0|0:0,0:0:0:0:
199,298,215060,6,0,L|114:282,1,47.1250017881394,6|0,2:3|0:0,0:0:0:0:
133,267,215236,6,0,L|262:292,1,94.2500035762786
296,300,215501,2,0,L|305:247,4,47.1250017881394
279,370,215766,5,0,0:0:0:0:
278,376,215854,1,0,0:0:0:0:
488,301,216119,6,0,B|465:296|465:296|444:318|442:348|442:348|425:323|388:311|388:311|374:330,1,164.406256258488
378,312,216471,6,0,B|386:299|386:299|422:311|438:335|438:335|440:306|460:285|460:285|482:290,1,157.083333333333,12|0,2:1|0:0,0:0:0:0:
410,230,216648,1,0,0:0:0:0:
172,350,217530,6,0,P|145:309|228:330,1,187.791666666667
245,381,217883,6,0,P|149:300|7:301,1,251.333333333332,4|2,1:2|3:2,0:0:0:0:
8,362,218148,1,0,0:0:0:0:
25,365,218236,1,8,3:2:0:0:
256,212,218413,6,0,P|275:169|335:165,1,94.2500035762786,2|2,2:0|1:3,0:0:0:0:
470,234,218589,2,0,P|490:258|452:241,1,109.958334376415,0|0,0:0|3:0,0:0:0:0:
328,61,218766,6,0,B|316:46|316:46|265:40|265:40|286:51|297:69,1,109.958334376415,0|0,1:0|0:0,0:0:0:0:
186,149,218942,6,0,B|408:122|408:122|414:121|456:113|447:54|398:58|398:58|375:62,1,328.63541979591,8|2,3:2|3:2,0:0:0:0:
102,108,219295,6,0,B|84:129|88:160|88:160|43:117|94:13|222:16|213:87|147:76,1,281.687510728836,0|0,1:0|1:2,0:0:0:0:
254,344,219648,2,0,P|265:316|261:283,1,62.8333333333332,10|0,3:2|0:0,0:0:0:0:
197,253,219824,1,0,1:0:0:0:
45,384,220001,5,0,0:0:0:0:
41,379,220089,1,0,2:0:0:0:
67,317,220177,2,0,L|155:304,1,62.8333333333332,10|0,3:2|0:0,0:0:0:0:
306,209,220354,6,0,L|74:237,1,188.500007152558,0|0,1:0|3:0,0:0:0:0:
367,172,220619,1,0,0:0:0:0:
369,165,220707,6,0,P|363:142|290:158,1,94.2500035762786,4|0,1:3|0:0,0:0:0:0:
332,327,220883,2,0,P|337:349|410:333,1,94.2500035762786,0|0,0:0|3:0,0:0:0:0:
508,272,221060,1,8,3:2:0:0:
457,106,221236,5,2,1:2:0:0:
444,107,221324,2,0,P|410:184|394:292,1,188.500007152558,2|0,1:3|3:0,0:0:0:0:
256,339,221589,2,0,P|213:308|142:294,1,94.2500035762786,2|0,1:2|0:0,0:0:0:0:
107,325,221766,5,8,3:2:0:0:
311,236,221942,1,0,1:0:0:0:
127,94,222119,6,0,L|148:253,1,94.2500035762786,0|0,1:3|0:0,0:0:0:0:
116,24,222295,1,0,3:2:0:0:
97,27,222383,1,0,3:0:0:0:
80,29,222471,1,8,3:2:0:0:
209,177,222648,1,0,1:0:0:0:
206,152,222736,1,0,0:0:0:0:
203,130,222824,2,0,L|313:117,1,94.2500035762786,2|0,3:0|3:0,0:0:0:0:
371,143,223001,6,0,L|358:33,1,94.2500035762786,8|0,3:2|0:0,0:0:0:0:
381,216,223177,1,0,1:0:0:0:
488,3,223354,1,2,3:2:0:0:
492,78,223442,1,0,0:0:0:0:
504,85,223530,6,0,B|533:132|497:178|487:174|444:215|501:292,1,188.500007152558,2|2,1:0|3:2,0:0:0:0:
417,357,223795,1,0,3:0:0:0:
417,357,223883,2,0,P|356:360|322:311,1,94.2500035762786,8|0,3:2|0:0,0:0:0:0:
260,354,224060,6,0,P|204:266|98:265,1,188.500007152558,2|0,2:0|0:0,0:0:0:0:
80,370,224324,1,0,3:0:0:0:
80,370,224413,2,0,P|123:361|153:306,1,94.2500035762786,0|0,1:0|0:0,0:0:0:0:
59,237,224589,5,8,3:2:0:0:
197,383,224766,1,2,1:2:0:0:
98,170,224942,5,0,1:3:0:0:
112,165,225030,1,0,0:0:0:0:
126,160,225119,1,0,3:0:0:0:
288,98,225295,1,8,3:2:0:0:
45,117,225471,5,0,1:0:0:0:
45,117,225560,1,2,3:2:0:0:
45,117,225648,2,0,L|92:31,1,94.2500035762786,0|0,0:0|2:0,0:0:0:0:
192,255,225824,2,0,L|94:243,1,94.2500035762786,8|0,3:2|0:0,0:0:0:0:
25,204,226001,5,0,1:0:0:0:
207,102,226177,1,2,3:2:0:0:
248,177,226266,1,0,0:0:0:0:
230,174,226354,6,0,L|253:384,1,188.500007152558,4|0,1:0|0:0,0:0:0:0:
384,267,226619,1,0,3:0:0:0:
384,267,226707,2,0,P|352:229|292:229,1,94.2500035762786,8|0,3:2|0:0,0:0:0:0:
151,344,226883,6,0,L|377:327,1,188.500007152558,2|0,1:2|0:0,0:0:0:0:
95,293,227148,1,0,3:1:0:0:
95,293,227236,2,0,P|119:250|179:239,1,94.2500035762786,2|0,1:2|0:0,0:0:0:0:
241,258,227413,5,8,3:2:0:0:
218,13,227589,1,0,1:0:0:0:
439,49,227766,6,0,B|401:83|401:83|239:71,1,188.500007152558,8|0,1:3|0:0,0:0:0:0:
41,154,228030,1,0,3:0:0:0:
91,103,228119,6,0,L|79:34,1,62.8333333333332,8|0,3:2|0:0,0:0:0:0:
93,210,228295,2,0,L|81:279,1,62.8333333333332,0|0,1:0|0:0,0:0:0:0:
150,154,228471,6,0,L|200:142,2,31.4166666666666,8|0|0,3:2|0:0|3:0,0:0:0:0:
240,185,228648,2,0,L|386:158,1,94.2500035762786,2|0,1:2|0:0,0:0:0:0:
362,65,228824,2,0,L|441:48,1,78.5416666666666,0|0,1:0|0:0,0:0:0:0:
499,95,229001,5,2,1:2:0:0:
501,107,229089,1,2,1:2:0:0:
438,48,229177,6,0,L|480:260,1,157.083333333334,2|2,1:0|3:2,0:0:0:0:
348,351,229442,1,0,0:0:0:0:
348,351,229530,2,0,L|328:266,1,78.5416666666666,8|0,3:2|0:0,0:0:0:0:
113,367,229707,6,0,L|316:321,1,157.083333333334,2|0,2:0|0:0,0:0:0:0:
387,188,229971,1,0,3:0:0:0:
387,188,230060,2,0,L|302:208,1,78.5416666666665,0|0,1:0|0:0,0:0:0:0:
120,308,230236,6,0,B|131:346|131:346|243:321|243:321|225:256,1,188.500007152558,8|2,3:2|1:2,0:0:0:0:
169,250,230501,1,0,0:0:0:0:
169,250,230589,6,0,L|123:4,1,188.500007152558,0|0,1:3|3:0,0:0:0:0:
85,230,230854,1,0,1:2:0:0:
85,230,230942,2,0,P|52:263|52:325,1,94.2500035762786,8|0,3:2|0:0,0:0:0:0:
9,37,231119,2,0,P|41:89|113:115,1,94.2500035762786,0|2,1:0|3:0,0:0:0:0:
209,62,231295,5,0,0:0:0:0:
226,41,231383,1,0,2:0:0:0:
228,15,231471,1,8,3:2:0:0:
147,180,231648,6,0,P|169:159|207:151,1,62.8333333333332,0|0,1:0|0:0,0:0:0:0:
304,11,231824,2,0,P|326:32|364:40,1,62.8333333333332,2|0,3:2|0:0,0:0:0:0:
473,103,232001,6,0,L|246:129,1,188.500007152558,4|0,1:3|3:0,0:0:0:0:
156,1,232266,1,0,0:0:0:0:
144,0,232354,2,0,B|113:37|113:37|130:90,1,94.2500035762786,8|0,3:2|0:0,0:0:0:0:
78,170,232530,6,0,B|135:159|135:159|156:96|156:96|223:80,1,188.500007152558,2|0,1:2|0:0,0:0:0:0:
289,230,232795,1,0,3:0:0:0:
340,184,232883,6,0,L|458:189,1,94.2500035762786,2|0,1:2|0:0,0:0:0:0:
203,317,233060,2,0,L|85:312,1,94.2500035762786,8|0,3:2|0:0,0:0:0:0:
349,363,233236,6,0,L|354:304,1,47.1250017881394,0|2,1:0|3:2,0:0:0:0:
243,172,233413,2,0,L|184:167,1,47.1250017881394,8|0,1:3|0:0,0:0:0:0:
134,203,233589,6,0,B|90:159|90:159|122:94,1,125.666666666666,8|0,3:2|3:2,0:0:0:0:
284,20,233942,1,0,1:0:0:0:
281,31,234030,1,0,2:0:0:0:
340,92,234119,5,0,0:0:0:0:
416,75,234207,1,0,0:0:0:0:
461,106,234295,1,0,1:2:0:0:
468,145,234383,1,0,0:0:0:0:
463,159,234471,6,0,L|470:223,1,62.8333333333332,0|0,3:0|0:0,0:0:0:0:
344,77,234648,2,0,L|351:13,1,62.8333333333332,2|2,3:2|3:2,0:0:0:0:
481,293,234824,6,0,B|447:348|360:334|345:245|383:219|355:183|306:163|271:200,1,281.687510728836,2|0,1:0|0:0,0:0:0:0:
230,232,235177,2,0,P|216:210|226:160,1,62.8333333333332,8|0,3:2|0:0,0:0:0:0:
108,114,235354,6,0,P|163:42|164:100,1,188.500007152558,2|0,2:0|0:0,0:0:0:0:
245,80,235619,1,0,3:0:0:0:
250,71,235707,6,0,L|340:53,1,62.8333333333332,0|0,1:0|0:0,0:0:0:0:
112,187,235883,2,0,L|22:205,1,62.8333333333332,8|0,3:2|3:2,0:0:0:0:
0,147,236060,1,2,1:2:0:0:
152,380,236236,6,0,B|171:233|171:233|225:209,1,188.500007152558,8|0,1:3|3:0,0:0:0:0:
350,280,236501,1,0,1:2:0:0:
350,280,236589,2,0,L|343:349,1,62.8333333333332,8|0,3:2|0:0,0:0:0:0:
274,372,236766,1,0,1:0:0:0:
475,286,236942,5,0,0:0:0:0:
462,217,237030,1,0,2:0:0:0:
471,202,237119,1,8,3:2:0:0:
472,186,237207,1,0,0:0:0:0:
429,129,237295,6,0,B|478:58|402:3|312:62|353:134|354:138|358:144|393:221|328:264|205:210|261:130|324:107,1,375.583333333333,0|0,1:0|0:0,0:0:0:0:
226,62,237648,6,0,P|232:36|156:64,1,157.083333333334,4|2,1:0|3:2,0:0:0:0:
101,103,237913,1,0,3:0:0:0:
103,117,238001,1,8,3:2:0:0:
140,260,238177,1,2,1:2:0:0:
15,251,238354,6,0,P|45:248|82:217,1,78.5416666666666,0|0,1:0|3:0,0:0:0:0:
242,157,238530,2,0,P|217:131|170:123,1,78.5416666666665,2|0,1:2|0:0,0:0:0:0:
22,178,238707,1,8,3:2:0:0:
164,365,238883,1,0,1:0:0:0:
168,359,238971,1,2,3:2:0:0:
210,301,239060,6,0,L|365:286,1,94.2500035762786,4|0,1:3|0:0,0:0:0:0:
0,353,239236,2,0,L|155:338,1,94.2500035762786,0|0,2:0|3:0,0:0:0:0:
239,371,239413,1,8,3:2:0:0:
252,374,239501,1,2,0:0:0:0:
265,378,239589,1,0,1:0:0:0:
191,220,239766,6,0,L|235:186,2,47.1250017881394,8|0|0,3:2|0:0|0:0,0:0:0:0:
302,205,239942,2,0,L|316:119,1,78.5416666666666,10|0,3:2|0:0,0:0:0:0:
381,101,240119,2,0,L|355:35,1,62.8333333333332,0|0,1:0|0:0,0:0:0:0:
449,132,240295,1,2,1:2:0:0:
444,144,240383,1,2,1:2:0:0:
496,84,240471,6,0,L|302:130,1,188.500007152558,8|2,1:3|3:0,0:0:0:0:
248,79,240736,1,0,3:0:0:0:
248,79,240824,2,0,L|127:45,1,94.2500035762786,8|0,2:1|0:0,0:0:0:0:
54,261,241001,1,2,3:0:0:0:
53,253,241089,1,0,1:0:0:0:
101,196,241177,5,2,3:2:0:0:
144,200,241266,1,0,0:0:0:0:
165,234,241354,2,0,P|158:284|113:312,1,78.5416666666666,8|0,2:1|0:0,0:0:0:0:
70,126,241530,1,2,3:0:0:0:
27,122,241619,1,0,3:0:0:0:
6,88,241707,2,0,P|13:38|58:10,1,78.5416666666666,0|0,1:0|0:0,0:0:0:0:
141,131,241883,6,0,L|334:150,1,157.083333333334,0|8,1:0|2:1,0:0:0:0:
388,91,242148,1,0,0:0:0:0:
388,91,242236,2,0,P|345:72|307:88,1,78.5416666666666,0|0,3:0|0:0,0:0:0:0:
342,204,242413,1,0,1:0:0:0:
507,109,242589,5,8,2:1:0:0:
482,137,242677,1,0,0:0:0:0:
443,141,242766,1,0,3:2:0:0:
284,288,242942,6,0,L|271:199,1,78.5416666666666,2|0,1:3|0:0,0:0:0:0:
472,307,243119,2,0,L|485:396,1,78.5416666666666,0|0,3:0|0:0,0:0:0:0:
209,336,243295,6,0,L|181:143,1,157.083333333334,0|2,1:0|3:0,0:0:0:0:
403,320,243560,1,0,3:0:0:0:
403,320,243648,2,0,P|354:336|341:373,1,78.5416666666666,8|0,2:1|0:0,0:0:0:0:
137,375,243824,1,2,3:0:0:0:
105,293,243913,5,0,1:0:0:0:
102,304,244001,2,0,P|25:304|48:232,1,157.083333333334,2|8,3:2|2:1,0:0:0:0:
47,241,244266,1,0,0:0:0:0:
23,164,244354,5,2,3:0:0:0:
41,141,244442,1,0,3:0:0:0:
44,106,244530,1,0,1:0:0:0:
212,36,244707,6,0,B|180:10|180:10|83:27,1,125.666666666666,0|8,1:0|2:1,0:0:0:0:
158,97,244971,1,0,0:0:0:0:
160,85,245060,1,0,3:0:0:0:
288,63,245236,6,0,B|305:-34,1,62.8333333333332,0|8,1:0|2:1,0:0:0:0:
368,16,245413,2,0,B|351:113,1,62.8333333333332
225,130,245589,5,0,3:2:0:0:
428,72,245766,1,0,1:0:0:0:
326,225,245942,5,0,3:0:0:0:
299,208,246030,1,0,3:0:0:0:
288,180,246119,2,0,L|306:323,1,125.666666666666,2|2,1:0|3:0,0:0:0:0:
415,193,246383,1,0,3:0:0:0:
415,193,246471,2,0,P|382:166|334:170,1,62.8333333333332,8|0,2:1|0:0,0:0:0:0:
228,295,246648,6,0,L|143:305,2,62.8333333333332,2|0|2,3:0|1:0|3:2,0:0:0:0:
361,357,247001,1,8,2:1:0:0:
199,221,247177,5,2,3:0:0:0:
201,207,247266,1,0,3:0:0:0:
204,193,247354,1,0,1:0:0:0:
43,308,247530,6,0,P|70:255|145:243,1,125.666666666666,0|8,1:0|2:1,0:0:0:0:
278,222,247795,1,0,0:0:0:0:
278,222,247883,2,0,L|285:127,1,62.8333333333332,0|0,3:0|0:0,0:0:0:0:
288,87,248060,1,0,1:0:0:0:
417,200,248236,5,8,2:1:0:0:
394,176,248324,1,0,0:0:0:0:
363,171,248413,1,0,3:2:0:0:
210,93,248589,1,2,1:3:0:0:
348,1,248766,2,0,L|358:90,1,62.8333333333332,0|0,3:0|0:0,0:0:0:0:
420,94,248942,5,0,1:0:0:0:
262,11,249119,1,2,3:0:0:0:
262,11,249207,1,0,3:0:0:0:
178,180,249383,1,0,0:0:0:0:
178,180,249471,1,2,3:0:0:0:
104,149,249648,6,0,L|110:68,2,62.8333333333332,2|0|8,3:2|0:0|2:1,0:0:0:0:
231,307,250001,1,2,3:0:0:0:
225,294,250089,1,0,3:0:0:0:
289,261,250177,2,0,L|357:269,1,62.8333333333332,0|0,1:0|0:0,0:0:0:0:
415,233,250354,5,8,2:1:0:0:
285,367,250530,1,8,2:1:0:0:
73,267,250707,1,0,3:0:0:0:
91,268,250795,1,0,0:0:0:0:
110,279,250883,1,8,2:1:0:0:
30,355,251060,6,0,L|17:306,1,37.6999988555909,8|0,2:1|0:0,0:0:0:0:
123,184,251413,1,0,3:0:0:0:
127,203,251589,1,8,2:1:0:0:
34,117,251766,6,0,P|32:171|95:197,1,78.5416666666666,2|0,1:0|0:0,0:0:0:0:
260,103,251942,1,0,0:0:0:0:
257,112,252030,1,0,0:0:0:0:
251,120,252119,2,0,P|148:101|64:69,1,157.083333333334,8|2,2:1|3:0,0:0:0:0:
231,216,252383,1,0,1:2:0:0:
234,229,252471,6,0,L|258:339,1,78.5416666666666
360,102,252648,1,8,2:1:0:0:
379,72,252736,1,0,0:0:0:0:
379,35,252824,1,2,3:0:0:0:
498,267,253001,1,0,1:2:0:0:
352,258,253177,6,0,P|382:215|476:230,1,125.666666666666,0|0,1:2|0:0,0:0:0:0:
444,318,253442,1,0,0:0:0:0:
447,330,253530,1,2,3:2:0:0:
512,370,253707,1,8,2:1:0:0:
377,353,253883,6,0,L|204:339,1,125.666666666666,0|2,3:0|3:2,0:0:0:0:
169,377,254148,1,0,0:0:0:0:
159,378,254236,6,0,B|142:347|142:347|158:292,1,78.5416666666666,8|0,2:1|3:1,0:0:0:0:
169,159,254413,2,0,B|186:190|186:190|170:245,1,78.5416666666666
27,351,254589,5,0,1:0:0:0:
46,334,254677,1,0,0:0:0:0:
74,329,254766,1,0,0:0:0:0:
246,219,254942,1,8,2:1:0:0:
84,105,255119,1,2,3:0:0:0:
84,105,255207,2,0,L|99:271,1,157.083333333334,0|0,1:2|0:0,0:0:0:0:
234,378,255471,5,8,2:1:0:0:
249,350,255560,1,0,0:0:0:0:
277,334,255648,1,2,3:0:0:0:
314,335,255736,1,0,0:0:0:0:
366,285,255824,5,0,1:2:0:0:
497,366,256001,6,0,L|479:219,1,125.666666666666,0|0,1:2|0:0,0:0:0:0:
296,265,256266,1,0,0:0:0:0:
296,265,256354,2,0,L|285:182,1,62.8333333333332,2|0,3:2|0:0,0:0:0:0:
278,127,256530,2,0,L|361:116,1,62.8333333333333,8|0,2:1|0:0,0:0:0:0:
411,113,256707,6,0,L|416:158,4,31.4166666666666,0|0|0|0|2,0:0|0:0|0:0|0:0|3:2,0:0:0:0:
425,212,257060,1,8,2:1:0:0:
402,41,257236,1,0,3:1:0:0:
402,41,257324,1,8,2:1:0:0:
402,41,257413,6,0,L|235:63,1,125.666666666666,2|0,1:0|0:0,0:0:0:0:
212,38,257677,1,0,0:0:0:0:
212,38,257766,2,0,P|207:78|232:107,1,62.8333333333332,8|0,2:1|0:0,0:0:0:0:
137,216,257942,1,2,3:0:0:0:
137,216,258030,1,0,1:2:0:0:
65,189,258119,6,0,P|109:143|185:164,1,125.666666666666,0|8,0:0|2:1,0:0:0:0:
224,281,258383,1,0,0:0:0:0:
286,240,258471,5,2,3:0:0:0:
284,227,258560,1,0,0:0:0:0:
281,214,258648,1,0,1:2:0:0:
458,354,258824,5,0,1:2:0:0:
336,326,259001,2,0,L|414:311,2,62.8333333333332,0|0|2,0:0|0:0|3:2,0:0:0:0:
486,218,259354,6,0,L|471:140,1,62.8333333333332,8|0,2:1|0:0,0:0:0:0:
415,111,259530,2,0,L|400:33,2,62.8333333333332,0|0|2,3:0|0:0|3:2,0:0:0:0:
506,8,259883,5,8,2:1:0:0:
354,151,260060,1,0,0:0:0:0:
354,151,260148,1,0,0:0:0:0:
354,151,260236,6,0,L|201:147,1,125.666666666666,0|0,1:0|0:0,0:0:0:0:
157,143,260501,1,0,0:0:0:0:
157,143,260589,2,0,P|157:102|167:85,1,62.8333333333332,8|0,2:1|0:0,0:0:0:0:
134,19,260766,1,2,3:0:0:0:
134,19,260854,5,0,1:2:0:0:
39,196,261030,1,0,0:0:0:0:
103,234,261119,2,0,L|114:308,2,62.8333333333332,8|0|2,2:1|0:0|3:0,0:0:0:0:
13,382,261471,1,0,1:2:0:0:
177,262,261648,6,0,L|367:278,1,187.968757152558,0|0,1:2|0:0,0:0:0:0:
437,285,262177,2,0,L|447:137,1,125.3125,0|0,3:2|0:0,0:0:0:0:
447,89,262707,6,0,L|407:84,3,31.2986111111111,0|0|0|0,3:2|0:0|0:0|0:0,0:0:0:0:
200,60,263060,1,8,1:3:0:0:
