osu file format v14

[General]
AudioFilename: ignotus.mp3
AudioLeadIn: 0
PreviewTime: 215060
Countdown: 0
SampleSet: Drum
StackLeniency: 0.3
Mode: 0
LetterboxInBreaks: 0
WidescreenStoryboard: 1

[Editor]
Bookmarks: 73530,133177,171295,215060
DistanceSpacing: 1.5
BeatDivisor: 8
GridSize: 4
TimelineZoom: 5.299997

[Metadata]
Title:Ignotus (Extended ver.)
TitleUnicode:Ignotus (Extended ver.)
Artist:ak+q
ArtistUnicode:ak+q
Creator:ScubDomino
Version:[--]heilia_:[36]beom()san's:extra
Source:Arcaea
Tags:Sound Collection MEMORIES OF CONFLICT IROCD-002 Original Soundtrack CD lowiro ajkoramusic drum and bass dnb piano electronic lanota groove coaster cybernetic future rhythm video game anime girl anime_girl scubdomino jungkyuyoung natsume shiki natsume_shiki 8972308 dark kloyd iii 1574070 shota on osu shota_on_osu cubbby cubby 10914582 freeform heilia 9823042 3626063 chinochan beomsan chinochan 918297 real realazy neanmoins 7777875 ryuusei aika acyl acylica iedesu 1943309 iljaaz 8501291 instrumental
BeatmapID:2327841
BeatmapSetID:1084205

[Difficulty]
HPDrainRate:5
CircleSize:4.5
OverallDifficulty:8
ApproachRate:9.3
SliderMultiplier:2.5
SliderTickRate:1

[Events]
//Background and Video events
0,0,"RED CIRCL POG.jpg",0,0
//Break Periods
2,6495,8212
2,9319,10859
2,12142,14035
2,14966,15800
2,160201,162094
2,163024,164741
2,166024,167917
2,168848,169682
2,205377,214506
//Storyboard Layer 0 (Background)
//Storyboard Layer 1 (Fail)
//Storyboard Layer 2 (Pass)
//Storyboard Layer 3 (Foreground)
//Storyboard Layer 4 (Overlay)
//Storyboard Sound Samples

[TimingPoints]
472,352.941176470588,4,2,1,60,1,0
472,-333.333333333333,4,2,1,60,0,0
648,-333.333333333333,4,2,42,60,0,0
4707,-133.333333333333,4,2,42,60,0,0
4751,-133.333333333333,4,2,42,70,0,0
4971,-200,4,2,42,60,0,0
5015,-200,4,2,42,70,0,0
5059,-200,4,2,42,60,0,0
5103,-200,4,2,42,70,0,0
5236,-400,4,2,42,60,0,0
5280,-400,4,2,42,70,0,0
5324,-400,4,2,42,60,0,0
5589,-200,4,2,42,60,0,0
5633,-200,4,2,42,70,0,0
5677,-200,4,2,42,60,0,0
5721,-200,4,2,42,70,0,0
5766,-200,4,2,42,60,0,0
5854,-200,4,2,42,70,0,0
6119,-133.333333333333,4,2,42,60,0,0
6824,-133.333333333333,4,2,42,60,0,0
7177,-133.333333333333,4,2,42,60,0,0
7530,-133.333333333333,4,2,42,60,0,0
8766,-133.333333333333,4,2,42,60,0,0
8942,-133.333333333333,4,2,42,70,0,0
9295,-133.333333333333,4,2,42,70,0,0
11413,-133.333333333333,4,2,42,60,0,0
12119,-133.333333333333,4,2,42,60,0,0
12471,-133.333333333333,4,2,42,60,0,0
12824,-133.333333333333,4,2,42,60,0,0
14589,-133.333333333333,4,2,42,70,0,0
14942,-133.333333333333,4,2,42,70,0,0
16354,-133.333333333333,4,2,42,70,0,0
17413,-133.333333333333,4,2,1,90,0,0
17677,-133.333333333333,4,2,1,80,0,0
17766,-133.333333333333,4,2,1,90,0,0
17942,-133.333333333333,4,2,1,80,0,0
18030,-133.333333333333,4,2,1,90,0,0
18206,-133.333333333333,4,2,1,80,0,0
18471,-250,4,2,1,80,0,0
18559,-250,4,2,1,70,0,0
18647,-250,4,2,1,80,0,0
18824,-250,4,2,1,90,0,0
19088,-250,4,2,1,80,0,0
19354,-153.846153846154,4,2,1,90,0,0
19618,-153.846153846154,4,2,1,80,0,0
19883,-111.111111111111,4,2,1,90,0,0
20147,-111.111111111111,4,2,1,80,0,0
20236,-133.333333333333,4,2,1,80,0,0
21295,-250,4,2,1,80,0,0
21383,-250,4,2,1,70,0,0
21471,-250,4,2,1,80,0,0
22177,-153.846153846154,4,2,1,80,0,0
22707,-111.111111111111,4,2,1,80,0,0
23060,-133.333333333333,4,2,1,80,0,0
24119,-250,4,2,1,80,0,0
24207,-250,4,2,1,70,0,0
24295,-250,4,2,1,80,0,0
25001,-153.846153846154,4,2,1,80,0,0
25530,-111.111111111111,4,2,1,80,0,0
25883,-133.333333333333,4,2,1,80,0,0
26147,-133.333333333333,4,2,1,70,0,0
26236,-133.333333333333,4,2,1,80,0,0
26942,-250,4,2,1,80,0,0
27030,-250,4,2,1,70,0,0
27118,-250,4,2,1,80,0,0
27295,-133.333333333333,4,2,1,80,0,0
27471,-133.333333333333,4,2,1,70,0,0
27648,-133.333333333333,4,2,1,80,0,0
27913,-133.333333333333,4,2,1,70,0,0
28089,-133.333333333333,4,2,1,80,0,0
28442,-133.333333333333,4,2,1,70,0,0
28619,-133.333333333333,4,2,1,80,0,0
28707,-133.333333333333,4,2,1,90,0,0
30119,-250,4,2,1,90,0,0
30648,-153.846153846154,4,2,1,90,0,0
30912,-153.846153846154,4,2,1,70,0,0
31001,-153.846153846154,4,2,1,90,0,0
31177,-111.111111111111,4,2,1,90,0,0
31530,-133.333333333333,4,2,1,90,0,0
32942,-250,4,2,1,90,0,0
33471,-133.333333333333,4,2,1,90,0,0
34001,-111.111111111111,4,2,1,90,0,0
34354,-133.333333333333,4,2,1,90,0,0
35766,-250,4,2,1,90,0,0
36295,-153.846153846154,4,2,1,90,0,0
36824,-111.111111111111,4,2,1,90,0,0
37441,-111.111111111111,4,2,1,70,0,0
37530,-111.111111111111,4,2,1,90,0,0
37795,-133.333333333333,4,2,1,90,0,0
39030,-166.666666666667,4,2,1,90,0,0
39824,-166.666666666667,4,2,1,70,0,0
40001,-166.666666666667,4,2,1,90,0,0
40354,-133.333333333333,4,2,1,80,0,0
40751,-133.333333333333,4,2,1,70,0,0
41060,-133.333333333333,4,2,1,80,0,0
41280,-133.333333333333,4,2,1,70,0,0
41413,-166.666666666667,4,2,1,80,0,0
42647,-166.666666666667,4,2,1,70,0,0
42824,-166.666666666667,4,2,1,80,0,0
44942,-250,4,2,1,80,0,0
45206,-250,4,2,1,70,0,0
45295,-133.333333333333,4,2,1,80,0,0
48295,-133.333333333333,4,2,1,70,0,0
48471,-133.333333333333,4,2,1,80,0,0
49883,-250,4,2,1,70,0,0
49971,-250,4,2,1,60,0,0
50059,-250,4,2,1,50,0,0
50147,-250,4,2,1,45,0,0
50235,-250,4,2,1,40,0,0
50324,-250,4,2,1,45,0,0
50412,-250,4,2,1,50,0,0
50500,-250,4,2,1,65,0,0
50589,-250,4,2,1,90,0,0
51648,-100,4,2,1,90,0,0
53766,-133.333333333333,4,2,1,90,0,0
54471,-100,4,2,1,90,0,0
54912,-100,4,2,1,80,0,0
55000,-100,4,2,1,90,0,0
55088,-100,4,2,1,80,0,0
55177,-100,4,2,1,90,0,0
55618,-100,4,2,1,80,0,0
55707,-100,4,2,1,90,0,0
59413,-133.333333333333,4,2,1,90,0,0
60119,-100,4,2,1,90,0,0
60219,-133.333333333333,4,2,99,70,0,0
60295,-133.333333333333,4,2,1,90,0,0
60384,-133.333333333333,4,2,1,90,0,0
60560,-133.333333333333,4,2,1,80,0,0
60648,-133.333333333333,4,2,1,90,0,0
61354,-133.333333333333,4,2,1,70,0,0
61530,-133.333333333333,4,2,1,90,0,0
61883,-133.333333333333,4,2,1,90,0,0
62059,-133.333333333333,4,2,1,90,0,0
62324,-133.333333333333,4,2,1,70,0,0
62501,-133.333333333333,4,2,1,80,0,0
62589,-125,4,2,1,90,0,0
62853,-125,4,2,1,80,0,0
62942,-125,4,2,1,90,0,0
63119,-166.666666666667,4,2,1,90,0,0
63383,-166.666666666667,4,2,1,80,0,0
63471,-166.666666666667,4,2,1,90,0,0
63648,-250,4,2,1,90,0,0
63912,-250,4,2,1,70,0,0
64001,-125,4,2,1,90,0,0
64265,-125,4,2,1,80,0,0
64354,-125,4,2,1,90,0,0
64530,-166.666666666667,4,2,1,90,0,0
64794,-166.666666666667,4,2,1,80,0,0
64883,-166.666666666667,4,2,1,90,0,0
65060,-250,4,2,1,90,0,0
65324,-250,4,2,1,70,0,0
65413,-125,4,2,1,90,0,0
65677,-125,4,2,1,80,0,0
65766,-125,4,2,1,90,0,0
65942,-166.666666666667,4,2,1,90,0,0
66207,-166.666666666667,4,2,1,80,0,0
66295,-166.666666666667,4,2,1,90,0,0
66471,-250,4,2,1,90,0,0
66736,-250,4,2,1,70,0,0
66824,-133.333333333333,4,2,1,90,0,0
67530,-133.333333333333,4,2,1,70,0,0
67707,-133.333333333333,4,2,1,90,0,0
68236,-125,4,2,1,90,0,0
68500,-125,4,2,1,80,0,0
68589,-125,4,2,1,90,0,0
68766,-166.666666666667,4,2,1,90,0,0
69030,-166.666666666667,4,2,1,80,0,0
69119,-166.666666666667,4,2,1,90,0,0
69295,-250,4,2,1,90,0,0
69559,-250,4,2,1,70,0,0
69648,-125,4,2,1,90,0,0
69912,-125,4,2,1,80,0,0
70001,-125,4,2,1,90,0,0
70177,-166.666666666667,4,2,1,90,0,0
70441,-166.666666666667,4,2,1,80,0,0
70530,-166.666666666667,4,2,1,90,0,0
70707,-250,4,2,1,90,0,0
71148,-250,4,2,1,70,0,0
73354,-250,4,2,1,90,0,0
73530,-250,4,2,1,90,0,0
73574,-250,4,2,1,70,0,0
73794,-250,4,2,1,80,0,0
73883,-250,4,2,1,90,0,0
74060,-250,4,2,1,90,0,0
74765,-250,4,2,0,90,0,0
76619,-250,4,2,0,70,0,0
76707,-250,4,2,0,90,0,0
77766,-222.222222222222,4,2,0,90,0,0
78736,-222.222222222222,4,2,0,90,0,0
78824,-222.222222222222,4,2,0,90,0,0
78912,-222.222222222222,4,2,0,70,0,0
79000,-222.222222222222,4,2,0,90,0,0
79266,-222.222222222222,4,2,0,70,0,0
79442,-222.222222222222,4,2,0,90,0,0
79530,-222.222222222222,4,2,0,90,0,0
80148,-222.222222222222,4,2,0,90,0,0
80236,-222.222222222222,4,2,0,90,0,0
80324,-222.222222222222,4,2,0,70,0,0
80413,-222.222222222222,4,2,0,90,0,0
80677,-222.222222222222,4,2,0,70,0,0
80765,-222.222222222222,4,2,0,90,0,0
80853,-222.222222222222,4,2,0,70,0,0
80942,-222.222222222222,4,2,0,90,0,0
81913,-222.222222222222,4,2,0,70,0,0
82001,-222.222222222222,4,2,0,90,0,0
82265,-222.222222222222,4,2,0,70,0,0
82354,-222.222222222222,4,2,0,90,0,0
83148,-222.222222222222,4,2,0,70,0,0
83236,-222.222222222222,4,2,0,90,0,0
83766,-666.666666666667,4,2,0,90,0,0
83942,-666.666666666667,4,2,0,70,0,0
84119,-111.111111111111,4,2,1,90,0,0
84736,-111.111111111111,4,2,1,70,0,0
84824,-66.6666666666667,4,2,1,90,0,0
84846,-66.6666666666667,4,2,1,70,0,0
85000,-66.6666666666667,4,2,1,90,0,0
85022,-66.6666666666667,4,2,1,70,0,0
85177,-102.040816326531,4,2,1,90,0,0
85221,-102.040816326531,4,2,1,70,0,0
85354,-133.333333333333,4,2,1,90,0,0
85398,-133.333333333333,4,2,1,70,0,0
85619,-166.666666666667,4,2,1,90,0,0
85663,-166.666666666667,4,2,1,70,0,0
85883,-125,4,2,1,90,0,0
86236,-60.00024000096,4,2,1,90,0,0
86501,-66.6666666666667,4,2,1,70,0,0
86589,-66.6666666666667,4,2,1,90,0,0
87030,-66.6666666666667,4,2,1,70,0,0
87119,-50,4,2,1,60,0,0
87207,-50,4,2,1,90,0,0
87251,-50,4,2,1,70,0,0
87383,-50,4,2,1,60,0,0
87427,-50,4,2,1,70,0,0
87471,-74.0740740740741,4,2,1,90,0,0
87529,-74.0740740740741,4,2,1,70,0,0
87648,-74.0740740740741,4,2,1,90,0,0
87912,-74.0740740740741,4,2,1,80,0,0
88001,-125,4,2,1,90,0,0
90648,-125,4,2,1,90,0,0
90736,-125,4,2,1,90,0,0
91088,-125,4,2,1,70,0,0
91177,-125,4,2,1,90,0,0
91265,-125,4,2,1,70,0,0
91354,-125,4,2,1,90,0,0
92677,-125,4,2,1,70,0,0
92766,-125,4,2,1,90,0,0
93207,-125,4,2,1,70,0,0
93295,-125,4,2,1,90,0,0
94089,-125,4,2,1,70,0,0
94177,-125,4,2,1,90,0,0
94354,-125,4,2,1,70,0,0
94442,-125,4,2,1,90,0,0
95501,-125,4,2,1,70,0,0
95589,-125,4,2,1,90,0,0
96647,-125,4,2,1,70,0,0
96824,-125,4,2,1,90,0,0
97177,-125,4,2,1,70,0,0
97266,-125,4,2,1,90,0,0
98324,-125,4,2,1,70,0,0
98413,-125,4,2,1,90,0,0
98854,-125,4,2,1,70,0,0
98942,-125,4,2,1,90,0,0
99736,-125,4,2,1,70,0,0
99824,-125,4,2,1,90,0,0
100001,-125,4,2,1,70,0,0
100265,-125,4,2,1,90,0,0
100618,-125,4,2,1,70,0,0
100707,-125,4,2,1,90,0,0
101148,-125,4,2,1,70,0,0
101236,-125,4,2,1,90,0,0
101677,-125,4,2,1,70,0,0
101766,-125,4,2,1,90,0,0
102030,-125,4,2,1,70,0,0
102119,-125,4,2,1,90,0,0
106265,-125,4,2,1,70,0,0
106354,-125,4,2,1,90,0,0
106795,-125,4,2,1,70,0,0
106883,-125,4,2,1,90,0,0
107060,-125,4,2,1,70,0,0
107148,-125,4,2,1,90,0,0
107677,-125,4,2,1,70,0,0
107766,-125,4,2,1,90,0,0
108383,-125,4,2,1,90,0,0
108648,-125,4,2,1,90,0,0
109530,-666.666666666667,4,2,1,90,0,0
110589,-133.333333333333,4,3,1,90,0,0
110677,-133.333333333333,4,3,1,90,0,0
111295,-133.333333333333,4,3,1,90,0,0
111383,-133.333333333333,4,3,1,80,0,0
111471,-133.333333333333,4,3,1,90,0,0
111560,-133.333333333333,4,3,1,70,0,0
111648,-133.333333333333,4,3,1,90,0,0
111912,-133.333333333333,4,3,1,70,0,0
112001,-133.333333333333,4,3,1,90,0,0
112089,-133.333333333333,4,3,1,70,0,0
112177,-133.333333333333,4,3,1,90,0,0
112266,-133.333333333333,4,3,1,70,0,0
112354,-133.333333333333,4,3,1,90,0,0
112442,-133.333333333333,4,3,1,70,0,0
112530,-133.333333333333,4,3,1,90,0,0
112619,-133.333333333333,4,3,1,70,0,0
112707,-133.333333333333,4,3,1,90,0,0
112795,-133.333333333333,4,3,1,70,0,0
112883,-133.333333333333,4,3,1,90,0,0
112971,-133.333333333333,4,3,1,70,0,0
113060,-133.333333333333,4,3,1,90,0,0
113148,-133.333333333333,4,3,1,70,0,0
113236,-133.333333333333,4,3,1,90,0,0
113324,-133.333333333333,4,3,1,80,0,0
113413,-133.333333333333,4,3,1,90,0,0
113589,-133.333333333333,4,3,1,70,0,0
113677,-133.333333333333,4,3,1,80,0,0
113766,-133.333333333333,4,3,1,90,0,0
113854,-133.333333333333,4,3,1,80,0,0
114030,-133.333333333333,4,3,1,90,0,0
114119,-133.333333333333,4,3,1,70,0,0
114207,-133.333333333333,4,3,1,80,0,0
114295,-133.333333333333,4,3,1,90,0,0
114383,-133.333333333333,4,3,1,70,0,0
114471,-133.333333333333,4,3,1,80,0,0
114736,-133.333333333333,4,3,1,70,0,0
114824,-133.333333333333,4,3,1,80,0,0
114913,-133.333333333333,4,3,1,70,0,0
115001,-133.333333333333,4,3,1,80,0,0
115089,-133.333333333333,4,3,1,70,0,0
115177,-133.333333333333,4,3,1,80,0,0
115266,-133.333333333333,4,3,1,70,0,0
115354,-133.333333333333,4,3,1,80,0,0
115530,-133.333333333333,4,3,1,70,0,0
115618,-133.333333333333,4,3,1,80,0,0
115794,-133.333333333333,4,3,1,70,0,0
115883,-133.333333333333,4,3,1,80,0,0
115971,-133.333333333333,4,3,1,70,0,0
116060,-133.333333333333,4,3,1,80,0,0
116148,-133.333333333333,4,3,1,70,0,0
116236,-133.333333333333,4,3,1,80,0,0
116942,-133.333333333333,4,3,1,70,0,0
117030,-133.333333333333,4,3,1,80,0,0
117207,-133.333333333333,4,3,1,70,0,0
117295,-133.333333333333,4,3,1,80,0,0
117560,-133.333333333333,4,3,1,70,0,0
117648,-133.333333333333,4,3,1,80,0,0
117736,-133.333333333333,4,3,1,70,0,0
117824,-133.333333333333,4,3,1,80,0,0
117913,-133.333333333333,4,3,1,70,0,0
118001,-133.333333333333,4,3,1,80,0,0
118089,-133.333333333333,4,3,1,70,0,0
118177,-133.333333333333,4,3,1,80,0,0
118265,-133.333333333333,4,3,1,70,0,0
118354,-133.333333333333,4,3,1,80,0,0
118442,-133.333333333333,4,3,1,70,0,0
118530,-133.333333333333,4,3,1,80,0,0
118619,-133.333333333333,4,3,1,70,0,0
118707,-133.333333333333,4,3,1,80,0,0
118795,-133.333333333333,4,3,1,70,0,0
118883,-133.333333333333,4,3,1,80,0,0
119148,-133.333333333333,4,3,1,70,0,0
119324,-133.333333333333,4,3,1,80,0,0
119766,-133.333333333333,4,3,1,70,0,0
119854,-133.333333333333,4,3,1,80,0,0
120207,-133.333333333333,4,3,1,70,0,0
120295,-133.333333333333,4,3,1,80,0,0
120383,-133.333333333333,4,3,1,70,0,0
120471,-133.333333333333,4,3,1,80,0,0
120735,-133.333333333333,4,3,1,70,0,0
120824,-133.333333333333,4,3,1,80,0,0
120912,-133.333333333333,4,3,1,70,0,0
121001,-133.333333333333,4,3,1,80,0,0
121265,-133.333333333333,4,3,1,70,0,0
121353,-133.333333333333,4,3,1,80,0,0
121530,-133.333333333333,4,3,1,70,0,0
121618,-133.333333333333,4,3,1,80,0,0
122060,-133.333333333333,4,3,1,70,0,0
122148,-133.333333333333,4,3,1,80,0,0
122324,-133.333333333333,4,3,1,70,0,0
122413,-133.333333333333,4,3,1,80,0,0
122589,-133.333333333333,4,3,1,70,0,0
122677,-133.333333333333,4,3,1,80,0,0
123030,-133.333333333333,4,3,1,70,0,0
123119,-133.333333333333,4,3,1,80,0,0
123383,-133.333333333333,4,3,1,70,0,0
123560,-133.333333333333,4,3,1,80,0,0
123736,-133.333333333333,4,3,1,70,0,0
123824,-133.333333333333,4,3,1,80,0,0
123913,-133.333333333333,4,3,1,70,0,0
124707,-133.333333333333,4,3,1,80,0,0
124971,-133.333333333333,4,3,1,70,0,0
125060,-133.333333333333,4,3,1,80,0,0
125148,-133.333333333333,4,3,1,70,0,0
125236,-133.333333333333,4,3,1,80,0,0
125413,-133.333333333333,4,3,1,70,0,0
125501,-133.333333333333,4,3,1,80,0,0
125677,-133.333333333333,4,3,1,70,0,0
125766,-133.333333333333,4,3,1,80,0,0
126030,-133.333333333333,4,3,1,70,0,0
126119,-133.333333333333,4,3,1,80,0,0
126207,-133.333333333333,4,3,1,70,0,0
126383,-133.333333333333,4,3,1,80,0,0
126560,-133.333333333333,4,3,1,70,0,0
126648,-133.333333333333,4,3,1,80,0,0
126736,-133.333333333333,4,3,1,70,0,0
127530,-133.333333333333,4,3,1,80,0,0
127707,-133.333333333333,4,3,1,70,0,0
127795,-133.333333333333,4,3,1,80,0,0
128236,-133.333333333333,4,3,1,70,0,0
128324,-133.333333333333,4,3,1,80,0,0
128501,-133.333333333333,4,3,1,70,0,0
128589,-133.333333333333,4,3,1,80,0,0
128677,-133.333333333333,4,3,1,70,0,0
128766,-133.333333333333,4,3,1,80,0,0
128854,-133.333333333333,4,3,1,70,0,0
128942,-133.333333333333,4,3,1,80,0,0
129030,-133.333333333333,4,3,1,70,0,0
129207,-133.333333333333,4,3,1,80,0,0
129383,-133.333333333333,4,3,1,70,0,0
129471,-133.333333333333,4,3,1,80,0,0
129560,-133.333333333333,4,3,1,70,0,0
129736,-133.333333333333,4,3,1,80,0,0
129912,-133.333333333333,4,3,1,70,0,0
130001,-133.333333333333,4,3,1,80,0,0
130177,-133.333333333333,4,3,1,70,0,0
130265,-133.333333333333,4,2,1,80,0,0
130530,-133.333333333333,4,2,1,70,0,0
130707,-133.333333333333,4,2,1,80,0,0
131501,-133.333333333333,4,2,1,70,0,0
131589,-133.333333333333,4,2,1,80,0,0
131677,-133.333333333333,4,2,1,70,0,0
131766,-133.333333333333,4,2,1,80,0,0
131854,-133.333333333333,4,2,1,70,0,0
131942,-133.333333333333,4,2,1,80,0,0
132030,-133.333333333333,4,2,1,70,0,0
132119,-133.333333333333,4,2,1,90,0,0
132295,-133.333333333333,4,2,1,70,0,0
132383,-133.333333333333,4,2,1,90,0,0
132648,-133.333333333333,4,2,1,70,0,0
132736,-133.333333333333,4,2,1,90,0,0
132824,-133.333333333333,4,2,1,70,0,0
132913,-133.333333333333,4,2,1,90,0,0
133441,-133.333333333333,4,2,1,70,0,0
133530,-133.333333333333,4,2,1,90,0,0
133706,-133.333333333333,4,2,1,80,0,0
133883,-133.333333333333,4,2,1,90,0,0
134147,-133.333333333333,4,2,1,70,0,0
134236,-133.333333333333,4,2,1,90,0,0
134413,-133.333333333333,4,2,1,80,0,0
134589,-133.333333333333,4,2,1,90,0,0
134765,-133.333333333333,4,2,1,80,0,0
134942,-133.333333333333,4,2,1,90,0,0
135118,-133.333333333333,4,2,1,80,0,0
135294,-133.333333333333,4,2,1,90,0,0
135471,-133.333333333333,4,2,1,80,0,0
135647,-133.333333333333,4,2,1,90,0,0
135823,-133.333333333333,4,2,1,80,0,0
137766,-500,4,2,1,80,0,0
138119,-133.333333333333,4,2,1,80,0,0
138383,-133.333333333333,4,2,1,70,0,0
138471,-133.333333333333,4,2,1,80,0,0
138735,-133.333333333333,4,2,1,70,0,0
138824,-133.333333333333,4,2,1,80,0,0
139619,-133.333333333333,4,2,1,70,0,0
139707,-133.333333333333,4,2,1,80,0,0
139795,-133.333333333333,4,2,1,70,0,0
139882,-133.333333333333,4,2,1,80,0,0
143501,-133.333333333333,4,2,1,70,0,0
143589,-133.333333333333,4,2,1,80,0,0
144207,-133.333333333333,4,2,1,70,0,0
144295,-133.333333333333,4,2,1,80,0,0
144471,-133.333333333333,4,2,1,90,0,0
145883,-133.333333333333,4,2,1,65,0,0
146500,-133.333333333333,4,2,1,70,0,0
146589,-133.333333333333,4,2,1,65,0,0
146633,-133.333333333333,4,2,1,70,0,0
146677,-133.333333333333,4,2,1,65,0,0
146721,-133.333333333333,4,2,1,70,0,0
146765,-133.333333333333,4,2,1,65,0,0
146809,-133.333333333333,4,2,1,70,0,0
146942,-133.333333333333,4,2,1,65,0,0
147295,-133.333333333333,4,2,1,80,0,0
148354,-250,4,2,1,80,0,0
148442,-250,4,2,1,70,0,0
148530,-250,4,2,1,80,0,0
149236,-153.846153846154,4,2,1,80,0,0
149766,-111.111111111111,4,2,1,80,0,0
150119,-133.333333333333,4,2,1,80,0,0
151177,-250,4,2,1,80,0,0
151266,-250,4,2,1,70,0,0
151354,-250,4,2,1,80,0,0
152060,-153.846153846154,4,2,1,80,0,0
152589,-111.111111111111,4,2,1,80,0,0
152942,-133.333333333333,4,2,1,80,0,0
154001,-250,4,2,1,80,0,0
154089,-250,4,2,1,70,0,0
154177,-250,4,2,1,80,0,0
154618,-250,4,2,1,70,0,0
154707,-250,4,2,1,80,0,0
154883,-153.846153846154,4,2,1,80,0,0
155413,-111.111111111111,4,2,1,80,0,0
155677,-111.111111111111,4,2,1,70,0,0
155766,-133.333333333333,4,2,1,80,0,0
156030,-133.333333333333,4,2,1,70,0,0
156119,-133.333333333333,4,2,1,80,0,0
156912,-133.333333333333,4,2,1,70,0,0
157001,-133.333333333333,4,2,1,80,0,0
157177,-333.333333333333,4,2,1,80,0,0
157707,-333.333333333333,4,2,1,70,0,0
158589,-200,4,2,1,70,0,0
159295,-133.333333333333,4,2,1,70,0,0
159912,-133.333333333333,4,2,1,70,0,0
160001,-133.333333333333,4,2,1,70,0,0
160177,-133.333333333333,4,2,1,70,0,0
162648,-133.333333333333,4,2,22,60,0,0
168559,-133.333333333333,4,2,22,70,0,0
168648,-133.333333333333,4,2,22,60,0,0
170501,-133.333333333333,4,2,22,70,0,0
170589,-133.333333333333,4,2,22,60,0,0
170765,-133.333333333333,4,2,22,70,0,0
170942,-133.333333333333,4,2,1,70,0,0
170971,-133.333333333333,4,2,1,70,0,0
170986,-133.333333333333,4,2,1,70,0,0
171030,-133.333333333333,4,2,1,60,0,0
171059,-133.333333333333,4,2,1,70,0,0
171118,-133.333333333333,4,2,1,60,0,0
171295,-133.333333333333,4,2,1,80,0,0
171383,-133.333333333333,4,2,1,70,0,0
171559,-133.333333333333,4,2,1,80,0,0
172000,-133.333333333333,4,2,1,70,0,0
172088,-133.333333333333,4,2,1,80,0,0
172265,-133.333333333333,4,2,1,70,0,0
172354,-133.333333333333,4,2,1,80,0,0
172442,-133.333333333333,4,2,1,70,0,0
172530,-133.333333333333,4,2,1,80,0,0
172707,-222.222222222222,4,2,1,80,0,0
173766,-125,4,2,1,80,0,0
174648,-222.222222222222,4,2,1,80,0,0
175089,-222.222222222222,4,2,1,70,0,0
175177,-222.222222222222,4,2,1,80,0,0
175265,-222.222222222222,4,2,1,70,0,0
175353,-222.222222222222,4,2,1,80,0,0
175971,-142.857142857143,4,2,99,70,0,0
176060,-142.857142857143,4,2,1,80,0,0
176589,-105.263157894737,4,2,1,80,0,0
177031,-105.263157894737,4,2,1,70,0,0
177207,-105.263157894737,4,2,1,80,0,0
177414,-105.263157894737,4,2,1,90,0,0
177471,-105.263157894737,4,2,1,80,0,0
177647,-105.263157894737,4,2,1,70,0,0
177735,-105.263157894737,4,2,1,80,0,0
177912,-105.263157894737,4,2,1,70,0,0
178001,-105.263157894737,4,2,1,80,0,0
178089,-105.263157894737,4,2,1,70,0,0
178177,-105.263157894737,4,2,1,90,0,0
178354,-222.222222222222,4,2,1,80,0,0
178360,-222.222222222222,4,2,1,90,0,0
178618,-222.222222222222,4,2,1,80,0,0
179324,-222.222222222222,4,2,1,70,0,0
179413,-222.222222222222,4,2,1,80,0,0
180471,-222.222222222222,4,2,1,70,0,0
180559,-222.222222222222,4,2,1,80,0,0
180735,-222.222222222222,4,2,1,70,0,0
180824,-100,4,2,1,80,0,0
181177,-500,4,2,1,70,0,0
181530,-66.6666666666667,4,2,1,70,0,0
181619,-66.6666666666667,4,2,1,45,0,0
181707,-66.6666666666667,4,2,1,50,0,0
181795,-66.6666666666667,4,2,1,65,0,0
181883,-66.6666666666667,4,2,1,90,0,0
182589,-142.857142857143,4,2,1,90,0,0
183912,-142.857142857143,4,2,1,70,0,0
184001,-142.857142857143,4,2,1,90,0,0
184618,-142.857142857143,4,2,1,90,0,0
184707,-142.857142857143,4,2,1,90,0,0
185854,-142.857142857143,4,2,1,70,0,0
185942,-142.857142857143,4,2,1,90,0,0
186735,-142.857142857143,4,2,1,70,0,0
186824,-142.857142857143,4,2,1,90,0,0
189295,-83.3333333333333,4,2,1,90,0,0
189648,-142.857142857143,4,2,1,90,0,0
192471,-222.222222222222,4,2,1,90,0,0
192647,-222.222222222222,4,2,1,70,0,0
192824,-222.222222222222,4,2,1,90,0,0
194235,-222.222222222222,4,2,1,90,0,0
194412,-222.222222222222,4,2,85,75,0,0
201295,-333.333333333333,4,2,85,75,0,0
201559,-333.333333333333,4,2,85,70,0,0
201648,-333.333333333333,4,2,85,75,0,0
201736,-333.333333333333,4,2,85,70,0,0
201824,-333.333333333333,4,2,85,75,0,0
201913,-66.6666666666667,4,2,85,75,0,0
201957,-66.6666666666667,4,2,85,70,0,0
202001,-66.6666666666667,4,2,85,75,0,0
202089,-142.857142857143,4,2,85,70,0,0
202177,-142.857142857143,4,2,85,75,0,0
202265,-142.857142857143,4,2,85,70,0,0
202354,-277.777777777778,4,2,1,90,0,0
202618,-277.777777777778,4,2,1,70,0,0
205177,-277.777777777778,4,2,1,90,0,0
205354,-277.777777777778,4,2,1,90,0,0
215060,-277.777777777778,4,2,3,70,0,0
215413,-277.777777777778,4,2,3,80,0,0
215457,-277.777777777778,4,2,3,70,0,0
215501,-277.777777777778,4,2,3,80,0,0
215766,-133.333333333333,4,2,3,80,0,0
216030,-133.333333333333,4,2,3,70,0,0
216119,-133.333333333333,4,2,3,80,0,0
216471,-133.333333333333,4,2,3,70,0,0
217530,-500,4,2,3,80,0,0
217883,-83.3333333333333,4,2,1,90,0,0
218324,-83.3333333333333,4,2,1,70,0,0
218413,-83.3333333333333,4,2,1,90,0,0
218590,-83.3333333333333,4,2,1,70,0,0
218678,-83.3333333333333,4,2,1,90,0,0
219206,-83.3333333333333,4,2,1,90,0,0
219295,-83.3333333333333,4,2,1,90,0,0
219736,-83.3333333333333,4,2,1,70,0,0
219824,-83.3333333333333,4,2,1,90,0,0
220001,-83.3333333333333,4,2,1,70,0,0
220089,-83.3333333333333,4,2,1,90,0,0
220265,-83.3333333333333,4,2,1,70,0,0
220354,-83.3333333333333,4,2,1,90,0,0
220530,-83.3333333333333,4,2,1,90,0,0
220707,-83.3333333333333,4,2,1,90,0,0
221148,-83.3333333333333,4,2,1,70,0,0
221236,-83.3333333333333,4,2,1,90,0,0
221413,-83.3333333333333,4,2,1,70,0,0
221501,-83.3333333333333,4,2,1,90,0,0
222559,-83.3333333333333,4,2,1,70,0,0
222648,-83.3333333333333,4,2,1,90,0,0
222736,-83.3333333333333,4,2,1,70,0,0
222824,-83.3333333333333,4,2,1,90,0,0
223089,-83.3333333333333,4,2,1,70,0,0
223177,-83.3333333333333,4,2,1,90,0,0
223971,-83.3333333333333,4,2,1,70,0,0
224060,-83.3333333333333,4,2,1,90,0,0
224236,-83.3333333333333,4,2,1,70,0,0
224324,-83.3333333333333,4,2,1,90,0,0
224853,-83.3333333333333,4,2,1,70,0,0
224942,-83.3333333333333,4,2,1,90,0,0
225383,-83.3333333333333,4,2,1,70,0,0
225471,-83.3333333333333,4,2,1,90,0,0
225648,-83.3333333333333,4,2,1,70,0,0
225736,-83.3333333333333,4,2,1,90,0,0
225912,-83.3333333333333,4,2,1,70,0,0
226001,-83.3333333333333,4,2,1,90,0,0
226265,-83.3333333333333,4,2,1,70,0,0
226354,-83.3333333333333,4,2,1,90,0,0
226795,-83.3333333333333,4,2,1,70,0,0
226883,-83.3333333333333,4,2,1,90,0,0
227060,-83.3333333333333,4,2,1,70,0,0
227148,-83.3333333333333,4,2,1,90,0,0
227677,-83.3333333333333,4,2,1,70,0,0
227766,-83.3333333333333,4,2,1,90,0,0
227855,-83.3333333333333,4,2,1,70,0,0
228031,-83.3333333333333,4,2,1,90,0,0
229618,-83.3333333333333,4,2,1,70,0,0
229707,-83.3333333333333,4,2,1,90,0,0
229883,-83.3333333333333,4,2,1,70,0,0
229971,-83.3333333333333,4,2,1,90,0,0
230500,-83.3333333333333,4,2,1,70,0,0
230589,-83.3333333333333,4,2,1,90,0,0
231030,-83.3333333333333,4,2,1,70,0,0
231119,-83.3333333333333,4,2,1,90,0,0
231295,-83.3333333333333,4,2,1,70,0,0
231383,-83.3333333333333,4,2,1,90,0,0
232265,-83.3333333333333,4,2,1,70,0,0
232354,-83.3333333333333,4,2,1,90,0,0
232442,-83.3333333333333,4,2,1,70,0,0
232530,-83.3333333333333,4,2,1,90,0,0
232706,-83.3333333333333,4,2,1,70,0,0
232794,-83.3333333333333,4,2,1,90,0,0
233500,-83.3333333333333,4,2,1,70,0,0
233589,-83.3333333333333,4,2,1,90,0,0
234206,-83.3333333333333,4,2,1,70,0,0
234295,-83.3333333333333,4,2,1,90,0,0
234384,-83.3333333333333,4,2,1,70,0,0
234472,-83.3333333333333,4,2,1,90,0,0
234560,-83.3333333333333,4,2,1,70,0,0
234648,-83.3333333333333,4,2,1,90,0,0
235265,-83.3333333333333,4,2,1,70,0,0
235354,-83.3333333333333,4,2,1,90,0,0
235530,-83.3333333333333,4,2,1,70,0,0
235618,-83.3333333333333,4,2,1,90,0,0
236148,-83.3333333333333,4,2,1,70,0,0
236236,-83.3333333333333,4,2,1,90,0,0
236677,-83.3333333333333,4,2,1,70,0,0
236766,-83.3333333333333,4,2,1,90,0,0
236854,-83.3333333333333,4,2,1,90,0,0
236943,-83.3333333333333,4,2,1,70,0,0
237031,-83.3333333333333,4,2,1,90,0,0
237912,-83.3333333333333,4,2,1,90,0,0
238001,-83.3333333333333,4,2,1,90,0,0
238089,-83.3333333333333,4,2,1,70,0,0
238177,-83.3333333333333,4,2,1,90,0,0
238353,-83.3333333333333,4,2,1,70,0,0
238441,-83.3333333333333,4,2,1,90,0,0
238795,-83.3333333333333,4,2,1,70,0,0
238883,-83.3333333333333,4,2,1,90,0,0
239148,-83.3333333333333,4,2,1,70,0,0
239236,-83.3333333333333,4,2,1,90,0,0
240471,-133.333333333333,4,2,1,90,0,0
240735,-133.333333333333,4,2,1,80,0,0
242236,-133.333333333333,4,2,1,70,0,0
242413,-133.333333333333,4,2,1,80,0,0
244000,-133.333333333333,4,2,1,70,0,0
244177,-133.333333333333,4,2,1,80,0,0
245060,-133.333333333333,4,2,1,70,0,0
245237,-133.333333333333,4,2,1,80,0,0
246383,-133.333333333333,4,2,1,70,0,0
246471,-133.333333333333,4,2,1,80,0,0
247883,-133.333333333333,4,2,1,70,0,0
248060,-133.333333333333,4,2,1,80,0,0
249824,-133.333333333333,4,2,1,70,0,0
249913,-133.333333333333,4,2,1,80,0,0
250089,-133.333333333333,4,2,1,70,0,0
250178,-133.333333333333,4,2,1,80,0,0
250266,-133.333333333333,4,2,1,70,0,0
250354,-333.333333333333,4,2,1,80,0,0
251413,-133.333333333333,4,2,99,70,0,0
251766,-133.333333333333,4,2,1,80,0,0
252030,-133.333333333333,4,2,1,70,0,0
252119,-133.333333333333,4,2,1,80,0,0
252207,-133.333333333333,4,2,1,70,0,0
252295,-133.333333333333,4,2,1,80,0,0
252471,-133.333333333333,4,2,1,70,0,0
252648,-133.333333333333,4,2,1,80,0,0
252736,-133.333333333333,4,2,1,70,0,0
252824,-133.333333333333,4,2,1,80,0,0
253265,-133.333333333333,4,2,1,70,0,0
253353,-133.333333333333,4,2,1,80,0,0
253441,-133.333333333333,4,2,1,70,0,0
253530,-133.333333333333,4,2,1,80,0,0
253618,-133.333333333333,4,2,1,70,0,0
253707,-133.333333333333,4,2,1,80,0,0
253795,-133.333333333333,4,2,1,70,0,0
253884,-133.333333333333,4,2,1,80,0,0
253972,-133.333333333333,4,2,1,70,0,0
254060,-133.333333333333,4,2,1,80,0,0
254148,-133.333333333333,4,2,1,70,0,0
254236,-133.333333333333,4,2,1,80,0,0
255295,-133.333333333333,4,2,1,70,0,0
255471,-133.333333333333,4,2,1,80,0,0
255559,-133.333333333333,4,2,1,70,0,0
255648,-133.333333333333,4,2,1,80,0,0
256089,-133.333333333333,4,2,1,70,0,0
256178,-133.333333333333,4,2,1,80,0,0
256266,-133.333333333333,4,2,1,70,0,0
256354,-133.333333333333,4,2,1,80,0,0
256442,-133.333333333333,4,2,1,70,0,0
256531,-133.333333333333,4,2,1,80,0,0
256619,-133.333333333333,4,2,1,70,0,0
256707,-133.333333333333,4,2,1,80,0,0
257148,-133.333333333333,4,2,1,70,0,0
257236,-133.333333333333,4,2,1,80,0,0
257501,-133.333333333333,4,2,1,70,0,0
257589,-133.333333333333,4,2,1,80,0,0
258118,-133.333333333333,4,2,1,70,0,0
258294,-133.333333333333,4,2,1,80,0,0
258735,-133.333333333333,4,2,1,70,0,0
258824,-133.333333333333,4,2,1,80,0,0
258912,-133.333333333333,4,2,1,70,0,0
259001,-133.333333333333,4,2,1,80,0,0
259089,-133.333333333333,4,2,1,70,0,0
259177,-133.333333333333,4,2,1,80,0,0
259265,-133.333333333333,4,2,1,70,0,0
259354,-133.333333333333,4,2,1,80,0,0
259442,-133.333333333333,4,2,1,70,0,0
259530,-133.333333333333,4,2,1,80,0,0
259618,-133.333333333333,4,2,1,70,0,0
259707,-133.333333333333,4,2,1,80,0,0
259795,-133.333333333333,4,2,1,70,0,0
259883,-133.333333333333,4,2,1,80,0,0
260412,-133.333333333333,4,2,1,70,0,0
260589,-133.333333333333,4,2,1,80,0,0
260942,-133.333333333333,4,2,1,70,0,0
261119,-133.333333333333,4,2,1,80,0,0
261207,-133.333333333333,4,2,1,70,0,0
261296,-133.333333333333,4,2,1,80,0,0
261648,-250,4,2,1,80,0,0
261824,-250,4,2,1,70,0,0
262000,-250,4,2,1,80,0,0
263060,-250,4,2,1,90,0,0

[Colours]
Combo1 : 236,182,172
Combo2 : 29,90,109
Combo3 : 117,162,172
Combo4 : 69,142,167
Combo5 : 136,192,212
Combo6 : 243,90,86

[HitObjects]
61,172,472,5,2,2:1:0:0:
13,110,648,5,2,2:0:0:0:
45,89,824,1,2,2:0:0:0:
82,98,1001,1,0,2:0:0:0:
156,128,1177,5,2,2:0:0:0:
145,50,1353,5,2,2:0:0:0:
183,48,1529,1,0,2:0:0:0:
211,74,1706,1,2,2:0:0:0:
260,134,1883,37,2,2:0:0:0:
289,61,2059,5,0,2:0:0:0:
323,78,2235,1,2,2:0:0:0:
334,115,2412,1,0,2:0:0:0:
345,193,2589,5,2,2:0:0:0:
407,145,2765,5,2,2:0:0:0:
428,177,2941,1,2,2:0:0:0:
419,214,3118,1,2,2:0:0:0:
309,345,3295,37,0,2:0:0:0:
361,276,3471,5,2,2:0:0:0:
323,270,3648,1,2,2:0:0:0:
286,263,3824,1,0,2:0:0:0:
207,298,4001,5,2,2:0:0:0:
217,212,4178,5,2,2:0:0:0:
181,226,4355,1,0,2:0:0:0:
146,238,4531,1,2,2:0:0:0:
16,168,4707,6,0,L|87:159,1,46.8750017881394,0|0,3:0|0:0,2:0:0:0:
134,148,4883,2,0,L|157:144,3,23.4375008940697,2|0|0|0,0:0|0:0|2:0|0:0,0:0:0:0:
131,155,5060,6,0,L|120:69,1,62.5,2|0,3:2|2:0,0:0:0:0:
169,32,5324,2,0,L|170:20,4,7.8125,2|0|0|0|0,3:0|2:0|2:0|0:0|0:0,0:0:0:0:
241,91,5589,6,0,L|237:69,2,20.8333333333333,0|0|0,3:0|0:0|0:0,0:0:0:0:
247,90,5766,2,0,L|290:86,1,31.25,0|0,3:0|0:0,2:0:0:0:
349,78,5942,2,0,L|392:74,1,31.25
460,97,6119,6,0,L|464:44,1,46.8750017881394,2|0,1:2|2:0,2:0:0:0:
473,75,6295,1,2,1:3:0:0:
340,280,8766,6,0,L|344:227,1,46.8750017881394,2|0,1:2|2:0,2:0:0:0:
268,275,8942,2,0,L|272:222,1,46.8750017881394,2|0,1:3|0:0,2:0:0:0:
299,342,9119,5,0,2:0:0:0:
106,73,11413,38,0,B|124:93|124:93|202:81,1,93.7500035762788,2|0,1:2|2:0,2:0:0:0:
197,90,11678,1,0,3:2:0:0:
198,89,11766,38,0,L|188:166,1,46.8750017881394,2|0,1:3|2:0,2:0:0:0:
180,206,11942,1,0,2:0:0:0:
180,286,14589,38,0,L|126:281,1,46.8750017881394,0|0,1:2|0:0,2:0:0:0:
158,273,14766,1,0,2:0:0:0:
336,275,16354,5,0,3:2:0:0:
337,280,16442,1,2,3:0:0:0:
360,293,16531,6,0,L|297:301,1,46.8750017881394,2|0,3:2|0:0,0:0:0:0:
263,351,16707,6,0,B|245:338|245:338|143:355,1,93.7500035762788,2|0,3:0|0:0,2:0:0:0:
363,21,17060,5,2,3:2:0:0:
437,308,17413,22,0,L|424:150,1,140.625005364418,4|0,1:2|2:0,2:0:0:0:
425,167,17766,1,8,2:1:0:0:
510,282,17942,5,0,3:0:0:0:
510,282,18030,2,0,L|500:162,1,93.7500035762788,0|0,1:2|2:0,2:0:0:0:
502,188,18295,1,8,2:1:0:0:
361,236,18471,6,0,L|401:243,3,25,0|0|0|0,3:2|0:0|3:2|3:2,0:0:0:0:
347,234,18824,6,0,L|341:325,1,75,8|0,2:1|2:0,2:0:0:0:
342,308,19177,1,0,3:2:0:0:
273,204,19354,38,0,L|264:338,1,121.874994421006,8|0,2:1|2:0,2:0:0:0:
264,325,19707,1,0,3:2:0:0:
199,173,19883,6,0,L|186:353,1,168.749994850159,8|0,2:1|2:0,2:0:0:0:
186,341,20236,6,0,P|136:368|45:311,1,140.625005364418,0|0,1:2|2:0,2:0:0:0:
61,340,20589,1,8,2:1:0:0:
123,288,20766,5,0,3:0:0:0:
123,288,20854,2,0,P|95:246|96:187,1,93.7500035762788,0|0,1:2|2:0,2:0:0:0:
91,203,21119,1,8,2:1:0:0:
192,137,21295,38,0,L|188:113,3,25,0|0|0|0,3:2|0:0|3:2|3:2,0:0:0:0:
194,149,21648,6,0,P|174:183|174:233,1,75,8|0,2:1|2:0,2:0:0:0:
170,217,22001,1,0,3:2:0:0:
363,179,22177,6,0,P|305:171|244:209,1,121.874994421006,8|0,2:1|2:0,2:0:0:0:
250,201,22530,1,0,3:2:0:0:
425,359,22707,6,0,P|395:283|305:253,1,168.749994850159,8|8,2:1|2:1,2:0:0:0:
319,252,23060,38,0,L|306:94,1,140.625005364418,0|0,1:2|2:0,2:0:0:0:
307,111,23413,1,8,2:1:0:0:
392,226,23589,5,0,3:0:0:0:
392,226,23677,2,0,L|382:106,1,93.7500035762788,0|0,1:2|2:0,2:0:0:0:
384,132,23942,1,8,2:1:0:0:
330,27,24119,6,0,L|370:34,3,25,0|0|0|0,3:2|0:0|3:2|3:2,0:0:0:0:
320,36,24471,6,0,B|302:25|296:8|296:8|296:26|282:43,1,75,8|0,2:1|2:0,2:0:0:0:
282,42,24824,1,0,3:2:0:0:
296,126,25001,38,0,B|265:141|256:171|256:171|256:139|239:114,1,121.874994421006,8|0,2:1|2:0,2:0:0:0:
239,114,25355,1,0,3:2:0:0:
173,66,25530,6,0,B|129:50|121:5|121:5|129:50|96:83,1,168.749994850159,8|0,2:1|2:0,2:0:0:0:
97,83,25883,6,0,P|147:142|118:220,1,140.625005364418,0|0,1:2|0:0,2:0:0:0:
136,199,26236,1,8,2:1:0:0:
66,157,26413,5,0,3:0:0:0:
66,157,26501,2,0,P|43:202|-8:230,1,93.7500035762788,0|0,1:2|2:0,2:0:0:0:
7,225,26766,1,8,2:1:0:0:
89,354,26942,38,0,L|48:352,3,25,0|0|0|0,3:2|0:0|3:2|3:2,0:0:0:0:
101,354,27295,6,0,L|93:260,1,93.7500035762788,8|0,2:1|0:0,2:0:0:0:
180,347,27648,2,0,L|172:253,1,93.7500035762788,0|8,3:2|2:1,0:0:0:0:
129,188,27913,5,0,0:0:0:0:
129,188,28001,2,0,L|132:115,2,46.8750017881394,0|0|0,0:0|2:0|3:2,0:0:0:0:
209,95,28354,6,0,L|207:141,1,46.8750017881394,8|0,2:1|0:0,2:0:0:0:
131,58,28530,1,0,0:0:0:0:
131,58,28619,1,8,2:1:0:0:
131,58,28707,2,0,P|187:68|246:-7,1,140.625005364418,2|0,1:0|3:0,0:0:0:0:
243,13,29060,37,8,2:1:0:0:
325,77,29236,1,2,3:0:0:0:
325,77,29324,2,0,L|317:181,1,93.7500035762788,0|0,1:2|2:0,2:0:0:0:
317,170,29589,5,8,2:1:0:0:
412,81,29766,2,0,L|405:175,1,93.7500035762788,2|0,3:0|1:2,2:0:0:0:
512,243,30119,6,0,B|486:239|486:239|445:283,1,75,0|0,1:2|2:0,2:0:0:0:
453,275,30471,1,2,3:2:0:0:
405,174,30648,6,0,B|377:185|377:185|358:287,1,121.874994421006,8|0,2:1|0:0,2:0:0:0:
360,276,31001,1,2,3:2:0:0:
272,212,31177,38,0,B|256:242|256:242|310:376,1,168.749994850159,8|0,2:1|2:0,0:0:0:0:
306,367,31530,6,0,L|136:374,1,140.625005364418,0|0,1:0|2:0,2:0:0:0:
165,372,31883,5,8,2:1:0:0:
86,245,32060,1,2,3:0:0:0:
86,245,32148,2,0,P|78:299|105:343,1,93.7500035762788,0|0,1:2|2:0,2:0:0:0:
95,332,32413,5,8,2:1:0:0:
226,318,32589,2,0,P|234:264|207:220,1,93.7500035762788,2|0,3:0|1:2,0:0:0:0:
93,140,32942,38,0,B|112:133|112:133|147:138|142:195,1,75,0|0,1:2|2:0,2:0:0:0:
143,173,33295,1,2,3:2:0:0:
171,48,33471,6,0,B|201:50|201:50|234:75|236:124|209:169,1,140.625005364418,8|0,2:1|2:0,2:0:0:0:
218,150,33824,1,2,3:2:0:0:
307,75,34001,6,0,B|338:104|338:104|348:139|325:194|268:205,1,168.749994850159,8|8,2:1|2:1,2:0:0:0:
279,203,34354,6,0,L|289:355,1,140.625005364418,2|0,1:0|3:0,0:0:0:0:
288,343,34707,37,8,2:1:0:0:
456,315,34883,1,2,3:0:0:0:
456,315,34971,2,0,L|356:301,1,93.7500035762788,0|0,1:2|2:0,2:0:0:0:
363,302,35236,5,8,2:1:0:0:
451,237,35413,2,0,L|351:223,1,93.7500035762788,2|0,3:0|1:2,2:0:0:0:
66,305,35766,6,0,B|60:281|60:281|101:316,1,75,0|0,1:2|2:0,2:0:0:0:
99,314,36119,1,2,3:2:0:0:
108,214,36295,6,0,B|119:175|119:175|159:269,1,121.874994421006,8|0,2:1|2:0,2:0:0:0:
150,249,36648,1,2,3:2:0:0:
211,188,36824,38,0,B|251:149|251:149|236:294,1,168.749994850159,8|0,2:1|2:0,2:0:0:0:
240,262,37177,6,0,P|236:331|338:338,1,168.749994850159,0|0,1:0|0:0,2:0:0:0:
319,353,37530,5,8,2:1:0:0:
394,284,37707,1,2,3:0:0:0:
394,284,37795,2,0,L|387:155,1,93.7500035762788,0|0,1:2|2:0,2:0:0:0:
431,102,38060,1,8,2:1:0:0:
431,102,38236,2,0,P|373:160|318:151,1,140.625005364418,2|0,3:0|2:0,2:0:0:0:
320,152,38589,2,0,L|210:160,1,93.7500035762788,0|8,1:2|2:1,0:0:0:0:
83,83,39030,6,0,B|93:64|92:47|92:47|98:63|115:77,2,74.9999977111817,8|8|0,2:1|2:1|3:1,0:0:0:0:
113,154,39648,38,0,L|121:232,1,74.9999977111817,8|0,2:1|0:0,2:0:0:0:
363,21,40001,53,8,1:3:0:0:
56,273,40354,37,2,1:2:0:0:
120,228,40530,2,0,P|176:236|211:255,1,93.7500035762788,8|0,2:1|1:0,0:0:0:0:
295,137,40884,5,2,2:3:0:0:
274,212,41060,2,0,P|292:254|296:301,1,93.7500035762788,8|0,1:0|0:0,2:0:0:0:
497,108,41413,5,2,1:2:0:0:
489,28,41589,1,8,2:1:0:0:
409,36,41766,1,2,1:2:0:0:
417,116,41942,2,0,L|326:108,1,74.9999977111817,8|2,3:1|1:2,0:0:0:0:
442,263,42295,37,0,3:2:0:0:
411,193,42471,2,0,L|320:185,1,74.9999977111817,8|0,1:0|0:0,2:0:0:0:
172,107,42824,5,0,1:3:0:0:
105,73,43178,5,2,1:2:0:0:
172,107,43354,2,0,L|178:181,1,74.9999977111817,8|2,2:1|1:2,0:0:0:0:
308,9,43707,5,0,3:0:0:0:
246,53,43884,2,0,L|252:127,1,74.9999977111817,8|0,1:0|3:0,2:0:0:0:
131,310,44237,37,2,1:2:0:0:
81,257,44413,1,8,2:1:0:0:
65,187,44589,1,2,1:2:0:0:
84,118,44766,1,8,3:1:0:0:
125,57,44942,6,0,L|120:22,3,25,2|0|0|0,1:2|3:0|3:2|0:0,2:0:0:0:
127,67,45295,6,0,B|133:127|133:127|141:122|141:122|149:213,1,140.625005364418,2|0,1:3|2:0,2:0:0:0:
147,192,45648,5,8,1:3:0:0:
210,243,46001,37,2,1:2:0:0:
273,293,46177,2,0,P|292:244|277:201,1,93.7500035762788,8|2,2:1|1:2,2:0:0:0:
210,243,46530,5,0,3:0:0:0:
139,279,46706,2,0,P|127:234|146:192,1,93.7500035762788,8|0,1:0|2:0,2:0:0:0:
179,80,47060,5,2,1:2:0:0:
187,0,47236,1,8,2:1:0:0:
267,8,47413,1,2,1:2:0:0:
259,88,47589,2,0,L|359:78,1,93.7500035762788,8|2,3:1|1:2,2:0:0:0:
293,237,47942,5,0,2:0:0:0:
264,162,48119,2,0,L|357:152,2,93.7500035762788,8|0|0,1:0|0:0|1:3,2:0:0:0:
325,335,48824,37,2,1:2:0:0:
261,290,49001,2,0,P|205:298|170:317,1,93.7500035762788,8|2,2:1|1:2,0:0:0:0:
86,199,49354,5,0,3:0:0:0:
107,274,49530,2,0,P|88:316|84:363,1,93.7500035762788,8|0,1:0|2:0,2:0:0:0:
318,222,49883,6,0,L|322:187,7,25,2|2|2|2|2|2|2|2,1:2|2:0|2:0|2:0|2:0|2:0|2:0|2:0,2:0:0:0:
194,164,50589,5,2,1:2:0:0:
243,226,50678,1,0,3:1:0:0:
311,247,50766,1,8,3:1:0:0:
362,233,50854,1,2,3:2:0:0:
397,205,50942,1,8,1:0:0:0:
409,175,51031,1,0,3:1:0:0:
404,150,51119,1,8,3:1:0:0:
395,138,51207,1,2,3:2:0:0:
386,135,51295,5,0,3:2:0:0:
386,135,51648,6,0,L|380:54,1,62.5,2|0,1:0|3:2,2:0:0:0:
512,33,51825,69,8,2:1:0:0:
449,75,51913,1,8,2:1:0:0:
382,73,52001,1,8,1:0:0:0:
340,44,52090,1,0,3:2:0:0:
303,29,52178,1,8,2:1:0:0:
268,32,52266,1,8,2:1:0:0:
250,44,52354,5,2,1:3:0:0:
250,44,52707,70,0,L|257:119,1,62.5,2|0,1:3|3:2,2:0:0:0:
183,283,52883,5,8,2:1:0:0:
214,213,52972,1,8,2:1:0:0:
194,147,53060,1,2,1:2:0:0:
152,118,53148,1,0,3:2:0:0:
108,115,53236,1,8,2:1:0:0:
92,127,53325,1,8,2:1:0:0:
92,140,53413,69,8,1:0:0:0:
92,140,53766,6,0,B|50:144|50:144|47:142|47:142|0:148,2,93.7500035762788,2|0|2,1:3|3:0|1:3,2:0:0:0:
188,38,54471,70,0,L|267:43,1,62.5,4|0,1:3|3:2,2:0:0:0:
353,0,54647,5,8,2:1:0:0:
325,41,54735,1,8,2:1:0:0:
316,77,54824,1,0,1:0:0:0:
315,108,54912,1,8,3:1:0:0:
318,133,55000,1,8,3:1:0:0:
322,149,55088,1,2,2:2:0:0:
326,160,55177,69,2,1:3:0:0:
326,160,55530,6,0,L|318:233,1,62.5,10|0,1:3|2:0,2:0:0:0:
178,272,55707,69,2,3:2:0:0:
210,231,55795,1,8,3:1:0:0:
216,187,55883,1,0,1:0:0:0:
202,153,55972,1,2,3:2:0:0:
179,133,56060,1,4,3:1:0:0:
155,122,56148,1,2,3:2:0:0:
139,121,56236,5,2,1:2:0:0:
139,121,56590,69,2,1:2:0:0:
161,151,56678,1,2,3:2:0:0:
193,169,56766,1,8,3:1:0:0:
230,171,56854,1,8,3:1:0:0:
264,157,56942,5,0,1:0:0:0:
274,153,57030,1,0,3:2:0:0:
274,143,57119,1,2,2:3:0:0:
264,140,57207,1,2,2:0:0:0:
259,148,57295,70,0,B|335:154,1,62.5,0|0,1:3|3:2,2:0:0:0:
401,56,57471,5,8,2:1:0:0:
443,119,57559,1,8,2:1:0:0:
441,186,57647,1,2,1:3:0:0:
412,228,57736,1,2,2:0:0:0:
397,265,57824,1,8,2:1:0:0:
400,300,57912,1,2,2:0:0:0:
412,318,58000,69,2,1:3:0:0:
412,318,58354,6,0,L|337:323,1,62.5,2|0,1:0|3:2,2:0:0:0:
128,311,58530,69,8,2:1:0:0:
198,342,58619,1,2,2:2:0:0:
264,322,58707,1,2,1:2:0:0:
293,280,58795,1,0,3:2:0:0:
296,236,58883,1,8,2:1:0:0:
290,215,58972,1,8,2:1:0:0:
283,205,59060,5,8,1:0:0:0:
283,205,59413,70,0,B|324:200|324:200|327:202|327:202|375:196,2,93.7500035762788,2|0|6,1:3|3:0|1:3,2:0:0:0:
256,109,60119,6,0,L|177:114,1,62.5,0|0,1:3|3:2,2:0:0:0:
91,71,60295,69,8,2:1:0:0:
119,112,60383,1,8,2:1:0:0:
128,148,60472,1,0,1:0:0:0:
129,179,60560,1,8,3:1:0:0:
126,204,60648,1,8,3:1:0:0:
122,220,60736,1,2,2:0:0:0:
118,231,60825,5,2,1:3:0:0:
118,231,61177,5,0,1:3:0:0:
172,380,61354,1,0,0:0:0:0:
275,259,61530,1,8,2:1:0:0:
188,297,61707,5,0,1:0:0:0:
188,297,61883,2,0,L|191:232,2,46.8750017881394,8|8|8,2:1|2:1|2:1,0:0:0:0:
51,254,62236,6,0,P|11:257|-7:251,1,46.8750017881394,0|0,1:3|0:0,2:0:0:0:
26,183,62413,2,0,P|2:150|-1:131,1,46.8750017881394,0|0,0:0|2:0,0:0:0:0:
73,122,62589,6,0,P|141:107|217:129,1,150,4|0,1:2|2:0,2:0:0:0:
278,177,62942,1,10,3:2:0:0:
230,7,63119,38,0,P|270:51|288:128,1,112.499996566773,0|0,1:0|2:0,0:0:0:0:
278,177,63471,1,0,1:0:0:0:
385,79,63648,6,0,P|377:109|340:151,1,75,10|0,3:2|0:0,2:0:0:0:
278,177,64001,6,0,P|281:246|322:314,1,150,0|0,1:0|2:0,2:0:0:0:
389,357,64354,1,10,3:2:0:0:
425,172,64530,6,0,P|398:227|400:306,1,112.499996566773,0|0,1:0|2:0,0:0:0:0:
389,357,64883,1,0,1:0:0:0:
512,272,65060,38,0,P|481:289|453:335,1,75,10|0,3:2|0:0,0:0:0:0:
389,357,65413,6,0,P|327:324|248:326,1,150,0|0,1:0|2:0,2:0:0:0:
176,357,65766,1,10,3:2:0:0:
267,205,65943,6,0,P|216:237|178:307,1,112.499996566773,0|0,1:0|2:0,0:0:0:0:
176,357,66295,1,0,1:0:0:0:
98,234,66472,6,0,P|97:265|122:315,1,75,10|0,3:2|0:0,2:0:0:0:
176,357,66824,38,0,L|273:350,1,93.7500035762788,0|2,1:0|3:0,2:0:0:0:
333,275,67177,1,10,3:2:0:0:
297,186,67354,1,0,1:0:0:0:
298,176,67442,1,2,1:3:0:0:
299,166,67530,1,0,0:0:0:0:
348,85,67707,1,0,1:0:0:0:
260,0,67883,5,10,3:2:0:0:
133,22,68060,1,0,1:0:0:0:
0,151,68236,6,0,L|149:164,1,150,0|0,1:0|2:0,2:0:0:0:
210,116,68589,1,10,3:2:0:0:
155,286,68766,6,0,L|233:173,1,112.499996566773,0|0,1:0|2:0,0:0:0:0:
210,116,69119,1,0,1:0:0:0:
315,218,69295,38,0,L|275:134,1,75,10|0,3:2|0:0,2:0:0:0:
210,116,69648,6,0,L|385:127,1,150,0|0,1:0|2:0,2:0:0:0:
433,135,70001,1,10,3:2:0:0:
512,304,70177,6,0,L|451:179,1,112.499996566773,0|0,1:0|2:0,0:0:0:0:
433,135,70530,1,0,1:0:0:0:
512,6,70707,5,8,1:2:0:0:
502,21,70795,1,2,1:2:0:0:
493,38,70883,1,0,1:0:0:0:
484,54,70971,1,8,1:0:0:0:
475,71,71059,1,0,1:3:0:0:
256,192,71148,12,0,73354,2:0:0:0:
177,133,73530,38,0,L|173:111,6,12.5,2|0|0|0|0|0|0,2:0|0:0|0:0|0:0|0:0|0:0|2:0,2:0:0:0:
270,202,73883,5,8,1:3:0:0:
342,167,74060,2,0,L|412:179,1,50,0|0,2:0|3:0,0:0:0:0:
460,286,74413,1,0,2:0:0:0:
459,292,74501,1,2,3:0:0:0:
458,298,74589,2,0,L|388:286,1,50,0|2,2:0|2:0,0:0:0:0:
468,200,74942,1,0,3:0:0:0:
433,384,75119,1,0,2:0:0:0:
269,267,75295,5,2,2:0:0:0:
337,216,75471,1,0,2:0:0:0:
337,216,75648,1,0,3:0:0:0:
337,216,75824,1,0,2:0:0:0:
341,300,76001,5,0,2:0:0:0:
107,335,76177,1,0,2:0:0:0:
72,101,76354,1,0,3:0:0:0:
189,84,76530,37,0,2:0:0:0:
188,91,76619,1,0,0:0:0:0:
188,98,76707,1,2,2:3:0:0:
71,213,76883,2,0,L|127:197,2,50,0|0|0,2:0|3:0|2:0,0:0:0:0:
189,84,77413,6,0,P|213:83|238:89,1,50,0|2,2:0|2:0,0:0:0:0:
349,82,77766,6,0,P|361:103|374:138,1,56.2499982833863,0|0,3:0|2:0,0:0:0:0:
464,220,78119,5,2,2:3:0:0:
464,219,78295,2,0,P|467:192|471:164,1,56.2499982833863,0|0,2:0|3:0,0:0:0:0:
367,277,78648,37,0,2:0:0:0:
367,277,78736,1,0,2:3:0:0:
367,277,78824,2,0,P|372:293|377:316,2,28.1249991416931,0|0|0,2:0|0:0|3:0,0:0:0:0:
243,212,79177,5,8,3:2:0:0:
243,212,79266,2,0,B|170:224,1,56.2499982833863,0|8,0:0|2:0,0:0:0:0:
46,110,79530,5,2,2:0:0:0:
148,10,79707,2,0,P|141:37|138:65,1,56.2499982833863,0|8,2:0|2:0,0:0:0:0:
96,220,80060,1,0,2:0:0:0:
96,220,80148,1,0,3:0:0:0:
96,220,80236,6,0,P|93:206|89:192,1,28.1249991416931,0|0,2:0|2:0,0:0:0:0:
46,110,80413,1,8,2:0:0:0:
46,110,80589,2,0,B|59:106|59:106|74:116,3,28.1249991416931,0|0|0|0,3:0|0:0|2:0|0:0,0:0:0:0:
144,138,80942,38,0,P|179:151|240:104,1,112.499996566773,10|0,2:0|3:0,2:0:0:0:
217,39,81471,2,0,P|252:26|313:73,1,112.499996566773,10|2,2:0|2:0,2:0:0:0:
338,137,81913,1,0,0:0:0:0:
338,137,82001,2,0,P|379:154|422:137,1,84.3749974250794,8|0,2:0|0:0,0:0:0:0:
417,137,82354,5,2,2:3:0:0:
364,21,82707,1,10,2:0:0:0:
338,137,82883,2,0,L|330:180,1,28.1249991416931,0|0,2:0|2:3,0:0:0:0:
433,51,83060,6,0,L|441:8,1,28.1249991416931,0|0,2:0|0:0,0:0:0:0:
301,69,83236,1,0,3:2:0:0:
416,219,83413,1,8,2:0:0:0:
416,219,83501,2,0,B|440:212|440:212|443:213|443:213|474:204,1,56.2499982833863,8|8,2:0|2:0,0:0:0:0:
475,210,83766,6,0,L|481:188,1,18.7499994277954,0|0,3:2|0:0,0:0:0:0:
338,287,84119,2,0,B|331:315|331:315|353:354,2,56.2499982833863,2|2|2,2:0|2:0|2:0,0:0:0:0:
419,133,84471,2,0,B|426:105|426:105|404:66,2,56.2499982833863,2|2|2,2:0|2:0|2:0,0:0:0:0:
354,170,84736,1,0,0:0:0:0:
354,170,84824,70,0,L|343:138,14,23.4375008940697,2|0|0|0|0|0|0|0|2|0|0|0|0|0|0,3:2|0:0|0:0|0:0|0:0|0:0|0:0|0:0|3:2|0:0|0:0|0:0|0:0|0:0|0:0,0:0:0:0:
415,219,85177,6,0,L|449:200,5,20.4166664797465,4|0|0|0|0|0,3:0|0:0|0:0|0:0|0:0|0:0,0:0:0:0:
360,268,85354,70,0,L|336:244,5,23.4375008940697,0|0|0|0|0|0,3:2|0:0|0:0|0:0|0:0|0:0,0:0:0:0:
415,351,85619,6,0,L|418:328,5,18.7499994277954,0|0|0|0|0|0,3:2|0:0|0:0|0:0|0:0|0:0,0:0:0:0:
411,360,85883,70,0,B|406:342|406:342|406:338|406:338|400:316,3,33.3333333333333,0|0|0|0,2:0|2:0|2:0|3:0,0:0:0:0:
348,140,86236,2,0,B|348:116|332:92|332:92|404:140|380:224|344:252|344:252|363:208|416:212,1,312.498748307473,0|0,3:0|0:0,0:0:0:0:
506,288,86589,5,2,3:0:0:0:
506,288,86677,1,2,2:0:0:0:
506,288,86766,2,0,B|495:341|438:361|438:361|401:317|416:266,1,187.500007152558,0|2,3:2|3:0,0:0:0:0:
454,155,87030,69,0,0:0:0:0:
454,155,87119,1,0,2:0:0:0:
454,155,87207,2,0,B|480:140|480:140|462:182,5,62.5,2|0|0|0|0|0,2:3|0:0|0:0|0:0|2:0|0:0,2:0:0:0:
400,210,87471,6,0,P|373:207|351:192,2,56.2500002145767,2|0|0,3:2|0:0|0:0,0:0:0:0:
281,213,87648,2,0,B|208:176|204:80|204:80|259:63|308:95,1,253.125000965595,2|0,3:2|2:0,2:0:0:0:
317,109,88001,6,0,P|282:158|175:157,1,150,4|0,1:2|2:0,2:0:0:0:
92,98,88354,1,8,3:2:0:0:
237,0,88530,1,2,2:0:0:0:
237,0,88619,1,2,1:3:0:0:
237,0,88707,1,2,2:2:0:0:
175,260,88883,1,0,1:3:0:0:
23,213,89060,2,0,P|65:186|115:180,1,100,8|2,3:2|1:2,0:0:0:0:
273,292,89413,6,0,B|320:343|392:327|392:327|401:287|383:240,1,200,0|8,1:0|3:2,2:0:0:0:
306,125,89942,2,0,P|245:127|248:206,1,150,0|0,1:0|2:3,0:0:0:0:
323,205,90295,1,8,3:2:0:0:
384,110,90471,1,0,1:0:0:0:
389,258,90648,1,2,3:2:0:0:
389,258,90736,1,0,2:0:0:0:
389,258,90824,70,0,P|439:282|457:208,1,150,4|0,1:3|0:0,2:0:0:0:
384,110,91177,2,0,P|375:88|375:41,1,50,8|0,3:2|0:0,0:0:0:0:
459,210,91354,1,2,1:2:0:0:
459,210,91442,2,0,P|461:152|492:100,1,100,2|0,1:3|3:0,2:0:0:0:
491,106,91707,1,2,1:2:0:0:
384,255,91883,1,8,3:2:0:0:
306,125,92060,1,0,1:0:0:0:
306,125,92148,1,2,3:2:0:0:
306,125,92236,6,0,P|255:151|196:85,1,150,0|0,1:0|3:0,2:0:0:0:
230,29,92589,2,0,P|257:34|277:59,1,50,8|0,3:2|0:0,0:0:0:0:
176,196,92766,2,0,B|144:176|129:131|129:131|119:175|86:186,1,150,0|0,1:0|3:0,2:0:0:0:
18,147,93119,2,0,P|35:126|67:121,1,50,8|0,3:2|0:0,0:0:0:0:
176,196,93295,2,0,P|169:253|87:260,1,150,0|0,1:0|2:0,2:0:0:0:
90,185,93648,70,0,B|119:169|129:133|129:133|179:149|201:202,1,150,2|0,1:1|2:0,2:0:0:0:
135,348,94001,2,0,P|109:349|73:336,1,50,8|0,3:2|0:0,0:0:0:0:
23,298,94177,2,0,P|15:273|18:235,1,50,2|2,2:0|1:3,0:0:0:0:
89,261,94354,1,0,0:0:0:0:
112,253,94442,1,0,3:0:0:0:
137,255,94530,1,0,1:0:0:0:
159,266,94618,1,0,2:0:0:0:
174,286,94706,5,8,3:2:0:0:
258,100,94883,1,2,1:2:0:0:
138,38,95060,2,0,B|136:77|117:105|117:105|124:152|157:179,1,150,0|0,1:0|1:2,2:0:0:0:
258,100,95413,2,0,P|254:76|245:53,1,50,8|0,3:2|0:0,0:0:0:0:
151,174,95589,1,0,1:0:0:0:
255,294,95766,69,0,2:0:0:0:
405,173,95942,1,8,3:2:0:0:
435,168,96030,1,0,2:0:0:0:
448,196,96119,1,0,1:0:0:0:
351,350,96295,1,2,3:2:0:0:
230,204,96471,6,0,P|279:206|321:232,1,100,8|0,1:3|0:0,2:0:0:0:
411,89,96824,1,8,3:2:0:0:
257,16,97001,1,2,1:2:0:0:
260,41,97089,1,2,1:3:0:0:
273,62,97177,1,0,0:0:0:0:
296,73,97266,1,0,3:0:0:0:
310,94,97354,1,2,1:2:0:0:
411,89,97530,2,0,B|421:54|421:54|357:30,1,100,8|0,3:2|1:0,2:0:0:0:
212,166,97883,70,0,B|230:211|230:211|339:181,1,150,4|0,1:1|3:0,2:0:0:0:
347,172,98236,2,0,L|336:226,1,50,8|0,3:2|0:0,0:0:0:0:
317,336,98413,1,0,1:0:0:0:
432,170,98589,2,0,L|421:224,1,50,8|0,3:2|3:0,2:0:0:0:
317,336,98766,2,0,L|263:325,1,50,2|0,1:2|0:0,0:0:0:0:
145,298,98942,1,0,1:0:0:0:
272,104,99119,1,2,1:2:0:0:
272,104,99207,1,2,1:2:0:0:
272,104,99295,6,0,B|300:94|330:98|330:98|341:149|314:207,1,150,2|0,1:1|2:0,2:0:0:0:
261,239,99648,2,0,P|237:233|220:216,1,50,8|0,3:2|0:0,0:0:0:0:
191,86,99824,2,0,P|196:61|213:44,1,50,2|2,2:0|1:3,0:0:0:0:
322,187,100001,70,0,B|314:225|330:260|330:260|294:250|257:267,1,150,0|0,0:0|2:0,0:0:0:0:
191,86,100354,2,0,B|173:47|173:47|232:33|280:71,1,150,8|0,3:2|0:0,0:0:0:0:
293,335,100707,6,0,P|251:372|203:305,1,150,0|0,1:0|1:2,2:0:0:0:
257,267,101060,2,0,P|283:258|321:254,1,50,8|0,3:2|0:0,0:0:0:0:
465,282,101236,70,0,B|491:308|493:344|493:344|461:367|417:362,1,150,0|0,1:0|2:0,0:0:0:0:
380,295,101589,2,0,P|381:270|388:246,1,50,8|0,3:2|0:0,0:0:0:0:
366,175,101766,2,0,P|380:154|398:137,1,50,0|0,1:0|2:0,2:0:0:0:
413,64,101942,2,0,P|435:53|459:47,1,50,2|0,3:2|0:0,0:0:0:0:
407,141,102119,6,0,P|366:186|252:188,1,150,4|0,1:3|3:0,2:0:0:0:
168,130,102471,1,8,3:2:0:0:
295,30,102648,1,2,1:2:0:0:
295,30,102736,1,2,1:3:0:0:
185,230,103001,1,2,1:2:0:0:
2,96,103177,2,0,P|46:74|96:70,1,100,8|0,3:2|1:0,2:0:0:0:
168,130,103442,1,2,3:2:0:0:
168,130,103530,70,0,P|217:125|262:104,1,100,0|0,1:0|2:0,2:0:0:0:
146,0,103883,1,8,3:2:0:0:
89,205,104060,6,0,P|133:225|183:229,1,100,0|0,1:0|3:0,2:0:0:0:
295,30,104413,1,8,3:2:0:0:
96,70,104589,1,0,1:0:0:0:
168,130,104766,1,2,3:2:0:0:
168,130,104854,1,2,3:2:0:0:
168,130,104942,70,0,B|185:109|189:77|189:77|221:136|281:137,1,150,2|2,1:1|3:2,2:0:0:0:
288,203,105295,2,0,P|275:223|251:230,1,50,8|0,3:2|2:0,2:0:0:0:
253,34,105471,2,0,P|266:55|290:62,1,50,2|0,2:0|2:0,2:0:0:0:
381,168,105648,6,0,B|375:141|384:106|384:106|339:115|280:145,1,150,2|0,3:0|2:0,0:0:0:0:
159,279,106001,2,0,P|158:228|250:229,1,150,8|0,3:2|0:0,0:0:0:0:
368,313,106354,70,0,B|359:352|359:352|247:330,1,150,0|0,1:0|1:2,2:0:0:0:
246,341,106707,2,0,L|232:292,1,50,8|0,3:2|0:0,0:0:0:0:
315,206,106883,2,0,L|329:255,1,50,0|2,1:0|3:2,0:0:0:0:
240,215,107060,2,0,L|226:166,1,50,0|0,0:0|2:0,0:0:0:0:
323,62,107236,1,8,3:2:0:0:
323,62,107413,6,0,P|347:65|384:81,1,50,0|0,1:0|2:0,2:0:0:0:
391,218,107589,2,0,P|376:237|344:261,1,50,2|0,3:2|0:0,0:0:0:0:
226,166,107766,70,0,B|255:129|255:129|318:149,1,100,8|2,1:3|3:2,2:0:0:0:
246,342,108119,1,8,3:2:0:0:
95,209,108295,1,2,1:2:0:0:
95,209,108383,1,2,1:3:0:0:
356,253,108648,5,2,1:3:0:0:
162,334,108824,2,0,B|166:288|166:288|169:283|169:283|174:230,1,100,8|0,3:2|1:0,2:0:0:0:
324,107,109177,70,0,B|380:95|380:95|401:186,1,150,4|0,1:0|3:0,2:0:0:0:
324,107,109530,6,0,L|315:72,1,28.1249991416931,8|0,3:2|2:0,2:0:0:0:
363,20,109883,53,8,3:2:0:0:
419,266,110060,1,10,3:2:0:0:
173,322,110236,1,0,1:0:0:0:
117,76,110413,1,2,1:2:0:0:
117,76,110501,1,2,1:2:0:0:
117,76,110589,37,2,1:0:0:0:
130,100,110677,1,2,2:0:0:0:
137,127,110766,1,2,3:0:0:0:
138,155,110854,1,0,3:0:0:0:
133,182,110942,1,8,2:1:0:0:
68,292,111119,5,2,3:0:0:0:
54,267,111207,1,0,1:0:0:0:
48,239,111295,1,2,3:2:0:0:
75,244,111383,1,0,3:0:0:0:
100,256,111471,1,8,3:1:0:0:
120,275,111560,1,0,3:0:0:0:
134,299,111648,2,0,P|142:322|146:354,3,46.8750017881394,2|0|0|0,3:0|3:0|1:0|0:0,2:0:0:0:
207,269,112001,5,0,1:0:0:0:
213,241,112089,1,0,0:0:0:0:
219,213,112177,1,8,2:1:0:0:
240,230,112266,1,0,0:0:0:0:
263,244,112354,1,0,3:0:0:0:
286,258,112442,1,0,0:0:0:0:
313,250,112530,1,0,1:0:0:0:
340,242,112619,1,0,0:0:0:0:
354,218,112707,1,8,2:1:0:0:
364,191,112795,1,0,0:0:0:0:
386,208,112883,1,0,3:2:0:0:
409,223,112971,1,0,0:0:0:0:
432,238,113060,2,0,L|483:224,3,46.8750017881394,2|0|0|0,1:3|0:0|3:0|2:0,2:0:0:0:
426,265,113413,1,0,1:0:0:0:
288,174,113589,5,0,0:0:0:0:
285,146,113677,1,0,3:0:0:0:
290,118,113766,2,0,P|300:95|316:75,3,46.8750017881394,8|0|2|0,2:1|2:0|3:0|1:0,2:0:0:0:
378,41,114119,37,0,0:0:0:0:
405,35,114207,1,0,3:0:0:0:
432,36,114295,1,0,1:0:0:0:
434,63,114383,1,0,0:0:0:0:
429,90,114471,1,2,3:0:0:0:
413,113,114560,1,0,3:0:0:0:
387,124,114648,2,0,P|375:142|368:168,1,46.8750017881394,0|0,1:0|0:0,0:0:0:0:
430,300,114824,5,0,1:0:0:0:
451,282,114913,1,0,0:0:0:0:
438,257,115001,1,8,2:1:0:0:
423,232,115089,1,0,0:0:0:0:
397,242,115177,1,0,3:0:0:0:
370,251,115266,1,0,0:0:0:0:
342,244,115354,1,0,1:0:0:0:
315,234,115442,1,8,2:1:0:0:
291,249,115530,6,0,L|246:231,3,46.8750017881394,0|0|0|0,0:0|2:0|3:2|0:0,0:0:0:0:
184,278,115883,2,0,L|190:325,1,46.8750017881394,0|0,1:0|0:0,2:0:0:0:
262,356,116060,2,0,L|300:326,1,46.8750017881394,0|0,3:0|0:0,0:0:0:0:
368,166,116236,5,2,1:0:0:0:
368,166,116324,1,2,2:0:0:0:
347,134,116413,1,2,3:0:0:0:
313,117,116501,1,0,3:0:0:0:
275,117,116589,1,8,2:1:0:0:
294,44,116766,37,2,3:0:0:0:
256,42,116854,1,0,1:0:0:0:
221,57,116942,1,0,0:0:0:0:
201,88,117030,1,0,3:0:0:0:
197,125,117119,2,0,P|204:148|209:171,1,46.8750017881394,8|0,2:1|0:0,0:0:0:0:
128,97,117295,5,2,3:0:0:0:
90,98,117383,1,0,3:0:0:0:
60,121,117471,1,0,1:0:0:0:
50,157,117560,1,0,0:0:0:0:
62,192,117648,2,0,P|68:214|73:237,1,46.8750017881394,0|0,1:0|0:0,0:0:0:0:
12,290,117824,5,8,2:1:0:0:
3,326,117913,1,0,0:0:0:0:
18,360,118001,1,0,3:0:0:0:
52,375,118089,1,0,0:0:0:0:
88,369,118177,2,0,P|111:360|150:350,1,46.8750017881394,0|0,1:0|0:0,0:0:0:0:
168,284,118354,5,8,2:1:0:0:
194,310,118442,1,0,0:0:0:0:
231,311,118530,1,0,3:2:0:0:
264,294,118619,1,0,0:0:0:0:
283,261,118707,1,2,1:3:0:0:
308,233,118795,1,0,0:0:0:0:
344,223,118883,1,0,3:0:0:0:
379,235,118971,1,0,3:0:0:0:
374,272,119060,1,0,1:0:0:0:
368,274,119148,1,0,0:0:0:0:
362,277,119236,2,0,L|354:228,1,46.8750017881394,0|0,0:0|3:0,0:0:0:0:
337,97,119413,37,8,3:1:0:0:
366,74,119501,1,0,3:0:0:0:
403,73,119589,1,2,3:0:0:0:
437,87,119677,1,0,1:0:0:0:
455,120,119766,2,0,P|430:135|404:144,1,46.8750017881394,0|0,0:0|2:0,0:0:0:0:
271,140,119942,5,8,2:1:0:0:
271,140,120030,1,0,3:0:0:0:
257,104,120119,1,2,3:0:0:0:
265,67,120207,1,0,0:0:0:0:
231,84,120295,1,0,1:0:0:0:
194,78,120383,1,0,0:0:0:0:
161,58,120471,6,0,P|155:36|153:12,3,46.8750017881394,8|8|8|0,2:1|2:1|2:1|0:0,0:0:0:0:
138,85,120824,2,0,P|144:107|146:131,1,46.8750017881394,0|0,3:0|0:0,0:0:0:0:
91,83,121001,1,8,2:1:0:0:
91,83,121089,1,8,2:1:0:0:
91,83,121177,54,0,P|85:61|83:37,2,46.8750017881394,8|0|0,2:1|0:0|3:0,0:0:0:0:
55,111,121442,1,8,2:1:0:0:
55,111,121530,6,0,P|61:133|63:157,1,46.8750017881394,0|0,0:0|3:0,0:0:0:0:
31,319,121707,1,8,2:1:0:0:
28,312,121795,1,8,2:1:0:0:
15,281,121883,1,2,1:0:0:0:
132,329,122060,69,0,0:0:0:0:
158,339,122148,1,0,3:0:0:0:
185,342,122236,1,8,2:1:0:0:
212,338,122324,1,0,0:0:0:0:
239,329,122413,1,2,3:0:0:0:
403,271,122589,5,0,0:0:0:0:
378,257,122677,1,0,0:0:0:0:
349,253,122766,1,8,2:1:0:0:
321,259,122854,1,0,3:0:0:0:
299,276,122942,1,2,3:0:0:0:
314,299,123030,1,0,0:0:0:0:
320,326,123119,2,0,P|318:353|310:375,1,46.8750017881394,0|0,1:2|2:0,2:0:0:0:
239,329,123295,5,0,1:2:0:0:
222,306,123383,1,0,0:0:0:0:
217,278,123471,1,0,0:0:0:0:
223,250,123560,1,0,3:0:0:0:
195,257,123648,1,2,3:2:0:0:
167,253,123736,1,0,0:0:0:0:
142,238,123824,1,8,2:1:0:0:
130,213,123913,1,0,0:0:0:0:
92,200,124001,6,0,B|81:144|81:144|82:129|82:129|71:70,2,125.000004768372,0|2|0,0:0|0:0|3:0,0:0:0:0:
192,61,124707,1,0,1:0:0:0:
270,138,124883,37,0,0:0:0:0:
289,118,124971,1,0,0:0:0:0:
299,91,125060,1,8,2:1:0:0:
297,63,125148,1,0,0:0:0:0:
320,78,125236,2,0,P|341:88|372:93,1,46.8750017881394,2|0,3:0|1:2,0:0:0:0:
474,70,125413,5,0,0:0:0:0:
472,41,125501,1,0,3:0:0:0:
448,55,125589,1,8,2:1:0:0:
437,80,125677,1,0,0:0:0:0:
437,108,125766,1,2,3:0:0:0:
447,134,125854,1,0,2:0:0:0:
457,160,125942,2,0,P|455:187|444:213,1,46.8750017881394,0|0,1:2|0:0,0:0:0:0:
348,294,126119,6,0,P|325:286|302:285,3,46.8750017881394,0|0|0|0,1:2|0:0|0:0|2:0,2:0:0:0:
274,289,126471,1,2,3:2:0:0:
247,300,126560,1,0,0:0:0:0:
227,320,126648,1,8,2:1:0:0:
217,346,126736,1,0,0:0:0:0:
216,374,126824,6,0,B|161:366|161:366|153:368|153:368|85:360,2,125.000004768372,0|2|0,0:0|0:0|3:0,0:0:0:0:
280,213,127530,1,2,1:0:0:0:
121,157,127707,37,0,0:0:0:0:
97,128,127795,1,0,3:0:0:0:
97,90,127883,1,8,2:1:0:0:
122,62,127971,1,0,3:0:0:0:
158,54,128060,2,0,P|180:58|203:69,1,46.8750017881394,2|0,3:0|1:2,0:0:0:0:
219,142,128236,5,0,3:0:0:0:
247,166,128324,1,0,3:0:0:0:
284,164,128413,1,8,3:1:0:0:
311,138,128501,1,0,3:0:0:0:
321,101,128589,2,0,P|312:82|302:47,1,46.8750017881394,2|0,3:0|0:0,0:0:0:0:
364,21,128766,5,0,1:2:0:0:
401,24,128854,1,0,0:0:0:0:
424,53,128942,1,0,1:2:0:0:
431,87,129030,1,0,0:0:0:0:
414,121,129119,2,0,P|403:143|392:182,1,46.8750017881394,0|0,0:0|2:0,0:0:0:0:
356,244,129295,5,2,3:2:0:0:
354,281,129383,1,0,0:0:0:0:
375,311,129471,1,8,2:1:0:0:
411,319,129560,1,0,0:0:0:0:
443,301,129648,2,0,P|464:292|487:286,1,46.8750017881394,0|0,0:0|2:0,0:0:0:0:
395,164,129824,2,0,P|372:158|350:149,1,46.8750017881394,2|0,3:2|0:0,0:0:0:0:
430,229,130001,2,0,P|451:220|474:214,3,46.8750017881394,8|0|0|0,2:1|2:0|0:0|2:0,0:0:0:0:
421,233,130354,38,0,B|377:233|379:257|316:259,1,93.7500035762788,0|0,1:0|0:0,2:0:0:0:
200,313,130707,1,8,2:1:0:0:
333,181,130883,1,2,3:0:0:0:
333,181,130971,6,0,B|289:181|291:205|228:207,1,93.7500035762788,0|0,1:2|2:0,2:0:0:0:
236,203,131236,2,0,P|228:180|223:157,1,46.8750017881394,8|0,2:1|2:0,2:0:0:0:
331,257,131413,2,0,P|338:279|343:302,1,46.8750017881394,2|0,3:0|0:0,0:0:0:0:
200,313,131589,1,0,1:2:0:0:
200,313,131677,1,0,0:0:0:0:
200,313,131766,6,0,L|272:295,1,46.8750017881394,0|0,1:2|0:0,2:0:0:0:
198,321,131942,2,0,L|126:339,1,46.8750017881394,0|0,2:0|0:0,0:0:0:0:
333,181,132119,1,8,2:1:0:0:
333,181,132207,2,0,L|405:163,1,46.8750017881394,8|0,2:1|0:0,0:0:0:0:
236,203,132383,6,0,B|225:164|225:164|225:153|225:153|212:101,1,93.7500035762788,8|8,2:1|2:1,0:0:0:0:
217,106,132648,1,0,0:0:0:0:
219,100,132736,2,0,L|222:49,1,46.8750017881394,8|0,2:1|0:0,0:0:0:0:
290,111,132913,53,8,2:1:0:0:
290,104,133001,2,0,L|293:53,1,46.8750017881394,8|8,2:1|2:1,0:0:0:0:
364,21,133177,6,0,B|388:44|388:44|361:175,1,140.625005364418,8|0,1:3|0:0,2:0:0:0:
355,144,133530,2,0,L|368:254,1,93.7500035762788,0|0,1:0|3:0,2:0:0:0:
410,316,133795,5,0,3:0:0:0:
410,316,133883,2,0,P|350:262|296:277,1,140.625005364418,8|0,1:2|0:0,2:0:0:0:
298,275,134236,1,0,1:0:0:0:
159,339,134413,37,0,3:0:0:0:
88,204,134589,2,0,L|98:311,1,93.7500035762788,0|0,1:0|2:0,2:0:0:0:
230,236,134942,5,0,1:0:0:0:
301,101,135118,2,0,L|291:208,1,93.7500035762788,0|8,3:0|1:2,0:0:0:0:
162,135,135471,5,0,2:0:0:0:
91,0,135647,2,0,L|101:107,1,93.7500035762788,0|0,1:0|3:0,2:0:0:0:
82,357,136001,5,0,1:0:0:0:
166,287,136177,2,0,P|119:312|58:321,1,93.7500035762788,0|0,2:0|1:0,0:0:0:0:
295,363,136530,37,0,3:0:0:0:
304,254,136706,2,0,P|288:304|251:354,1,93.7500035762788,8|0,1:2|2:0,2:0:0:0:
448,216,137060,5,0,1:0:0:0:
378,133,137236,2,0,P|403:180|412:241,1,93.7500035762788,0|0,3:0|1:0,0:0:0:0:
204,47,137589,5,0,3:0:0:0:
277,34,137766,2,0,L|273:76,1,37.5,0|0,1:0|3:0,2:0:0:0:
264,93,138119,6,0,B|242:116|242:116|273:230,1,140.625005364418,8|0,1:2|0:0,2:0:0:0:
321,283,138471,2,0,B|308:257|308:257|227:246|227:246|204:270,1,140.625005364418,0|0,2:1|0:0,0:0:0:0:
257,331,138824,37,4,2:3:0:0:
257,331,139177,5,0,3:0:0:0:
169,343,139267,1,2,3:2:0:0:
122,286,139354,1,8,2:1:0:0:
123,245,139442,1,8,2:1:0:0:
132,231,139531,5,0,1:0:0:0:
145,228,139619,1,0,0:0:0:0:
152,240,139707,1,0,3:0:0:0:
142,249,139795,1,0,0:0:0:0:
130,245,139882,5,0,3:0:0:0:
144,235,139971,1,0,3:0:0:0:
166,200,140060,1,2,3:0:0:0:
153,127,140148,1,8,3:1:0:0:
91,66,140236,5,8,3:0:0:0:
217,56,140413,21,0,3:0:0:0:
315,52,140589,2,0,P|265:43|222:27,1,93.7500035762788,0|0,1:0|3:0,2:0:0:0:
261,185,140942,5,0,1:0:0:0:
347,230,141118,2,0,P|308:197|278:161,1,93.7500035762788,8|0,3:1|1:0,0:0:0:0:
209,301,141471,5,0,3:0:0:0:
260,382,141647,2,0,P|242:334|235:288,1,93.7500035762788,8|0,1:0|3:0,2:0:0:0:
78,251,142001,5,0,1:0:0:0:
122,103,142177,2,0,L|138:217,1,93.7500035762788,0|0,2:0|1:0,0:0:0:0:
235,292,142530,37,8,3:1:0:0:
279,144,142706,2,0,L|295:258,1,93.7500035762788,0|0,1:0|3:0,0:0:0:0:
512,339,143060,5,8,1:0:0:0:
366,308,143236,1,0,2:0:0:0:
444,297,143413,6,0,L|433:354,2,46.8750017881394,0|0|0,1:0|0:0|2:0,2:0:0:0:
146,360,143766,5,8,1:0:0:0:
292,329,143942,1,0,3:0:0:0:
222,364,144119,38,0,L|214:318,1,46.8750017881394,0|0,1:0|0:0,0:0:0:0:
199,246,144295,2,0,L|190:199,1,46.8750017881394,0|0,3:0|2:0,0:0:0:0:
32,56,144471,5,2,1:3:0:0:
491,95,144824,5,2,1:3:0:0:
70,325,145177,5,2,1:3:0:0:
385,354,145530,37,2,1:3:0:0:
366,128,145883,6,0,B|391:107|418:119|418:119|395:128|379:148,1,93.7500035762788,2|0,3:2|2:0,2:0:0:0:
329,193,146148,6,0,B|254:189|254:189|228:156|228:156|124:150,1,187.500007152558,0|0,3:2|0:0,2:0:0:0:
102,88,146589,6,0,L|72:92,6,23.4375008940697,10|0|2|0|2|0|0,3:2|0:0|3:2|0:0|3:2|0:0|0:0,2:0:0:0:
111,100,146942,2,0,L|126:252,1,140.625005364418,0|0,3:2|2:0,2:0:0:0:
56,281,147295,38,0,B|78:263|78:263|214:284,1,140.625005364418,2|0,1:0|3:0,2:0:0:0:
188,280,147648,1,8,2:1:0:0:
79,355,147824,5,2,3:0:0:0:
79,355,147912,2,0,B|98:344|98:344|198:360,1,93.7500035762788,0|0,1:2|2:0,2:0:0:0:
168,355,148177,1,8,2:1:0:0:
306,235,148354,6,0,L|299:275,3,25,2|0|0|0,3:0|0:0|1:2|2:0,0:0:0:0:
308,221,148707,6,0,L|217:215,1,75,0|0,1:2|2:0,2:0:0:0:
234,216,149059,1,2,3:2:0:0:
338,147,149236,38,0,L|204:138,1,121.874994421006,8|0,2:1|2:0,2:0:0:0:
217,138,149589,1,2,3:2:0:0:
369,73,149766,6,0,L|189:60,1,168.749994850159,8|0,2:1|2:0,2:0:0:0:
200,60,150119,6,0,P|173:18|64:42,1,140.625005364418,0|0,1:0|2:0,2:0:0:0:
89,14,150472,1,8,2:1:0:0:
96,171,150649,5,2,3:0:0:0:
96,171,150737,2,0,P|124:129|123:70,1,93.7500035762788,0|0,1:2|2:0,2:0:0:0:
127,86,151002,1,8,2:1:0:0:
45,248,151178,38,0,L|22:258,3,25,2|0|0|0,3:0|0:0|1:2|2:0,0:0:0:0:
56,242,151531,6,0,P|94:252|142:239,1,75,0|0,1:2|2:0,2:0:0:0:
128,245,151884,1,2,3:2:0:0:
173,371,152060,6,0,P|201:343|225:255,1,121.874994421006,8|0,2:1|2:0,0:0:0:0:
225,265,152413,1,2,3:2:0:0:
396,342,152589,6,0,P|386:303|269:195,1,168.749994850159,8|8,2:1|2:1,2:0:0:0:
302,208,152942,38,0,L|311:58,1,140.625005364418,2|0,1:0|3:0,0:0:0:0:
310,67,153295,1,8,2:1:0:0:
380,194,153471,5,2,3:0:0:0:
380,194,153560,2,0,L|388:73,1,93.7500035762788,0|0,1:2|2:0,2:0:0:0:
386,100,153824,1,8,2:1:0:0:
240,100,154001,6,0,L|236:60,3,25,2|0|0|0,3:0|0:0|1:2|2:0,0:0:0:0:
242,116,154354,6,0,B|216:131|216:131|157:114,1,75,0|0,1:2|0:0,2:0:0:0:
172,118,154707,1,2,3:2:0:0:
143,5,154883,38,0,B|150:25|150:25|67:121,1,121.874994421006,8|0,2:1|2:0,0:0:0:0:
85,102,155236,1,2,3:2:0:0:
0,144,155413,6,0,B|25:145|25:145|82:295,1,168.749994850159,8|0,2:1|0:0,2:0:0:0:
77,279,155766,6,0,B|236:269,1,140.625005364418,0|0,1:0|0:0,2:0:0:0:
217,270,156119,1,8,2:1:0:0:
265,129,156295,5,2,3:0:0:0:
265,129,156383,2,0,B|244:139|244:139|227:182|279:219,1,93.7500035762788,0|0,1:2|2:0,2:0:0:0:
260,203,156648,1,8,2:1:0:0:
337,274,156824,38,0,L|342:227,1,46.8750017881394,2|0,3:0|0:0,0:0:0:0:
354,255,157001,1,0,1:2:0:0:
352,131,157177,5,0,1:2:0:0:
171,18,157707,6,0,L|183:118,1,93.7499971389771,0|0,3:2|2:0,2:0:0:0:
228,163,158236,2,0,L|245:161,6,9.37499971389771,0|0|0|0|0|0|0,3:2|2:0|2:0|2:0|2:0|2:0|2:0,2:0:0:0:
220,177,158589,6,0,P|162:157|111:177,1,93.75,0|0,3:2|2:0,2:0:0:0:
109,91,158942,2,0,P|62:131|54:185,1,93.75,0|0,3:2|2:0,2:0:0:0:
93,228,159295,38,0,L|98:283,3,31.2500011920929,0|2|2|0,3:2|3:2|3:2|2:0,2:0:0:0:
23,243,159648,2,0,L|179:248,1,140.625005364418,0|0,3:2|0:0,2:0:0:0:
163,247,160001,5,8,1:3:0:0:
340,281,162648,6,0,L|344:228,1,46.8750017881394,2|0,2:0|2:0,2:0:0:0:
353,259,162824,1,2,2:0:0:0:
406,73,165295,6,0,B|388:93|388:93|310:81,1,93.7500035762788,2|0,3:0|2:0,2:0:0:0:
327,90,165560,1,2,2:0:0:0:
326,89,165648,38,0,L|336:166,1,46.8750017881394,2|0,1:3|2:0,2:0:0:0:
344,206,165824,1,0,2:0:0:0:
180,98,168471,6,0,L|126:103,1,46.8750017881394,2|0,2:0|0:0,2:0:0:0:
158,111,168648,1,0,2:0:0:0:
139,269,170236,5,2,3:2:0:0:
138,274,170324,1,0,2:0:0:0:
115,287,170413,6,0,L|178:295,1,46.8750017881394,0|0,2:0|0:0,0:0:0:0:
212,345,170589,38,0,B|230:332|230:332|332:349,1,93.7500035762788,2|0,1:2|0:0,2:0:0:0:
408,274,170942,2,0,L|406:254,6,15.625,2|0|0|2|0|0|2,3:2|0:0|0:0|2:0|0:0|0:0|2:0,2:0:0:0:
346,221,171295,5,4,1:2:0:0:
327,178,171383,1,0,0:0:0:0:
338,134,171471,1,0,0:0:0:0:
374,105,171559,1,0,2:0:0:0:
420,103,171648,2,0,P|421:129|414:164,1,46.8750017881394,8|0,2:1|2:0,2:0:0:0:
289,276,171824,5,0,3:0:0:0:
243,285,171912,1,0,1:2:0:0:
198,272,172000,1,0,0:0:0:0:
165,240,172088,1,0,2:0:0:0:
149,197,172177,2,0,L|204:181,1,46.8750017881394,8|0,2:1|0:0,0:0:0:0:
221,67,172354,2,0,L|237:121,3,46.8750017881394,0|0|0|0,3:2|0:0|3:2|3:2,0:0:0:0:
306,151,172707,6,0,L|406:121,1,84.3749974250794,8|0,2:1|2:0,2:0:0:0:
450,170,173060,1,0,3:2:0:0:
306,72,173236,38,0,L|406:42,1,84.3749974250794,8|0,2:1|2:0,2:0:0:0:
450,170,173589,1,0,3:2:0:0:
225,80,173766,6,0,B|216:44|178:27|178:27|217:39|257:12,1,150,8|0,2:1|2:0,2:0:0:0:
306,72,174119,1,0,1:2:0:0:
79,122,174471,5,8,2:1:0:0:
193,153,174648,1,0,3:0:0:0:
193,153,174736,1,0,1:2:0:0:
79,122,175001,1,8,2:1:0:0:
79,122,175089,1,0,0:0:0:0:
79,122,175177,2,0,L|85:158,3,28.1249991416931,0|0|0|0,3:2|0:0|3:2|3:2,0:0:0:0:
193,153,175530,6,0,P|224:126|266:120,1,84.3749974250794,8|0,2:1|2:0,2:0:0:0:
325,167,175883,1,0,3:2:0:0:
409,16,176060,38,0,P|420:80|395:140,1,131.249995994568,8|0,2:1|2:0,2:0:0:0:
325,167,176413,1,0,3:2:0:0:
450,341,176589,6,0,P|367:311|312:242,1,178.124995243549,8|8,2:1|2:1,2:0:0:0:
325,167,176943,5,0,1:2:0:0:
366,153,177031,1,0,0:0:0:0:
409,164,177119,1,0,0:0:0:0:
438,197,177207,1,0,2:0:0:0:
446,240,177295,2,0,P|424:266|390:279,1,59.3749984145165,8|0,2:1|0:0,2:0:0:0:
251,191,177471,5,0,3:0:0:0:
224,155,177559,1,0,1:2:0:0:
219,112,177647,1,0,0:0:0:0:
236,71,177735,1,0,2:0:0:0:
272,45,177824,2,0,P|292:68|306:95,1,59.3749984145165,8|0,2:1|0:0,0:0:0:0:
204,262,178001,2,0,P|184:239|170:212,3,59.3749984145165,0|0|0|0,3:2|0:0|0:0|0:0,0:0:0:0:
215,337,178354,38,0,L|316:353,1,84.3749974250794,8|0,2:1|2:0,2:0:0:0:
364,384,178707,1,0,3:2:0:0:
204,262,178883,6,0,L|305:278,1,84.3749974250794,8|0,2:1|2:0,2:0:0:0:
291,271,179236,1,0,3:2:0:0:
295,267,179324,1,0,0:0:0:0:
193,187,179413,6,0,L|294:203,1,84.3749974250794,8|0,2:1|2:0,2:0:0:0:
372,119,179766,5,0,1:2:0:0:
371,113,179854,1,0,2:0:0:0:
370,107,179942,1,0,2:0:0:0:
294,92,180119,37,8,2:1:0:0:
293,86,180207,1,0,2:0:0:0:
292,80,180295,1,0,3:0:0:0:
291,74,180383,1,0,1:2:0:0:
223,44,180471,6,0,L|217:3,3,28.1249991416931,0|0|8|0,0:0|2:0|2:1|0:0,0:0:0:0:
154,134,180824,6,0,B|122:187|51:181|51:181|42:143|56:114,1,187.5,0|0,3:2|3:2,0:0:0:0:
159,140,181177,6,0,P|145:160|125:171,1,37.5,8|0,2:1|2:0,2:0:0:0:
66,42,181530,5,2,3:0:0:0:
66,42,181619,2,0,B|83:24|83:24|85:58,4,46.8750017881394,2|2|2|2|2,3:2|2:0|2:0|2:0|2:0,2:0:0:0:
56,115,181883,21,2,1:2:0:0:
50,161,181971,1,0,3:1:0:0:
59,207,182060,1,8,3:1:0:0:
84,246,182148,1,2,3:2:0:0:
123,270,182236,5,8,1:0:0:0:
134,268,182324,1,0,3:1:0:0:
142,260,182413,1,8,3:1:0:0:
144,249,182501,1,2,3:2:0:0:
138,242,182589,6,0,P|135:269|150:298,2,43.749998664856,0|0|0,3:2|2:0|2:0,2:0:0:0:
80,334,182942,6,0,P|88:355|101:372,1,43.749998664856,2|0,1:0|3:2,2:0:0:0:
224,272,183119,2,0,P|238:255|246:235,1,43.749998664856,8|8,2:1|2:1,0:0:0:0:
97,179,183295,38,0,P|75:174|53:177,1,43.749998664856,8|0,1:0|3:2,2:0:0:0:
80,334,183471,2,0,P|88:355|101:372,1,43.749998664856,8|8,2:1|2:1,0:0:0:0:
224,272,183648,2,0,B|239:262|246:235|246:235|206:198|220:134,1,131.249995994568,2|0,1:3|0:0,2:0:0:0:
284,129,184001,6,0,P|292:150|283:188,1,43.749998664856,2|0,1:3|3:2,2:0:0:0:
142,279,184177,2,0,P|119:275|91:248,1,43.749998664856,8|8,2:1|2:1,0:0:0:0:
83,81,184354,1,2,1:2:0:0:
83,81,184442,1,0,3:2:0:0:
83,81,184530,2,0,P|97:63|134:52,1,43.749998664856,8|0,2:1|2:0,2:0:0:0:
284,129,184707,6,0,P|292:150|283:188,1,43.749998664856,8|0,1:0|3:2,0:0:0:0:
142,279,184883,1,8,2:1:0:0:
221,51,185060,2,0,B|256:13|315:23|315:23|298:67,1,131.249995994568,2|2,1:3|3:2,2:0:0:0:
228,255,185413,6,0,P|220:234|229:196,1,43.749998664856,2|0,1:3|2:0,2:0:0:0:
357,218,185589,2,0,P|379:221|407:248,1,43.749998664856,2|0,3:2|2:0,2:0:0:0:
324,348,185766,2,0,P|309:365|272:376,1,43.749998664856,4|0,1:0|0:0,0:0:0:0:
228,255,185942,1,8,2:1:0:0:
396,233,186119,38,0,P|404:254|394:291,1,43.749998664856,0|0,1:0|2:0,2:0:0:0:
291,374,186295,2,0,P|268:370|240:343,1,43.749998664856,8|0,3:1|2:0,2:0:0:0:
221,213,186471,2,0,B|248:180|309:177|309:177|318:222,1,131.249995994568,2|0,1:3|0:0,2:0:0:0:
180,322,186824,5,10,1:3:0:0:
85,175,187001,1,2,3:2:0:0:
75,147,187089,1,8,3:1:0:0:
78,118,187177,1,0,1:0:0:0:
92,93,187265,1,2,3:2:0:0:
115,75,187353,1,4,3:0:0:0:
143,68,187442,1,2,3:2:0:0:
171,73,187530,5,2,1:2:0:0:
185,113,187618,1,2,3:2:0:0:
216,144,187706,1,8,2:1:0:0:
257,157,187794,1,2,3:2:0:0:
300,150,187883,2,0,L|289:101,3,43.749998664856,2|2|8|8,1:2|3:2|3:1|3:1,0:0:0:0:
346,47,188236,6,0,P|370:51|410:68,1,43.749998664856,2|0,1:0|3:2,2:0:0:0:
355,217,188413,2,0,P|339:235|304:261,1,43.749998664856,2|2,2:3|2:0,2:0:0:0:
216,144,188589,2,0,P|207:121|202:78,1,43.749998664856,0|0,1:3|3:2,0:0:0:0:
346,47,188766,2,0,P|370:51|410:68,1,43.749998664856,8|8,2:1|2:1,2:0:0:0:
355,217,188942,37,2,1:3:0:0:
348,219,189030,1,2,2:0:0:0:
331,244,189119,1,8,2:1:0:0:
324,247,189207,1,2,2:0:0:0:
296,322,189295,2,0,B|292:353|292:353|256:381|256:381|177:340|177:340|162:235,1,224.999993133545,2|0,1:3|2:0,2:0:0:0:
301,151,189648,6,0,P|320:140|359:132,1,43.749998664856,2|0,1:3|3:2,2:0:0:0:
447,241,189824,2,0,P|447:262|434:300,1,43.749998664856,8|0,2:1|2:3,2:0:0:0:
296,322,190001,1,2,1:2:0:0:
296,322,190089,1,0,3:2:0:0:
296,322,190177,2,0,P|276:311|250:281,1,43.749998664856,8|8,2:1|2:1,2:0:0:0:
301,151,190354,6,0,P|320:140|359:132,1,43.749998664856,8|0,1:0|3:2,0:0:0:0:
447,241,190530,1,8,2:1:0:0:
235,210,190707,2,0,B|177:207|155:156|155:156|193:143,1,131.249995994568,2|2,1:3|3:2,2:0:0:0:
182,146,191060,6,0,L|192:83,1,43.749998664856,12|0,1:0|2:0,2:0:0:0:
307,194,191236,2,0,L|297:130,1,43.749998664856,2|0,3:2|2:0,2:0:0:0:
128,304,191413,54,0,L|143:241,1,43.749998664856,0|0,1:3|3:2,0:0:0:0:
342,324,191589,2,0,L|326:261,1,43.749998664856,8|8,2:1|2:1,2:0:0:0:
224,355,191766,69,0,1:0:0:0:
225,362,191854,1,0,2:0:0:0:
232,361,191942,1,8,3:1:0:0:
231,354,192030,1,2,2:0:0:0:
230,358,192119,2,0,B|248:315|248:315|226:277|226:277|251:208,1,131.249995994568,2|8,1:3|2:1,2:0:0:0:
239,238,192471,6,0,L|233:166,1,56.2499982833863,0|0,1:3|0:0,2:0:0:0:
331,281,192824,1,8,2:1:0:0:
315,125,193001,1,0,1:0:0:0:
314,117,193089,1,0,2:0:0:0:
313,110,193177,1,8,2:1:0:0:
313,103,193265,1,8,2:1:0:0:
312,96,193353,1,8,2:1:0:0:
331,281,193530,2,0,P|363:315|412:295,1,84.3749974250794,0|0,1:3|2:0,2:0:0:0:
387,231,193883,6,0,P|345:207|254:284,2,168.749994850159,4|2|8,1:2|3:2|2:0,2:0:0:0:
237,66,195295,2,0,P|195:90|216:207,2,168.749994850159,0|2|8,3:0|3:2|2:0,2:0:0:0:
19,113,196707,2,0,P|19:161|131:201,2,168.749994850159,0|2|8,1:2|3:2|2:0,2:0:0:0:
237,66,198119,2,0,B|297:63|308:122|408:107,1,168.749994850159,0|2,3:0|3:2,2:0:0:0:
396,108,198736,1,0,2:0:0:0:
396,108,198824,1,2,3:2:0:0:
364,22,199001,1,0,3:0:0:0:
310,178,199177,1,8,2:0:0:0:
310,178,199530,5,4,1:2:0:0:
364,22,200060,1,2,3:2:0:0:
310,178,200589,1,0,2:0:0:0:
237,66,200942,1,8,3:2:0:0:
284,353,201295,38,0,B|288:329|288:329|292:324|292:324|296:289,1,56.2499982833863,8|0,2:0|0:0,0:0:0:0:
238,253,201648,1,2,3:2:0:0:
232,253,201736,1,0,0:0:0:0:
226,253,201824,1,0,3:0:0:0:
220,253,201913,6,0,B|217:236|217:236|214:230|214:230|211:206,2,46.8750017881394,0|0|8,3:2|0:0|2:0,0:0:0:0:
308,136,202089,6,0,B|304:155|304:155|305:163|305:163|301:183,2,43.749998664856,0|0|0,0:0|2:0|0:0,0:0:0:0:
213,95,202354,6,0,P|195:62|202:24,1,67.5000016479493,4|0,2:1|0:0,2:0:0:0:
202,30,202707,1,0,0:0:0:0:
276,51,202883,1,0,0:0:0:0:
209,207,203060,1,0,0:0:0:0:
59,131,203236,1,0,0:0:0:0:
59,131,203589,37,0,0:0:0:0:
59,131,203942,1,0,0:0:0:0:
276,51,204119,1,0,0:0:0:0:
366,304,204471,5,0,0:0:0:0:
149,384,204648,1,0,0:0:0:0:
59,131,204824,2,0,L|140:146,1,67.5000016479493
197,154,205177,5,2,1:0:0:0:
363,21,215060,69,6,2:3:0:0:
363,21,215413,2,0,L|361:6,6,11.2500002746582,0|0|0|0|0|0|0,2:0|0:0|2:0|2:0|2:0|2:0|2:0,0:0:0:0:
363,21,215766,6,0,B|357:84|357:84|361:81|361:81|355:152,1,140.625005364418,0|0,2:0|0:0,0:0:0:0:
354,153,216119,6,0,P|320:112|256:130,2,93.7500035762788,0|0|12,2:0|2:0|2:1,2:0:0:0:
254,372,217530,38,0,L|250:326,1,37.5,0|0,2:0|2:0,2:0:0:0:
309,228,217883,54,0,B|286:301|286:301|129:260,1,224.999993133545,4|0,1:2|2:0,2:0:0:0:
50,254,218236,2,0,B|12:273|12:273|90:264,1,74.9999977111817,8|0,3:2|0:0,0:0:0:0:
209,182,218413,5,2,2:0:0:0:
219,192,218501,1,2,1:3:0:0:
230,203,218590,2,0,L|248:79,1,74.9999977111817,0|0,3:0|3:0,3:0:0:0:
316,155,218766,69,0,1:0:0:0:
155,133,218942,2,0,B|115:82|124:22|172:-11|172:-11|169:27|207:56,1,224.999993133545,8|2,3:2|3:2,2:0:0:0:
228,203,219295,6,0,B|220:162|220:162|79:187|79:187|90:244,1,224.999993133545,0|0,1:0|1:2,2:0:0:0:
0,178,219648,2,0,B|-10:143|-10:143|14:112,1,74.9999977111817,10|0,3:2|0:0,0:0:0:0:
123,350,219824,69,0,1:0:0:0:
136,342,219912,1,2,3:2:0:0:
148,334,220001,2,0,L|162:242,1,74.9999977111817,0|0,0:0|2:0,0:0:0:0:
308,222,220177,2,0,B|318:187|318:187|294:156,1,74.9999977111817,10|0,3:2|0:0,0:0:0:0:
230,203,220354,5,0,1:0:0:0:
178,19,220530,1,0,3:0:0:0:
112,67,220707,70,0,B|218:58|218:58|223:52|223:52|388:40,1,224.999993133545,4|0,1:3|3:0,2:0:0:0:
422,69,221060,2,0,B|439:27|439:27|426:0,1,74.9999977111817,8|0,3:2|0:0,0:0:0:0:
356,124,221236,5,2,1:2:0:0:
352,139,221324,1,2,1:3:0:0:
348,154,221413,2,0,L|478:162,1,74.9999977111817,0|0,0:0|3:0,0:0:0:0:
491,113,221589,69,2,1:2:0:0:
398,261,221766,2,0,P|346:179|199:202,1,224.999993133545,8|2,3:2|3:2,2:0:0:0:
260,325,222119,6,0,P|384:298|543:299,1,224.999993133545,0|0,1:3|3:0,2:0:0:0:
512,208,222471,2,0,P|520:161|452:131,1,74.9999977111817,8|0,3:2|0:0,0:0:0:0:
358,0,222648,69,0,1:0:0:0:
364,15,222736,1,0,0:0:0:0:
369,30,222824,2,0,L|354:149,1,74.9999977111817,2|0,3:0|3:0,0:0:0:0:
205,13,223001,2,0,L|324:-2,1,74.9999977111817,8|0,3:2|0:0,0:0:0:0:
293,155,223177,5,0,1:0:0:0:
119,183,223353,1,2,3:2:0:0:
74,106,223530,70,0,L|98:342,1,224.999993133545,2|0,1:1|3:0,2:0:0:0:
170,384,223883,2,0,B|192:352|192:352|176:309,1,74.9999977111817,8|0,3:2|0:0,0:0:0:0:
15,174,224060,5,2,2:0:0:0:
46,192,224148,1,2,1:3:0:0:
84,196,224236,1,0,0:0:0:0:
119,183,224324,1,0,3:0:0:0:
145,157,224413,69,0,1:0:0:0:
283,61,224589,2,0,B|225:-1|225:-1|260:162,1,224.999993133545,8|0,3:2|0:0,2:0:0:0:
210,228,224942,6,0,B|229:161|301:160|301:160|324:215|385:215,1,224.999993133545,0|0,1:3|3:2,2:0:0:0:
449,106,225295,2,0,B|443:125|443:125|347:137,1,74.9999977111817,8|0,3:2|0:0,0:0:0:0:
270,380,225471,69,0,1:0:0:0:
276,365,225559,1,2,3:2:0:0:
281,350,225648,2,0,L|266:231,1,74.9999977111817,0|0,0:0|2:0,0:0:0:0:
150,176,225824,2,0,L|165:57,1,74.9999977111817,8|0,3:2|0:0,0:0:0:0:
302,64,226001,6,0,P|260:87|131:-11,1,224.999993133545,0|0,1:0|0:0,2:0:0:0:
354,0,226354,2,0,P|330:114|315:241,1,224.999993133545,4|0,1:0|3:0,2:0:0:0:
343,350,226707,2,0,P|362:329|359:271,1,74.9999977111817,8|0,3:2|0:0,0:0:0:0:
231,277,226883,69,2,1:2:0:0:
225,292,226971,1,2,1:3:0:0:
220,307,227060,2,0,P|247:312|296:281,1,74.9999977111817,0|0,0:0|3:1,0:0:0:0:
424,372,227236,5,2,1:2:0:0:
482,152,227413,2,0,P|395:246|284:162,1,224.999993133545,8|0,3:2|0:0,0:0:0:0:
210,382,227766,69,8,1:3:0:0:
148,333,227855,1,0,0:0:0:0:
127,265,227943,1,0,0:0:0:0:
141,214,228031,1,0,3:0:0:0:
169,179,228119,1,8,3:2:0:0:
199,167,228208,1,0,2:0:0:0:
224,172,228296,1,0,1:0:0:0:
236,181,228384,1,0,2:0:0:0:
241,189,228471,6,0,L|253:83,1,74.9999977111817,8|0,3:2|3:0,2:0:0:0:
261,42,228648,1,2,1:2:0:0:
407,297,228824,70,0,P|436:248|381:155,1,149.999995422363,0|2,1:0|1:2,2:0:0:0:
452,113,229089,1,2,1:2:0:0:
400,175,229177,6,0,B|272:193|272:193|238:182|227:139|253:110,1,224.999993133545,2|0,1:1|2:0,2:0:0:0:
338,67,229530,2,0,B|351:44|351:44|328:-10,1,74.9999977111817,8|0,3:2|0:0,0:0:0:0:
113,100,229707,69,2,2:0:0:0:
103,112,229795,1,2,1:3:0:0:
95,124,229883,2,0,L|185:116,1,74.9999977111817,0|0,0:0|3:0,0:0:0:0:
249,114,230060,5,0,1:0:0:0:
123,16,230236,2,0,B|159:256,1,224.999993133545,8|0,3:2|0:0,0:0:0:0:
342,259,230589,70,0,B|364:227|364:227|310:177|310:177|245:212|245:212|260:252,1,224.999993133545,0|0,1:3|1:2,2:0:0:0:
197,316,230942,2,0,B|183:329|183:329|94:316,1,74.9999977111817,8|0,3:2|0:0,0:0:0:0:
9,236,231119,5,0,1:0:0:0:
15,221,231207,1,2,3:3:0:0:
20,206,231295,2,0,L|5:87,1,74.9999977111817,0|0,0:0|2:0,0:0:0:0:
193,78,231471,2,0,L|178:-41,1,74.9999977111817,8|0,3:2|2:0,2:0:0:0:
339,261,231648,2,0,L|324:142,1,74.9999977111817,0|0,1:0|2:0,0:0:0:0:
512,133,231824,2,0,L|497:14,1,74.9999977111817,2|0,3:2|2:0,2:0:0:0:
464,325,232001,70,0,P|340:298|181:299,1,224.999993133545,4|0,1:3|0:0,2:0:0:0:
157,250,232354,2,0,P|138:210|152:173,1,74.9999977111817,8|0,3:2|0:0,0:0:0:0:
293,115,232530,5,2,1:2:0:0:
281,125,232618,1,2,1:3:0:0:
269,133,232706,2,0,L|276:42,1,74.9999977111817,0|0,0:0|3:0,0:0:0:0:
184,115,232883,69,2,1:2:0:0:
369,145,233060,1,8,3:2:0:0:
66,31,233236,6,0,B|14:97|65:174|65:174|75:138|104:117,1,224.999993133545,0|0,1:0|0:0,2:0:0:0:
170,354,233589,2,0,B|210:202|210:202|145:181,1,224.999993133545,8|0,3:2|2:0,0:0:0:0:
61,258,233942,2,0,P|170:230|323:225,1,224.999993133545,0|0,1:0|0:0,2:0:0:0:
413,272,234295,69,0,1:2:0:0:
444,202,234384,1,0,0:0:0:0:
424,136,234472,1,0,3:0:0:0:
382,107,234560,1,0,0:0:0:0:
338,104,234648,1,2,3:2:0:0:
322,116,234737,1,2,3:2:0:0:
318,125,234824,6,0,B|234:117|234:117|203:72|203:72|117:63,1,224.999993133545,2|0,1:1|2:0,2:0:0:0:
32,36,235177,2,0,B|-5:57|-5:57|63:47,1,74.9999977111817,8|0,3:2|0:0,0:0:0:0:
146,251,235354,69,2,2:0:0:0:
155,239,235442,1,2,1:3:0:0:
164,227,235530,2,0,L|152:129,1,74.9999977111817,0|0,0:0|3:0,0:0:0:0:
232,134,235707,5,0,1:0:0:0:
5,170,235883,1,8,3:2:0:0:
201,384,236060,70,0,L|212:286,1,74.9999977111817,2|0,1:2|0:0,0:0:0:0:
66,292,236236,2,0,L|304:268,1,224.999993133545,8|0,1:3|1:2,2:0:0:0:
377,225,236589,2,0,B|391:188|391:188|372:156,1,74.9999977111817,8|0,3:2|0:0,0:0:0:0:
164,104,236766,5,0,1:0:0:0:
149,108,236854,1,2,3:2:0:0:
135,113,236943,2,0,B|121:76|121:76|139:44,1,74.9999977111817,0|0,0:0|2:0,0:0:0:0:
199,0,237119,69,8,3:2:0:0:
26,79,237295,2,0,B|125:89|125:89|138:85|138:85|303:103,1,224.999993133545,0|0,1:0|2:0,2:0:0:0:
373,158,237648,6,0,B|301:174|301:174|269:6,1,224.999993133545,4|0,1:0|3:0,2:0:0:0:
363,0,238001,2,0,B|403:12|403:12|344:25,1,74.9999977111817,8|0,3:2|0:0,0:0:0:0:
465,216,238177,69,2,1:2:0:0:
456,204,238265,1,2,1:3:0:0:
447,192,238353,2,0,L|459:94,1,74.9999977111817,0|0,0:0|3:0,0:0:0:0:
475,39,238530,5,2,1:2:0:0:
295,220,238707,2,0,L|304:294,1,74.9999977111817,8|0,3:2|3:0,0:0:0:0:
91,108,238883,69,0,1:0:0:0:
0,50,239060,5,4,1:3:0:0:
63,8,239148,1,0,0:0:0:0:
130,10,239236,1,0,2:0:0:0:
172,39,239325,1,0,3:0:0:0:
209,54,239413,1,8,3:2:0:0:
244,51,239501,1,2,2:0:0:0:
262,39,239589,1,0,1:0:0:0:
275,37,239677,1,2,2:0:0:0:
284,40,239766,70,0,L|289:122,1,74.9999977111817,8|0,3:2|2:0,2:0:0:0:
362,33,239942,2,0,L|367:115,1,74.9999977111817,10|0,3:2|2:0,2:0:0:0:
497,163,240119,6,0,B|469:177|469:177|449:303,1,149.999995422363,0|2,1:0|1:2,2:0:0:0:
495,354,240383,1,2,1:2:0:0:
448,302,240471,6,0,L|289:317,1,140.625005364418,8|0,1:3|3:0,2:0:0:0:
307,315,240824,1,8,2:1:0:0:
443,219,241001,2,0,L|284:234,1,140.625005364418,2|0,3:0|2:0,0:0:0:0:
302,232,241354,1,8,2:1:0:0:
227,182,241530,2,0,B|200:143|200:143|218:94,1,93.7500035762788,2|0,3:0|1:0,2:0:0:0:
457,67,241883,5,0,1:0:0:0:
450,143,242060,1,8,2:1:0:0:
443,219,242236,1,0,0:0:0:0:
349,6,242413,5,0,1:0:0:0:
342,82,242590,1,8,2:1:0:0:
335,158,242766,1,0,3:2:0:0:
219,87,242942,5,2,1:3:0:0:
57,111,243119,1,0,3:0:0:0:
133,28,243295,38,0,B|122:51|122:51|156:167,1,140.625005364418,0|0,1:0|3:0,2:0:0:0:
154,161,243648,1,8,2:1:0:0:
317,224,243824,2,0,L|222:208,1,93.7500035762788,2|0,3:0|0:0,0:0:0:0:
98,341,244177,2,0,B|71:298|71:298|105:188,1,140.625005364418,8|0,2:1|3:0,0:0:0:0:
97,212,244530,1,0,1:0:0:0:
247,314,244707,5,0,1:0:0:0:
323,321,244884,1,8,2:1:0:0:
399,328,245060,1,0,0:0:0:0:
224,208,245237,5,0,1:0:0:0:
300,215,245414,1,2,3:0:0:0:
376,222,245590,1,2,3:2:0:0:
512,100,245766,5,0,1:0:0:0:
353,65,245942,1,0,3:0:0:0:
439,14,246119,38,0,L|425:157,1,140.625005364418,2|0,1:0|0:0,2:0:0:0:
425,153,246471,1,8,2:1:0:0:
300,215,246648,2,0,L|313:358,1,140.625005364418,2|0,3:0|2:0,0:0:0:0:
313,354,247001,1,8,2:1:0:0:
412,384,247177,2,0,B|442:345|442:345|431:302,1,93.7500035762788,2|0,3:0|1:0,2:0:0:0:
181,273,247530,5,0,1:0:0:0:
174,197,247707,1,8,2:1:0:0:
167,121,247883,1,0,0:0:0:0:
96,359,248060,5,0,1:0:0:0:
89,283,248237,1,8,2:1:0:0:
82,207,248413,1,0,3:2:0:0:
255,340,248589,6,0,B|272:329|272:329|355:342,1,93.7500035762788,2|0,1:3|3:0,2:0:0:0:
419,352,248942,1,0,1:0:0:0:
419,352,249295,37,8,2:1:0:0:
428,189,249471,1,2,3:0:0:0:
468,271,249648,6,0,B|457:262|457:262|346:275,1,93.7500035762788,2|0,3:2|0:0,0:0:0:0:
374,263,249913,1,0,2:0:0:0:
370,255,250001,2,0,B|347:249|347:249|325:257,1,46.8750017881394,2|0,3:0|0:0,0:0:0:0:
284,201,250178,2,0,B|263:213|263:213|254:234,1,46.8750017881394,0|0,1:0|0:0,0:0:0:0:
269,314,250354,70,0,L|266:344,2,18.7499994277954,8|8|8,2:1|2:1|2:1,0:0:0:0:
125,331,250707,1,0,3:0:0:0:
197,347,250883,2,0,L|199:377,2,18.7499994277954,8|8|8,2:1|2:1|2:1,0:0:0:0:
342,324,251766,6,0,P|358:271|306:209,1,140.625005364418,2|0,1:0|0:0,2:0:0:0:
179,198,252119,70,0,P|169:170|169:136,1,46.8750017881394,8|0,2:1|0:0,2:0:0:0:
245,160,252295,2,0,P|256:92|285:50,1,93.7500035762788,2|0,3:0|0:0,0:0:0:0:
364,153,252648,22,0,P|337:140|313:116,1,46.8750017881394,8|0,2:1|0:0,0:0:0:0:
383,79,252824,2,0,P|342:23|333:-27,1,93.7500035762788,2|0,3:0|1:2,2:0:0:0:
63,112,253177,6,0,P|84:103|107:104,1,46.8750017881394,0|0,1:2|0:3,0:3:0:0:
144,27,253353,2,0,P|164:36|179:54,1,46.8750017881394,2|0,3:0|0:3,2:0:0:0:
261,25,253530,2,0,P|268:46|267:69,1,46.8750017881394,2|0,3:2|0:3,0:3:0:0:
200,167,253707,38,0,P|194:189|197:212,1,46.8750017881394,8|0,2:1|0:3,0:3:0:0:
284,196,253884,2,0,P|295:215|314:229,1,46.8750017881394,0|0,3:0|0:3,2:0:0:0:
364,160,254060,2,0,P|386:165|409:160,1,46.8750017881394,2|0,2:0|0:3,0:3:0:0:
424,384,254236,6,0,P|449:336|419:282,1,93.7500035762788,8|2,3:1|2:0,2:0:0:0:
366,302,254501,1,2,2:0:0:0:
358,313,254589,2,0,P|304:303|253:305,1,93.7500035762788,0|0,1:0|2:0,2:0:0:0:
169,373,254942,6,0,P|135:364|119:355,1,46.8750017881394,8|0,2:1|2:0,2:0:0:0:
169,297,255119,2,0,P|149:238|151:189,1,93.7500035762788,2|0,3:0|0:0,0:0:0:0:
9,215,255471,6,0,P|0:181|0:162,1,46.8750017881394,8|0,2:1|0:0,0:0:0:0:
75,177,255648,2,0,P|116:130|159:107,1,93.7500035762788,2|0,3:0|1:2,0:0:0:0:
372,374,256001,38,0,P|395:379|418:376,1,46.8750017881394,0|0,1:2|0:3,0:3:0:0:
402,290,256178,2,0,P|421:278|435:259,1,46.8750017881394,0|0,2:0|0:3,2:0:0:0:
366,210,256354,2,0,P|371:187|366:164,1,46.8750017881394,2|0,3:2|0:3,0:3:0:0:
278,33,256531,6,0,P|271:59|271:98,1,46.8750017881394,8|0,2:1|0:3,0:3:0:0:
209,142,256707,2,0,P|220:140|242:138,6,23.4375008940697,0|0|0|0|2|0|0,2:0|2:0|2:0|2:0|3:2|2:0|2:0,2:0:0:0:
236,212,257060,5,8,2:1:0:0:
238,235,257148,1,0,0:0:0:0:
241,258,257236,1,0,3:1:0:0:
244,281,257324,1,8,2:1:0:0:
247,305,257413,6,0,P|275:299|312:298,1,46.8750017881394,2|0,1:0|0:0,2:0:0:0:
311,227,257589,2,0,P|375:258|419:293,1,93.7500035762788,0|8,2:0|2:1,0:0:0:0:
471,186,257942,38,0,P|451:164|432:133,1,46.8750017881394,2|0,3:0|1:2,0:3:0:0:
372,170,258118,2,0,P|366:99|375:43,1,93.7500035762788,0|8,0:3|2:1,0:3:0:0:
256,9,258471,6,0,P|214:56|114:35,1,140.625005364418,2|0,3:0|0:0,0:0:0:0:
77,107,258824,6,0,P|66:86|62:64,1,46.8750017881394,0|0,1:2|0:0,0:0:0:0:
78,191,259001,2,0,P|54:190|32:182,1,46.8750017881394,2|0,3:0|0:0,2:0:0:0:
150,232,259177,2,0,P|137:252|120:267,1,46.8750017881394,2|0,3:2|0:0,0:0:0:0:
78,384,259354,6,0,P|78:350|94:322,1,46.8750017881394,8|0,2:1|0:0,0:0:0:0:
168,333,259530,2,0,P|191:310|222:301,1,46.8750017881394,2|0,3:0|0:0,2:0:0:0:
267,361,259707,2,0,P|300:361|328:377,1,46.8750017881394,2|0,3:2|0:0,0:0:0:0:
394,331,259883,38,0,P|423:279|396:198,1,140.625005364418,8|2,2:1|2:0,2:0:0:0:
381,128,260236,2,0,P|320:153|266:147,1,93.7500035762788,0|0,1:0|0:0,2:0:0:0:
256,260,260589,6,0,P|221:265|200:261,1,46.8750017881394,8|0,2:1|2:0,2:0:0:0:
226,192,260766,2,0,P|173:151|152:101,1,93.7500035762788,2|0,3:0|0:0,0:0:0:0:
41,176,261119,6,0,P|19:148|12:128,1,46.8750017881394,8|0,2:1|0:0,0:0:0:0:
84,116,261296,2,0,P|92:50|125:6,1,93.7500035762788,2|0,3:0|1:2,0:0:0:0:
178,50,261648,6,0,P|183:21|175:-3,2,50,0|0|0,1:2|0:0|2:0,2:0:0:0:
160,128,262177,2,0,P|189:82|287:90,1,150,0|0,3:2|3:2,2:0:0:0:
363,21,263060,5,4,1:2:0:0:
