osu file format v14

[General]
AudioFilename: audio.mp3
AudioLeadIn: 0
PreviewTime: 67064
Countdown: 0
SampleSet: Soft
StackLeniency: 0.4
Mode: 0
LetterboxInBreaks: 0
WidescreenStoryboard: 1

[Editor]
Bookmarks: 682,10894,14086,24937,35149,46639,67064,87490,97702,107915,123234,134085,144297,146850
DistanceSpacing: 0.6
BeatDivisor: 4
GridSize: 32
TimelineZoom: 2.1

[Metadata]
Title:Excelsia
TitleUnicode:Excelsia
Artist:ak+q
ArtistUnicode:ak+q
Creator:DeviousPanda
Version:Light Insane
Source:
Tags:
BeatmapID:1685591
BeatmapSetID:768680

[Difficulty]
HPDrainRate:4.5
CircleSize:3.5
OverallDifficulty:6
ApproachRate:8.3
SliderMultiplier:2
SliderTickRate:1

[Events]
//Background and Video events
0,0,"9388924a-b2c6-422a-c271-6fb729d642ca.jpg",0,0
//Break Periods
2,11094,13336
//Storyboard Layer 0 (Background)
//Storyboard Layer 1 (Fail)
//Storyboard Layer 2 (Pass)
//Storyboard Layer 3 (Foreground)
//Storyboard Sound Samples

[TimingPoints]
682,319.148936170213,4,2,1,40,1,0
682,-200,4,2,1,40,0,0
14086,319.148936170213,4,2,2,60,1,1
16639,-133.333333333333,4,2,2,60,0,1
19192,-100,4,2,2,60,0,1
21745,-133.333333333333,4,2,2,60,0,1
24937,319.148936170213,4,2,1,40,1,0
24937,-133.333333333333,4,2,2,40,0,0
46639,-100,4,2,2,60,0,1
56831,-100,4,2,2,60,0,0
56851,-100,4,2,2,60,0,1
67064,-200,4,2,2,40,0,0
87968,-142.857142857143,4,2,2,40,0,0
88447,-111.111111111111,4,2,2,40,0,0
88926,-90.9090909090909,4,2,2,40,0,0
90043,-142.857142857143,4,2,2,40,0,0
90522,-111.111111111111,4,2,2,40,0,0
91000,-90.9090909090909,4,2,2,40,0,0
91479,-76.9230769230769,4,2,2,40,0,0
91958,-142.857142857143,4,2,2,40,0,0
93075,-111.111111111111,4,2,2,40,0,0
93554,-90.9090909090909,4,2,2,40,0,0
94032,-76.9230769230769,4,2,2,40,0,0
95149,-111.111111111111,4,2,2,40,0,0
97702,319.148936170213,3,2,2,50,1,0
101531,319.148936170213,4,2,2,50,1,0
102807,319.148936170213,3,2,2,50,1,0
106639,319.148936170213,4,2,2,50,1,0
107277,-83.3333333333333,4,2,2,50,0,0
107596,-71.4285714285714,4,2,2,50,0,0
107915,319.148936170213,3,2,2,50,1,0
107915,-83.3333333333333,3,2,2,60,0,1
111425,-125,3,2,2,60,0,1
111744,-125,3,2,2,50,0,0
115574,-100,3,2,2,60,0,1
119404,-100,3,2,2,50,0,0
122595,-125,3,2,2,50,0,0
123234,319.148936170213,4,2,2,60,1,1
133446,-200,3,2,2,60,0,1
133526,-200,3,2,2,60,0,1
133606,-200,3,2,2,50,0,1
133686,-200,3,2,2,40,0,1
133765,-200,3,2,2,30,0,1
134085,319.148936170213,4,2,1,30,1,0
134085,-200,4,2,1,40,0,0

[Colours]
Combo1 : 128,0,0
Combo2 : 253,201,130

[HitObjects]
125,191,682,6,0,P|174:208|325:157,2,200,0|4|0,0:0|0:0|0:0,0:0:0:0:
68,127,2596,1,4,0:0:0:0:
37,252,3235,1,0,0:0:0:0:
230,315,3873,6,0,L|213:101,2,200,4|0|4,0:0|0:0|0:0,0:0:0:0:
175,384,5788,1,0,0:0:0:0:
321,334,6426,6,0,P|376:320|524:365,2,200,4|0|4,0:0|0:0|0:0,0:0:0:0:
247,270,8341,6,0,L|260:67,1,200,0|4,0:0|0:0,0:0:0:0:
251,26,9299,1,0,0:0:0:0:
211,6,9618,2,0,P|163:0|100:21,1,100
68,79,10256,1,4,0:0:0:0:
228,147,10894,5,0,0:0:0:0:
51,271,14086,6,0,P|137:286|225:209,1,200,14|4,1:0|0:0,0:0:0:0:
178,87,14564,1,8,0:0:0:0:
228,147,14724,2,0,P|228:197|206:242,1,100,8|8,0:0|0:0,0:0:0:0:
114,203,15043,5,8,0:0:0:0:
114,203,15123,1,8,0:0:0:0:
114,203,15203,2,0,L|101:130,2,50,8|8|4,0:0|0:0|0:0,0:0:0:0:
61,89,15522,2,0,L|72:40,2,50,8|8|8,0:0|0:0|0:0,0:0:0:0:
140,0,15841,1,8,0:0:0:0:
14,213,16000,6,0,L|130:201,1,100,8|8,0:0|0:0,0:0:0:0:
169,274,16320,1,4,0:0:0:0:
169,274,16639,6,0,L|257:289,1,75.000002861023,14|8,1:0|0:0,0:0:0:0:
321,299,16958,1,4,0:0:0:0:
444,150,17117,6,0,L|381:224,1,75.000002861023,8|8,0:0|0:0,0:0:0:0:
321,299,17436,1,4,0:0:0:0:
229,103,17596,5,8,0:0:0:0:
229,103,17676,1,8,0:0:0:0:
229,103,17756,2,0,P|272:115|326:97,1,75.000002861023,8|4,0:0|0:0,0:0:0:0:
444,150,18075,1,8,0:0:0:0:
444,150,18234,2,0,P|410:119|357:108,1,75.000002861023,8|8,0:0|0:0,0:0:0:0:
344,42,18554,5,8,0:0:0:0:
344,42,18633,1,8,0:0:0:0:
344,42,18713,2,0,L|335:-12,2,37.5000014305115,8|8|4,0:0|0:0|0:0,0:0:0:0:
342,175,19032,1,8,0:0:0:0:
91,64,19192,6,0,B|194:39|174:156|302:101,1,200,14|4,1:0|0:0,0:0:0:0:
243,23,19671,1,8,0:0:0:0:
116,154,19830,2,0,P|100:214|134:283,1,100,8|8,0:0|0:0,0:0:0:0:
187,301,20149,5,8,0:0:0:0:
187,301,20229,1,8,0:0:0:0:
187,301,20309,2,0,L|244:295,2,50,8|8|4,0:0|0:0|0:0,0:0:0:0:
313,336,20628,2,0,L|370:342,2,50,8|8|8,0:0|0:0|0:0,0:0:0:0:
438,298,20947,1,8,0:0:0:0:
295,125,21107,6,0,L|288:240,1,100,8|8,0:0|0:0,0:0:0:0:
236,295,21426,1,4,0:0:0:0:
236,295,21745,6,0,P|186:306|144:291,1,75.0000028610231,14|8,1:0|0:0,0:0:0:0:
108,244,22064,1,4,0:0:0:0:
177,53,22224,6,0,P|216:96|223:133,1,75.0000028610231,8|8,0:0|0:0,0:0:0:0:
198,210,22543,1,4,0:0:0:0:
91,154,22703,5,8,0:0:0:0:
91,154,22782,1,8,0:0:0:0:
91,154,22862,2,0,L|145:151,2,37.5000014305115,8|8|4,0:0|0:0|0:0,0:0:0:0:
198,210,23181,2,0,L|252:213,2,37.5000014305115,8|8|8,0:0|0:0|0:0,0:0:0:0:
310,143,23500,5,8,0:0:0:0:
310,143,23580,1,8,0:0:0:0:
310,143,23660,2,0,P|341:211|310:282,1,150.000005722046,8|4,0:0|0:0,0:0:0:0:
107,350,24139,1,8,0:0:0:0:
166,297,24298,2,0,P|206:283|248:286,1,75.0000028610231,8|8,0:0|0:0,0:0:0:0:
287,384,24617,5,4,0:0:0:0:
287,384,24697,1,8,0:0:0:0:
287,384,24777,2,0,L|283:339,1,37.5000014305115,8|8,0:0|0:0,0:0:0:0:
249,208,24937,6,0,B|363:281|461:193|461:193|426:107|335:105|335:105|426:107|472:33,1,525.000020027161,14|0,1:0|0:0,0:0:0:0:
343,21,26213,6,0,B|285:17|237:63|254:125|254:125|168:124|99:222|188:348|311:314|329:224,1,525.000020027161,8|0,0:0|0:0,0:0:0:0:
249,208,27490,6,0,L|76:214,2,150.000005722046,8|8|4,0:0|0:0|0:0,0:0:0:0:
332,182,28447,1,8,0:0:0:0:
332,182,28607,1,8,0:0:0:0:
332,182,28766,2,0,P|302:115|335:16,2,150.000005722046,8|8|4,0:0|0:0|0:0,0:0:0:0:
404,217,29724,1,8,0:0:0:0:
325,282,30043,6,0,L|165:278,2,150.000005722046,8|8|4,0:0|0:0|0:0,0:0:0:0:
386,331,31000,1,8,0:0:0:0:
404,217,31319,6,0,B|385:168|385:168|422:54,1,150.000005722046,8|8,0:0|0:0,0:0:0:0:
397,29,31798,2,0,B|320:6|326:64|242:37,2,150.000005722046,8|8|8,0:0|0:0|0:0,0:0:0:0:
468,62,32596,1,8,0:0:0:0:
404,217,32915,6,0,P|357:225|315:216,1,75.0000028610231,8|8,0:0|0:0,0:0:0:0:
186,279,33234,2,0,P|222:248|263:235,1,75.0000028610231,4|8,0:0|0:0,0:0:0:0:
375,332,33554,6,0,P|330:315|298:286,1,75.0000028610231,8|8,0:0|0:0,0:0:0:0:
204,161,33873,2,0,P|251:152|293:162,1,75.0000028610231,8|8,0:0|0:0,0:0:0:0:
330,221,34192,1,8,0:0:0:0:
111,202,34351,5,8,0:0:0:0:
111,202,34431,1,8,0:0:0:0:
111,202,34511,2,0,P|92:147|107:104,1,75.0000028610231,4|8,0:0|0:0,0:0:0:0:
174,63,34830,5,8,0:0:0:0:
208,63,34910,1,8,0:0:0:0:
242,62,34990,2,0,L|281:57,2,37.5000014305115,8|8|14,0:0|0:0|1:0,0:0:0:0:
198,309,35628,6,0,B|195:253|195:253|207:214|207:214|203:145,2,150.000005722046,8|8|8,0:0|0:0|0:0,0:0:0:0:
255,367,36426,2,0,P|306:382|391:325,1,150.000005722046,8|8,0:0|0:0,0:0:0:0:
284,143,36905,5,8,0:0:0:0:
304,291,37064,1,4,0:0:0:0:
326,61,37383,5,8,0:0:0:0:
255,367,37702,6,0,B|165:354|165:354|100:370|100:370|23:359,2,225.000008583069,8|8|8,0:0|0:0|0:0,0:0:0:0:
325,332,38819,1,8,0:0:0:0:
355,259,38979,2,0,P|339:204|303:171,1,75.0000028610231,8|8,0:0|0:0,0:0:0:0:
201,103,39298,2,0,P|242:142|290:153,1,75.0000028610231,8|8,0:0|0:0,0:0:0:0:
381,46,39617,6,0,L|371:127,1,75.0000028610231,4|8,0:0|0:0,0:0:0:0:
360,263,39937,1,8,0:0:0:0:
360,263,40096,1,8,0:0:0:0:
201,103,40256,5,14,1:0:0:0:
201,103,40575,6,0,P|159:87|122:94,1,75.0000028610231,8|8,0:0|0:0,0:0:0:0:
