osu file format v14

[General]
AudioFilename: audio.mp3
AudioLeadIn: 0
PreviewTime: 67064
Countdown: 0
SampleSet: Soft
StackLeniency: 0.4
Mode: 0
LetterboxInBreaks: 0
WidescreenStoryboard: 1

[Editor]
Bookmarks: 682,10894,14086,24937,35149,46639,67064,87490,97702,107915,123234,134085,144297,146850
DistanceSpacing: 0.6
BeatDivisor: 4
GridSize: 32
TimelineZoom: 2.1

[Metadata]
Title:Excelsia
TitleUnicode:Excelsia
Artist:ak+q
ArtistUnicode:ak+q
Creator:DeviousPanda
Version:Extra
Source:
Tags:
BeatmapID:1682201
BeatmapSetID:768680

[Difficulty]
HPDrainRate:5.5
CircleSize:4
OverallDifficulty:7
ApproachRate:9
SliderMultiplier:2.4
SliderTickRate:1

[Events]
//Background and Video events
0,0,"9388924a-b2c6-422a-c271-6fb729d642ca.jpg",0,0
//Break Periods
2,11094,13486
2,67264,81783
//Storyboard Layer 0 (Background)
//Storyboard Layer 1 (Fail)
//Storyboard Layer 2 (Pass)
//Storyboard Layer 3 (Foreground)
//Storyboard Sound Samples

[TimingPoints]
682,319.148936170213,4,2,1,40,1,0
682,-200,4,2,1,40,0,0
14086,319.148936170213,4,2,2,60,1,1
16639,-133.333333333333,4,2,2,60,0,1
19192,-100,4,2,2,60,0,1
21745,-133.333333333333,4,2,2,60,0,1
24937,319.148936170213,4,2,1,40,1,0
24937,-133.333333333333,4,2,2,40,0,0
46639,-100,4,2,2,60,0,1
56831,-100,4,2,2,60,0,0
56851,-100,4,2,2,60,0,1
67064,-200,4,2,2,40,0,0
87968,-142.857142857143,4,2,2,40,0,0
88447,-111.111111111111,4,2,2,40,0,0
88926,-90.9090909090909,4,2,2,40,0,0
90043,-142.857142857143,4,2,2,40,0,0
90522,-111.111111111111,4,2,2,40,0,0
91000,-90.9090909090909,4,2,2,40,0,0
91479,-76.9230769230769,4,2,2,40,0,0
91958,-142.857142857143,4,2,2,40,0,0
93075,-111.111111111111,4,2,2,40,0,0
93554,-90.9090909090909,4,2,2,40,0,0
94032,-76.9230769230769,4,2,2,40,0,0
95149,-111.111111111111,4,2,2,40,0,0
97702,319.148936170213,3,2,2,50,1,0
101531,319.148936170213,4,2,2,50,1,0
102807,319.148936170213,3,2,2,50,1,0
106639,319.148936170213,4,2,2,50,1,0
107277,-83.3333333333333,4,2,2,50,0,0
107596,-71.4285714285714,4,2,2,50,0,0
107915,319.148936170213,3,2,2,50,1,0
107915,-83.3333333333333,3,2,2,60,0,1
111425,-125,3,2,2,60,0,1
111744,-125,3,2,2,50,0,0
115574,-100,3,2,2,60,0,1
119404,-100,3,2,2,50,0,0
122595,-125,3,2,2,50,0,0
123234,319.148936170213,4,2,2,60,1,1
133446,-200,3,2,2,60,0,1
133526,-200,3,2,2,60,0,1
133606,-200,3,2,2,50,0,1
133686,-200,3,2,2,40,0,1
133765,-200,3,2,2,30,0,1
134085,319.148936170213,4,2,1,30,1,0
134085,-200,4,2,1,40,0,0

[Colours]
Combo1 : 128,0,0
Combo2 : 253,201,130

[HitObjects]
225,241,682,6,0,P|336:261|428:161,2,240,0|4|0,0:0|0:0|0:0,0:0:0:0:
166,179,2277,1,0,0:0:0:0:
127,255,2596,2,0,L|125:387,2,120,4|0|0,0:0|0:0|0:0,0:0:0:0:
124,61,3873,5,4,0:0:0:0:
192,102,4192,1,0,0:0:0:0:
266,70,4511,2,0,L|397:67,2,120,0|0|4,0:0|0:0|0:0,0:0:0:0:
192,102,5469,6,0,P|185:145|197:182,1,60
231,227,5788,1,0,0:0:0:0:
270,352,6107,6,0,P|277:309|265:272,1,60
231,227,6426,2,0,L|107:236,2,120,4|0|0,0:0|0:0|0:0,0:0:0:0:
304,174,7384,1,0,0:0:0:0:
373,229,7703,1,4,0:0:0:0:
373,229,8341,6,0,P|353:170|377:101,1,120
327,51,8979,2,0,L|198:64,2,120,4|0|0,0:0|0:0|0:0,0:0:0:0:
407,42,9937,1,0,0:0:0:0:
465,97,10256,1,4,0:0:0:0:
256,192,10894,5,0,0:0:0:0:
0,121,14086,6,0,P|89:142|189:114,1,180,14|0,1:0|0:0,0:0:0:0:
212,77,14405,2,0,P|180:110|163:152,1,60,4|0,0:0|0:0,0:0:0:0:
183,357,14564,6,0,P|245:290|271:189,1,180,10|0,1:0|0:0,0:0:0:0:
251,151,14883,2,0,P|263:195|291:230,1,60,4|0,0:0|0:0,0:0:0:0:
478,315,15043,6,0,P|451:227|377:154,1,180,10|0,0:0|0:0,0:0:0:0:
334,153,15362,2,0,P|378:164|423:157,1,60,4|0,0:0|0:0,0:0:0:0:
291,74,15522,6,0,L|88:80,1,180,10|0,0:0|0:0,0:0:0:0:
38,82,15841,1,4,0:0:0:0:
160,164,16000,5,8,0:0:0:0:
160,164,16080,1,8,0:0:0:0:
160,164,16160,2,0,L|71:166,1,60,4|0,0:0|0:0,0:0:0:0:
38,82,16320,1,10,1:0:0:0:
38,82,16639,5,14,1:0:0:0:
6,194,16798,1,8,0:0:0:0:
89,276,16958,1,4,0:0:0:0:
0,203,17117,5,10,1:0:0:0:
91,286,17276,1,8,0:0:0:0:
208,248,17436,1,4,0:0:0:0:
90,161,17596,5,10,0:0:0:0:
89,181,17676,1,8,0:0:0:0:
88,201,17756,1,8,0:0:0:0:
87,221,17836,1,8,0:0:0:0:
86,241,17915,2,0,L|93:307,1,45.0000017166138,14|0,0:0|0:0,0:0:0:0:
59,356,18075,1,10,0:0:0:0:
160,328,18234,2,0,P|221:330|291:369,1,135.000005149841,10|0,0:0|0:0,0:0:0:0:
358,333,18554,5,8,0:0:0:0:
346,292,18633,1,8,0:0:0:0:
353,247,18713,2,0,P|368:228|391:212,1,45.0000017166138,10|0,0:0|0:0,0:0:0:0:
503,283,18873,5,8,0:0:0:0:
483,284,18953,1,8,0:0:0:0:
463,285,19032,1,8,0:0:0:0:
443,286,19112,1,8,0:0:0:0:
424,287,19192,6,0,P|366:221|348:122,1,180,14|0,1:0|0:0,0:0:0:0:
362,76,19511,2,0,P|361:106|346:133,1,60,4|0,0:0|0:0,0:0:0:0:
240,358,19671,6,0,P|267:275|344:210,1,180,10|0,1:0|0:0,0:0:0:0:
391,199,19990,2,0,P|364:213|333:214,1,60,4|0,0:0|0:0,0:0:0:0:
87,232,20149,6,0,P|172:214|266:248,1,180,10|0,1:0|0:0,0:0:0:0:
300,284,20468,2,0,P|274:268|258:241,1,60,4|0,0:0|0:0,0:0:0:0:
342,34,20628,6,0,L|333:234,1,180,10|0,0:0|0:0,0:0:0:0:
380,274,20947,1,4,0:0:0:0:
512,192,21107,5,10,0:0:0:0:
512,192,21187,1,8,0:0:0:0:
512,192,21266,2,0,L|427:196,1,60,4|0,0:0|0:0,0:0:0:0:
380,274,21426,1,10,0:0:0:0:
380,274,21745,5,14,1:0:0:0:
360,175,21905,1,8,0:0:0:0:
340,76,22064,1,4,0:0:0:0:
332,305,22224,5,10,0:0:0:0:
359,174,22384,1,8,0:0:0:0:
386,43,22543,1,4,0:0:0:0:
511,203,22703,5,10,0:0:0:0:
424,277,22862,1,8,0:0:0:0:
424,277,22942,1,8,0:0:0:0:
424,277,23022,2,0,L|359:272,1,45.0000017166138,4|0,0:0|0:0,0:0:0:0:
306,321,23181,2,0,L|241:326,1,45.0000017166138,8|0,0:0|0:0,0:0:0:0:
181,290,23341,1,10,0:0:0:0:
348,80,23500,5,4,0:0:0:0:
365,107,23580,1,8,0:0:0:0:
369,139,23660,1,8,0:0:0:0:
362,170,23740,1,8,0:0:0:0:
343,195,23820,1,8,0:0:0:0:
314,207,23899,1,8,0:0:0:0:
282,208,23979,6,0,P|257:204|236:194,3,45.0000017166138,8|8|8|8,0:0|0:0|0:0|0:0,0:0:0:0:
168,182,24298,2,0,P|143:186|122:196,3,45.0000017166138,4|8|8|8,0:0|0:0|0:0|0:0,0:0:0:0:
197,334,24617,5,12,0:0:0:0:
196,314,24697,1,8,0:0:0:0:
195,294,24777,1,8,0:0:0:0:
194,274,24857,1,8,0:0:0:0:
194,253,24937,6,0,L|206:46,1,180.000006866455,10|8,0:0|0:0,0:0:0:0:
178,2,25415,2,0,L|167:181,2,180.000006866455,8|8|8,0:0|0:0|0:0,0:0:0:0:
292,104,26213,6,0,P|360:129|465:84,1,180.000006866455,8|8,0:0|0:0,0:0:0:0:
512,170,26692,2,0,P|444:145|339:190,2,180.000006866455,8|8|8,0:0|0:0|0:0,0:0:0:0:
282,223,27490,6,0,P|232:240|168:205,1,90.0000034332277,8|0,0:0|0:0,0:0:0:0:
347,181,27809,2,0,P|353:137|382:103,1,90.0000034332277,8|0,0:0|0:0,0:0:0:0:
401,325,28128,6,0,P|386:283|351:255,1,90.0000034332277,4|0,0:0|0:0,0:0:0:0:
218,281,28447,1,8,0:0:0:0:
282,223,28607,1,8,0:0:0:0:
268,89,28766,6,0,L|252:-8,1,90.0000034332277,8|0,0:0|0:0,0:0:0:0:
235,160,29085,2,0,L|158:222,1,90.0000034332277,8|0,0:0|0:0,0:0:0:0:
396,184,29405,6,0,L|312:153,1,90.0000034332277,4|0,0:0|0:0,0:0:0:0:
461,225,29724,2,0,L|511:213,3,45.0000017166138,8|0|0|0,0:0|0:0|0:0|0:0,0:0:0:0:
396,264,30043,6,0,P|382:331|392:361,1,90.0000034332277,8|0,0:0|0:0,0:0:0:0:
396,184,30362,2,0,P|344:138|313:132,1,90.0000034332277,8|0,0:0|0:0,0:0:0:0:
212,268,30681,6,0,L|332:259,1,90.0000034332277,4|0,0:0|0:0,0:0:0:0:
476,357,31000,2,0,L|386:350,1,90.0000034332277,8|0,0:0|0:0,0:0:0:0:
135,334,31319,6,0,P|107:282|179:168,1,180.000006866455,8|8,0:0|0:0,0:0:0:0:
227,167,31798,1,0,0:0:0:0:
378,181,31958,6,0,P|340:204|296:202,1,90.0000034332277,4|0,0:0|0:0,0:0:0:0:
227,167,32277,2,0,P|207:127|165:105,1,90.0000034332277,8|0,0:0|0:0,0:0:0:0:
92,124,32596,1,8,0:0:0:0:
92,124,32915,5,8,0:0:0:0:
71,235,33075,1,0,0:0:0:0:
176,307,33234,5,4,0:0:0:0:
155,196,33394,1,0,0:0:0:0:
211,96,33554,2,0,L|320:88,1,90.0000034332277,8|0,0:0|0:0,0:0:0:0:
395,204,33873,5,8,0:0:0:0:
275,200,34032,1,0,0:0:0:0:
155,196,34192,1,8,0:0:0:0:
81,326,34351,5,8,0:0:0:0:
81,326,34431,1,8,0:0:0:0:
81,326,34511,2,0,B|68:281|68:281|88:219,1,90.0000034332277,4|0,0:0|0:0,0:0:0:0:
89,44,34830,1,8,0:0:0:0:
93,69,34910,1,8,0:0:0:0:
97,94,34990,1,8,0:0:0:0:
101,119,35069,1,8,0:0:0:0:
84,167,35149,5,14,1:0:0:0:
84,167,35628,6,0,B|143:174|143:174|208:156|208:156|274:165,1,180.000006866455,8|0,0:0|0:0,0:0:0:0:
329,134,36107,1,8,0:0:0:0:
292,299,36426,1,8,0:0:0:0:
292,299,36905,5,8,0:0:0:0:
415,270,37064,1,4,0:0:0:0:
228,261,37383,5,8,0:0:0:0:
481,310,37702,5,14,1:0:0:0:
481,310,38181,6,0,B|469:240|469:240|492:192|492:192|480:129,1,180.000006866455,8|0,0:0|0:0,0:0:0:0:
418,99,38580,1,8,0:0:0:0:
394,117,38660,2,0,P|338:119|283:88,1,90.0000034332277,8|0,0:0|0:0,0:0:0:0:
242,50,38979,5,8,0:0:0:0:
250,180,39139,1,0,0:0:0:0:
169,267,39298,5,8,0:0:0:0:
184,121,39458,1,0,0:0:0:0:
265,274,39617,5,4,0:0:0:0:
83,255,39777,1,0,0:0:0:0:
184,121,39937,5,8,0:0:0:0:
366,102,40096,1,0,0:0:0:0:
265,274,40256,6,0,B|278:209|278:209|266:147|266:147|279:84,1,180.000006866455,14|8,1:0|0:0,0:0:0:0:
233,31,40734,1,0,0:0:0:0:
184,121,40894,2,0,L|198:228,1,90.0000034332277,4|0,0:0|0:0,0:0:0:0:
161,279,41213,5,8,0:0:0:0:
131,65,41373,1,0,0:0:0:0:
23,190,41532,5,8,0:0:0:0:
43,187,41612,1,8,0:0:0:0:
63,184,41692,1,8,0:0:0:0:
83,181,41772,1,8,0:0:0:0:
103,178,41851,1,8,0:0:0:0:
195,210,42011,5,10,0:0:0:0:
244,120,42171,2,0,L|232:30,1,90.0000034332277,4|0,0:0|0:0,0:0:0:0:
352,126,42490,2,0,L|340:216,1,90.0000034332277,8|0,0:0|0:0,0:0:0:0:
142,312,42809,6,0,B|213:296|213:296|336:330|336:330|419:312,1,270.000010299683,8|0,0:0|0:0,0:0:0:0:
450,258,43447,1,4,0:0:0:0:
450,258,43766,5,8,0:0:0:0:
449,234,43846,1,8,0:0:0:0:
448,210,43926,1,8,0:0:0:0:
368,121,44085,5,10,0:0:0:0:
368,121,44405,5,8,0:0:0:0:
255,171,44564,5,0,0:0:0:0:
160,157,44724,5,4,0:0:0:0:
96,96,44883,5,0,0:0:0:0:
115,168,45043,5,8,0:0:0:0:
103,221,45202,5,0,0:0:0:0:
76,245,45362,5,8,0:0:0:0:
76,245,46639,5,14,1:0:0:0:
199,277,46798,1,0,0:0:0:0:
58,170,46958,5,8,0:0:0:0:
249,219,47117,1,0,0:0:0:0:
216,0,47277,5,12,0:0:0:0:
183,113,47437,1,0,0:0:0:0:
123,310,47596,5,8,0:0:0:0:
151,214,47756,1,0,0:0:0:0:
183,113,47915,6,0,P|245:134|308:105,1,120,8|0,0:0|0:0,0:0:0:0:
362,75,48155,1,8,0:0:0:0:
362,75,48234,2,0,P|424:57|487:76,1,120,8|0,0:0|0:0,0:0:0:0:
457,259,48554,5,12,0:0:0:0:
457,259,48633,1,8,0:0:0:0:
457,259,48713,2,0,B|440:192|440:192|450:137,1,120,8|8,0:0|0:0,0:0:0:0:
476,69,49032,1,0,0:0:0:0:
289,41,49192,5,8,0:0:0:0:
279,93,49272,1,8,0:0:0:0:
307,138,49351,2,0,P|334:154|373:157,1,60,8|0,0:0|0:0,0:0:0:0:
227,154,49511,6,0,P|211:212|233:286,1,120,8|0,0:0|0:0,0:0:0:0:
394,372,49830,2,0,P|351:329|276:311,1,120,12|0,0:0|0:0,0:0:0:0:
229,349,50149,1,8,0:0:0:0:
299,216,50309,1,0,0:0:0:0:
187,52,50468,5,12,0:0:0:0:
192,81,50548,1,8,0:0:0:0:
198,109,50628,2,0,L|123:112,1,60,8|8,0:0|0:0,0:0:0:0:
57,154,50788,5,12,0:0:0:0:
52,177,50868,1,8,0:0:0:0:
48,199,50948,2,0,L|108:201,1,60,8|8,0:0|0:0,0:0:0:0:
185,254,51107,5,12,0:0:0:0:
203,286,51187,1,8,0:0:0:0:
204,326,51266,1,8,0:0:0:0:
185,359,51346,1,8,0:0:0:0:
148,372,51426,2,0,P|217:359|283:384,1,120,12|0,0:0|0:0,0:0:0:0:
347,384,51665,5,8,0:0:0:0:
347,384,51745,2,0,L|330:254,1,120,8|0,0:0|0:0,0:0:0:0:
310,102,52064,1,8,0:0:0:0:
310,102,52224,1,0,0:0:0:0:
253,160,52383,5,12,0:0:0:0:
375,149,52543,1,0,0:0:0:0:
213,226,52702,5,8,0:0:0:0:
430,205,52862,1,0,0:0:0:0:
301,24,53022,5,14,0:0:0:0:
347,384,53181,5,8,0:0:0:0:
343,354,53261,1,8,0:0:0:0:
339,325,53341,1,14,0:0:0:0:
153,276,53500,5,8,0:0:0:0:
183,250,53580,1,8,0:0:0:0:
213,226,53660,1,14,0:0:0:0:
111,54,53819,5,8,0:0:0:0:
158,69,53899,1,8,0:0:0:0:
204,87,53979,1,14,0:0:0:0:
301,24,54139,5,8,0:0:0:0:
500,152,54298,5,8,0:0:0:0:
473,177,54378,1,8,0:0:0:0:
436,188,54458,1,8,0:0:0:0:
396,183,54538,1,8,0:0:0:0:
361,167,54617,2,0,P|327:161|293:171,1,60,8|8,0:0|0:0,0:0:0:0:
336,287,54777,5,8,0:0:0:0:
334,269,54857,1,8,0:0:0:0:
332,251,54937,1,14,0:0:0:0:
361,167,55096,5,8,0:0:0:0:
326,91,55256,5,8,0:0:0:0:
364,29,55415,5,8,0:0:0:0:
482,72,55575,5,12,0:0:0:0:
482,72,55655,1,8,0:0:0:0:
482,72,55734,2,0,P|447:82|404:72,1,60,8|8,0:0|0:0,0:0:0:0:
244,198,55894,5,12,0:0:0:0:
244,198,55974,1,8,0:0:0:0:
244,198,56053,2,0,P|252:162|283:130,1,60,8|8,0:0|0:0,0:0:0:0:
502,248,56213,5,12,0:0:0:0:
477,274,56293,1,8,0:0:0:0:
442,286,56373,1,8,0:0:0:0:
405,285,56452,1,8,0:0:0:0:
370,269,56532,1,12,0:0:0:0:
334,261,56612,1,8,0:0:0:0:
296,267,56692,1,8,0:0:0:0:
268,289,56772,1,8,0:0:0:0:
253,324,56851,5,14,1:0:0:0:
212,210,57011,1,0,0:0:0:0:
171,96,57171,1,8,0:0:0:0:
253,324,57330,1,0,0:0:0:0:
163,349,57490,5,4,0:0:0:0:
212,210,57650,1,0,0:0:0:0:
262,71,57810,1,8,0:0:0:0:
163,349,57969,1,0,0:0:0:0:
58,96,58128,6,0,P|110:78|184:107,1,120,8|0,0:0|0:0,0:0:0:0:
374,70,58447,2,0,P|322:88|248:59,1,120,8|0,0:0|0:0,0:0:0:0:
230,0,58766,5,4,0:0:0:0:
112,166,58926,1,0,0:0:0:0:
258,204,59085,5,8,0:0:0:0:
117,5,59245,1,0,0:0:0:0:
34,83,59405,5,8,0:0:0:0:
171,84,59564,1,0,0:0:0:0:
308,85,59724,1,8,0:0:0:0:
445,86,59883,1,0,0:0:0:0:
390,253,60043,5,12,0:0:0:0:
239,3,60256,5,8,0:0:0:0:
98,259,60468,5,8,0:0:0:0:
390,253,60681,5,8,0:0:0:0:
328,204,60841,1,0,0:0:0:0:
249,198,61000,1,8,0:0:0:0:
180,232,61160,1,0,0:0:0:0:
98,259,61319,5,4,0:0:0:0:
30,234,61479,1,0,0:0:0:0:
11,165,61639,1,8,0:0:0:0:
41,99,61798,1,0,0:0:0:0:
111,78,61958,5,12,0:0:0:0:
147,76,62038,1,8,0:0:0:0:
183,91,62117,1,8,0:0:0:0:
209,121,62197,1,8,0:0:0:0:
245,135,62277,5,12,0:0:0:0:
286,133,62357,1,8,0:0:0:0:
315,108,62437,1,8,0:0:0:0:
345,82,62516,1,8,0:0:0:0:
384,75,62596,1,12,0:0:0:0:
424,89,62676,1,8,0:0:0:0:
453,118,62756,1,8,0:0:0:0:
459,157,62835,1,8,0:0:0:0:
451,196,62915,6,0,P|448:231|457:262,1,60,12|8,0:0|0:0,0:0:0:0:
382,313,63075,2,0,P|410:333|442:340,1,60,8|8,0:0|0:0,0:0:0:0:
351,218,63234,5,12,0:0:0:0:
351,218,63314,1,8,0:0:0:0:
351,218,63394,2,0,L|261:226,1,60,8|8,0:0|0:0,0:0:0:0:
116,172,63554,5,12,0:0:0:0:
116,172,63634,1,8,0:0:0:0:
116,172,63714,2,0,L|206:180,1,60,8|8,0:0|0:0,0:0:0:0:
278,136,63873,5,12,0:0:0:0:
292,99,63952,1,8,0:0:0:0:
282,60,64032,1,8,0:0:0:0:
249,38,64112,1,8,0:0:0:0:
207,35,64192,5,12,0:0:0:0:
158,66,64272,1,8,0:0:0:0:
103,82,64351,1,8,0:0:0:0:
48,66,64431,1,8,0:0:0:0:
16,19,64511,5,12,0:0:0:0:
53,143,64671,1,8,0:0:0:0:
27,226,64830,1,8,0:0:0:0:
54,298,64990,5,12,0:0:0:0:
122,329,65149,1,8,0:0:0:0:
193,310,65309,1,8,0:0:0:0:
224,243,65468,5,12,0:0:0:0:
213,170,65628,1,8,0:0:0:0:
200,98,65788,1,8,0:0:0:0:
233,25,65947,5,12,0:0:0:0:
320,6,66107,1,8,0:0:0:0:
411,57,66266,1,8,0:0:0:0:
413,178,66426,6,8,L|289:166,2,80,12|8|8,0:0|0:0|0:0,0:0:0:0:
224,243,66745,6,8,L|348:231,2,80,12|8|8,0:0|0:0|0:0,0:0:0:0:
359,286,67064,5,14,1:0:0:0:
256,192,82383,12,8,84937,0:0:0:0:
256,192,84956,12,0,87171,0:0:0:0:
0,132,87490,6,0,P|64:114|107:61,1,120,8|4,0:0|0:0,0:0:0:0:
100,268,87968,6,0,P|146:220|167:117,1,167.999994873047,8|4,0:0|0:0,0:0:0:0:
290,314,88447,6,0,P|304:211|251:113,1,215.999993408203,8|4,0:0|0:0,0:0:0:0:
496,229,88926,6,0,P|435:108|304:60,1,264.000008056641,8|4,0:0|0:0,0:0:0:0:
99,76,89405,5,8,0:0:0:0:
81,99,89484,1,8,0:0:0:0:
57,117,89564,1,8,0:0:0:0:
29,128,89644,1,8,0:0:0:0:
0,132,89724,2,0,P|28:141|58:167,1,66.0000020141602,8|8,0:0|0:0,0:0:0:0:
60,321,90043,6,0,L|240:311,1,167.999994873047,8|4,0:0|0:0,0:0:0:0:
490,261,90522,6,0,L|254:246,1,215.999993408203,8|4,0:0|0:0,0:0:0:0:
0,180,91000,6,0,L|269:166,1,264.000008056641,8|4,0:0|0:0,0:0:0:0:
512,99,91479,6,0,L|184:77,1,311.999985717774,8|4,0:0|0:0,0:0:0:0:
15,127,91958,5,12,0:0:0:0:
8,154,92038,1,8,0:0:0:0:
0,180,92117,2,0,L|59:176,1,41.9999987182618,8|8,0:0|0:0,0:0:0:0:
171,199,92277,5,12,0:0:0:0:
176,219,92357,1,8,0:0:0:0:
182,238,92436,2,0,L|138:235,1,41.9999987182618,8|8,0:0|0:0,0:0:0:0:
0,366,92596,6,0,B|84:339|84:339|181:371,1,167.999994873047,8|4,0:0|0:0,0:0:0:0:
32,194,93075,6,0,B|129:215|129:215|206:301,1,215.999993408203,8|4,0:0|0:0,0:0:0:0:
166,74,93554,6,0,B|259:158|259:158|287:295,1,264.000008056641,8|4,0:0|0:0,0:0:0:0:
365,28,94032,6,0,B|410:171|410:171|358:328,1,311.999985717774,8|4,0:0|0:0,0:0:0:0:
159,363,94511,5,8,0:0:0:0:
119,350,94590,1,8,0:0:0:0:
79,340,94670,1,8,0:0:0:0:
39,353,94750,1,8,0:0:0:0:
0,366,94830,2,0,B|15:327|15:327|10:270,1,77.9999964294435,8|8,0:0|0:0,0:0:0:0:
54,161,95149,5,12,0:0:0:0:
70,151,95229,1,8,0:0:0:0:
88,145,95309,1,8,0:0:0:0:
107,149,95389,1,8,0:0:0:0:
127,156,95468,2,0,P|156:160|183:150,1,53.9999983520508,4|0,0:0|0:0,0:0:0:0:
181,330,95628,5,12,0:0:0:0:
179,302,95708,1,8,0:0:0:0:
185,274,95788,1,8,0:0:0:0:
204,253,95868,1,8,0:0:0:0:
227,233,95947,2,0,P|253:199|260:157,1,53.9999983520508,4|0,0:0|0:0,0:0:0:0:
435,313,96107,5,12,0:0:0:0:
399,295,96187,1,8,0:0:0:0:
370,267,96267,1,8,0:0:0:0:
357,229,96347,1,8,0:0:0:0:
348,187,96426,2,0,P|336:143|312:118,1,53.9999983520508,4|0,0:0|0:0,0:0:0:0:
156,31,96585,5,12,0:0:0:0:
193,70,96665,1,8,0:0:0:0:
248,82,96745,1,8,0:0:0:0:
303,66,96825,1,8,0:0:0:0:
340,23,96905,1,12,0:0:0:0:
256,189,97064,6,0,L|266:306,2,71.9999978027344,8|8|8,0:0|0:0|0:0,0:0:0:0:
323,374,97383,6,0,L|329:302,2,71.9999978027344,8|8|8,0:0|0:0|0:0,0:0:0:0:
206,315,97702,6,0,P|41:321|17:263,1,240,8|8,0:0|0:0,0:0:0:0:
87,106,98180,2,0,P|91:151|50:235,1,120,8|4,0:0|0:0,0:0:0:0:
20,277,98499,1,8,0:0:0:0:
216,156,98659,6,0,L|357:164,1,120,8|0,0:0|0:0,0:0:0:0:
500,96,98978,2,0,L|359:104,1,120,8|0,0:0|0:0,0:0:0:0:
389,379,99297,6,0,P|423:304|363:191,1,180,4|0,0:0|0:0,0:0:0:0:
335,162,99616,6,0,P|307:112|336:38,2,120,8|0|8,0:0|0:0|0:0,0:0:0:0:
319,239,100095,2,0,P|268:264|179:232,1,120,8|4,0:0|0:0,0:0:0:0:
159,196,100414,1,8,0:0:0:0:
210,26,100574,6,0,B|234:87|234:87|204:158,1,120,8|0,0:0|0:0,0:0:0:0:
280,1,100893,2,0,B|302:50|302:50|363:74,1,120,8|0,0:0|0:0,0:0:0:0:
272,183,101212,6,0,B|296:126|296:126|368:155,1,120,4|0,0:0|0:0,0:0:0:0:
338,225,101531,1,8,0:0:0:0:
338,225,101850,5,8,0:0:0:0:
145,210,102009,1,0,0:0:0:0:
308,145,102169,5,8,0:0:0:0:
185,135,102328,1,0,0:0:0:0:
256,65,102488,5,4,0:0:0:0:
234,311,102648,1,0,0:0:0:0:
408,129,102807,6,0,P|356:230|243:223,1,240,8|8,0:0|0:0,0:0:0:0:
103,125,103285,2,0,P|160:119|210:159,1,120,8|4,0:0|0:0,0:0:0:0:
243,223,103604,1,8,0:0:0:0:
128,340,103764,6,0,L|132:210,1,120,8|0,0:0|0:0,0:0:0:0:
17,34,104083,2,0,L|21:164,1,120,8|0,0:0|0:0,0:0:0:0:
317,158,104402,6,0,B|259:132|259:132|186:164,1,120,4|0,0:0|0:0,0:0:0:0:
343,237,104721,1,8,0:0:0:0:
343,237,104881,2,0,B|401:263|401:263|474:231,1,120,8|0,0:0|0:0,0:0:0:0:
388,52,105200,5,8,0:0:0:0:
388,52,105360,2,0,L|397:183,1,120,4|0,0:0|0:0,0:0:0:0:
250,337,105679,2,0,L|259:206,1,120,8|0,0:0|0:0,0:0:0:0:
219,136,105998,5,8,0:0:0:0:
396,171,106158,1,0,0:0:0:0:
258,217,106317,1,4,0:0:0:0:
402,46,106639,5,8,0:0:0:0:
402,46,106958,6,0,P|390:87|416:170,1,120,8|0,0:0|0:0,0:0:0:0:
237,162,107277,6,0,P|275:214|374:235,1,143.999995605469,8|0,0:0|0:0,0:0:0:0:
258,378,107596,6,0,P|357:372|418:326,1,167.999994873047,4|0,0:0|0:0,0:0:0:0:
402,46,107915,6,0,B|271:31|271:31|211:95|211:95|77:80|77:80|30:5,1,431.999986816407,14|8,1:0|0:0,0:0:0:0:
60,152,108553,2,0,L|241:173,1,143.999995605469,8|8,0:0|0:0,0:0:0:0:
154,11,108872,5,12,0:0:0:0:
123,237,109032,1,8,0:0:0:0:
155,0,109191,5,12,0:0:0:0:
121,247,109351,1,8,0:0:0:0:
271,139,109510,5,12,0:0:0:0:
5,103,109670,1,8,0:0:0:0:
224,231,109829,6,0,B|324:264|393:189|364:94|364:94|465:173|554:56,1,431.999986816407,14|8,1:0|0:0,0:0:0:0:
505,187,110468,2,0,B|475:200|433:198|433:198|422:236|398:258,1,143.999995605469,8|8,0:0|0:0,0:0:0:0:
271,139,110787,5,12,0:0:0:0:
441,32,110946,1,8,0:0:0:0:
260,145,111106,5,12,0:0:0:0:
451,25,111265,1,8,0:0:0:0:
333,43,111425,6,0,L|307:3,1,48,12|8,0:0|0:0,0:0:0:0:
484,272,111585,2,0,L|511:313,1,48,8|8,0:0|0:0,0:0:0:0:
409,157,111744,5,14,1:0:0:0:
409,157,112063,5,8,0:0:0:0:
260,145,112223,1,0,0:0:0:0:
127,134,112383,2,0,L|0:145,1,96,8|0,0:0|0:0,0:0:0:0:
191,257,112702,6,0,P|246:213|259:144,1,144,8|0,0:0|0:0,0:0:0:0:
196,28,113021,2,0,P|205:97|259:143,1,144,8|0,0:0|0:0,0:0:0:0:
391,147,113340,2,0,P|325:120|259:143,1,144,8|0,0:0|0:0,0:0:0:0:
191,257,113659,5,8,0:0:0:0:
191,257,113978,5,8,0:0:0:0:
310,247,114138,1,0,0:0:0:0:
416,238,114297,2,0,L|517:249,1,96,8|0,0:0|0:0,0:0:0:0:
351,314,114617,5,8,0:0:0:0:
310,247,114776,1,0,0:0:0:0:
304,158,114936,1,8,0:0:0:0:
350,62,115095,1,0,0:0:0:0:
466,36,115255,5,8,0:0:0:0:
277,0,115415,1,0,0:0:0:0:
310,247,115574,5,14,1:0:0:0:
350,62,115734,1,8,0:0:0:0:
307,259,115893,5,12,0:0:0:0:
352,49,116053,1,8,0:0:0:0:
404,170,116212,5,12,0:0:0:0:
255,138,116372,1,8,0:0:0:0:
395,356,116532,6,0,P|439:302|430:242,1,120,12|8,0:0|0:0,0:0:0:0:
453,0,116851,2,0,P|478:64|451:119,1,120,12|8,0:0|0:0,0:0:0:0:
404,170,117170,1,8,0:0:0:0:
255,138,117329,5,8,0:0:0:0:
255,138,117409,1,8,0:0:0:0:
255,138,117489,5,12,0:0:0:0:
460,108,117649,1,8,0:0:0:0:
242,139,117808,5,12,0:0:0:0:
472,106,117968,1,8,0:0:0:0:
375,242,118127,5,12,0:0:0:0:
339,3,118287,1,8,0:0:0:0:
243,251,118446,6,0,P|224:195|252:127,1,120,12|8,0:0|0:0,0:0:0:0:
498,212,118766,2,0,P|496:153|459:107,1,120,12|8,0:0|0:0,0:0:0:0:
310,321,119085,5,8,0:0:0:0:
275,343,119165,1,8,0:0:0:0:
232,345,119244,1,8,0:0:0:0:
196,334,119324,1,8,0:0:0:0:
163,310,119404,6,0,P|102:292|23:334,1,120,14|0,1:0|0:0,0:0:0:0:
117,187,119723,1,8,0:0:0:0:
117,187,119883,1,8,0:0:0:0:
1,172,120042,5,12,0:0:0:0:
229,193,120202,1,8,0:0:0:0:
38,287,120361,5,8,0:0:0:0:
173,299,120521,1,8,0:0:0:0:
78,89,120680,5,8,0:0:0:0:
168,97,120840,1,8,0:0:0:0:
117,187,121000,5,12,0:0:0:0:
117,187,121160,1,8,0:0:0:0:
297,261,121319,6,0,P|324:201|294:120,1,120,8|8,0:0|0:0,0:0:0:0:
273,90,121638,1,8,0:0:0:0:
273,90,121797,1,8,0:0:0:0:
411,186,121957,5,12,0:0:0:0:
411,186,122117,1,8,0:0:0:0:
297,261,122276,6,0,B|221:253|221:253|197:263|197:263|75:250,1,180,8|0,0:0|0:0,0:0:0:0:
61,203,122595,6,0,P|51:176|57:145,3,48,8|8|8|8,0:0|0:0|0:0|0:0,0:0:0:0:
90,90,122915,5,12,0:0:0:0:
113,73,122994,1,8,0:0:0:0:
142,69,123074,1,8,0:0:0:0:
171,74,123154,1,8,0:0:0:0:
196,94,123234,6,0,P|256:113|381:60,1,180,14|0,1:0|0:0,0:0:0:0:
396,29,123553,2,0,P|370:59|362:94,1,60,14|0,0:0|0:0,0:0:0:0:
237,293,123712,6,0,P|283:250|300:115,1,180,10|0,1:0|0:0,0:0:0:0:
280,87,124031,2,0,P|292:124|319:148,1,60,14|0,0:0|0:0,0:0:0:0:
429,356,124191,6,0,P|415:294|307:212,1,180,10|0,1:0|0:0,0:0:0:0:
272,216,124510,2,0,P|310:223|345:212,1,60,14|0,0:0|0:0,0:0:0:0:
280,87,124670,6,0,L|78:98,1,180,10|0,0:0|0:0,0:0:0:0:
40,145,124989,1,14,0:0:0:0:
80,16,125148,5,8,0:0:0:0:
104,18,125228,1,8,0:0:0:0:
126,21,125308,1,4,0:0:0:0:
147,24,125388,1,8,0:0:0:0:
187,0,125468,5,8,0:0:0:0:
187,0,125787,5,14,1:0:0:0:
136,210,125946,1,8,0:0:0:0:
343,149,126106,1,4,0:0:0:0:
100,90,126265,5,8,0:0:0:0:
257,239,126424,1,8,0:0:0:0:
307,29,126584,1,4,0:0:0:0:
136,210,126744,5,8,0:0:0:0:
176,221,126824,1,8,0:0:0:0:
217,230,126904,1,8,0:0:0:0:
257,239,126984,1,8,0:0:0:0:
298,244,127063,2,0,L|368:236,1,60,12|0,0:0|0:0,0:0:0:0:
417,45,127223,5,8,0:0:0:0:
400,81,127303,1,8,0:0:0:0:
402,120,127382,1,8,0:0:0:0:
424,152,127462,1,8,0:0:0:0:
445,185,127542,1,8,0:0:0:0:
454,223,127622,1,8,0:0:0:0:
451,262,127702,6,0,P|434:296|391:323,1,60,12|0,0:0|0:0,0:0:0:0:
298,244,127861,1,8,0:0:0:0:
351,184,128021,6,0,P|371:215|373:266,1,60,12|0,0:0|0:0,0:0:0:0:
258,306,128180,1,8,0:0:0:0:
33,373,128340,6,0,P|117:334|213:366,1,180,14|0,1:0|0:0,0:0:0:0:
249,380,128659,2,0,P|203:361|186:333,1,60,14|0,0:0|0:0,0:0:0:0:
157,116,128819,6,0,P|232:169|252:269,1,180,10|0,0:0|0:0,0:0:0:0:
258,306,129138,2,0,P|251:257|267:228,1,60,14|0,0:0|0:0,0:0:0:0:
441,94,129297,6,0,P|432:186|356:253,1,180,10|0,0:0|0:0,0:0:0:0:
327,277,129616,2,0,P|366:247|398:246,1,60,14|0,0:0|0:0,0:0:0:0:
499,357,129776,6,0,L|294:352,1,180,10|0,0:0|0:0,0:0:0:0:
258,306,130095,1,14,0:0:0:0:
135,352,130255,5,8,0:0:0:0:
132,329,130335,1,8,0:0:0:0:
129,305,130414,1,4,0:0:0:0:
125,279,130494,1,8,0:0:0:0:
148,238,130574,5,8,0:0:0:0:
148,238,130893,5,8,0:0:0:0:
304,311,131053,1,8,0:0:0:0:
445,212,131212,1,4,0:0:0:0:
218,304,131372,5,8,0:0:0:0:
389,289,131532,1,8,0:0:0:0:
462,132,131691,1,4,0:0:0:0:
311,318,131851,5,12,0:0:0:0:
311,318,131930,1,8,0:0:0:0:
311,318,132010,2,0,B|292:357|309:396|308:396,1,60,8|8,0:0|0:0,0:0:0:0:
202,215,132170,2,0,B|158:218|133:252|132:251,1,60,12|8,0:0|0:0,0:0:0:0:
236,69,132329,2,0,B|211:33|169:28|169:27,1,60,8|8,0:0|0:0,0:0:0:0:
109,301,132489,5,12,0:0:0:0:
278,132,132648,5,8,0:0:0:0:
277,150,132728,1,8,0:0:0:0:
276,168,132808,5,12,0:0:0:0:
326,141,132888,1,8,0:0:0:0:
387,142,132968,1,8,0:0:0:0:
436,176,133047,1,8,0:0:0:0:
450,231,133127,1,8,0:0:0:0:
428,287,133207,1,8,0:0:0:0:
377,310,133287,1,8,0:0:0:0:
319,303,133366,1,8,0:0:0:0:
327,289,133446,5,12,0:0:0:0:
376,295,133525,1,8,0:0:0:0:
419,276,133605,1,8,0:0:0:0:
437,229,133685,1,8,0:0:0:0:
426,182,133765,1,8,0:0:0:0:
385,154,133844,1,8,0:0:0:0:
333,153,133924,1,8,0:0:0:0:
291,176,134004,1,8,0:0:0:0:
261,212,134085,6,0,P|161:253|38:193,2,240,0|4|0,0:0|0:0|0:0,0:0:0:0:
283,138,135680,1,0,0:0:0:0:
339,194,135999,2,0,L|341:324,2,120,4|0|0,0:0|0:0|0:0,0:0:0:0:
171,76,137276,5,4,0:0:0:0:
148,150,137595,1,0,0:0:0:0:
140,225,137914,2,0,L|147:352,2,120,0|0|4,0:0|0:0|0:0,0:0:0:0:
76,178,138872,1,0,0:0:0:0:
247,197,139191,5,0,0:0:0:0:
247,197,139829,6,0,P|301:212|380:185,1,120,4|0,0:0|0:0,0:0:0:0:
447,32,140467,2,0,P|407:71|390:153,1,120
431,187,141106,1,4,0:0:0:0:
431,187,141744,6,0,B|336:149|346:218|244:183,1,180
216,208,142382,2,0,P|190:263|198:324,1,120,4|0,0:0|0:0,0:0:0:0:
251,374,143021,1,0,0:0:0:0:
73,339,143340,1,0,0:0:0:0:
206,133,143659,5,4,0:0:0:0:
206,133,144297,5,0,0:0:0:0:
256,192,144317,12,0,146850,3:0:0:0:
