osu file format v14

[General]
AudioFilename: audio.mp3
AudioLeadIn: 0
PreviewTime: 51319
Countdown: 0
SampleSet: Normal
StackLeniency: 0.7
Mode: 1
LetterboxInBreaks: 0
WidescreenStoryboard: 0

[Editor]
DistanceSpacing: 1.2
BeatDivisor: 4
GridSize: 32
TimelineZoom: 2.899999

[Metadata]
Title:Axium Crisis
TitleUnicode:Axium Crisis
Artist:ak+q
ArtistUnicode:ak+q
Creator:davidminh0111
Version:Futsuu
Source:Arcaea
Tags:chunithm チュウニズム instrumental video game piano violin artcore otoge tairitsu lowiro vicious labyrinth sound collection memories of conflict irocd-002
BeatmapID:3540433
BeatmapSetID:1724194

[Difficulty]
HPDrainRate:7
CircleSize:2
OverallDifficulty:4
ApproachRate:10
SliderMultiplier:1.4
SliderTickRate:1

[Events]
//Background and Video events
0,0,"bg.jpg",0,0
//Break Periods
//Storyboard Layer 0 (Background)
//Storyboard Layer 1 (Fail)
//Storyboard Layer 2 (Pass)
//Storyboard Layer 3 (Foreground)
//Storyboard Layer 4 (Overlay)
//Storyboard Sound Samples

[TimingPoints]
496,352.941176470588,4,1,0,30,1,0
11613,-100,4,1,0,50,0,0
11790,-100,4,1,0,80,0,0
11966,-100,4,1,0,60,0,0
17437,-100,4,1,0,80,0,0
17613,-100,4,1,0,60,0,0
21495,-100,4,1,0,62,0,0
21584,-100,4,1,0,64,0,0
21672,-100,4,1,0,66,0,0
21848,-100,4,1,0,68,0,0
22025,-100,4,1,0,70,0,0
22113,-100,4,1,0,72,0,0
22201,-100,4,1,0,74,0,0
22290,-100,4,1,0,76,0,0
22378,-100,4,1,0,78,0,0
23084,-100,4,1,0,80,0,0
23260,-100,4,1,0,60,0,0
34378,-100,4,1,0,70,0,0
42495,-100,4,1,0,72,0,0
42584,-100,4,1,0,74,0,0
42672,-100,4,1,0,76,0,0
42760,-100,4,1,0,78,0,0
42848,-100,4,1,0,80,0,0
42937,-100,4,1,0,80,0,0
43025,-100,4,1,0,79,0,0
43113,-100,4,1,0,79,0,0
43201,-100,4,1,0,78,0,0
43290,-100,4,1,0,78,0,0
43378,-100,4,1,0,77,0,0
43466,-100,4,1,0,77,0,0
43554,-100,4,1,0,76,0,0
43643,-100,4,1,0,76,0,0
43731,-100,4,1,0,75,0,0
43819,-100,4,1,0,75,0,0
43907,-100,4,1,0,74,0,0
43995,-100,4,1,0,74,0,0
44084,-100,4,1,0,73,0,0
44172,-100,4,1,0,73,0,0
44260,-100,4,1,0,72,0,0
44348,-100,4,1,0,72,0,0
44437,-100,4,1,0,71,0,0
44525,-100,4,1,0,71,0,0
44613,-100,4,1,0,70,0,0
44701,-100,4,1,0,70,0,0
44790,-100,4,1,0,69,0,0
44878,-100,4,1,0,69,0,0
44966,-100,4,1,0,68,0,0
45054,-100,4,1,0,68,0,0
45143,-100,4,1,0,67,0,0
45231,-100,4,1,0,67,0,0
45319,-100,4,1,0,90,0,0
45672,-100,4,1,0,100,0,1
45760,-100,4,1,0,80,0,1
46201,-100,4,1,0,100,0,1
46290,-100,4,1,0,80,0,1
46731,-100,4,1,0,100,0,1
46819,-100,4,1,0,80,0,1
47084,-100,4,1,0,80,0,1
47260,-100,4,1,0,100,0,1
47348,-100,4,1,0,80,0,1
47790,-100,4,1,0,100,0,1
47966,-100,4,1,0,80,0,1
48054,-100,4,1,0,80,0,1
48143,-100,4,1,0,100,0,1
48231,-100,4,1,0,80,0,1
48495,-100,4,1,0,100,0,1
48584,-100,4,1,0,80,0,1
49025,-100,4,1,0,100,0,1
49113,-100,4,1,0,80,0,1
49554,-100,4,1,0,100,0,1
49643,-100,4,1,0,80,0,1
49907,-100,4,1,0,80,0,1
50084,-100,4,1,0,100,0,9
50172,-100,4,1,0,80,0,1
50613,-100,4,1,0,100,0,1
50701,-100,4,1,0,80,0,1
50966,-100,4,1,0,100,0,1
51054,-100,4,1,0,80,0,1
51143,-100,4,1,0,80,0,1
51231,-100,4,1,0,80,0,1
51319,-100,4,1,0,100,0,1
51495,-100,4,1,0,80,0,1
51584,-100,4,1,0,80,0,1
51672,-100,4,1,0,80,0,1
51760,-100,4,1,0,80,0,1
51848,-100,4,1,0,100,0,1
52025,-100,4,1,0,80,0,1
52113,-100,4,1,0,80,0,1
52201,-100,4,1,0,80,0,1
52290,-100,4,1,0,80,0,1
52378,-100,4,1,0,100,0,1
52554,-100,4,1,0,80,0,1
52643,-100,4,1,0,80,0,1
52731,-100,4,1,0,80,0,1
52819,-100,4,1,0,80,0,1
52907,-100,4,1,0,100,0,1
53084,-100,4,1,0,80,0,1
53437,-100,4,1,0,100,0,1
53613,-100,4,1,0,80,0,1
53790,-100,4,1,0,100,0,1
53966,-100,4,1,0,80,0,1
54143,-100,4,1,0,100,0,1
54319,-100,4,1,0,80,0,1
54407,-100,4,1,0,80,0,1
54495,-100,4,1,0,80,0,1
54584,-100,4,1,0,80,0,1
54672,-100,4,1,0,100,0,1
54848,-100,4,1,0,80,0,1
55201,-100,4,1,0,100,0,1
55378,-100,4,1,0,80,0,1
55731,-100,4,1,0,100,0,1
55907,-100,4,1,0,80,0,1
56260,-100,4,1,0,100,0,1
56437,-100,4,1,0,80,0,1
56613,-100,4,1,0,100,0,0
56966,-100,4,1,0,50,0,0
57054,-100,4,1,0,51,0,0
57142,-100,4,1,0,53,0,0
57230,-100,4,1,0,54,0,0
57319,-100,4,1,0,55,0,0
57407,-100,4,1,0,57,0,0
57495,-100,4,1,0,58,0,0
57583,-100,4,1,0,59,0,0
57671,-100,4,1,0,60,0,0
57760,-100,4,1,0,62,0,0
57848,-100,4,1,0,63,0,0
57936,-100,4,1,0,64,0,0
58024,-100,4,1,0,66,0,0
58113,-100,4,1,0,67,0,0
58201,-100,4,1,0,68,0,0
58289,-100,4,1,0,70,0,0
58378,-100,4,1,0,71,0,0
58466,-100,4,1,0,72,0,0
58554,-100,4,1,0,73,0,0
58642,-100,4,1,0,75,0,0
58730,-100,4,1,0,76,0,0
58819,-100,4,1,0,77,0,0
58907,-100,4,1,0,79,0,0
58995,-100,4,1,0,80,0,0
59084,-100,4,1,0,100,0,0
59790,-100,4,1,0,70,0,0
60495,-100,4,1,0,70,0,0
61201,352.941176470588,4,1,0,70,1,8
61906,352.941176470588,4,1,0,100,1,0
61906,-100,4,1,0,100,0,1
61994,-100,4,1,0,80,0,1
78141,-100,4,1,0,100,0,1
79200,-100,4,1,0,60,0,1
79288,-100,4,1,0,70,0,1
79376,-100,4,1,0,80,0,1
79553,-100,4,1,0,100,0,1
80611,-100,4,1,0,60,0,1
80699,-100,4,1,0,60,0,1
80787,-100,4,1,0,60,0,1
80875,-100,4,1,0,60,0,1
80964,-100,4,1,0,100,0,1
81670,-100,4,1,0,90,0,1
81758,-100,4,1,0,80,0,1
82024,375,4,1,0,90,1,9
82024,-94.1176470588235,4,1,0,90,0,1
82399,387.096774193548,4,1,0,90,1,9
82399,-91.1764705882353,4,1,0,90,0,1
83173,400,4,1,0,90,1,1
83173,-88.2352941176471,4,1,0,90,0,1
83573,428.571428571429,4,1,0,90,1,9
83573,-82.3529411764706,4,1,0,90,0,1
84430,444.444444444444,4,1,0,90,1,9
84430,-79.4117647058824,4,1,0,90,0,1
84874,444.444444444444,4,1,0,100,1,1
84874,-79.4117647058824,4,1,0,100,0,1
86651,461.538461538462,4,1,0,60,1,8
88497,352.941176470588,4,1,0,60,1,0
88497,-100,4,1,0,40,0,0
99791,-100,4,1,0,60,0,0
111085,-100,4,1,0,75,0,0
133673,-100,4,1,0,95,0,0
133761,-100,4,1,0,75,0,0
135085,-100,4,1,0,50,0,0
144259,-100,4,1,0,60,0,0

[HitObjects]
256,192,496,5,0,0:0:0:0:
256,192,1025,1,8,0:0:0:0:
256,192,1554,1,8,0:0:0:0:
256,192,1907,1,0,0:0:0:0:
256,192,2437,1,8,0:0:0:0:
256,192,2966,1,0,0:0:0:0:
256,192,3319,1,0,0:0:0:0:
256,192,3848,1,8,0:0:0:0:
256,192,4378,1,8,0:0:0:0:
256,192,4731,1,0,0:0:0:0:
256,192,5260,1,8,0:0:0:0:
256,192,5613,1,8,0:0:0:0:
256,192,6143,1,8,0:0:0:0:
256,192,6672,1,0,0:0:0:0:
256,192,7025,1,8,0:0:0:0:
256,192,7554,1,8,0:0:0:0:
256,192,8260,1,8,0:0:0:0:
256,192,8613,1,0,0:0:0:0:
256,192,8966,1,8,0:0:0:0:
256,192,9495,1,0,0:0:0:0:
256,192,10025,1,0,0:0:0:0:
256,192,10378,1,8,0:0:0:0:
256,192,10907,1,8,0:0:0:0:
256,192,11260,1,8,0:0:0:0:
256,192,11790,1,12,0:0:0:0:
256,192,12495,1,8,0:0:0:0:
256,192,12760,1,0,0:0:0:0:
256,192,13025,1,8,0:0:0:0:
256,192,13201,1,0,0:0:0:0:
256,192,13554,1,8,0:0:0:0:
256,192,13907,1,0,0:0:0:0:
256,192,14084,1,0,0:0:0:0:
256,192,14260,1,8,0:0:0:0:
256,192,14613,1,0,0:0:0:0:
256,192,14966,1,0,0:0:0:0:
256,192,15143,1,8,0:0:0:0:
256,192,15319,1,8,0:0:0:0:
256,192,15584,1,0,0:0:0:0:
256,192,15848,1,0,0:0:0:0:
256,192,16025,1,8,0:0:0:0:
256,192,16731,1,0,0:0:0:0:
256,192,17084,1,0,0:0:0:0:
256,192,17260,1,0,0:0:0:0:
256,192,17437,1,12,0:0:0:0:
256,192,18143,1,8,0:0:0:0:
256,192,18407,1,0,0:0:0:0:
256,192,18672,1,0,0:0:0:0:
256,192,18848,1,8,0:0:0:0:
256,192,19201,1,0,0:0:0:0:
256,192,19554,1,8,0:0:0:0:
256,192,19907,1,8,0:0:0:0:
256,192,20084,1,0,0:0:0:0:
256,192,20260,1,8,0:0:0:0:
256,192,20613,1,0,0:0:0:0:
256,192,20966,1,0,0:0:0:0:
256,192,21319,1,8,0:0:0:0:
256,192,21495,1,8,0:0:0:0:
256,192,21672,1,8,0:0:0:0:
256,192,22025,1,0,0:0:0:0:
256,192,22201,1,0,0:0:0:0:
256,192,22378,1,8,0:0:0:0:
256,192,23084,1,12,0:0:0:0:
256,192,23437,1,8,0:0:0:0:
256,192,23966,1,8,0:0:0:0:
256,192,24495,1,8,0:0:0:0:
256,192,25201,1,0,0:0:0:0:
256,192,25554,1,8,0:0:0:0:
256,192,25907,1,0,0:0:0:0:
256,192,26260,1,8,0:0:0:0:
256,192,26790,1,8,0:0:0:0:
256,192,27319,1,0,0:0:0:0:
256,192,27848,1,8,0:0:0:0:
256,192,28731,1,8,0:0:0:0:
256,192,29084,1,8,0:0:0:0:
256,192,29613,1,8,0:0:0:0:
256,192,30143,1,8,0:0:0:0:
256,192,30495,1,8,0:0:0:0:
256,192,30848,1,0,0:0:0:0:
256,192,31201,1,8,0:0:0:0:
256,192,31554,1,0,0:0:0:0:
256,192,32260,1,8,0:0:0:0:
256,192,32966,1,0,0:0:0:0:
256,192,33495,1,8,0:0:0:0:
256,192,34378,1,8,0:0:0:0:
256,192,34554,1,0,0:0:0:0:
256,192,34731,1,8,0:0:0:0:
256,192,35084,1,0,0:0:0:0:
256,192,35260,1,0,0:0:0:0:
256,192,35437,1,8,0:0:0:0:
256,192,35790,1,0,0:0:0:0:
256,192,36143,1,8,0:0:0:0:
256,192,36495,1,0,0:0:0:0:
256,192,36672,1,8,0:0:0:0:
256,192,36848,1,8,0:0:0:0:
256,192,37201,1,0,0:0:0:0:
256,192,37554,1,0,0:0:0:0:
256,192,37907,1,0,0:0:0:0:
256,192,38084,1,8,0:0:0:0:
256,192,38260,1,8,0:0:0:0:
256,192,38613,1,0,0:0:0:0:
256,192,38966,1,0,0:0:0:0:
256,192,39143,1,0,0:0:0:0:
256,192,39319,1,8,0:0:0:0:
256,192,40025,1,0,0:0:0:0:
256,192,40201,1,0,0:0:0:0:
256,192,40378,1,8,0:0:0:0:
256,192,40731,1,8,0:0:0:0:
256,192,40907,1,8,0:0:0:0:
256,192,41084,1,0,0:0:0:0:
256,192,41437,1,0,0:0:0:0:
256,192,41613,1,0,0:0:0:0:
256,192,41790,1,8,0:0:0:0:
256,192,42143,1,8,0:0:0:0:
256,192,42319,1,8,0:0:0:0:
256,192,42495,1,0,0:0:0:0:
256,192,42848,1,8,0:0:0:0:
256,192,43201,1,8,0:0:0:0:
256,192,43378,1,8,0:0:0:0:
256,192,43554,1,0,0:0:0:0:
256,192,43907,1,0,0:0:0:0:
256,192,44084,1,0,0:0:0:0:
256,192,44260,1,0,0:0:0:0:
256,192,44613,1,8,0:0:0:0:
256,192,44966,1,0,0:0:0:0:
256,192,45143,1,0,0:0:0:0:
256,192,45319,1,0,0:0:0:0:
256,192,45495,1,0,0:0:0:0:
256,192,45672,1,12,0:0:0:0:
256,192,46201,1,4,0:0:0:0:
256,192,46731,1,12,0:0:0:0:
256,192,47260,1,4,0:0:0:0:
256,192,47790,1,12,0:0:0:0:
256,192,48143,1,4,0:0:0:0:
256,192,48495,1,12,0:0:0:0:
256,192,49025,1,4,0:0:0:0:
256,192,49554,1,12,0:0:0:0:
256,192,50084,1,4,0:0:0:0:
256,192,50613,1,12,0:0:0:0:
256,192,50966,1,4,0:0:0:0:
256,192,51319,1,12,0:0:0:0:
256,192,51495,1,0,0:0:0:0:
256,192,51672,1,0,0:0:0:0:
256,192,51848,1,12,0:0:0:0:
256,192,52201,1,0,0:0:0:0:
256,192,52378,1,12,0:0:0:0:
256,192,52554,1,0,0:0:0:0:
256,192,52731,1,0,0:0:0:0:
256,192,52907,1,12,0:0:0:0:
256,192,53260,1,0,0:0:0:0:
256,192,53437,1,12,0:0:0:0:
256,192,54143,1,12,0:0:0:0:
256,192,54319,1,0,0:0:0:0:
256,192,54495,1,0,0:0:0:0:
256,192,54672,1,12,0:0:0:0:
256,192,55025,1,0,0:0:0:0:
256,192,55201,1,12,0:0:0:0:
256,192,55378,1,0,0:0:0:0:
256,192,55554,1,0,0:0:0:0:
256,192,55731,1,12,0:0:0:0:
256,192,56084,1,0,0:0:0:0:
256,192,56260,1,12,0:0:0:0:
256,192,56966,1,0,0:0:0:0:
256,192,57143,1,0,0:0:0:0:
256,192,57319,1,8,0:0:0:0:
256,192,57672,1,0,0:0:0:0:
256,192,57848,1,8,0:0:0:0:
256,192,58201,1,0,0:0:0:0:
256,192,58378,1,8,0:0:0:0:
256,192,58731,1,8,0:0:0:0:
256,192,58907,1,0,0:0:0:0:
256,192,59084,1,12,0:0:0:0:
256,192,59790,1,8,0:0:0:0:
256,192,60495,1,0,0:0:0:0:
256,192,61906,1,4,0:0:0:0:
256,192,62258,1,0,0:0:0:0:
256,192,62611,1,8,0:0:0:0:
256,192,62788,1,8,0:0:0:0:
256,192,62964,1,8,0:0:0:0:
256,192,63141,1,0,0:0:0:0:
256,192,63317,1,8,0:0:0:0:
256,192,63670,1,8,0:0:0:0:
256,192,63847,1,0,0:0:0:0:
256,192,64023,1,8,0:0:0:0:
256,192,64376,1,0,0:0:0:0:
256,192,64729,1,0,0:0:0:0:
256,192,65082,1,0,0:0:0:0:
256,192,65258,1,0,0:0:0:0:
256,192,65435,1,8,0:0:0:0:
256,192,65788,1,8,0:0:0:0:
256,192,65964,1,0,0:0:0:0:
256,192,66141,1,12,0:0:0:0:
256,192,66847,1,8,0:0:0:0:
256,192,67200,1,8,0:0:0:0:
256,192,67376,1,0,0:0:0:0:
256,192,67553,1,8,0:0:0:0:
256,192,67906,1,0,0:0:0:0:
256,192,68082,1,0,0:0:0:0:
256,192,68258,1,8,0:0:0:0:
256,192,68611,1,8,0:0:0:0:
256,192,68964,1,0,0:0:0:0:
256,192,69317,1,0,0:0:0:0:
256,192,69494,1,8,0:0:0:0:
256,192,69670,1,0,0:0:0:0:
256,192,70023,1,8,0:0:0:0:
256,192,70200,1,0,0:0:0:0:
256,192,70376,1,12,0:0:0:0:
256,192,70729,1,0,0:0:0:0:
256,192,71082,1,0,0:0:0:0:
256,192,71258,1,0,0:0:0:0:
256,192,71435,1,0,0:0:0:0:
256,192,71611,1,8,0:0:0:0:
256,192,71788,1,0,0:0:0:0:
256,192,72141,1,8,0:0:0:0:
256,192,72494,1,8,0:0:0:0:
256,192,72670,1,0,0:0:0:0:
256,192,72847,1,0,0:0:0:0:
256,192,73023,1,0,0:0:0:0:
256,192,73200,1,8,0:0:0:0:
256,192,73553,1,0,0:0:0:0:
256,192,73729,1,8,0:0:0:0:
256,192,73906,1,0,0:0:0:0:
256,192,74611,1,12,0:0:0:0:
256,192,74964,1,0,0:0:0:0:
256,192,75141,1,0,0:0:0:0:
256,192,75317,1,8,0:0:0:0:
256,192,75670,1,0,0:0:0:0:
256,192,76023,1,0,0:0:0:0:
256,192,76200,1,8,0:0:0:0:
256,192,76376,1,0,0:0:0:0:
256,192,76553,1,0,0:0:0:0:
256,192,76729,1,8,0:0:0:0:
256,192,77082,1,0,0:0:0:0:
256,192,77258,1,8,0:0:0:0:
256,192,77435,1,0,0:0:0:0:
256,192,78141,1,12,0:0:0:0:
256,192,78494,1,4,0:0:0:0:
256,192,78847,1,12,0:0:0:0:
256,192,79553,1,12,0:0:0:0:
256,192,79905,1,4,0:0:0:0:
256,192,80258,1,12,0:0:0:0:
256,192,80964,1,12,0:0:0:0:
256,192,81317,1,4,0:0:0:0:
256,192,81670,1,8,0:0:0:0:
256,192,81847,1,0,0:0:0:0:
256,192,82023,1,8,0:0:0:0:
256,192,82399,1,8,0:0:0:0:
256,192,82592,1,0,0:0:0:0:
256,192,82786,1,8,0:0:0:0:
256,192,83173,1,8,0:0:0:0:
256,192,83373,1,0,0:0:0:0:
256,192,83573,1,8,0:0:0:0:
256,192,84001,1,0,0:0:0:0:
256,192,84215,1,8,0:0:0:0:
256,192,84430,1,8,0:0:0:0:
256,192,84652,1,0,0:0:0:0:
256,192,84874,1,12,0:0:0:0:
256,192,85096,8,0,86651,0:0:0:0:
256,192,88497,5,8,0:0:0:0:
256,192,88849,1,0,0:0:0:0:
256,192,89026,1,0,0:0:0:0:
256,192,89908,1,8,0:0:0:0:
256,192,90261,1,0,0:0:0:0:
256,192,90438,1,0,0:0:0:0:
256,192,90614,1,8,0:0:0:0:
256,192,91320,1,8,0:0:0:0:
256,192,91673,1,8,0:0:0:0:
256,192,91849,1,0,0:0:0:0:
256,192,92026,1,8,0:0:0:0:
256,192,92732,1,8,0:0:0:0:
256,192,93085,1,8,0:0:0:0:
256,192,93261,1,8,0:0:0:0:
256,192,93438,1,0,0:0:0:0:
256,192,94144,1,0,0:0:0:0:
256,192,94497,1,0,0:0:0:0:
256,192,94673,1,0,0:0:0:0:
256,192,94849,1,8,0:0:0:0:
256,192,95555,1,8,0:0:0:0:
256,192,95908,1,0,0:0:0:0:
256,192,96085,1,8,0:0:0:0:
256,192,96261,1,0,0:0:0:0:
256,192,96967,1,8,0:0:0:0:
256,192,97320,1,0,0:0:0:0:
256,192,97497,1,0,0:0:0:0:
256,192,97673,1,8,0:0:0:0:
256,192,98379,1,0,0:0:0:0:
256,192,98732,1,0,0:0:0:0:
256,192,98908,1,8,0:0:0:0:
256,192,99085,1,0,0:0:0:0:
256,192,99791,1,0,0:0:0:0:
256,192,100144,1,8,0:0:0:0:
256,192,100320,1,0,0:0:0:0:
256,192,100497,1,8,0:0:0:0:
256,192,100849,1,0,0:0:0:0:
256,192,101202,1,8,0:0:0:0:
256,192,101555,1,8,0:0:0:0:
256,192,101732,1,8,0:0:0:0:
256,192,101908,1,0,0:0:0:0:
256,192,102614,1,0,0:0:0:0:
256,192,102967,1,8,0:0:0:0:
256,192,103144,1,0,0:0:0:0:
256,192,103320,1,8,0:0:0:0:
256,192,103673,1,8,0:0:0:0:
256,192,104026,1,8,0:0:0:0:
256,192,104379,1,0,0:0:0:0:
256,192,104555,1,8,0:0:0:0:
256,192,104732,1,0,0:0:0:0:
256,192,105085,1,8,0:0:0:0:
256,192,105438,1,8,0:0:0:0:
256,192,105791,1,8,0:0:0:0:
256,192,105967,1,0,0:0:0:0:
256,192,106144,1,8,0:0:0:0:
256,192,106496,1,0,0:0:0:0:
256,192,106849,1,8,0:0:0:0:
256,192,107202,1,8,0:0:0:0:
256,192,107379,1,8,0:0:0:0:
256,192,107555,1,0,0:0:0:0:
256,192,107908,1,0,0:0:0:0:
256,192,108261,1,8,0:0:0:0:
256,192,108614,1,0,0:0:0:0:
256,192,108791,1,8,0:0:0:0:
256,192,108967,1,0,0:0:0:0:
256,192,109320,1,0,0:0:0:0:
256,192,109673,1,8,0:0:0:0:
256,192,110555,1,0,0:0:0:0:
256,192,110732,1,8,0:0:0:0:
256,192,111085,1,4,0:0:0:0:
256,192,111438,1,0,0:0:0:0:
256,192,111614,1,0,0:0:0:0:
256,192,111791,1,8,0:0:0:0:
256,192,112144,1,8,0:0:0:0:
256,192,112320,1,0,0:0:0:0:
256,192,112496,1,8,0:0:0:0:
256,192,112849,1,0,0:0:0:0:
256,192,113026,1,8,0:0:0:0:
256,192,113202,1,8,0:0:0:0:
256,192,113467,1,8,0:0:0:0:
256,192,113732,1,0,0:0:0:0:
256,192,113908,1,8,0:0:0:0:
256,192,114438,1,8,0:0:0:0:
256,192,114614,1,0,0:0:0:0:
256,192,114967,1,8,0:0:0:0:
256,192,115144,1,0,0:0:0:0:
256,192,115320,1,8,0:0:0:0:
256,192,115673,1,8,0:0:0:0:
256,192,115849,1,8,0:0:0:0:
256,192,116026,1,0,0:0:0:0:
256,192,116379,1,0,0:0:0:0:
256,192,116555,1,8,0:0:0:0:
256,192,116732,1,8,0:0:0:0:
256,192,117614,1,8,0:0:0:0:
256,192,117791,1,8,0:0:0:0:
256,192,117967,1,8,0:0:0:0:
256,192,118144,1,0,0:0:0:0:
256,192,118496,1,0,0:0:0:0:
256,192,118673,1,8,0:0:0:0:
256,192,118849,1,8,0:0:0:0:
256,192,119114,1,8,0:0:0:0:
256,192,119379,1,0,0:0:0:0:
256,192,119555,1,8,0:0:0:0:
256,192,119908,1,0,0:0:0:0:
256,192,120261,1,8,0:0:0:0:
256,192,120614,1,8,0:0:0:0:
256,192,120791,1,8,0:0:0:0:
256,192,120967,1,0,0:0:0:0:
256,192,121320,1,0,0:0:0:0:
256,192,121496,1,8,0:0:0:0:
256,192,121673,1,8,0:0:0:0:
256,192,122379,1,12,0:0:0:0:
256,192,122732,1,0,0:0:0:0:
256,192,122908,1,0,0:0:0:0:
256,192,123085,1,8,0:0:0:0:
256,192,123438,1,8,0:0:0:0:
256,192,123614,1,8,0:0:0:0:
256,192,123791,1,0,0:0:0:0:
256,192,124144,1,0,0:0:0:0:
256,192,124320,1,8,0:0:0:0:
256,192,124496,1,8,0:0:0:0:
256,192,124761,1,8,0:0:0:0:
256,192,125026,1,0,0:0:0:0:
256,192,125202,1,8,0:0:0:0:
256,192,125555,1,0,0:0:0:0:
256,192,125732,1,8,0:0:0:0:
256,192,125908,1,0,0:0:0:0:
256,192,126261,1,8,0:0:0:0:
256,192,126438,1,0,0:0:0:0:
256,192,126614,1,8,0:0:0:0:
256,192,127320,1,0,0:0:0:0:
256,192,127673,1,0,0:0:0:0:
256,192,127849,1,8,0:0:0:0:
256,192,128026,1,8,0:0:0:0:
256,192,128379,1,0,0:0:0:0:
256,192,128555,1,8,0:0:0:0:
256,192,128732,1,0,0:0:0:0:
256,192,129085,1,0,0:0:0:0:
256,192,129438,1,8,0:0:0:0:
256,192,129791,1,0,0:0:0:0:
256,192,129967,1,8,0:0:0:0:
256,192,130144,1,8,0:0:0:0:
256,192,130408,1,8,0:0:0:0:
256,192,130673,1,0,0:0:0:0:
256,192,130849,1,8,0:0:0:0:
256,192,131202,1,0,0:0:0:0:
256,192,131555,1,8,0:0:0:0:
256,192,131732,1,8,0:0:0:0:
256,192,131908,1,8,0:0:0:0:
256,192,132085,1,8,0:0:0:0:
256,192,132261,1,0,0:0:0:0:
256,192,132614,1,0,0:0:0:0:
256,192,132791,1,0,0:0:0:0:
256,192,132967,1,8,0:0:0:0:
256,192,133673,1,4,0:0:0:0:
256,192,134026,1,0,0:0:0:0:
256,192,134379,1,8,0:0:0:0:
256,192,134732,1,0,0:0:0:0:
256,192,135085,1,8,0:0:0:0:
256,192,135438,1,0,0:0:0:0:
256,192,135791,1,8,0:0:0:0:
256,192,136144,1,8,0:0:0:0:
256,192,136496,1,0,0:0:0:0:
256,192,136849,1,0,0:0:0:0:
256,192,137202,1,8,0:0:0:0:
256,192,137555,1,0,0:0:0:0:
256,192,137908,1,8,0:0:0:0:
256,192,138261,1,0,0:0:0:0:
256,192,138614,1,8,0:0:0:0:
256,192,139320,1,0,0:0:0:0:
256,192,139673,1,0,0:0:0:0:
256,192,140026,1,8,0:0:0:0:
256,192,140379,1,0,0:0:0:0:
256,192,140732,1,8,0:0:0:0:
256,192,141085,1,0,0:0:0:0:
256,192,141438,1,8,0:0:0:0:
256,192,141791,1,8,0:0:0:0:
256,192,142144,1,0,0:0:0:0:
256,192,142496,1,0,0:0:0:0:
256,192,142849,1,8,0:0:0:0:
256,192,143202,1,0,0:0:0:0:
256,192,143555,1,8,0:0:0:0:
256,192,143908,1,0,0:0:0:0:
256,192,144261,1,8,0:0:0:0:
