osu file format v14

[General]
AudioFilename: audio.mp3
AudioLeadIn: 0
PreviewTime: 58949
Countdown: 0
SampleSet: Soft
StackLeniency: 0.2
Mode: 0
LetterboxInBreaks: 0
WidescreenStoryboard: 1

[Editor]
DistanceSpacing: 2.4
BeatDivisor: 4
GridSize: 4
TimelineZoom: 2.1

[Metadata]
Title:Axium Crisis
TitleUnicode:Axium Crisis
Artist:ak+q
ArtistUnicode:ak+q
Creator:Suzuki_1112
Version:Rush Indigo
Source:Arcaea
Tags:artcore dnb drum and bass 1112deng Parad_X Dynamix DJMax
BeatmapID:1636982
BeatmapSetID:779544

[Difficulty]
HPDrainRate:6
CircleSize:4
OverallDifficulty:9
ApproachRate:9.3
SliderMultiplier:2.15
SliderTickRate:1

[Events]
//Background and Video events
0,0,"937A9770ABA23DF7E877ACCCB261129A.png",0,0
//Break Periods
2,86921,87950
//Storyboard Layer 0 (Background)
//Storyboard Layer 1 (Fail)
//Storyboard Layer 2 (Pass)
//Storyboard Layer 3 (Foreground)
//Storyboard Sound Samples

[TimingPoints]
498,352.941176470588,4,2,1,50,1,0
498,-200,4,2,1,50,0,0
11674,-133.333333333333,4,2,1,50,0,0
11792,-100,4,2,1,60,0,0
22027,-100,4,2,1,20,0,0
22380,-1000,4,2,1,60,0,0
23086,-133.333333333333,4,2,1,60,0,0
40027,-133.333333333333,4,2,1,20,0,0
44262,-133.333333333333,4,2,1,40,0,0
44615,-133.333333333333,4,2,1,50,0,0
44968,-133.333333333333,4,2,1,60,0,0
45674,-71.4285714285714,4,2,2,80,0,0
46027,-100,4,2,2,80,0,0
46203,-66.6666666666667,4,2,2,80,0,0
46733,-71.4285714285714,4,2,2,80,0,0
47262,-66.6666666666667,4,2,2,80,0,0
47792,-58.8235294117647,4,2,2,80,0,0
48145,-62.5,4,2,2,80,0,0
48497,-71.4285714285714,4,2,2,80,0,0
49027,-66.6666666666667,4,2,2,80,0,0
49556,-71.4285714285714,4,2,2,80,0,0
50086,-66.6666666666667,4,2,2,80,0,0
50615,-62.5,4,2,2,80,0,0
50968,-58.8235294117647,4,2,2,80,0,0
51321,-66.6666666666667,4,2,2,80,0,0
51674,-100,4,2,2,80,0,0
51850,-66.6666666666667,4,2,2,80,0,0
56792,-66.6666666666667,4,2,2,60,0,0
56968,-200,4,2,1,60,0,0
57321,-166.666666666667,4,2,1,60,0,0
57674,-142.857142857143,4,2,1,60,0,0
58027,-125,4,2,1,60,0,0
58380,-111.111111111111,4,2,1,60,0,0
58733,-100,4,2,1,60,0,0
59086,-200,4,2,1,60,0,0
60497,-333.333333333333,4,2,1,60,0,0
61909,352.941176470588,4,2,1,60,1,1
61909,-76.9230769230769,4,2,1,60,0,1
63320,-111.111111111111,4,2,1,60,0,1
63761,-66.6666666666667,4,2,1,60,0,1
64026,-76.9230769230769,4,2,1,60,0,1
64732,-90.9090909090909,4,2,1,60,0,1
65438,-100,4,2,1,60,0,1
65791,-66.6666666666667,4,2,1,60,0,1
66144,-76.9230769230769,4,2,1,60,0,1
66497,-133.333333333333,4,2,1,60,0,1
66673,-83.3333333333333,4,2,1,60,0,1
66850,-71.4285714285714,4,2,1,60,0,1
67203,-100,4,2,1,60,0,1
67556,-76.9230769230769,4,2,1,60,0,1
67997,-66.6666666666667,4,2,1,60,0,1
68261,-100,4,2,1,60,0,1
68614,-83.3333333333333,4,2,1,60,0,1
68967,-76.9230769230769,4,2,1,60,0,1
71791,-90.9090909090909,4,2,1,60,0,1
72232,-66.6666666666667,4,2,1,60,0,1
73379,-76.9230769230769,4,2,1,60,0,1
73909,-66.6666666666667,4,2,1,60,0,1
74261,-62.5,4,2,1,60,0,1
74614,-76.9230769230769,4,2,1,60,0,1
78144,-66.6666666666667,4,2,1,60,0,1
78850,-58.8235294117647,4,2,1,60,0,0
81673,358.208955223881,4,2,1,60,1,0
82411,375,4,2,1,60,1,0
83192,400,4,2,1,60,1,0
84000,428.571428571429,4,2,1,60,1,0
84875,461.538461538462,4,2,1,60,1,0
88504,352.941176470588,4,2,1,20,1,0
88504,-200,4,2,1,20,0,0
99798,-133.333333333333,4,2,1,40,0,0
111092,-100,4,2,1,60,0,0
116033,-83.3333333333333,4,2,1,60,0,0
116739,-100,4,2,1,60,0,0
121327,-83.3333333333333,4,2,1,60,0,0
122386,-100,4,2,1,60,0,0
127680,-83.3333333333333,4,2,1,60,0,0
128033,-100,4,2,1,60,0,0
133327,-83.3333333333333,4,2,1,60,0,0
133680,-133.333333333333,4,2,1,60,0,0

[Colours]
Combo1 : 255,162,255
Combo2 : 128,255,255
Combo3 : 18,124,255
Combo4 : 192,192,192

[HitObjects]
89,170,498,6,0,L|21:178,1,53.75,0|0,0:0|0:0,0:0:0:0:
177,156,850,2,0,L|230:149,1,53.75,0|0,0:0|0:0,0:0:0:0:
116,55,1379,5,0,0:0:0:0:
177,156,1556,2,0,L|230:149,1,53.75,0|0,0:0|0:0,0:0:0:0:
313,171,1909,6,0,P|312:135|304:108,1,53.75,0|0,0:0|0:0,0:0:0:0:
242,68,2262,1,0,0:0:0:0:
230,149,2439,2,0,L|221:273,1,107.5,0|0,0:0|0:0,0:0:0:0:
216,345,2968,1,0,0:0:0:0:
401,251,3321,6,0,L|406:311,1,53.75,0|0,0:0|0:0,0:0:0:0:
323,234,3674,2,0,L|327:180,1,53.75,0|0,0:0|0:0,0:0:0:0:
484,255,4203,5,0,0:0:0:0:
323,234,4380,2,0,L|327:180,1,53.75,0|0,0:0|0:0,0:0:0:0:
381,111,4733,5,0,0:0:0:0:
259,142,4909,2,0,P|252:185|259:215,1,53.75,0|0,0:0|0:0,0:0:0:0:
305,72,5262,2,0,L|179:61,1,107.5,0|0,0:0|0:0,0:0:0:0:
50,268,6145,6,0,P|45:308|54:333,1,53.75,0|0,0:0|0:0,0:0:0:0:
110,368,6497,1,0,0:0:0:0:
168,309,6674,2,0,L|159:187,1,107.5,0|0,0:0|0:0,0:0:0:0:
319,133,7556,6,0,P|326:170|340:187,1,53.75,0|0,0:0|0:0,0:0:0:0:
363,69,7909,2,0,P|328:53|306:55,1,53.75,0|0,0:0|0:0,0:0:0:0:
395,137,8262,2,0,P|427:117|438:98,2,53.75,0|0|0,0:0|0:0|0:0,0:0:0:0:
256,192,8968,12,0,11262,0:0:0:0:
434,73,11674,6,0,L|432:110,1,26.8750010251999,0|0,0:0|0:0,0:0:0:0:
446,130,11792,6,0,L|311:107,1,107.5,4|0,1:0|0:0,0:0:0:0:
265,44,12145,1,8,0:0:0:0:
320,198,12321,6,0,P|249:205|203:165,1,107.5,2|0,0:0|0:0,0:0:0:0:
182,119,12586,1,2,0:0:0:0:
180,102,12674,1,2,0:0:0:0:
49,239,12850,6,0,L|59:293,1,53.75,8|0,0:0|0:0,0:0:0:0:
157,346,13027,1,0,0:0:0:0:
51,309,13203,6,0,B|119:297|119:297|142:304|142:304|258:280,1,161.25,2|0,0:0|0:0,0:0:0:0:
223,257,13556,2,0,P|244:275|241:313,1,53.75,8|0,0:0|0:0,0:0:0:0:
363,374,13733,6,0,P|354:294|441:234,1,161.25,8|0,0:0|0:0,0:0:0:0:
483,229,14086,1,2,0:0:0:0:
377,42,14262,2,0,L|390:154,1,107.5,8|2,0:0|0:0,0:0:0:0:
223,257,14615,5,2,0:0:0:0:
292,123,14792,2,0,L|149:134,1,107.5,2|8,0:0|0:0,0:0:0:0:
76,169,15086,2,0,B|53:139|53:139|80:92,1,71.6666666666667,0|0,0:0|0:0,0:0:0:0:
133,53,15321,5,2,0:0:0:0:
151,215,15497,1,0,0:0:0:0:
3,137,15674,2,0,L|17:215,1,53.75
12,282,15850,1,2,0:0:0:0:
288,257,16027,6,0,P|207:202|123:238,1,161.25,2|0,0:0|0:0,0:0:0:0:
96,279,16380,1,8,0:0:0:0:
295,331,16556,6,0,B|289:259|289:259|295:244|295:244|285:148,1,161.25,8|0,0:0|0:0,0:0:0:0:
346,83,16909,1,2,0:0:0:0:
356,60,16997,1,2,0:0:0:0:
367,40,17086,6,0,L|442:32,1,53.75,8|0,0:0|0:0,0:0:0:0:
264,138,17262,1,0,0:0:0:0:
224,129,17350,1,0,0:0:0:0:
150,214,17439,6,0,P|231:159|315:195,1,161.25,4|0,1:0|0:0,0:0:0:0:
360,229,17792,2,0,L|423:222,1,53.75,8|0,0:0|0:0,0:0:0:0:
295,331,17968,1,2,0:0:0:0:
75,259,18145,6,0,P|64:213|93:155,2,107.5,0|2|2,0:0|0:0|0:0,0:0:0:0:
116,328,18674,1,8,0:0:0:0:
19,96,18850,6,0,B|83:103|83:103|113:121|113:121|207:129,1,161.25,2|0,0:0|0:0,0:0:0:0:
208,55,19203,2,0,P|183:80|180:106,1,53.75,2|0,0:0|0:0,0:0:0:0:
287,228,19380,6,0,B|268:185|298:153|298:153|324:120|288:47,1,161.25,8|0,0:0|0:0,0:0:0:0:
349,15,19733,1,2,0:0:0:0:
382,21,19821,1,2,0:0:0:0:
405,44,19909,2,0,P|416:70|413:117,1,53.75,8|0,0:0|0:0,0:0:0:0:
493,27,20086,1,0,0:0:0:0:
417,95,20262,6,0,P|385:177|407:240,1,107.5,2|0,0:0|0:0,0:0:0:0:
449,335,20615,2,0,P|464:290|447:257,1,53.75,8|0,0:0|0:0,0:0:0:0:
470,185,20792,6,0,B|414:200|414:200|396:226|396:226|279:255,1,161.25,2|0,0:0|0:0,0:0:0:0:
265,298,21145,2,0,P|248:253|257:222,1,53.75,2|0,0:0|0:0,0:0:0:0:
336,136,21321,2,0,L|322:289,1,107.5,8|0,0:0|0:0,0:0:0:0:
176,363,21674,5,8,0:0:0:0:
94,199,21850,2,0,P|86:250|103:282,1,53.75,8|0,0:0|0:0,0:0:0:0:
201,126,22027,5,8,0:0:0:0:
191,96,22115,1,8,0:0:0:0:
155,116,22203,5,8,0:0:0:0:
156,84,22291,1,8,0:0:0:0:
115,98,22380,6,0,L|120:61,1,37.625
21,22,23086,6,0,L|33:132,2,80.6250030755998,4|0|0,1:0|0:0|0:0,0:0:0:0:
115,98,23615,2,0,L|103:208,2,80.6250030755998,0|0|0,0:0|0:0|0:0,0:0:0:0:
199,175,24145,2,0,L|211:285,2,80.6250030755998,0|0|0,0:0|0:0|0:0,0:0:0:0:
293,251,24674,2,0,L|281:361,2,80.6250030755998,0|0|0,0:0|0:0|0:0,0:0:0:0:
400,183,25203,6,0,P|440:210|453:240,1,80.6250030755998,0|0,0:0|0:0,0:0:0:0:
363,111,25556,2,0,P|410:101|440:113,1,80.6250030755998,0|0,0:0|0:0,0:0:0:0:
289,84,25909,6,0,P|316:44|346:31,1,80.6250030755998,0|0,0:0|0:0,0:0:0:0:
424,26,26174,1,0,0:0:0:0:
444,30,26262,1,0,0:0:0:0:
209,121,26439,6,0,L|198:15,2,80.6250030755998,0|0|0,0:0|0:0|0:0,0:0:0:0:
92,190,26968,2,0,L|103:84,1,80.6250030755998,0|0,0:0|0:0,0:0:0:0:
269,345,27321,6,0,P|289:286|264:241,1,80.6250030755998,0|0,0:0|0:0,0:0:0:0:
230,186,27674,1,0,0:0:0:0:
300,244,27850,6,0,P|272:188|222:173,1,80.6250030755998,0|0,0:0|0:0,0:0:0:0:
159,159,28203,1,0,0:0:0:0:
252,151,28380,6,0,P|193:130|148:156,1,80.6250030755998,0|0,0:0|0:0,0:0:0:0:
123,227,28645,1,0,0:0:0:0:
123,227,28733,6,0,L|130:335,2,80.6250030755998,0|0|0,0:0|0:0|0:0,0:0:0:0:
32,145,29262,2,0,L|25:253,1,80.6250030755998,0|0,0:0|0:0,0:0:0:0:
26,225,29527,1,0,0:0:0:0:
26,225,29615,1,0,0:0:0:0:
59,340,29792,2,0,P|111:382|147:383,1,80.6250030755998,0|0,0:0|0:0,0:0:0:0:
249,299,30145,6,0,L|261:205,1,80.6250030755998,0|0,0:0|0:0,0:0:0:0:
179,138,30497,2,0,L|172:82,1,40.3125015377999,0|0,0:0|0:0,0:0:0:0:
218,37,30674,1,0,0:0:0:0:
316,127,30850,6,0,P|371:145|411:136,1,80.6250030755998,0|0,0:0|0:0,0:0:0:0:
406,226,31203,2,0,P|457:199|479:165,1,80.6250030755998,0|0,0:0|0:0,0:0:0:0:
369,67,31556,6,0,L|362:10,1,40.3125015377999,0|0,0:0|0:0,0:0:0:0:
293,45,31733,1,0,0:0:0:0:
235,99,31909,1,0,0:0:0:0:
125,187,32086,5,0,0:0:0:0:
201,165,32263,1,0,0:0:0:0:
259,219,32439,1,0,0:0:0:0:
368,312,32615,6,0,L|361:255,1,40.3125015377999,0|0,0:0|0:0,0:0:0:0:
292,290,32792,1,0,0:0:0:0:
171,343,32968,6,0,L|186:245,2,80.6250030755998,0|0|0,0:0|0:0|0:0,0:0:0:0:
259,219,33497,2,0,L|244:121,2,80.6250030755998,0|0|0,0:0|0:0|0:0,0:0:0:0:
141,117,34027,2,0,L|151:47,1,40.3125015377999,0|0,0:0|0:0,0:0:0:0:
246,139,34203,1,0,0:0:0:0:
431,37,34380,5,2,0:0:0:0:
426,68,34556,1,2,0:0:0:0:
421,99,34733,1,2,0:0:0:0:
414,130,34909,1,2,0:0:0:0:
332,184,35086,6,0,L|381:197,1,40.3125015377999,2|0,0:0|0:0,0:0:0:0:
337,215,35262,1,2,0:0:0:0:
342,246,35439,1,2,0:0:0:0:
349,277,35615,1,2,0:0:0:0:
247,154,35792,5,2,0:0:0:0:
242,185,35968,1,2,0:0:0:0:
237,216,36145,1,2,0:0:0:0:
230,247,36321,1,2,0:0:0:0:
136,288,36497,5,2,0:0:0:0:
141,319,36673,1,2,0:0:0:0:
146,350,36850,1,2,0:0:0:0:
153,381,37026,1,2,0:0:0:0:
52,344,37203,5,2,0:0:0:0:
57,313,37379,1,2,0:0:0:0:
62,282,37556,1,2,0:0:0:0:
69,251,37732,1,2,0:0:0:0:
151,197,37909,5,2,0:0:0:0:
146,166,38085,1,2,0:0:0:0:
141,135,38262,1,2,0:0:0:0:
134,104,38438,1,2,0:0:0:0:
236,227,38615,5,2,0:0:0:0:
241,196,38791,1,2,0:0:0:0:
246,165,38968,1,2,0:0:0:0:
253,134,39144,1,2,0:0:0:0:
348,93,39320,5,2,0:0:0:0:
343,62,39496,1,2,0:0:0:0:
338,31,39673,1,2,0:0:0:0:
331,0,39849,1,2,0:0:0:0:
447,174,40027,6,0,L|451:114,7,40.3125015377999,8|8|8|8|8|8|8|8,0:0|0:0|0:0|0:0|0:0|0:0|0:0|0:0,0:0:0:0:
386,237,40733,2,0,L|388:277,7,40.3125015377999,8|8|8|8|8|8|8|8,0:0|0:0|0:0|0:0|0:0|0:0|0:0|0:0,0:0:0:0:
300,198,41439,6,0,L|308:148,1,40.3125015377999,2|2,0:0|0:0,0:0:0:0:
229,186,41615,2,0,L|237:136,1,40.3125015377999,2|2,0:0|0:0,0:0:0:0:
158,174,41792,2,0,L|166:124,1,40.3125015377999,2|2,0:0|0:0,0:0:0:0:
180,244,41968,6,0,L|188:294,1,40.3125015377999,2|2,0:0|0:0,0:0:0:0:
109,256,42144,2,0,L|117:306,1,40.3125015377999,2|2,0:0|0:0,0:0:0:0:
38,268,42321,2,0,L|46:318,1,40.3125015377999,2|2,0:0|0:0,0:0:0:0:
0,203,42497,6,0,L|8:153,1,40.3125015377999
26,77,42674,1,2,0:0:0:0:
26,77,42762,1,2,0:0:0:0:
26,77,42850,5,2,0:0:0:0:
59,84,42938,1,2,0:0:0:0:
94,84,43026,1,2,0:0:0:0:
126,74,43114,1,2,0:0:0:0:
155,55,43202,1,2,0:0:0:0:
187,41,43291,1,2,0:0:0:0:
221,40,43379,1,2,0:0:0:0:
255,47,43467,1,2,0:0:0:0:
283,64,43556,5,2,0:0:0:0:
291,97,43644,1,2,0:0:0:0:
312,124,43732,1,2,0:0:0:0:
341,143,43820,1,2,0:0:0:0:
374,149,43908,1,2,0:0:0:0:
408,143,43997,1,2,0:0:0:0:
437,125,44085,1,2,0:0:0:0:
458,98,44173,1,2,0:0:0:0:
465,62,44262,6,0,L|405:73,7,40.3125015377999,2|2|2|2|2|2|2|2,0:0|0:0|0:0|0:0|0:0|0:0|0:0|0:0,0:0:0:0:
488,207,44968,5,2,0:0:0:0:
435,219,45056,1,2,0:0:0:0:
383,232,45144,1,2,0:0:0:0:
331,244,45232,1,2,0:0:0:0:
280,258,45321,2,0,L|271:290,6,20.1562507688999,2|2|2|2|2|2|2,0:0|0:0|0:0|0:0|0:0|0:0|0:0,0:0:0:0:
223,351,45674,6,0,L|206:156,1,150.499995407105,4|0,1:0|0:0,0:0:0:0:
71,63,46027,2,8,L|10:3,1,26.875
71,63,46115,2,8,L|95:40,1,26.875
71,63,46203,6,0,P|68:161|131:235,1,161.2500061512,6|2,0:0|0:0,0:0:0:0:
178,260,46468,1,0,0:0:0:0:
203,260,46556,1,8,0:0:0:0:
58,311,46733,6,0,B|144:299|144:299|191:320|191:320|317:304,1,225.749993110657,6|0,0:0|0:0,0:0:0:0:
348,349,47086,2,0,P|355:295|332:241,1,75.2499977035523,8|0,0:0|0:0,0:0:0:0:
309,27,47262,6,0,L|292:232,1,161.2500061512,6|8,0:0|0:0,0:0:0:0:
147,195,47615,2,8,P|98:201|63:246,1,80.6250030755998
59,328,47792,6,0,P|139:276|121:153,1,182.75000348568,6|8,0:0|0:0,0:0:0:0:
112,99,48056,2,8,P|120:100|151:102,1,45.6875008714199
112,99,48145,6,0,P|144:158|253:132,1,172,6|0,0:0|0:0,0:0:0:0:
424,26,48497,6,0,B|357:82|357:82|378:254,1,225.749993110657,4|0,0:0|0:0,0:0:0:0:
392,349,48850,1,8,0:0:0:0:
426,279,48939,1,8,0:0:0:0:
373,219,49027,5,6,0:0:0:0:
302,252,49115,2,0,P|212:270|130:186,1,161.2500061512,0|0,0:0|0:0,0:0:0:0:
121,164,49380,1,8,0:0:0:0:
243,43,49556,6,0,B|232:92|232:92|245:136|245:136|227:243,1,150.499995407105,6|0,0:0|0:0,0:0:0:0:
224,273,49821,1,0,0:0:0:0:
221,297,49909,1,8,0:0:0:0:
455,178,50086,6,0,L|359:187,1,80.6250030755998,6|0,0:0|0:0,0:0:0:0:
329,115,50262,2,0,L|409:107,1,80.6250030755998
447,294,50439,1,8,0:0:0:0:
399,324,50527,1,0,0:0:0:0:
347,325,50615,6,0,P|321:258|335:216,1,86,6|0,0:0|0:0,0:0:0:0:
363,53,50792,1,8,0:0:0:0:
382,60,50880,1,8,0:0:0:0:
454,95,50968,6,0,L|241:135,1,182.75000348568,6|2,0:0|0:0,0:0:0:0:
264,129,51203,1,2,0:0:0:0:
253,128,51262,1,2,0:0:0:0:
243,126,51321,6,0,B|227:163|227:163|244:239,1,80.6250030755998,6|0,0:0|0:0,0:0:0:0:
163,314,51497,2,0,B|179:277|179:277|162:201,1,80.6250030755998
116,107,51674,6,8,L|107:74,1,26.875,8|8,0:0|0:0,0:0:0:0:
103,112,51762,2,8,L|94:79,1,26.875,8|8,0:0|0:0,0:0:0:0:
90,117,51850,6,0,L|82:226,1,80.6250030755998,6|0,0:0|0:0,0:0:0:0:
249,374,52027,2,0,L|254:293,1,80.6250030755998,0|0,0:0|0:0,0:0:0:0:
216,36,52203,1,8,0:0:0:0:
275,29,52292,1,0,0:0:0:0:
324,59,52380,6,0,P|374:66|436:22,1,80.6250030755998,6|0,0:0|0:0,0:0:0:0:
479,168,52556,2,0,P|440:157|401:165,1,80.6250030755998,0|0,0:0|0:0,0:0:0:0:
404,362,52733,1,8,0:0:0:0:
429,308,52821,1,0,0:0:0:0:
413,253,52909,6,0,B|337:225|337:225|236:258,1,161.2500061512,6|0,0:0|0:0,0:0:0:0:
130,307,53262,1,8,0:0:0:0:
219,97,53439,6,0,B|229:160|229:160|250:186|250:186|268:300,1,161.2500061512,6|8,0:0|0:0,0:0:0:0:
248,252,53674,1,8,0:0:0:0:
233,254,53733,1,8,0:0:0:0:
219,258,53792,2,0,B|209:194|209:194|188:168|188:168|178:105,1,161.2500061512,6|0,0:0|0:0,0:0:0:0:
482,45,54145,6,0,L|370:31,1,80.6250030755998,6|0,0:0|0:0,0:0:0:0:
353,185,54321,2,0,L|465:171,1,80.6250030755998,0|0,0:0|0:0,0:0:0:0:
311,39,54497,1,8,0:0:0:0:
262,36,54586,1,0,0:0:0:0:
220,48,54674,6,0,B|124:34|174:122|-1:71,1,161.2500061512,6|0,0:0|0:0,0:0:0:0:
87,296,55027,1,8,0:0:0:0:
105,247,55115,1,0,0:0:0:0:
76,204,55203,6,0,L|166:198,1,80.6250030755998,6|0,0:0|0:0,0:0:0:0:
265,307,55380,1,2,0:0:0:0:
300,275,55468,1,0,0:0:0:0:
351,267,55556,1,8,0:0:0:0:
401,276,55645,1,0,0:0:0:0:
441,311,55733,6,0,P|436:358|403:394,1,80.6250030755998,6|0,0:0|0:0,0:0:0:0:
319,173,55909,1,2,0:0:0:0:
326,148,55997,1,0,0:0:0:0:
333,125,56086,1,8,0:0:0:0:
340,103,56174,1,0,0:0:0:0:
347,79,56262,6,0,B|240:81|240:81|181:148,1,161.2500061512,6|0,0:0|0:0,0:0:0:0:
151,231,56527,1,0,0:0:0:0:
151,231,56615,2,0,B|127:173|172:121|172:121|139:47|14:102,1,241.875009226799,4|0,0:0|0:0,0:0:0:0:
187,328,56968,6,0,L|209:358,1,26.875,2|2,0:0|0:0,0:0:0:0:
325,328,57145,2,0,L|303:358,1,26.875,2|2,0:0|0:0,0:0:0:0:
159,311,57321,6,0,L|193:331,1,32.2499990158081,2|2,0:0|0:0,0:0:0:0:
353,311,57498,2,0,L|319:331,1,32.2499990158081,2|2,0:0|0:0,0:0:0:0:
121,306,57674,6,0,L|179:313,1,37.6249988517762,2|2,0:0|0:0,0:0:0:0:
391,306,57851,2,0,L|333:313,1,37.6249988517762,2|2,0:0|0:0,0:0:0:0:
79,316,58027,6,0,L|132:302,1,43,2|2,0:0|0:0,0:0:0:0:
433,316,58204,2,0,L|380:302,1,43,2|2,0:0|0:0,0:0:0:0:
47,352,58380,6,0,L|89:303,1,48.3749985237122,2|2,0:0|0:0,0:0:0:0:
465,352,58557,2,0,L|423:303,1,48.3749985237122,2|2,0:0|0:0,0:0:0:0:
159,73,58733,6,0,P|133:103|135:137,1,53.75,2|2,0:0|0:0,0:0:0:0:
353,311,58909,2,0,P|379:281|377:247,1,53.75,2|2,0:0|0:0,0:0:0:0:
275,137,59086,6,0,P|216:99|116:127,1,161.25,6|0,0:0|0:0,0:0:0:0:
236,246,59792,2,0,P|295:284|395:256,1,161.25
340,176,60497,6,0,B|288:156|288:156|220:236|220:236|156:204,1,225.749993110657,4|0,0:0|0:0,0:0:0:0:
110,112,61909,6,0,P|147:98|208:117,1,69.8749968013765,4|0,1:0|0:0,0:0:0:0:
271,211,62085,1,8,0:0:0:0:
117,307,62261,6,0,P|84:284|64:223,1,69.8749968013765
110,112,62438,1,8,0:0:0:0:
271,211,62614,6,0,P|271:250|232:301,1,69.8749968013765,2|0,0:0|0:0,0:0:0:0:
117,307,62791,1,8,0:0:0:0:
117,307,62879,1,0,0:0:0:0:
117,307,62967,5,2,0:0:0:0:
175,297,63056,1,0,0:0:0:0:
258,277,63144,5,8,0:0:0:0:
316,267,63233,1,0,0:0:0:0:
417,251,63320,6,0,B|387:203|387:203|412:77,1,145.124995571137,8|0,0:0|0:0,0:0:0:0:
412,22,63673,5,8,0:0:0:0:
481,74,63761,2,0,P|398:104|319:16,1,161.2500061512,2|0,0:0|0:0,0:0:0:0:
239,130,64026,6,0,P|230:86|182:46,1,69.8749968013765,2|0,0:0|0:0,0:0:0:0:
263,205,64203,1,8,0:0:0:0:
263,205,64291,1,0,0:0:0:0:
263,205,64379,6,0,P|307:211|361:180,1,69.8749968013765,2|0,0:0|0:0,0:0:0:0:
184,188,64556,6,0,P|153:220|147:282,1,69.8749968013765,8|0,0:0|0:0,0:0:0:0:
159,355,64732,6,0,P|136:299|147:237,1,118.250003608704,2|8,0:0|0:0,0:0:0:0:
421,323,65085,5,2,0:0:0:0:
430,281,65173,1,2,0:0:0:0:
461,320,65261,5,8,0:0:0:0:
458,277,65349,1,2,0:0:0:0:
498,304,65438,6,0,B|489:259|489:259|492:253|492:253|472:166,1,107.5,2|8,0:0|0:0,0:0:0:0:
328,104,65703,1,0,0:0:0:0:
301,185,65791,6,0,B|265:169|265:169|229:93,1,80.6250030755998,2|2,0:0|0:0,0:0:0:0:
354,23,65967,2,0,B|390:39|390:39|426:115,1,80.6250030755998,2|2,0:0|0:0,0:0:0:0:
361,223,66144,6,0,L|168:246,1,139.749993602753,6|8,0:0|0:0,0:0:0:0:
103,178,66409,1,0,0:0:0:0:
103,178,66497,6,0,P|84:130|86:115,1,40.3125015377999,2|0,0:0|0:0,0:0:0:0:
222,239,66673,2,0,P|210:292|185:317,1,64.4999980316163,8|0,0:0|0:0,0:0:0:0:
127,355,66850,6,0,P|209:319|300:387,1,150.499995407105,2|8,0:0|0:0,0:0:0:0:
334,198,67114,1,0,0:0:0:0:
334,198,67203,6,0,B|342:248|342:248|349:254|349:254|359:324,1,107.5,2|8,0:0|0:0,0:0:0:0:
346,108,67467,1,0,0:0:0:0:
346,108,67556,6,0,B|226:95|282:206|134:164,1,209.62499040413,8|0,0:0|0:0,0:0:0:0:
73,101,67909,5,8,0:0:0:0:
87,247,67997,2,0,P|51:170|113:70,1,161.2500061512,8|0,0:0|0:0,0:0:0:0:
166,255,68261,6,0,L|146:401,1,107.5,2|8,0:0|0:0,0:0:0:0:
267,226,68526,1,0,0:0:0:0:
267,226,68614,6,0,L|286:394,1,128.999996063233,2|8,0:0|0:0,0:0:0:0:
338,127,68879,1,0,0:0:0:0:
338,127,68967,6,0,L|401:314,1,139.749993602753,2|0,0:0|0:0,0:0:0:0:
437,369,69232,1,2,0:0:0:0:
494,312,69320,5,6,0:0:0:0:
469,243,69409,1,2,0:0:0:0:
493,182,69497,1,2,0:0:0:0:
475,142,69585,1,2,0:0:0:0:
482,114,69673,6,0,B|474:81|474:81|485:24,1,69.8749968013765,2|2,0:0|0:0,0:0:0:0:
185,102,69850,5,2,0:0:0:0:
210,171,69939,1,2,0:0:0:0:
186,232,70027,1,6,0:0:0:0:
204,272,70115,1,2,0:0:0:0:
197,300,70203,6,0,B|205:333|205:333|194:390,1,69.8749968013765,2|2,0:0|0:0,0:0:0:0:
348,208,70379,5,4,1:0:0:0:
69,256,70556,1,8,0:0:0:0:
362,213,70732,5,2,0:0:0:0:
55,251,70909,1,8,0:0:0:0:
376,217,71085,5,2,0:0:0:0:
41,247,71262,1,8,0:0:0:0:
392,223,71438,6,0,L|420:304,1,69.8749968013765,2|0,0:0|0:0,0:0:0:0:
25,242,71615,1,8,0:0:0:0:
131,39,71791,6,0,B|126:109|126:109|141:133|141:133|131:261,1,177.375005413056,2|0,0:0|0:0,0:0:0:0:
231,278,72144,5,8,0:0:0:0:
131,348,72232,2,0,B|176:343|176:343|232:383|300:336,1,161.2500061512,8|0,0:0|0:0,0:0:0:0:
231,278,72497,5,2,0:0:0:0:
242,21,72673,1,8,0:0:0:0:
247,256,72850,5,2,0:0:0:0:
245,236,72938,1,0,0:0:0:0:
241,218,73026,1,8,0:0:0:0:
238,202,73114,1,0,0:0:0:0:
236,184,73203,5,2,0:0:0:0:
445,14,73379,2,0,L|349:28,1,69.8749968013765,8|0,0:0|0:0,0:0:0:0:
231,164,73556,2,0,B|289:170|289:170|309:185|309:185|403:198,1,139.749993602753,2|8,0:0|0:0,0:0:0:0:
105,281,73909,6,0,P|69:233|111:137,1,161.2500061512,2|8,0:0|0:0,0:0:0:0:
149,211,74173,1,2,0:0:0:0:
105,281,74261,6,0,P|32:222|62:105,1,172,2|2,0:0|0:0,0:0:0:0:
264,78,74614,5,6,0:0:0:0:
178,310,74791,1,8,0:0:0:0:
267,63,74967,5,2,0:0:0:0:
181,325,75144,1,8,0:0:0:0:
272,44,75320,5,2,0:0:0:0:
186,344,75497,1,8,0:0:0:0:
276,27,75673,6,0,L|362:53,1,69.8749968013765,2|0,0:0|0:0,0:0:0:0:
189,361,75850,1,8,0:0:0:0:
486,154,76026,6,0,P|416:133|316:246,1,209.62499040413,2|0,0:0|0:0,0:0:0:0:
421,384,76379,1,2,0:0:0:0:
421,384,76467,2,0,P|472:364|491:338,1,69.8749968013765,0|8,0:0|0:0,0:0:0:0:
172,255,76732,5,2,0:0:0:0:
482,250,76908,1,8,0:0:0:0:
186,173,77085,1,2,0:0:0:0:
144,176,77173,1,0,0:0:0:0:
107,197,77261,1,8,0:0:0:0:
92,236,77350,1,0,0:0:0:0:
95,277,77438,6,0,B|82:215|82:215|85:201|85:201|62:97,1,139.749993602753,2|2,0:0|0:0,0:0:0:0:
72,56,77703,1,2,0:0:0:0:
150,70,77791,5,2,0:0:0:0:
190,75,77879,1,2,0:0:0:0:
260,88,77967,5,2,0:0:0:0:
300,93,78055,1,2,0:0:0:0:
417,107,78144,6,0,B|365:133|365:133|316:182|379:263,1,161.2500061512,6|0,0:0|0:0,0:0:0:0:
95,277,78497,2,0,B|147:251|147:251|196:202|133:121,1,161.2500061512,6|0,0:0|0:0,0:0:0:0:
367,40,78850,6,0,P|413:27|494:155,1,182.75000348568,4|0,1:0|0:0,0:0:0:0:
406,341,79203,5,2,0:0:0:0:
411,292,79291,1,2,0:0:0:0:
375,330,79379,1,2,0:0:0:0:
379,303,79467,1,2,0:0:0:0:
347,313,79556,6,0,B|472:338|472:338|494:201,1,182.75000348568,6|0,0:0|0:0,0:0:0:0:
347,71,79908,2,0,B|472:46|472:46|494:183,1,182.75000348568,6|0,0:0|0:0,0:0:0:0:
145,40,80261,6,0,P|99:27|18:155,1,182.75000348568,6|0,0:0|0:0,0:0:0:0:
106,341,80614,5,2,0:0:0:0:
101,292,80702,1,2,0:0:0:0:
137,330,80790,1,2,0:0:0:0:
133,303,80878,1,2,0:0:0:0:
165,313,80967,6,0,B|40:338|40:338|18:201,1,182.75000348568,6|0,0:0|0:0,0:0:0:0:
165,71,81319,2,0,B|40:46|40:46|18:183,1,182.75000348568,6|0,0:0|0:0,0:0:0:0:
95,268,81673,6,0,L|91:215,1,53.75,2|2,0:0|0:0,0:0:0:0:
191,193,81852,2,0,L|196:140,1,53.75,2|2,0:0|0:0,0:0:0:0:
317,340,82031,6,0,L|313:287,1,53.75,2|2,0:0|0:0,0:0:0:0:
413,265,82210,2,0,L|418:212,1,53.75,2|2,0:0|0:0,0:0:0:0:
100,322,82411,6,0,L|95:268,1,53.75,2|2,0:0|0:0,0:0:0:0:
186,247,82598,2,0,L|190:193,1,53.75,2|2,0:0|0:0,0:0:0:0:
313,287,82786,6,0,L|308:233,1,53.75,2|2,0:0|0:0,0:0:0:0:
418,212,82973,2,0,L|422:158,1,53.75,2|2,0:0|0:0,0:0:0:0:
314,119,83192,6,0,L|244:127,1,53.75,2|2,0:0|0:0,0:0:0:0:
41,274,83392,2,0,L|111:266,1,53.75,2|2,0:0|0:0,0:0:0:0:
190,193,83592,6,0,L|260:201,1,53.75,2|2,0:0|0:0,0:0:0:0:
463,348,83792,2,0,L|393:340,1,53.75,2|2,0:0|0:0,0:0:0:0:
158,83,84000,6,0,P|203:73|228:31,1,53.75,8|8,0:0|0:0,0:0:0:0:
354,301,84214,2,0,P|309:311|284:353,1,53.75,8|8,0:0|0:0,0:0:0:0:
427,343,84428,5,8,0:0:0:0:
451,274,84535,1,8,0:0:0:0:
451,197,84642,1,8,0:0:0:0:
421,132,84750,1,8,0:0:0:0:
334,64,84875,6,0,B|410:87|382:175|382:175|330:159|293:189|293:189|361:232|344:327|294:355|214:356|165:328|148:233|215:190|215:190|178:160|126:176|126:176|96:73|212:57,1,860,4|0,1:0|0:0,0:0:0:0:
452,345,88504,6,0,P|474:313|471:278,1,53.75,0|0,0:0|0:0,0:0:0:0:
440,222,88856,1,0,0:0:0:0:
371,273,89033,2,0,L|206:257,1,161.25,0|0,0:0|0:0,0:0:0:0:
60,345,89915,6,0,P|38:313|41:278,1,53.75,0|0,0:0|0:0,0:0:0:0:
133,243,90268,2,0,P|119:279|89:296,1,53.75,0|0,0:0|0:0,0:0:0:0:
60,224,90621,1,0,0:0:0:0:
78,36,91327,6,0,L|140:49,1,53.75,0|0,0:0|0:0,0:0:0:0:
181,119,91680,2,0,L|244:107,1,53.75,0|0,0:0|0:0,0:0:0:0:
305,58,92033,1,0,0:0:0:0:
446,193,92739,6,0,P|453:149|444:124,1,53.75,0|0,0:0|0:0,0:0:0:0:
379,101,93092,2,0,P|347:118|333:138,1,53.75,0|0,0:0|0:0,0:0:0:0:
359,224,93445,1,0,0:0:0:0:
181,333,94151,6,0,P|136:328|123:313,1,53.75,0|0,0:0|0:0,0:0:0:0:
106,250,94504,2,0,P|114:212|99:183,1,53.75,0|0,0:0|0:0,0:0:0:0:
54,313,94856,1,0,0:0:0:0:
175,142,95562,6,0,L|241:148,1,53.75,0|0,0:0|0:0,0:0:0:0:
272,211,95915,2,0,P|307:217|331:204,1,53.75,0|0,0:0|0:0,0:0:0:0:
372,157,96268,1,0,0:0:0:0:
271,358,96974,6,0,P|262:326|266:301,1,53.75,0|0,0:0|0:0,0:0:0:0:
383,306,97327,2,0,P|353:324|330:322,1,53.75,0|0,0:0|0:0,0:0:0:0:
187,338,97680,1,0,0:0:0:0:
92,163,98386,6,0,P|58:170|39:183,1,53.75,0|0,0:0|0:0,0:0:0:0:
157,212,98739,2,0,P|191:205|210:192,1,53.75,0|0,0:0|0:0,0:0:0:0:
226,121,99092,1,0,0:0:0:0:
394,176,99798,6,0,L|380:89,1,80.6250030755998,2|0,0:0|0:0,0:0:0:0:
435,32,100151,1,8,0:0:0:0:
437,245,100327,5,0,0:0:0:0:
413,225,100415,1,0,0:0:0:0:
385,214,100503,1,0,0:0:0:0:
355,213,100591,1,0,0:0:0:0:
326,221,100679,1,2,0:0:0:0:
338,375,100856,6,0,P|363:333|350:286,1,80.6250030755998,8|0,0:0|0:0,0:0:0:0:
326,221,101121,1,0,0:0:0:0:
326,221,101209,6,0,L|216:227,1,80.6250030755998,2|0,0:0|0:0,0:0:0:0:
187,281,101562,1,2,0:0:0:0:
208,149,101739,2,0,L|288:144,1,80.6250030755998,8|0,0:0|0:0,0:0:0:0:
349,91,102003,1,2,0:0:0:0:
349,91,102092,1,2,0:0:0:0:
239,25,102268,6,0,P|236:52|242:79,1,40.3125015377999,8|0,0:0|0:0,0:0:0:0:
287,184,102445,2,0,P|290:157|284:130,1,40.3125015377999,0|0,0:0|0:0,0:0:0:0:
237,64,102621,5,2,0:0:0:0:
211,62,102709,1,0,0:0:0:0:
186,60,102798,1,0,0:0:0:0:
96,118,102974,2,0,P|95:170|111:200,1,80.6250030755998,8|0,0:0|0:0,0:0:0:0:
168,249,103239,1,0,0:0:0:0:
168,249,103327,6,0,L|159:328,2,40.3125015377999,0|0|2,0:0|0:0|0:0,0:0:0:0:
313,331,103680,2,0,L|308:292,1,40.3125015377999,8|0,0:0|0:0,0:0:0:0:
390,237,103856,2,0,L|385:276,1,40.3125015377999,0|0,0:0|0:0,0:0:0:0:
223,368,104033,6,0,L|239:262,1,80.6250030755998,8|0,0:0|0:0,0:0:0:0:
266,196,104298,1,0,0:0:0:0:
266,196,104386,2,0,L|322:186,1,40.3125015377999,2|2,0:0|0:0,0:0:0:0:
168,249,104562,6,0,L|184:143,1,80.6250030755998,8|0,0:0|0:0,0:0:0:0:
192,92,104827,1,2,0:0:0:0:
192,92,104915,1,2,0:0:0:0:
311,39,105092,2,0,L|358:30,1,40.3125015377999,2|8,0:0|0:0,0:0:0:0:
414,77,105268,2,0,L|461:68,1,40.3125015377999,2|8,0:0|0:0,0:0:0:0:
401,152,105445,6,0,P|348:121|339:76,1,80.6250030755998,2|0,0:0|0:0,0:0:0:0:
453,69,105798,1,8,0:0:0:0:
460,210,105974,5,0,0:0:0:0:
433,195,106062,1,0,0:0:0:0:
404,190,106150,1,0,0:0:0:0:
375,197,106238,1,0,0:0:0:0:
350,215,106326,1,2,0:0:0:0:
236,285,106503,6,0,P|179:266|156:234,1,80.6250030755998,8|0,0:0|0:0,0:0:0:0:
161,177,106768,1,0,0:0:0:0:
161,177,106856,6,0,L|72:170,1,80.6250030755998,2|0,0:0|0:0,0:0:0:0:
40,245,107209,1,2,0:0:0:0:
65,329,107386,2,0,L|145:335,1,80.6250030755998,8|0,0:0|0:0,0:0:0:0:
216,371,107651,1,2,0:0:0:0:
216,371,107739,1,2,0:0:0:0:
349,314,107915,2,0,P|370:277|361:229,1,80.6250030755998,8|0,0:0|0:0,0:0:0:0:
329,174,108180,1,0,0:0:0:0:
329,174,108268,6,0,L|327:124,2,40.3125015377999,2|0|0,0:0|0:0|0:0,0:0:0:0:
426,133,108621,2,0,L|434:45,1,80.6250030755998,8|0,0:0|0:0,0:0:0:0:
366,17,108886,1,0,0:0:0:0:
366,17,108974,1,2,0:0:0:0:
282,82,109151,1,0,0:0:0:0:
193,32,109327,2,0,P|146:43|116:65,1,80.6250030755998,8|0,0:0|0:0,0:0:0:0:
98,151,109680,5,2,0:0:0:0:
83,168,110386,2,0,L|201:157,1,80.6250030755998,2|8,0:0|0:0,0:0:0:0:
245,190,110651,1,8,0:0:0:0:
221,212,110739,2,0,L|339:201,1,80.6250030755998,8|8,0:0|0:0,0:0:0:0:
374,153,111003,1,8,0:0:0:0:
374,153,111092,6,0,L|381:22,1,107.5,4|8,1:0|0:0,0:0:0:0:
474,270,111445,2,0,L|467:139,1,107.5,2|8,0:0|0:0,0:0:0:0:
354,267,111798,6,0,L|359:332,1,53.75,2|0,0:0|0:0,0:0:0:0:
441,371,111974,1,8,0:0:0:0:
239,280,112151,6,0,L|244:345,1,53.75,2|0,0:0|0:0,0:0:0:0:
326,384,112327,1,8,0:0:0:0:
105,289,112503,5,2,0:0:0:0:
201,135,112680,2,0,L|191:215,1,53.75,8|0,0:0|0:0,0:0:0:0:
105,289,112856,5,2,0:0:0:0:
105,289,112945,1,0,0:0:0:0:
105,289,113033,2,0,L|46:293,1,53.75,8|0,0:0|0:0,0:0:0:0:
40,132,113209,6,0,L|154:238,1,107.5,2|8,0:0|0:0,0:0:0:0:
194,188,113474,1,0,0:0:0:0:
194,188,113562,6,0,L|200:134,1,53.75,2|0,0:0|0:0,0:0:0:0:
286,55,113739,2,0,L|301:127,1,53.75,8|0,0:0|0:0,0:0:0:0:
385,236,113915,6,0,P|446:193|454:148,1,107.5,2|8,0:0|0:0,0:0:0:0:
386,47,114268,1,2,0:0:0:0:
311,214,114445,2,0,P|309:250|325:288,1,53.75,8|0,0:0|0:0,0:0:0:0:
185,360,114621,6,0,B|194:315|194:315|199:305|199:305|211:237,2,107.5,2|8|2,0:0|0:0|0:0,0:0:0:0:
103,323,115062,1,0,0:0:0:0:
99,302,115151,1,8,0:0:0:0:
92,96,115327,6,0,P|149:133|190:128,1,107.5,2|8,0:0|0:0,0:0:0:0:
288,27,115680,1,2,0:0:0:0:
182,189,115856,2,0,P|225:167|257:171,1,53.75,8|0,0:0|0:0,0:0:0:0:
334,110,116033,6,0,P|344:184|300:265,1,128.999996063233,2|8,0:0|0:0,0:0:0:0:
275,308,116298,1,0,0:0:0:0:
212,352,116386,2,0,B|269:346|269:346|288:357|288:357|365:345,1,128.999996063233,8|2,0:0|0:0,0:0:0:0:
426,335,116651,1,2,0:0:0:0:
426,335,116739,6,0,P|435:267|475:222,2,107.5,2|8|2,0:0|0:0|0:0,0:0:0:0:
438,31,117268,2,0,P|439:53|452:92,1,53.75,8|0,0:0|0:0,0:0:0:0:
399,165,117445,2,0,P|334:145|295:98,1,107.5,2|8,0:0|0:0,0:0:0:0:
258,10,117798,1,2,0:0:0:0:
236,211,117974,1,8,0:0:0:0:
27,108,118151,6,0,B|91:114|91:114|110:130|110:130|206:139,1,161.25,8|0,0:0|0:0,0:0:0:0:
209,120,118503,2,0,P|214:88|197:51,1,53.75,2|0,0:0|0:0,0:0:0:0:
120,255,118680,1,8,0:0:0:0:
120,255,118768,1,0,0:0:0:0:
120,255,118856,6,0,P|161:298|247:298,1,107.5,2|8,0:0|0:0,0:0:0:0:
298,278,119121,1,0,0:0:0:0:
298,278,119209,6,0,L|304:205,1,53.75,2|0,0:0|0:0,0:0:0:0:
391,349,119386,2,0,L|385:276,1,53.75,8|0,0:0|0:0,0:0:0:0:
381,137,119562,5,2,0:0:0:0:
488,192,119739,1,8,0:0:0:0:
465,107,119915,2,0,L|445:55,1,53.75,2|0,0:0|0:0,0:0:0:0:
407,223,120092,1,8,0:0:0:0:
285,50,120268,5,2,0:0:0:0:
158,66,120445,1,8,0:0:0:0:
304,62,120621,2,0,L|282:123,1,53.75,2|0,0:0|0:0,0:0:0:0:
137,57,120798,1,8,0:0:0:0:
75,207,120974,6,0,P|130:188|200:208,1,107.5,8|0,0:0|0:0,0:0:0:0:
311,336,121327,6,0,P|389:312|416:245,1,128.999996063233,8|0,0:0|0:0,0:0:0:0:
419,183,121592,1,2,0:0:0:0:
373,256,121680,6,0,P|449:262|500:207,1,128.999996063233,2|2,0:0|0:0,0:0:0:0:
471,58,121945,1,2,0:0:0:0:
492,76,122033,2,0,L|333:53,1,128.999996063233,8|2,0:0|0:0,0:0:0:0:
245,141,122298,1,2,0:0:0:0:
264,120,122386,6,0,L|146:99,1,107.5,4|8,1:0|0:0,0:0:0:0:
48,196,122739,1,2,0:0:0:0:
6,72,122915,1,8,0:0:0:0:
48,196,123092,6,0,L|64:273,1,53.75,2|0,0:0|0:0,0:0:0:0:
30,339,123268,1,8,0:0:0:0:
189,225,123445,6,0,L|205:302,1,53.75,2|0,0:0|0:0,0:0:0:0:
171,368,123621,1,8,0:0:0:0:
316,246,123798,6,0,B|305:197|305:197|308:185|308:185|291:123,1,107.5,2|8,0:0|0:0,0:0:0:0:
371,49,124151,1,2,0:0:0:0:
491,242,124327,1,8,0:0:0:0:
491,242,124415,1,0,0:0:0:0:
491,242,124503,6,0,P|423:272|376:257,1,107.5,2|2,0:0|0:0,0:0:0:0:
331,341,124768,1,2,0:0:0:0:
331,341,124856,6,0,P|281:323|238:323,1,53.75,2|0,0:0|0:0,0:0:0:0:
202,269,125033,2,0,P|152:287|109:287,1,53.75,8|0,0:0|0:0,0:0:0:0:
62,343,125209,6,0,B|41:294|41:294|71:213,2,107.5,2|8|2,0:0|0:0|0:0,0:0:0:0:
242,161,125739,2,0,L|225:92,1,53.75,8|0,0:0|0:0,0:0:0:0:
123,25,125915,6,0,P|113:96|123:120,1,53.75,2|0,0:0|0:0,0:0:0:0:
37,108,126092,2,0,P|80:165|104:175,1,53.75,8|0,0:0|0:0,0:0:0:0:
183,289,126268,6,0,P|193:218|183:194,1,53.75,2|0,0:0|0:0,0:0:0:0:
269,206,126445,2,0,P|225:148|201:138,1,53.75,8|0,0:0|0:0,0:0:0:0:
110,76,126621,6,0,P|154:82|216:31,1,107.5,2|8,0:0|0:0,0:0:0:0:
344,97,126974,2,0,P|376:107|393:133,1,53.75,2|0,0:0|0:0,0:0:0:0:
456,222,127151,2,0,B|459:180|459:180|469:171|469:171|474:87,1,107.5,8|2,0:0|0:0,0:0:0:0:
351,279,127503,5,2,0:0:0:0:
351,279,127592,1,2,0:0:0:0:
351,279,127680,2,0,L|201:264,1,128.999996063233,8|2,0:0|0:0,0:0:0:0:
174,364,127945,1,2,0:0:0:0:
174,364,128033,6,0,P|146:306|156:252,1,107.5,2|8,0:0|0:0,0:0:0:0:
200,94,128386,2,0,L|213:158,1,53.75,2|0,0:0|0:0,0:0:0:0:
120,178,128562,1,8,0:0:0:0:
128,34,128739,5,2,0:0:0:0:
200,94,128915,1,8,0:0:0:0:
300,109,129092,2,0,L|308:44,1,53.75,2|0,0:0|0:0,0:0:0:0:
394,97,129268,1,8,0:0:0:0:
291,278,129445,6,0,B|384:272|343:326|453:320,1,161.25,8|0,0:0|0:0,0:0:0:0:
465,328,129798,2,0,P|472:280|455:249,1,53.75,2|0,0:0|0:0,0:0:0:0:
394,97,129974,1,8,0:0:0:0:
394,97,130062,1,0,0:0:0:0:
394,97,130151,6,0,L|396:222,1,107.5,2|2,0:0|0:0,0:0:0:0:
296,175,130415,1,0,0:0:0:0:
296,175,130503,2,0,P|239:190|227:203,1,53.75,8|0,0:0|0:0,0:0:0:0:
243,347,130680,2,0,P|267:357|294:357,1,53.75,2|0,0:0|0:0,0:0:0:0:
174,256,130856,6,0,P|102:239|57:260,1,107.5,2|8,0:0|0:0,0:0:0:0:
132,384,131209,2,0,P|120:352|120:326,1,53.75,2|0,0:0|0:0,0:0:0:0:
134,146,131386,1,8,0:0:0:0:
27,44,131562,6,0,B|72:42|72:42|85:48|85:48|158:44,1,107.5,2|0,0:0|0:0,0:0:0:0:
281,111,131915,1,2,0:0:0:0:
312,99,132003,1,2,0:0:0:0:
343,101,132092,1,8,0:0:0:0:
370,359,132268,6,0,B|331:325|331:325|349:203,1,161.25,8|0,0:0|0:0,0:0:0:0:
355,195,132621,2,0,L|446:173,1,53.75,2|0,0:0|0:0,0:0:0:0:
248,264,132798,6,0,P|169:224|92:256,1,161.25,8|0,0:0|0:0,0:0:0:0:
88,284,133151,1,2,0:0:0:0:
103,245,133239,1,2,0:0:0:0:
88,210,133327,6,0,P|107:313|228:363,1,193.499994094849,8|0,0:0|0:0,0:0:0:0:
265,353,133680,5,4,1:0:0:0:
276,319,133856,1,0,0:0:0:0:
285,287,134033,1,0,0:0:0:0:
293,254,134209,1,0,0:0:0:0:
376,94,134386,5,0,0:0:0:0:
304,140,134562,1,0,0:0:0:0:
381,122,134739,1,0,0:0:0:0:
388,156,134915,1,0,0:0:0:0:
209,210,135092,5,0,0:0:0:0:
137,164,135268,1,0,0:0:0:0:
214,182,135445,1,0,0:0:0:0:
221,148,135621,1,0,0:0:0:0:
221,148,135709,1,0,0:0:0:0:
221,148,135798,6,0,P|211:92|190:82,1,80.6250030755998,0|0,0:0|0:0,0:0:0:0:
137,164,136062,2,0,P|96:204|100:227,1,80.6250030755998,0|0,0:0|0:0,0:0:0:0:
189,221,136327,2,0,P|245:230|261:214,1,80.6250030755998,0|0,0:0|0:0,0:0:0:0:
328,143,136680,5,0,0:0:0:0:
356,132,136856,1,0,0:0:0:0:
386,133,137033,1,0,0:0:0:0:
368,254,137209,5,0,0:0:0:0:
394,267,137386,1,0,0:0:0:0:
425,271,137562,1,0,0:0:0:0:
455,271,137739,1,0,0:0:0:0:
464,77,137915,5,0,0:0:0:0:
441,99,138092,1,0,0:0:0:0:
399,112,138268,1,0,0:0:0:0:
341,102,138445,1,0,0:0:0:0:
294,33,138621,5,0,0:0:0:0:
235,30,138798,1,0,0:0:0:0:
187,41,138974,1,0,0:0:0:0:
159,67,139151,1,0,0:0:0:0:
235,30,139327,5,0,0:0:0:0:
246,64,139503,1,0,0:0:0:0:
255,96,139680,1,0,0:0:0:0:
263,129,139856,1,0,0:0:0:0:
346,289,140033,5,0,0:0:0:0:
427,267,140209,1,0,0:0:0:0:
344,258,140386,1,0,0:0:0:0:
358,226,140562,1,0,0:0:0:0:
203,172,140739,5,0,0:0:0:0:
122,194,140915,1,0,0:0:0:0:
205,203,141092,1,0,0:0:0:0:
191,235,141268,1,0,0:0:0:0:
191,235,141356,1,0,0:0:0:0:
191,235,141445,6,0,P|181:291|224:306,1,80.6250030755998
122,194,141709,2,0,P|81:153|44:180,1,80.6250030755998
196,167,141974,2,0,P|252:157|251:111,1,80.6250030755998,0|0,0:3|0:3,0:3:0:0:
298,240,142327,5,0,0:0:0:0:
326,243,142503,1,0,0:0:0:0:
354,247,142680,1,0,0:0:0:0:
338,129,142856,5,0,0:0:0:0:
364,116,143033,1,0,0:0:0:0:
395,125,143209,1,0,0:0:0:0:
423,133,143386,1,0,0:0:0:0:
434,306,143562,5,0,0:0:0:0:
408,314,143739,1,0,0:0:0:0:
378,302,143915,1,0,0:0:0:0:
336,281,144092,1,0,0:0:0:0:
248,350,144268,5,0,0:0:0:0:
