osu file format v14

[General]
AudioFilename: audio.mp3
AudioLeadIn: 0
PreviewTime: 61852
Countdown: 1
SampleSet: None
StackLeniency: 0.2
Mode: 0
LetterboxInBreaks: 0
WidescreenStoryboard: 0

[Editor]
Bookmarks: 41471,45706,51353,61941,101520
DistanceSpacing: 1.2
BeatDivisor: 4
GridSize: 4
TimelineZoom: 1.8

[Metadata]
Title:Axium Crisis
TitleUnicode:Axium Crisis
Artist:ak+q
ArtistUnicode:ak+q
Creator:Nemis
Version:wip
Source:
Tags:
BeatmapID:1675304
BeatmapSetID:797734

[Difficulty]
HPDrainRate:5
CircleSize:4.2
OverallDifficulty:8
ApproachRate:9
SliderMultiplier:1.4
SliderTickRate:1

[Events]
//Background and Video events
0,0,"contestbg.png",0,0
//Break Periods
2,53494,61341
2,66023,99244
//Storyboard Layer 0 (Background)
//Storyboard Layer 1 (Fail)
//Storyboard Layer 2 (Pass)
//Storyboard Layer 3 (Foreground)
//Storyboard Sound Samples

[TimingPoints]
530,352.941176470588,4,2,0,100,1,0
23118,-133.333333333333,4,2,0,100,0,0
42882,-100,4,2,0,100,0,0
45706,-100,4,2,0,100,0,0
61941,352.941176470588,4,1,0,100,1,0
81706,357.142857142857,4,1,0,100,1,0
82063,365.853658536585,4,1,0,100,1,0
82428,389.61038961039,4,1,0,100,1,0
83207,416.666666666667,4,1,0,100,1,0
84040,434.782608695652,4,1,0,100,1,0
88550,352.941176470588,4,1,0,100,1,0

[HitObjects]
380,112,11647,5,0,0:0:0:0:
380,112,11735,1,0,0:0:0:0:
380,112,11824,2,0,P|443:141|509:165,1,140,4|8,0:0|0:0,0:0:0:0:
296,104,12353,2,0,P|299:69|302:34,1,70
320,184,12706,1,0,0:0:0:0:
216,128,12882,1,8,0:0:0:0:
164,232,13059,1,0,0:0:0:0:
268,288,13235,5,0,0:0:0:0:
320,184,13412,1,0,0:0:0:0:
268,288,13588,1,0,0:0:0:0:
320,184,13765,2,0,P|360:192|432:204,1,105,8|0,0:0|0:0,0:0:0:0:
423,202,14118,1,0,0:0:0:0:
240,212,14294,2,0,P|208:224|168:240,1,70,8|0,0:0|0:0,0:0:0:0:
174,237,14559,5,0,0:0:0:0:
174,237,14647,2,0,B|175:183|163:143|147:71,1,140,0|8,0:0|0:0,0:0:0:0:
256,132,15177,2,0,P|288:144|321:157,1,70
224,56,15529,1,0,0:0:0:0:
153,98,15706,2,0,P|147:63|142:28,1,70,8|0,0:0|0:0,0:0:0:0:
4,192,16059,6,0,P|60:180|124:168,1,105,8|0,0:0|0:0,0:0:0:0:
106,171,16412,1,0,0:0:0:0:
106,301,16588,2,0,P|54:291|3:280,1,105,8|0,0:0|0:0,0:0:0:0:
3,280,16941,1,0,0:0:0:0:
3,280,17029,1,0,0:0:0:0:
3,280,17118,1,0,0:0:0:0:
174,237,17294,5,0,0:0:0:0:
174,237,17382,1,0,0:0:0:0:
174,237,17471,1,4,0:0:0:0:
256,228,17647,1,0,0:0:0:0:
268,312,17824,1,8,0:0:0:0:
186,321,18000,1,0,0:0:0:0:
256,228,18177,5,0,0:0:0:0:
368,248,18353,1,0,0:0:0:0:
256,228,18529,1,8,0:0:0:0:
368,248,18705,1,0,0:0:0:0:
436,296,18882,6,0,P|440:261|446:226,1,70
324,176,19235,1,0,0:0:0:0:
299,301,19412,2,0,P|247:309|196:320,1,105,8|0,0:0|0:0,0:0:0:0:
196,320,19765,1,0,0:0:0:0:
66,249,19941,6,0,P|101:254|136:260,1,70,8|0,0:0|0:0,0:0:0:0:
136,260,20206,1,0,0:0:0:0:
136,260,20294,6,0,B|156:216|160:164|172:96,1,140,0|8,0:0|0:0,0:0:0:0:
167,123,20824,1,0,0:0:0:0:
288,132,21000,2,0,B|257:148|229:184|229:184,1,70
167,123,21353,1,8,0:0:0:0:
48,116,21529,1,0,0:0:0:0:
288,132,21706,5,8,0:0:0:0:
48,116,21882,1,0,0:0:0:0:
288,132,22059,1,0,0:0:0:0:
299,133,22147,1,0,0:0:0:0:
310,134,22235,1,0,0:0:0:0:
321,135,22324,1,0,0:0:0:0:
332,136,22412,1,0,0:0:0:0:
343,137,22765,1,0,0:0:0:0:
354,138,22941,1,0,0:0:0:0:
365,139,23030,1,0,0:0:0:0:
376,140,23118,5,4,0:0:0:0:
452,132,23294,1,0,0:0:0:0:
460,208,23471,1,0,0:0:0:0:
384,216,23647,1,0,0:0:0:0:
292,264,23824,5,0,0:0:0:0:
216,256,24000,1,0,0:0:0:0:
208,332,24177,1,8,0:0:0:0:
284,340,24353,1,0,0:0:0:0:
356,316,24529,6,0,B|412:304|476:300|476:300,1,105.000004005432,0|8,0:0|0:0,0:0:0:0:
292,264,25059,1,0,0:0:0:0:
208,332,25235,2,0,P|184:328|132:320,1,52.5000020027161
40,280,25588,2,0,P|64:276|116:268,1,52.5000020027161,8|0,0:0|0:0,0:0:0:0:
144,136,25941,5,0,0:0:0:0:
220,116,26118,1,0,0:0:0:0:
96,72,26294,1,8,0:0:0:0:
96,72,26382,1,0,0:0:0:0:
96,72,26471,1,0,0:0:0:0:
144,136,26647,5,0,0:0:0:0:
220,116,26824,1,0,0:0:0:0:
296,96,27000,1,8,0:0:0:0:
144,136,27177,5,0,0:0:0:0:
296,96,27353,2,0,B|280:160|280:220|280:220,1,105.000004005432,0|8,0:0|0:0,0:0:0:0:
220,116,27882,2,0,B|220:136|220:76|204:12,1,105.000004005432
296,96,28412,2,0,B|277:86|330:115|384:132,1,78.7500030040742,8|0,0:0|0:0,0:0:0:0:
360,124,28765,5,0,0:0:0:0:
428,84,28941,1,0,0:0:0:0:
468,152,29118,1,8,0:0:0:0:
400,192,29294,1,0,0:0:0:0:
288,156,29471,5,0,0:0:0:0:
220,116,29647,1,0,0:0:0:0:
180,184,29824,1,8,0:0:0:0:
248,224,30000,1,0,0:0:0:0:
220,116,30177,6,0,P|212:84|204:40,1,52.5000020027161
288,156,30529,1,8,0:0:0:0:
248,224,30706,2,0,B|216:288|192:324|192:324,1,105.000004005432
320,256,31235,2,0,P|348:252|392:252,1,52.5000020027161,8|0,0:0|0:0,0:0:0:0:
144,260,31588,5,0,0:0:0:0:
144,184,31765,1,0,0:0:0:0:
144,260,31941,1,8,0:0:0:0:
20,216,32118,1,0,0:0:0:0:
144,184,32295,1,0,0:0:0:0:
72,156,32471,1,0,0:0:0:0:
68,280,32647,1,8,0:0:0:0:
144,184,32824,1,0,0:0:0:0:
20,216,33000,6,0,P|16:168|8:96,1,105.000004005432,0|8,0:0|0:0,0:0:0:0:
144,184,33529,1,0,0:0:0:0:
144,260,33706,2,0,B|144:284|144:316|144:316,1,52.5000020027161
144,184,34059,2,0,B|145:160|146:128|146:128,1,52.5000020027161,8|0,0:0|0:0,0:0:0:0:
276,64,34412,5,0,0:0:0:0:
268,140,34589,1,0,0:0:0:0:
344,148,34765,1,8,0:0:0:0:
352,72,34941,1,0,0:0:0:0:
268,140,35118,5,0,0:0:0:0:
277,215,35295,1,0,0:0:0:0:
353,206,35471,1,8,0:0:0:0:
343,130,35648,1,0,0:0:0:0:
277,215,35824,5,0,0:0:0:0:
353,206,36000,1,0,0:0:0:0:
429,197,36177,1,8,0:0:0:0:
277,215,36353,1,0,0:0:0:0:
268,292,36529,5,0,0:0:0:0:
116,274,36706,1,0,0:0:0:0:
268,292,36882,1,8,0:0:0:0:
192,283,37059,1,0,0:0:0:0:
116,274,37235,6,0,P|124:320|128:348,1,52.5000020027161
200,204,37588,1,8,0:0:0:0:
161,199,37677,1,0,0:0:0:0:
124,195,37765,1,0,0:0:0:0:
124,195,37941,6,0,P|116:241|112:269,1,52.5000020027161
40,125,38294,1,8,0:0:0:0:
79,120,38383,1,0,0:0:0:0:
116,116,38471,1,0,0:0:0:0:
116,116,38647,5,0,0:0:0:0:
40,125,38824,1,0,0:0:0:0:
48,204,39000,1,8,0:0:0:0:
124,195,39177,1,0,0:0:0:0:
201,207,39353,5,0,0:0:0:0:
196,246,39442,1,0,0:0:0:0:
192,283,39530,1,0,0:0:0:0:
48,204,39706,1,8,0:0:0:0:
192,283,39882,1,0,0:0:0:0:
320,283,40059,6,0,L|370:291,3,26.2500010013581
296,208,40412,2,0,L|306:184,3,26.2500010013581
216,208,40765,2,0,L|205:184,3,26.2500010013581
192,283,41118,2,0,L|166:287,3,26.2500010013581
256,332,41471,5,0,0:0:0:0:
256,324,41559,1,0,0:0:0:0:
256,316,41647,1,0,0:0:0:0:
256,308,41735,1,0,0:0:0:0:
256,300,41824,1,0,0:0:0:0:
256,292,41912,1,0,0:0:0:0:
256,284,42000,1,0,0:0:0:0:
256,276,42088,1,0,0:0:0:0:
256,268,42177,1,0,0:0:0:0:
256,260,42265,1,0,0:0:0:0:
256,252,42353,1,0,0:0:0:0:
256,244,42441,1,0,0:0:0:0:
256,236,42529,1,0,0:0:0:0:
256,228,42618,1,0,0:0:0:0:
256,220,42706,1,0,0:0:0:0:
256,212,42794,1,0,0:0:0:0:
256,204,42882,6,0,L|256:160,15,35
97,113,45706,6,0,B|100:84|108:32|104:54,1,70
20,144,46059,1,0,0:0:0:0:
148,180,46235,2,0,P|188:188|260:200,1,105
251,198,46588,1,0,0:0:0:0:
43,282,46765,2,0,P|35:234|19:138,1,140
120,252,47294,5,0,0:0:0:0:
80,360,47471,1,0,0:0:0:0:
43,282,47647,1,0,0:0:0:0:
157,330,47824,2,0,P|200:324|236:320,1,70
226,320,48088,1,0,0:0:0:0:
226,320,48177,1,0,0:0:0:0:
360,344,48353,1,0,0:0:0:0:
226,320,48529,6,0,B|252:264|248:216|256:172,1,140
253,183,48971,1,0,0:0:0:0:
253,183,49059,2,0,P|296:189|332:193,1,70
256,100,49412,1,0,0:0:0:0:
412,256,49588,2,0,P|372:264|300:276,1,105
309,274,49941,1,0,0:0:0:0:
412,256,50118,5,0,0:0:0:0:
322,192,50294,1,0,0:0:0:0:
384,104,50471,1,0,0:0:0:0:
474,168,50647,1,0,0:0:0:0:
474,168,50824,1,0,0:0:0:0:
322,192,51000,1,0,0:0:0:0:
474,168,51177,1,0,0:0:0:0:
322,192,51353,6,0,P|268:184|224:176,1,70
232,172,51618,1,0,0:0:0:0:
208,172,51706,1,0,0:0:0:0:
184,176,51794,1,0,0:0:0:0:
160,168,51882,2,0,P|164:112|168:72,1,70
165,98,52147,1,0,0:0:0:0:
165,98,52235,1,0,0:0:0:0:
165,98,52412,6,0,P|111:106|67:114,1,70
75,118,52677,1,0,0:0:0:0:
51,118,52765,1,0,0:0:0:0:
27,114,52853,1,0,0:0:0:0:
3,122,52941,2,0,P|7:178|11:218,1,70
8,192,53206,1,0,0:0:0:0:
8,192,53294,1,0,0:0:0:0:
341,196,61941,5,0,0:0:0:0:
356,87,62117,1,0,0:0:0:0:
341,196,62293,6,0,P|381:204|453:216,1,105,8|0,0:0|0:0,0:0:0:0:
444,214,62646,1,0,0:0:0:0:
292,133,62823,1,0,0:0:0:0:
268,138,62911,1,0,0:0:0:0:
244,143,62999,1,0,0:0:0:0:
220,148,63088,1,0,0:0:0:0:
196,154,63176,1,0,0:0:0:0:
172,160,63264,1,0,0:0:0:0:
148,166,63352,5,8,0:0:0:0:
75,76,63529,1,0,0:0:0:0:
156,84,63705,1,0,0:0:0:0:
156,84,63793,1,0,0:0:0:0:
156,84,63882,1,0,0:0:0:0:
66,157,64058,1,0,0:0:0:0:
156,84,64235,1,0,0:0:0:0:
161,108,64323,1,0,0:0:0:0:
166,132,64411,1,0,0:0:0:0:
171,156,64500,1,0,0:0:0:0:
177,180,64588,1,0,0:0:0:0:
183,204,64676,1,0,0:0:0:0:
188,228,64764,1,0,0:0:0:0:
292,264,64941,1,0,0:0:0:0:
404,188,65117,1,0,0:0:0:0:
404,188,65205,1,0,0:0:0:0:
404,188,65293,1,0,0:0:0:0:
404,188,65382,1,0,0:0:0:0:
404,188,65470,1,0,0:0:0:0:
372,24,65646,1,0,0:0:0:0:
372,24,65735,1,0,0:0:0:0:
372,24,65823,1,0,0:0:0:0:
364,132,99844,5,0,0:0:0:0:
388,212,100020,1,0,0:0:0:0:
364,132,100197,2,0,P|363:108|360:44,1,70
360,62,100461,1,0,0:0:0:0:
360,62,100550,1,0,0:0:0:0:
440,152,100726,1,0,0:0:0:0:
312,192,100902,2,0,B|240:220|228:232|168:248,1,140
182,244,101432,1,0,0:0:0:0:
168,326,101608,1,0,0:0:0:0:
250,341,101785,1,0,0:0:0:0:
264,259,101961,1,0,0:0:0:0:
168,326,102138,1,0,0:0:0:0:
109,212,102314,2,0,P|82:165|41:103,1,105
54,122,102667,2,0,P|100:116|136:113,1,70
266,164,103020,2,0,L|314:172,3,35
266,164,103373,2,0,P|271:116|274:77,1,70
189,214,103726,2,0,P|192:248|195:283,1,70
335,278,104079,2,0,B|371:234|391:216|375:171|339:172|344:217,1,140
335,278,104608,2,0,B|299:322|279:340|295:385|331:384|326:339,1,140
