osu file format v14

[General]
AudioFilename: audio.mp3
AudioLeadIn: 0
PreviewTime: 59086
Countdown: 1
SampleSet: Normal
StackLeniency: 0.7
Mode: 1
LetterboxInBreaks: 0
WidescreenStoryboard: 1

[Editor]
DistanceSpacing: 2.4
BeatDivisor: 4
GridSize: 32
TimelineZoom: 1.8

[Metadata]
Title:Axium Crisis
TitleUnicode:Axium Crisis
Artist:ak+q
ArtistUnicode:ak+q
Creator:Miseracy
Version:Oni
Source:
Tags:
BeatmapID:1777071
BeatmapSetID:847402

[Difficulty]
HPDrainRate:6
CircleSize:5
OverallDifficulty:7
ApproachRate:9
SliderMultiplier:1.4
SliderTickRate:1

[Events]
//Background and Video events
0,0,"BG.png",0,0
//Break Periods
//Storyboard Layer 0 (Background)
//Storyboard Layer 1 (Fail)
//Storyboard Layer 2 (Pass)
//Storyboard Layer 3 (Foreground)
//Storyboard Sound Samples

[TimingPoints]
498,352.941176470588,4,1,0,100,1,0
498,-133.333333333333,4,1,0,50,0,0
11792,-105.263157894737,4,1,0,70,0,0
22027,-108.695652173913,4,1,0,70,0,0
22115,-109.89010989011,4,1,0,70,0,0
22203,-111.111111111111,4,1,0,70,0,0
22380,-113.636363636364,4,1,0,70,0,0
22733,-117.647058823529,4,1,0,70,0,0
23086,-125,4,1,0,50,0,0
34380,-105.263157894737,4,1,0,70,0,0
40027,-103.092783505155,4,1,0,70,0,0
41439,-100,4,1,0,70,0,0
45674,-90.9090909090909,4,1,0,100,0,0
56968,-105.263157894737,4,1,0,50,0,0
59086,-105.263157894737,4,1,0,50,0,0
60497,-142.857142857143,4,1,0,20,0,0
61909,352.941176470588,4,1,0,100,1,1
61909,-100,4,1,0,70,0,0
81673,358.208955223881,4,1,0,80,1,0
82411,375,4,1,0,70,1,0
83192,400,4,1,0,65,1,0
84000,428.571428571429,4,1,0,60,1,0
84875,461.538461538462,4,1,0,55,1,0
88504,352.941176470588,4,1,0,50,1,0
88504,-133.333333333333,4,1,0,30,0,0
99445,-123.456790123457,4,1,0,30,0,0
99798,-111.111111111111,4,1,0,50,0,0
111092,-100,4,1,0,70,0,0
122386,-95.2380952380952,4,1,0,70,0,0
132621,-97.0873786407767,4,1,0,70,0,0
132798,-99.009900990099,4,1,0,70,0,0
132974,-101.010101010101,4,1,0,70,0,0
133239,-108.695652173913,4,1,0,70,0,0
133327,-111.111111111111,4,1,0,70,0,0
133503,-114.942528735632,4,1,0,70,0,0
133680,-121.951219512195,4,1,0,40,0,0

[HitObjects]
256,192,498,5,0,0:0:0:0:
256,192,850,1,0,0:0:0:0:
256,192,1027,1,8,0:0:0:0:
256,192,1380,5,8,0:0:0:0:
256,192,1733,1,8,0:0:0:0:
256,192,1909,1,0,0:0:0:0:
255,187,2262,1,0,0:0:0:0:
256,192,2439,1,8,0:0:0:0:
256,192,2792,1,8,0:0:0:0:
256,192,2968,1,0,0:0:0:0:
256,192,3321,1,0,0:0:0:0:
256,192,3674,1,0,0:0:0:0:
256,192,3850,1,8,0:0:0:0:
256,192,4203,1,8,0:0:0:0:
256,192,4556,1,8,0:0:0:0:
260,189,4733,5,0,0:0:0:0:
256,192,5086,1,0,0:0:0:0:
256,192,5262,1,8,0:0:0:0:
256,192,5615,1,8,0:0:0:0:
256,192,6145,1,8,0:0:0:0:
250,198,6497,1,0,0:0:0:0:
256,192,6674,1,8,0:0:0:0:
256,192,7027,1,8,0:0:0:0:
256,192,7556,1,8,0:0:0:0:
256,192,7909,1,0,0:0:0:0:
256,192,8086,1,0,0:0:0:0:
256,192,8262,1,8,0:0:0:0:
256,192,8615,1,0,0:0:0:0:
256,192,8968,1,0,0:0:0:0:
256,192,9321,1,0,0:0:0:0:
256,192,9497,1,8,0:0:0:0:
256,192,9850,1,8,0:0:0:0:
256,192,10203,1,0,0:0:0:0:
256,192,10380,1,8,0:0:0:0:
256,192,10733,1,0,0:0:0:0:
256,192,10909,1,8,0:0:0:0:
256,192,11262,1,8,0:0:0:0:
256,192,11792,1,12,0:0:0:0:
256,192,12145,1,0,0:0:0:0:
256,192,12321,1,8,0:0:0:0:
256,192,12674,1,0,0:0:0:0:
256,192,12850,1,0,0:0:0:0:
256,192,13027,1,8,0:0:0:0:
256,192,13203,1,0,0:0:0:0:
256,192,13556,1,0,0:0:0:0:
256,192,13733,1,8,0:0:0:0:
256,192,13997,1,8,0:0:0:0:
256,192,14086,1,0,0:0:0:0:
256,192,14262,1,8,0:0:0:0:
256,192,14527,1,0,0:0:0:0:
256,192,14615,1,0,0:0:0:0:
256,192,14792,1,0,0:0:0:0:
256,192,14968,1,8,0:0:0:0:
256,192,15145,1,0,0:0:0:0:
256,192,15233,1,0,0:0:0:0:
256,192,15321,1,8,0:0:0:0:
256,192,15497,1,0,0:0:0:0:
256,192,15762,1,0,0:0:0:0:
256,192,15850,1,8,0:0:0:0:
256,192,16027,1,8,0:0:0:0:
256,192,16292,1,8,0:0:0:0:
256,192,16380,1,0,0:0:0:0:
256,192,16556,1,0,0:0:0:0:
256,192,16733,1,8,0:0:0:0:
256,192,16997,1,0,0:0:0:0:
256,192,17086,1,0,0:0:0:0:
256,192,17262,1,0,0:0:0:0:
256,192,17439,1,8,0:0:0:0:
256,192,17792,1,0,0:0:0:0:
256,192,17968,1,8,0:0:0:0:
256,192,18233,1,8,0:0:0:0:
256,192,18321,1,0,0:0:0:0:
256,192,18497,1,0,0:0:0:0:
256,192,18674,1,8,0:0:0:0:
256,192,18850,1,0,0:0:0:0:
256,192,19203,1,0,0:0:0:0:
256,192,19380,1,0,0:0:0:0:
256,192,19556,1,8,0:0:0:0:
256,192,19821,1,0,0:0:0:0:
256,192,19909,1,8,0:0:0:0:
256,192,20086,1,0,0:0:0:0:
256,192,20262,1,8,0:0:0:0:
256,192,20439,1,8,0:0:0:0:
256,192,20615,1,0,0:0:0:0:
256,192,20880,1,0,0:0:0:0:
256,192,20968,1,8,0:0:0:0:
256,192,21145,1,0,0:0:0:0:
256,192,21321,1,8,0:0:0:0:
256,192,21497,1,8,0:0:0:0:
256,192,21674,1,0,0:0:0:0:
256,192,22027,1,0,0:0:0:0:
256,192,22115,1,0,0:0:0:0:
256,192,22203,1,0,0:0:0:0:
256,192,22380,1,0,0:0:0:0:
256,192,22733,1,8,0:0:0:0:
256,192,23086,1,8,0:0:0:0:
256,192,23262,1,8,0:0:0:0:
256,192,23439,1,0,0:0:0:0:
256,192,23615,1,8,0:0:0:0:
256,192,23968,1,0,0:0:0:0:
256,192,24145,1,8,0:0:0:0:
256,192,24321,1,8,0:0:0:0:
256,192,24497,1,0,0:0:0:0:
256,192,24674,1,8,0:0:0:0:
256,192,25027,1,0,0:0:0:0:
256,192,25203,1,8,0:0:0:0:
256,192,25380,1,8,0:0:0:0:
256,192,25556,1,0,0:0:0:0:
256,192,25733,1,0,0:0:0:0:
256,192,25909,1,8,0:0:0:0:
256,192,26262,1,8,0:0:0:0:
256,192,26439,1,0,0:0:0:0:
256,192,26615,1,0,0:0:0:0:
256,192,26792,1,8,0:0:0:0:
256,192,27145,1,0,0:0:0:0:
256,192,27321,1,8,0:0:0:0:
256,192,27674,1,0,0:0:0:0:
256,192,27850,1,8,0:0:0:0:
256,192,28203,1,0,0:0:0:0:
256,192,28380,1,8,0:0:0:0:
256,192,28556,1,0,0:0:0:0:
256,192,28733,1,8,0:0:0:0:
256,192,29086,1,8,0:0:0:0:
256,192,29262,1,0,0:0:0:0:
256,192,29439,1,0,0:0:0:0:
256,192,29615,1,8,0:0:0:0:
256,192,29792,1,0,0:0:0:0:
256,192,30145,1,0,0:0:0:0:
256,192,30321,1,8,0:0:0:0:
256,192,30497,1,0,0:0:0:0:
256,192,30674,1,8,0:0:0:0:
256,192,30850,1,0,0:0:0:0:
256,192,31027,1,0,0:0:0:0:
256,192,31203,1,8,0:0:0:0:
256,192,31556,1,0,0:0:0:0:
256,192,31733,1,8,0:0:0:0:
256,192,31909,1,0,0:0:0:0:
256,192,32086,1,0,0:0:0:0:
256,192,32262,1,8,0:0:0:0:
256,192,32615,1,0,0:0:0:0:
256,192,32792,1,8,0:0:0:0:
256,192,32968,1,8,0:0:0:0:
256,192,33145,1,0,0:0:0:0:
256,192,33321,1,0,0:0:0:0:
256,192,33498,1,8,0:0:0:0:
256,192,33850,1,0,0:0:0:0:
256,192,34027,1,8,0:0:0:0:
256,192,34203,1,0,0:0:0:0:
256,192,34380,1,12,0:0:0:0:
256,192,34733,1,8,0:0:0:0:
256,192,34909,1,0,0:0:0:0:
256,192,35086,1,0,0:0:0:0:
256,192,35262,1,0,0:0:0:0:
256,192,35439,1,8,0:0:0:0:
256,192,35792,1,0,0:0:0:0:
256,192,36145,1,8,0:0:0:0:
256,192,36321,1,8,0:0:0:0:
256,192,36497,1,0,0:0:0:0:
256,192,36674,1,0,0:0:0:0:
256,192,36850,1,8,0:0:0:0:
256,192,37203,1,0,0:0:0:0:
256,192,37380,1,0,0:0:0:0:
256,192,37556,1,8,0:0:0:0:
256,192,37733,1,8,0:0:0:0:
256,192,37909,1,0,0:0:0:0:
256,192,38086,1,0,0:0:0:0:
256,192,38262,1,8,0:0:0:0:
256,192,38615,1,0,0:0:0:0:
256,192,38792,1,0,0:0:0:0:
256,192,38968,1,8,0:0:0:0:
256,192,39145,1,0,0:0:0:0:
256,192,39321,1,0,0:0:0:0:
256,192,39497,1,0,0:0:0:0:
256,192,39674,1,8,0:0:0:0:
256,192,40027,1,8,0:0:0:0:
256,192,40203,1,0,0:0:0:0:
256,192,40292,1,0,0:0:0:0:
256,192,40380,1,8,0:0:0:0:
256,192,40556,1,8,0:0:0:0:
256,192,40733,1,0,0:0:0:0:
256,192,40909,1,0,0:0:0:0:
256,192,41086,1,8,0:0:0:0:
256,192,41439,1,8,0:0:0:0:
256,192,41615,1,0,0:0:0:0:
256,192,41703,1,0,0:0:0:0:
256,192,41792,1,8,0:0:0:0:
256,192,41968,1,0,0:0:0:0:
256,192,42145,1,8,0:0:0:0:
256,192,42321,1,8,0:0:0:0:
256,192,42497,1,0,0:0:0:0:
256,192,42674,1,0,0:0:0:0:
256,192,42762,1,0,0:0:0:0:
256,192,42850,1,8,0:0:0:0:
256,192,43027,1,0,0:0:0:0:
256,192,43203,1,8,0:0:0:0:
256,192,43380,1,0,0:0:0:0:
256,192,43556,1,8,0:0:0:0:
256,192,43733,1,0,0:0:0:0:
256,192,43909,1,0,0:0:0:0:
256,192,44262,1,8,0:0:0:0:
256,192,44439,1,0,0:0:0:0:
256,192,44615,1,0,0:0:0:0:
256,192,44792,1,0,0:0:0:0:
256,192,44968,1,8,0:0:0:0:
256,192,45145,12,0,45497,0:0:0:0:
256,192,45674,5,12,0:0:0:0:
256,192,45939,1,0,0:0:0:0:
253,197,46027,1,0,0:0:0:0:
253,197,46203,1,12,0:0:0:0:
253,197,46556,1,0,0:0:0:0:
253,197,46733,1,12,0:0:0:0:
253,197,47086,1,0,0:0:0:0:
253,197,47262,1,8,0:0:0:0:
253,197,47439,1,8,0:0:0:0:
253,197,47615,1,0,0:0:0:0:
253,197,47792,1,12,0:0:0:0:
253,197,48145,1,12,0:0:0:0:
253,197,48497,1,4,0:0:0:0:
253,197,48762,1,0,0:0:0:0:
253,197,48850,1,8,0:0:0:0:
253,197,49027,1,4,0:0:0:0:
253,197,49380,1,0,0:0:0:0:
253,197,49556,1,4,0:0:0:0:
253,197,49909,1,0,0:0:0:0:
253,197,50086,1,8,0:0:0:0:
253,197,50262,1,8,0:0:0:0:
253,197,50439,1,0,0:0:0:0:
253,197,50615,1,12,0:0:0:0:
253,197,50968,1,12,0:0:0:0:
253,197,51321,1,4,0:0:0:0:
253,197,51674,1,0,0:0:0:0:
253,197,51850,1,8,0:0:0:0:
253,197,52203,1,0,0:0:0:0:
253,197,52380,1,8,0:0:0:0:
253,197,52645,1,0,0:0:0:0:
253,197,52733,1,0,0:0:0:0:
253,197,52909,1,8,0:0:0:0:
253,197,53174,1,0,0:0:0:0:
253,197,53262,1,8,0:0:0:0:
253,197,53439,1,8,0:0:0:0:
256,192,53615,1,0,0:0:0:0:
253,197,53792,1,8,0:0:0:0:
253,197,54145,1,4,0:0:0:0:
253,197,54497,1,0,0:0:0:0:
253,197,54673,1,8,0:0:0:0:
253,197,55027,1,0,0:0:0:0:
253,197,55203,1,8,0:0:0:0:
253,197,55468,1,0,0:0:0:0:
253,197,55556,1,8,0:0:0:0:
253,197,55733,1,8,0:0:0:0:
256,192,55997,1,0,0:0:0:0:
253,197,56086,1,0,0:0:0:0:
253,197,56262,1,8,0:0:0:0:
253,197,56439,1,0,0:0:0:0:
253,197,56615,1,8,0:0:0:0:
253,197,56968,1,0,0:0:0:0:
253,197,57145,1,0,0:0:0:0:
253,197,57321,1,8,0:0:0:0:
253,197,57674,1,0,0:0:0:0:
253,197,57850,1,8,0:0:0:0:
253,197,58203,1,0,0:0:0:0:
253,197,58379,1,8,0:0:0:0:
253,197,58733,1,0,0:0:0:0:
253,197,58909,1,8,0:0:0:0:
253,197,59086,1,0,0:0:0:0:
257,196,59792,1,8,0:0:0:0:
257,196,60497,1,0,0:0:0:0:
256,192,61909,1,0,0:0:0:0:
256,192,62261,1,8,0:0:0:0:
256,192,62526,1,0,0:0:0:0:
256,192,62614,1,8,0:0:0:0:
256,192,62791,1,8,0:0:0:0:
256,192,62967,1,0,0:0:0:0:
256,192,63144,1,0,0:0:0:0:
256,192,63320,1,8,0:0:0:0:
256,192,63585,1,8,0:0:0:0:
256,192,63673,1,0,0:0:0:0:
256,192,63850,1,0,0:0:0:0:
256,192,64026,1,8,0:0:0:0:
256,192,64291,1,8,0:0:0:0:
256,192,64379,1,0,0:0:0:0:
256,192,64556,1,0,0:0:0:0:
256,192,64732,1,8,0:0:0:0:
256,192,64997,1,0,0:0:0:0:
256,192,65085,1,0,0:0:0:0:
256,192,65261,1,0,0:0:0:0:
256,192,65438,1,8,0:0:0:0:
256,192,65703,1,0,0:0:0:0:
256,192,65791,1,8,0:0:0:0:
256,192,65967,1,0,0:0:0:0:
256,192,66144,1,8,0:0:0:0:
256,192,66409,1,0,0:0:0:0:
256,192,66497,1,8,0:0:0:0:
256,192,66673,1,0,0:0:0:0:
256,192,66850,1,8,0:0:0:0:
256,192,67114,1,0,0:0:0:0:
256,192,67203,1,8,0:0:0:0:
256,192,67379,1,8,0:0:0:0:
256,192,67556,1,8,0:0:0:0:
256,192,67820,1,0,0:0:0:0:
256,192,67909,1,8,0:0:0:0:
256,192,68085,1,0,0:0:0:0:
256,192,68261,1,8,0:0:0:0:
256,192,68614,1,8,0:0:0:0:
256,192,68879,1,8,0:0:0:0:
256,192,68967,1,0,0:0:0:0:
256,192,69144,1,8,0:0:0:0:
256,192,69320,1,0,0:0:0:0:
256,192,69673,1,0,0:0:0:0:
256,192,69850,1,8,0:0:0:0:
256,192,69938,1,8,0:0:0:0:
256,192,70026,1,0,0:0:0:0:
256,192,70203,1,0,0:0:0:0:
256,192,70379,1,12,0:0:0:0:
256,192,70732,1,0,0:0:0:0:
256,192,70909,1,8,0:0:0:0:
256,192,71085,1,0,0:0:0:0:
256,192,71438,1,0,0:0:0:0:
256,192,71614,1,8,0:0:0:0:
256,192,71791,1,0,0:0:0:0:
256,192,71967,1,0,0:0:0:0:
256,192,72144,1,8,0:0:0:0:
256,192,72320,1,8,0:0:0:0:
256,192,72497,1,8,0:0:0:0:
256,192,72850,1,0,0:0:0:0:
256,192,73026,1,8,0:0:0:0:
256,192,73203,1,8,0:0:0:0:
256,192,73556,1,0,0:0:0:0:
256,192,73732,1,8,0:0:0:0:
256,192,73909,1,8,0:0:0:0:
256,192,74085,1,0,0:0:0:0:
256,192,74173,1,8,0:0:0:0:
256,192,74261,1,0,0:0:0:0:
256,192,74438,1,8,0:0:0:0:
256,192,74614,1,8,0:0:0:0:
256,192,74967,1,0,0:0:0:0:
256,192,75144,1,0,0:0:0:0:
256,192,75320,1,8,0:0:0:0:
256,192,75673,1,0,0:0:0:0:
256,192,75850,1,8,0:0:0:0:
256,192,76026,1,8,0:0:0:0:
256,192,76203,1,0,0:0:0:0:
256,192,76379,1,8,0:0:0:0:
256,192,76556,1,8,0:0:0:0:
256,192,76732,1,0,0:0:0:0:
256,192,77085,1,0,0:0:0:0:
256,192,77261,1,8,0:0:0:0:
256,192,77438,1,0,0:0:0:0:
256,192,77614,1,0,0:0:0:0:
256,192,77703,1,0,0:0:0:0:
256,192,77791,1,8,0:0:0:0:
256,192,77967,1,0,0:0:0:0:
256,192,78144,1,8,0:0:0:0:
256,192,78497,1,0,0:0:0:0:
256,192,78850,1,8,0:0:0:0:
256,192,79203,1,0,0:0:0:0:
256,192,79379,1,0,0:0:0:0:
256,192,79556,1,8,0:0:0:0:
256,192,79908,1,0,0:0:0:0:
256,192,80261,1,8,0:0:0:0:
256,192,80614,1,8,0:0:0:0:
256,192,80791,1,8,0:0:0:0:
256,192,80967,1,0,0:0:0:0:
256,192,81320,1,0,0:0:0:0:
256,192,81673,1,8,0:0:0:0:
256,192,81852,1,0,0:0:0:0:
256,192,82031,1,8,0:0:0:0:
256,192,82389,1,0,0:0:0:0:
256,192,82598,1,0,0:0:0:0:
256,192,82786,1,8,0:0:0:0:
256,192,82973,1,0,0:0:0:0:
256,192,83161,1,8,0:0:0:0:
256,192,83592,1,8,0:0:0:0:
256,192,83792,1,0,0:0:0:0:
256,192,83992,1,8,0:0:0:0:
256,192,84214,1,0,0:0:0:0:
256,192,84428,1,8,0:0:0:0:
256,192,84642,1,8,0:0:0:0:
256,192,84857,1,0,0:0:0:0:
256,192,88504,1,0,0:0:0:0:
256,192,88856,1,0,0:0:0:0:
256,192,89033,1,8,0:0:0:0:
256,192,89915,1,8,0:0:0:0:
256,192,90268,1,0,0:0:0:0:
256,192,90445,1,8,0:0:0:0:
256,192,90621,1,0,0:0:0:0:
256,192,91327,1,8,0:0:0:0:
256,192,91680,1,0,0:0:0:0:
256,192,91856,1,0,0:0:0:0:
256,192,92033,1,8,0:0:0:0:
256,192,92739,1,8,0:0:0:0:
256,192,93092,1,0,0:0:0:0:
256,192,93268,1,0,0:0:0:0:
256,192,93445,1,8,0:0:0:0:
256,192,94151,1,0,0:0:0:0:
256,192,94504,1,0,0:0:0:0:
256,192,94680,1,0,0:0:0:0:
256,192,94856,1,8,0:0:0:0:
256,192,95562,1,8,0:0:0:0:
256,192,95915,1,0,0:0:0:0:
256,192,96092,1,0,0:0:0:0:
256,192,96268,1,8,0:0:0:0:
256,192,96974,1,8,0:0:0:0:
256,192,97327,1,0,0:0:0:0:
256,192,97504,1,0,0:0:0:0:
256,192,97680,1,8,0:0:0:0:
256,192,98386,1,0,0:0:0:0:
256,192,98739,1,0,0:0:0:0:
256,192,98915,1,0,0:0:0:0:
256,192,99092,1,8,0:0:0:0:
256,192,99445,1,8,0:0:0:0:
256,192,99798,1,4,0:0:0:0:
256,192,100151,1,8,0:0:0:0:
256,192,100415,1,0,0:0:0:0:
256,192,100504,1,8,0:0:0:0:
256,192,100680,1,8,0:0:0:0:
256,192,100856,1,0,0:0:0:0:
256,192,101121,1,0,0:0:0:0:
256,192,101209,1,0,0:0:0:0:
256,192,101386,1,0,0:0:0:0:
256,192,101562,1,8,0:0:0:0:
256,192,101739,1,8,0:0:0:0:
256,192,101915,1,0,0:0:0:0:
256,192,102180,1,0,0:0:0:0:
256,192,102268,1,8,0:0:0:0:
256,192,102445,1,8,0:0:0:0:
256,192,102621,1,0,0:0:0:0:
256,192,102886,1,0,0:0:0:0:
256,192,102974,1,8,0:0:0:0:
256,192,103151,1,0,0:0:0:0:
256,192,103327,1,8,0:0:0:0:
256,192,103503,1,8,0:0:0:0:
256,192,103680,1,0,0:0:0:0:
256,192,104033,1,8,0:0:0:0:
256,192,104298,1,0,0:0:0:0:
256,192,104386,1,8,0:0:0:0:
256,192,104562,1,0,0:0:0:0:
256,192,104739,1,8,0:0:0:0:
256,192,104915,1,0,0:0:0:0:
256,192,105092,1,8,0:0:0:0:
256,192,105268,1,0,0:0:0:0:
256,192,105356,1,8,0:0:0:0:
256,192,105445,1,0,0:0:0:0:
256,192,105621,1,0,0:0:0:0:
256,192,105798,1,8,0:0:0:0:
256,192,106062,1,8,0:0:0:0:
256,192,106151,1,0,0:0:0:0:
256,192,106327,1,0,0:0:0:0:
256,192,106503,1,8,0:0:0:0:
256,192,106856,1,0,0:0:0:0:
256,192,107121,1,0,0:0:0:0:
256,192,107209,1,8,0:0:0:0:
256,192,107386,1,0,0:0:0:0:
256,192,107562,1,8,0:0:0:0:
256,192,107739,1,0,0:0:0:0:
256,192,107915,1,8,0:0:0:0:
256,192,108268,1,0,0:0:0:0:
256,192,108445,1,0,0:0:0:0:
256,192,108621,1,0,0:0:0:0:
256,192,108798,1,8,0:0:0:0:
256,192,108974,1,0,0:0:0:0:
256,192,109327,1,8,0:0:0:0:
256,192,109680,1,0,0:0:0:0:
256,192,110651,1,0,0:0:0:0:
256,192,110739,1,8,0:0:0:0:
256,192,110915,1,8,0:0:0:0:
256,192,111092,1,4,0:0:0:0:
256,192,111445,1,8,0:0:0:0:
256,192,111621,1,0,0:0:0:0:
256,192,111798,1,8,0:0:0:0:
256,192,112151,1,8,0:0:0:0:
256,192,112327,1,0,0:0:0:0:
256,192,112415,1,0,0:0:0:0:
256,192,112503,1,8,0:0:0:0:
256,192,112856,1,8,0:0:0:0:
256,192,113033,1,8,0:0:0:0:
256,192,113121,1,0,0:0:0:0:
256,192,113209,1,8,0:0:0:0:
256,192,113474,1,8,0:0:0:0:
256,192,113562,1,0,0:0:0:0:
256,192,113739,1,8,0:0:0:0:
256,192,113915,1,0,0:0:0:0:
256,192,114268,1,0,0:0:0:0:
256,192,114445,1,8,0:0:0:0:
256,192,114621,1,0,0:0:0:0:
256,192,114798,1,8,0:0:0:0:
256,192,114974,1,8,0:0:0:0:
256,192,115151,1,8,0:0:0:0:
256,192,115327,1,0,0:0:0:0:
256,192,115680,1,0,0:0:0:0:
256,192,115856,1,8,0:0:0:0:
256,192,116033,1,0,0:0:0:0:
256,192,116298,1,0,0:0:0:0:
256,192,116386,1,8,0:0:0:0:
256,192,116562,1,8,0:0:0:0:
256,192,116651,1,0,0:0:0:0:
256,192,116739,1,8,0:0:0:0:
256,192,117092,1,0,0:0:0:0:
256,192,117268,1,8,0:0:0:0:
256,192,117621,1,0,0:0:0:0:
256,192,117798,1,8,0:0:0:0:
256,192,117974,1,8,0:0:0:0:
256,192,118151,1,0,0:0:0:0:
256,192,118503,1,0,0:0:0:0:
256,192,118680,1,0,0:0:0:0:
256,192,118768,1,0,0:0:0:0:
256,192,118856,1,8,0:0:0:0:
256,192,119033,1,8,0:0:0:0:
256,192,119298,1,8,0:0:0:0:
256,192,119386,1,0,0:0:0:0:
256,192,119562,1,0,0:0:0:0:
256,192,119739,1,8,0:0:0:0:
256,192,119915,1,8,0:0:0:0:
256,192,120092,1,0,0:0:0:0:
256,192,120268,1,8,0:0:0:0:
256,192,120621,1,0,0:0:0:0:
256,192,120798,1,0,0:0:0:0:
256,192,120974,1,8,0:0:0:0:
256,192,121327,1,8,0:0:0:0:
256,192,121592,1,8,0:0:0:0:
256,192,121680,1,0,0:0:0:0:
256,192,121856,1,0,0:0:0:0:
256,192,121945,1,0,0:0:0:0:
256,192,122033,1,8,0:0:0:0:
256,192,122209,1,0,0:0:0:0:
256,192,122386,1,12,0:0:0:0:
256,192,122739,1,0,0:0:0:0:
256,192,122915,1,8,0:0:0:0:
256,192,123268,1,0,0:0:0:0:
256,192,123445,1,8,0:0:0:0:
256,192,123621,1,8,0:0:0:0:
256,192,123798,1,0,0:0:0:0:
256,192,124327,1,8,0:0:0:0:
256,192,124415,1,8,0:0:0:0:
256,192,124503,1,8,0:0:0:0:
256,192,124680,1,0,0:0:0:0:
256,192,124768,1,8,0:0:0:0:
256,192,125033,1,8,0:0:0:0:
256,192,125209,1,0,0:0:0:0:
256,192,125562,1,0,0:0:0:0:
256,192,125739,1,8,0:0:0:0:
256,192,125915,1,0,0:0:0:0:
256,192,126092,1,0,0:0:0:0:
256,192,126268,1,8,0:0:0:0:
256,192,126445,1,8,0:0:0:0:
256,192,126621,1,8,0:0:0:0:
256,192,126798,1,0,0:0:0:0:
256,192,127151,1,0,0:0:0:0:
256,192,127327,1,8,0:0:0:0:
256,192,127592,1,8,0:0:0:0:
256,192,127680,1,0,0:0:0:0:
256,192,127856,1,8,0:0:0:0:
256,192,127945,1,0,0:0:0:0:
256,192,128033,1,8,0:0:0:0:
256,192,128386,1,0,0:0:0:0:
256,192,128562,1,8,0:0:0:0:
256,192,128739,1,8,0:0:0:0:
256,192,128915,1,0,0:0:0:0:
256,192,129092,1,0,0:0:0:0:
256,192,129268,1,0,0:0:0:0:
256,192,129445,1,8,0:0:0:0:
256,192,129974,1,8,0:0:0:0:
256,192,130062,1,8,0:0:0:0:
256,192,130151,1,8,0:0:0:0:
256,192,130327,1,8,0:0:0:0:
256,192,130503,1,0,0:0:0:0:
256,192,130592,1,8,0:0:0:0:
256,192,130856,1,0,0:0:0:0:
256,192,131033,1,8,0:0:0:0:
256,192,131386,1,0,0:0:0:0:
256,192,131562,1,0,0:0:0:0:
256,192,131739,1,0,0:0:0:0:
256,192,131915,1,8,0:0:0:0:
256,192,132092,1,8,0:0:0:0:
256,192,132268,1,0,0:0:0:0:
256,192,132621,1,0,0:0:0:0:
256,192,132798,1,0,0:0:0:0:
256,192,132974,1,8,0:0:0:0:
256,192,133239,1,0,0:0:0:0:
256,192,133327,1,8,0:0:0:0:
256,192,133503,1,0,0:0:0:0:
256,192,133680,1,4,0:0:0:0:
256,192,134386,1,0,0:0:0:0:
256,192,135092,1,0,0:0:0:0:
256,192,135621,1,0,0:0:0:0:
256,192,135798,1,8,0:0:0:0:
256,192,136062,1,8,0:0:0:0:
256,192,136327,1,8,0:0:0:0:
256,192,136503,1,0,0:0:0:0:
256,192,137209,1,8,0:0:0:0:
256,192,137915,1,0,0:0:0:0:
256,192,138268,1,0,0:0:0:0:
256,192,138621,1,8,0:0:0:0:
256,192,138974,1,8,0:0:0:0:
256,192,139327,1,0,0:0:0:0:
256,192,140033,1,8,0:0:0:0:
256,192,140739,1,0,0:0:0:0:
256,192,141268,1,0,0:0:0:0:
256,192,141445,1,8,0:0:0:0:
256,192,141709,1,8,0:0:0:0:
256,192,141974,1,8,0:0:0:0:
256,192,142151,1,0,0:0:0:0:
256,192,142856,1,8,0:0:0:0:
256,192,143562,1,8,0:0:0:0:
256,192,143915,1,0,0:0:0:0:
256,192,144268,1,8,0:0:0:0:
