osu file format v14

[General]
AudioFilename: audio.mp3
AudioLeadIn: 0
PreviewTime: 61862
Countdown: 0
SampleSet: Soft
StackLeniency: 0.7
Mode: 2
LetterboxInBreaks: 0
WidescreenStoryboard: 0

[Editor]
DistanceSpacing: 1.2
BeatDivisor: 8
GridSize: 16
TimelineZoom: 3.199999

[Metadata]
Title:Axium Crisis
TitleUnicode:Axium Crisis
Artist:ak+q
ArtistUnicode:ak+q
Creator:Lacrima
Version:Vicious Labyrinth
Source:Arcaea
Tags:Chunithm チュウニズム Myle dnb video game piano violin artcore otoge tairitsu greaper
BeatmapID:2084648
BeatmapSetID:996639

[Difficulty]
HPDrainRate:7
CircleSize:4.2
OverallDifficulty:9.4
ApproachRate:9.4
SliderMultiplier:1.9
SliderTickRate:2

[Events]
//Background and Video events
0,0,"BG.jpg",0,0
//Break Periods
//Storyboard Layer 0 (Background)
//Storyboard Layer 1 (Fail)
//Storyboard Layer 2 (Pass)
//Storyboard Layer 3 (Foreground)
//Storyboard Layer 4 (Overlay)
//Storyboard Sound Samples

[TimingPoints]
496,352.941176470588,4,2,11,20,1,0
11657,-100,4,2,11,60,0,0
23084,-100,4,2,11,40,0,0
45672,-83.3333333333333,4,2,11,70,0,1
60495,352.941176470588,4,2,11,70,1,0
61906,-90.9090909090909,4,2,11,70,0,1
78142,-33.3333333333333,4,2,11,70,0,1
78847,-90.9090909090909,4,2,11,70,0,1
82024,375,4,2,11,70,1,0
82024,-85.5614973262032,4,2,11,70,0,0
82399,387.096774193548,4,2,11,70,1,0
82399,-82.6446280991736,4,2,11,70,0,0
83173,400,4,2,11,70,1,0
83173,-80,4,2,11,70,0,0
83573,428.571428571429,4,2,11,70,1,0
83573,-74.6268656716418,4,2,11,70,0,0
84430,444.444444444444,4,2,11,70,1,0
84430,-71.9424460431655,4,2,11,70,0,0
84874,444.444444444444,4,2,11,70,1,0
84874,-71.9424460431655,4,2,11,70,0,0
86652,461.538461538462,4,2,11,70,1,0
88498,352.941176470588,4,2,11,30,1,0
99792,-100,4,2,11,50,0,0
111086,-90.9090909090909,4,2,11,70,0,1
133674,-100,4,2,11,50,0,0

[Colours]
Combo1 : 15,96,155
Combo2 : 207,203,197
Combo3 : 128,174,202

[HitObjects]
256,192,7554,12,0,11260,0:0:0:0:
320,128,11657,6,0,L|352:128,2,23.75,0|0|0,0:0|0:0|0:0,0:0:0:0:
128,288,11790,6,0,P|64:240|128:176,1,190,6|8,0:0|0:0,0:0:0:0:
240,176,12319,1,0,0:0:0:0:
256,224,12407,1,0,0:0:0:0:
240,272,12495,1,0,0:0:0:0:
96,320,12672,2,0,L|192:320,1,95,8|8,0:0|0:0,0:0:0:0:
48,272,13025,1,0,0:0:0:0:
400,192,13201,6,0,L|304:192,2,95,2|0|8,0:0|0:0|0:0,0:0:0:0:
256,320,13731,1,8,0:3:0:0:
208,288,13819,1,0,0:0:0:0:
192,240,13907,1,2,0:0:0:0:
208,192,13995,1,0,0:0:0:0:
256,160,14084,1,8,0:3:0:0:
96,176,14260,2,0,L|-16:176,1,95,8|8,0:0|0:3,0:0:0:0:
64,176,14525,1,0,0:0:0:0:
304,272,14613,6,0,L|400:272,2,95,10|0|8,0:3|0:0|0:0,0:0:0:0:
176,288,15143,1,0,0:0:0:0:
224,256,15231,1,0,0:0:0:0:
272,224,15319,1,0,0:0:0:0:
128,144,15495,1,8,0:0:0:0:
272,80,15672,2,0,L|384:80,1,95,8|8,0:0|0:3,0:0:0:0:
48,288,16025,6,0,L|48:192,1,95,10|0,0:3|0:0,0:0:0:0:
96,176,16290,1,0,0:0:0:0:
144,160,16378,1,8,0:0:0:0:
0,144,16554,1,8,0:3:0:0:
128,112,16731,2,0,L|128:160,1,47.5,2|0,0:0|0:0,0:0:0:0:
32,192,16907,2,0,L|32:256,1,47.5,8|8,0:3|0:3,0:0:0:0:
192,256,17084,2,0,L|192:352,1,95,8|8,0:0|0:3,0:0:0:0:
128,352,17348,1,8,0:0:0:0:
416,352,17437,6,0,P|480:304|416:240,1,190,6|8,0:0|0:0,0:0:0:0:
304,240,17966,1,8,0:3:0:0:
256,208,18054,1,0,0:0:0:0:
224,160,18143,1,0,0:0:0:0:
384,128,18319,2,0,L|288:128,2,95,8|8|8,0:3|0:0|0:3,0:0:0:0:
128,272,18848,5,10,0:3:0:0:
224,208,19025,1,0,0:0:0:0:
80,80,19201,2,0,L|192:80,1,95,8|8,0:0|0:3,0:0:0:0:
304,176,19554,1,2,0:0:0:0:
256,208,19643,1,0,0:0:0:0:
224,256,19731,1,8,0:3:0:0:
384,256,19907,2,0,L|480:256,1,95,8|8,0:0|0:3,0:0:0:0:
416,256,20172,1,0,0:0:0:0:
144,272,20260,6,0,L|128:160,1,95,10|0,0:3|0:0,0:0:0:0:
288,176,20613,2,0,L|304:64,1,95,10|8,0:0|0:3,0:0:0:0:
256,64,20878,1,0,0:0:0:0:
192,64,20966,1,2,0:0:0:0:
432,224,21143,2,0,L|320:224,2,95,8|10|8,0:0|0:0|0:3,0:0:0:0:
128,304,21672,5,10,0:3:0:0:
272,192,21848,1,8,0:0:0:0:
128,80,22025,2,8,L|64:80,1,47.5,0|0,0:0|0:0,0:0:0:0:
272,80,22201,2,8,L|336:80,1,47.5,0|0,0:0|0:0,0:0:0:0:
128,208,22378,2,0,L|320:208,1,190,10|0,0:3|0:0,0:0:0:0:
176,304,22907,2,0,L|160:256,1,47.5,2|0,0:0|0:0,0:0:0:0:
400,272,23084,6,0,L|416:160,1,95,6|0,0:0|0:0,0:0:0:0:
272,160,23437,2,0,L|256:48,1,95,2|0,0:0|0:0,0:0:0:0:
400,48,23790,1,0,0:0:0:0:
256,256,23966,2,0,L|368:256,2,95,2|0|0,0:0|0:0|0:0,0:0:0:0:
96,256,24495,5,2,0:0:0:0:
240,240,24672,2,0,L|256:144,1,95,0|0,0:0|0:0,0:0:0:0:
112,128,25025,2,0,L|208:128,2,95,2|0|0,0:0|0:0|0:0,0:0:0:0:
272,240,25554,2,0,L|400:240,1,95,2|0,0:0|0:0,0:0:0:0:
208,240,25907,6,0,L|192:128,1,95,2|0,0:0|0:0,0:0:0:0:
352,112,26260,2,0,L|256:112,2,95,2|0|0,0:0|0:0|0:0,0:0:0:0:
208,256,26790,2,0,L|304:256,2,95,2|0|0,0:0|0:0|0:0,0:0:0:0:
368,336,27319,5,2,0:0:0:0:
272,288,27495,2,0,L|272:176,1,95,0|0,0:0|0:0,0:0:0:0:
112,160,27848,1,2,0:0:0:0:
208,64,28025,2,0,L|208:160,1,95
48,256,28378,1,2,0:0:0:0:
32,304,28466,1,0,0:0:0:0:
48,352,28554,1,0,0:0:0:0:
208,352,28731,6,0,L|224:240,1,95,2|0,0:0|0:0,0:0:0:0:
368,192,29084,2,0,L|352:80,1,95,2|0,0:0|0:0,0:0:0:0:
240,80,29437,1,0,0:0:0:0:
400,64,29613,2,0,L|304:64,2,95,2|0|0,0:0|0:0|0:0,0:0:0:0:
240,272,30143,6,0,L|144:272,2,95,2|0|0,0:0|0:0|0:0,0:0:0:0:
400,192,30672,1,2,0:0:0:0:
304,144,30848,1,0,0:0:0:0:
208,96,31025,1,0,0:0:0:0:
368,272,31201,2,0,L|384:160,1,95,2|0,0:0|0:0,0:0:0:0:
224,128,31554,5,2,0:0:0:0:
384,192,31731,2,0,L|288:192,1,95
400,160,32084,1,0,0:0:0:0:
240,304,32260,2,0,L|240:192,1,95,2|0,0:0|0:0,0:0:0:0:
384,112,32613,1,0,0:0:0:0:
240,64,32790,1,0,0:0:0:0:
400,256,32966,6,0,L|304:256,1,95,2|0,0:0|0:0,0:0:0:0:
192,256,33319,1,0,0:0:0:0:
352,176,33495,2,0,L|240:176,1,95,2|0,0:0|0:0,0:0:0:0:
144,176,33848,1,0,0:0:0:0:
288,128,34025,1,0,0:0:0:0:
224,128,34113,1,0,0:0:0:0:
160,128,34201,1,0,0:0:0:0:
416,320,34378,5,2,0:0:0:0:
512,256,34554,1,0,0:0:0:0:
512,144,34731,1,2,0:0:0:0:
416,96,34907,1,0,0:0:0:0:
272,96,35084,2,0,L|384:96,3,95,2|0|2|0,0:0|0:0|0:0|0:0,0:0:0:0:
208,320,35790,5,2,0:0:0:0:
96,288,35966,1,0,0:0:0:0:
96,176,36143,1,2,0:0:0:0:
208,160,36319,1,0,0:0:0:0:
352,160,36495,2,0,L|256:160,3,95,2|0|2|0,0:0|0:0|0:0|0:0,0:0:0:0:
96,320,37201,6,0,L|80:224,1,95,2|0,0:0|0:0,0:0:0:0:
208,208,37554,2,0,L|224:160,2,47.5,2|0|0,0:0|0:0|0:0,0:0:0:0:
352,128,37907,1,2,0:0:0:0:
240,96,38084,1,0,0:0:0:0:
352,128,38260,1,2,0:0:0:0:
464,160,38437,1,0,0:0:0:0:
304,304,38613,6,0,L|192:304,1,95,2|0,0:0|0:0,0:0:0:0:
304,240,38966,2,0,L|208:240,1,95,2|0,0:0|0:0,0:0:0:0:
400,208,39319,2,0,L|416:112,1,95,2|0,0:0|0:0,0:0:0:0:
256,128,39672,2,0,L|272:32,1,95,2|0,0:0|0:0,0:0:0:0:
112,368,40025,5,2,0:0:0:0:
80,320,40113,1,0,0:0:0:0:
96,256,40201,1,0,0:0:0:0:
144,224,40290,1,0,0:0:0:0:
192,208,40378,1,2,0:0:0:0:
224,160,40466,1,0,0:0:0:0:
208,96,40554,1,0,0:0:0:0:
160,64,40643,1,0,0:0:0:0:
256,64,40731,6,0,L|304:64,1,47.5,2|0,0:0|0:0,0:0:0:0:
240,128,40907,2,0,L|176:128,1,47.5,0|0,0:0|0:0,0:0:0:0:
256,176,41084,2,0,L|304:176,1,47.5,2|0,0:0|0:0,0:0:0:0:
240,240,41260,2,0,L|176:240,1,47.5,0|0,0:0|0:0,0:0:0:0:
384,320,41437,5,2,0:0:0:0:
432,304,41525,1,0,0:0:0:0:
464,256,41613,1,0,0:0:0:0:
464,192,41701,1,0,0:0:0:0:
432,144,41790,1,2,0:0:0:0:
384,128,41878,1,0,0:0:0:0:
304,96,41966,2,0,L|368:96,1,47.5,2|0,0:0|0:0,0:0:0:0:
176,304,42143,1,2,0:0:0:0:
128,272,42231,1,0,0:0:0:0:
128,208,42319,1,2,0:0:0:0:
176,176,42407,1,0,0:0:0:0:
240,176,42495,2,0,L|176:176,1,47.5,2|0,0:0|0:0,0:0:0:0:
112,240,42672,2,0,L|176:240,1,47.5,2|2,0:0|0:0,0:0:0:0:
400,256,42848,6,0,L|448:256,1,47.5,2|0,0:0|0:0,0:0:0:0:
384,192,43025,2,0,L|448:192,1,47.5,2|0,0:0|0:0,0:0:0:0:
240,192,43201,2,0,L|192:192,1,47.5,2|0,0:0|0:0,0:0:0:0:
256,128,43378,2,0,L|192:128,1,47.5,2|0,0:0|0:0,0:0:0:0:
400,128,43554,1,2,0:0:0:0:
448,160,43643,1,0,0:0:0:0:
464,208,43731,1,2,0:0:0:0:
448,256,43819,1,0,0:0:0:0:
256,256,43907,1,2,0:0:0:0:
208,288,43996,1,0,0:0:0:0:
192,336,44084,1,2,0:0:0:0:
208,384,44172,1,0,0:0:0:0:
416,336,44260,6,8,L|464:336,1,47.5,0|0,0:0|0:0,0:0:0:0:
256,208,44437,2,8,L|192:208,1,47.5,0|0,0:0|0:0,0:0:0:0:
432,112,44613,2,8,L|384:112,1,47.5,0|0,0:0|0:0,0:0:0:0:
144,272,44790,2,8,L|144:224,1,47.5,0|0,0:0|0:0,0:0:0:0:
400,176,44966,2,8,L|336:176,1,47.5,0|0,0:0|0:0,0:0:0:0:
96,176,45143,1,8,0:0:0:0:
278,310,45231,5,4,0:0:0:0:
343,310,45275,1,0,0:0:0:0:
387,301,45319,1,0,0:0:0:0:
411,287,45363,1,0,0:0:0:0:
429,265,45407,1,0,0:0:0:0:
440,239,45451,1,0,0:0:0:0:
440,210,45495,1,0,0:0:0:0:
427,183,45540,1,0,0:0:0:0:
407,162,45584,1,0,0:0:0:0:
144,160,45672,6,0,L|272:160,2,113.999996520996,12|0|0,0:0|0:0|0:0,0:0:0:0:
208,160,46113,1,0,0:0:0:0:
432,320,46201,2,0,L|304:320,2,113.999996520996,8|0|0,0:0|0:0|0:0,0:0:0:0:
144,256,46731,5,8,0:0:0:0:
304,224,46907,2,0,L|320:96,1,113.999996520996,0|0,0:0|0:0,0:0:0:0:
32,144,47260,2,0,L|160:144,2,113.999996520996,8|0|0,0:0|0:0|0:0,0:0:0:0:
320,112,47790,2,0,L|448:112,1,113.999996520996,8|0,0:0|0:0,0:0:0:0:
144,304,48143,2,0,L|16:304,1,113.999996520996,8|0,0:0|0:0,0:0:0:0:
384,240,48495,6,0,L|256:240,2,113.999996520996,8|0|0,0:0|0:0|0:0,0:0:0:0:
320,240,48937,1,0,0:0:0:0:
112,160,49025,1,8,0:0:0:0:
256,160,49201,1,0,0:0:0:0:
400,160,49378,1,0,0:0:0:0:
128,240,49554,6,0,L|256:240,2,113.999996520996,8|0|0,0:0|0:0|0:0,0:0:0:0:
400,160,50084,1,8,0:0:0:0:
256,160,50260,1,0,0:0:0:0:
112,160,50437,1,0,0:0:0:0:
416,64,50613,1,8,0:0:0:0:
144,64,50790,1,8,0:3:0:0:
448,208,50966,1,8,0:0:0:0:
176,208,51143,1,8,0:3:0:0:
480,336,51319,6,0,L|352:336,1,113.999996520996,8|8,0:0|0:3,0:0:0:0:
304,336,51584,1,8,0:3:0:0:
112,256,51672,2,0,L|224:256,1,56.9999982604981,8|8,0:3|0:3,0:0:0:0:
400,240,51848,2,0,L|400:112,1,113.999996520996,8|0,0:0|0:0,0:0:0:0:
336,128,52113,1,0,0:0:0:0:
400,128,52201,1,0,0:0:0:0:
464,128,52290,1,0,0:0:0:0:
192,240,52378,5,8,0:0:0:0:
336,176,52554,2,0,L|272:176,1,56.9999982604981,8|8,0:3|0:3,0:0:0:0:
80,320,52731,2,0,L|144:320,1,56.9999982604981,8|8,0:3|0:3,0:0:0:0:
368,320,52907,2,0,L|496:320,1,113.999996520996,8|0,0:0|0:0,0:0:0:0:
416,320,53172,1,0,0:0:0:0:
352,320,53260,1,8,0:3:0:0:
416,320,53348,1,0,0:0:0:0:
240,208,53437,2,0,L|112:208,1,113.999996520996,8|8,0:0|0:3,0:0:0:0:
496,208,53790,2,0,L|352:208,1,113.999996520996,8|8,0:0|0:3,0:0:0:0:
64,240,54143,5,8,0:0:0:0:
208,192,54319,2,0,L|272:192,1,56.9999982604981,8|8,0:3|0:3,0:0:0:0:
64,80,54495,2,0,L|128:80,1,56.9999982604981,8|8,0:3|0:3,0:0:0:0:
336,256,54672,2,0,L|336:128,1,113.999996520996,8|0,0:0|0:0,0:0:0:0:
272,144,54937,1,0,0:0:0:0:
208,144,55025,1,0,0:0:0:0:
272,144,55113,1,0,0:0:0:0:
32,144,55201,5,8,0:0:0:0:
176,144,55378,2,0,L|192:208,1,56.9999982604981,8|8,0:3|0:3,0:0:0:0:
16,240,55554,2,0,L|80:240,1,56.9999982604981,8|8,0:3|0:3,0:0:0:0:
352,240,55731,1,8,0:0:0:0:
208,192,55907,2,0,L|192:128,1,56.9999982604981,8|8,0:3|0:3,0:0:0:0:
368,96,56084,2,0,L|448:96,1,56.9999982604981,8|8,0:3|0:3,0:0:0:0:
96,288,56260,6,8,L|16:288,1,56.9999982604981,8|0,0:0|0:0,0:0:0:0:
224,112,56437,2,0,L|160:112,1,56.9999982604981,8|0,0:0|0:0,0:0:0:0:
384,192,56613,2,2,L|448:192,1,56.9999982604981,10|2,0:0|0:0,0:0:0:0:
176,304,56790,2,2,L|80:304,1,56.9999982604981,10|2,0:0|0:0,0:0:0:0:
352,288,56966,6,0,L|352:224,1,56.9999982604981,10|0,0:3|0:0,0:0:0:0:
256,208,57143,2,0,L|256:144,1,56.9999982604981,8|0,0:3|0:0,0:0:0:0:
352,112,57319,2,0,L|352:240,1,113.999996520996,8|0,0:3|0:0,0:0:0:0:
176,272,57672,1,8,0:3:0:0:
240,272,57760,1,8,0:3:0:0:
176,272,57848,1,2,0:0:0:0:
112,272,57937,1,8,0:3:0:0:
176,272,58025,1,8,0:3:0:0:
352,144,58201,5,8,0:3:0:0:
288,144,58289,1,0,0:0:0:0:
352,144,58377,1,10,0:3:0:0:
416,144,58466,1,0,0:0:0:0:
352,144,58554,1,8,0:3:0:0:
176,240,58731,2,0,L|112:240,1,56.9999982604981,10|8,0:3|0:3,0:0:0:0:
336,240,58907,2,0,L|400:240,1,56.9999982604981,10|8,0:3|0:3,0:0:0:0:
160,352,59084,6,0,P|64:304|176:48,2,455.999986083985,4|2|2,0:0|0:0|0:0,0:0:0:0:
256,192,60583,12,0,61730,0:0:0:0:
304,144,61906,6,0,L|304:272,1,104.500003189087,4|8,0:0|0:0,0:0:0:0:
144,320,62259,1,10,0:3:0:0:
288,304,62436,2,0,L|352:304,1,52.2500015945435,8|0,0:0|0:0,0:0:0:0:
160,160,62612,1,10,0:3:0:0:
304,96,62789,2,0,L|368:96,1,52.2500015945435,8|0,0:0|0:0,0:0:0:0:
176,240,62965,1,10,0:3:0:0:
112,208,63053,1,0,0:0:0:0:
112,144,63142,1,8,0:0:0:0:
176,112,63230,1,0,0:0:0:0:
384,144,63318,6,0,L|512:144,1,104.500003189087,10|8,0:3|0:0,0:0:0:0:
320,256,63671,1,10,0:0:0:0:
384,256,63759,1,8,0:0:0:0:
448,256,63847,1,0,0:0:0:0:
160,256,64024,1,10,0:3:0:0:
304,192,64200,2,0,L|320:128,1,52.2500015945435,8|0,0:0|0:0,0:0:0:0:
112,272,64377,1,10,0:3:0:0:
48,240,64465,1,0,0:0:0:0:
32,176,64553,1,0,0:0:0:0:
48,112,64642,1,0,0:0:0:0:
272,208,64730,6,0,L|272:96,1,104.500003189087,10|8,0:3|0:0,0:0:0:0:
208,96,64995,1,0,0:0:0:0:
272,64,65083,2,0,L|336:64,1,52.2500015945435,10|0,0:3|0:0,0:0:0:0:
256,160,65259,2,0,L|176:160,1,52.2500015945435,8|0,0:3|0:0,0:0:0:0:
384,240,65436,1,10,0:3:0:0:
512,288,65612,2,8,L|448:288,1,52.2500015945435,8|8,0:0|0:3,0:0:0:0:
272,192,65789,2,8,L|208:192,1,52.2500015945435,10|8,0:3|0:3,0:0:0:0:
400,112,65965,2,8,L|400:176,1,52.2500015945435,8|8,0:0|0:3,0:0:0:0:
128,272,66142,6,0,L|128:144,1,104.500003189087,4|8,0:0|0:0,0:0:0:0:
304,256,66495,2,0,L|416:256,1,104.500003189087,10|8,0:3|0:0,0:0:0:0:
352,256,66759,1,0,0:0:0:0:
176,256,66847,2,0,L|176:128,1,104.500003189087,10|8,0:3|0:0,0:0:0:0:
16,128,67200,2,0,L|128:128,1,104.500003189087,10|8,0:3|0:0,0:0:0:0:
64,128,67465,1,2,0:0:0:0:
304,224,67553,6,0,L|416:224,1,104.500003189087,10|8,0:3|0:0,0:0:0:0:
240,224,67906,2,0,L|176:224,1,52.2500015945435,8|8,0:3|0:0,0:0:0:0:
256,160,68083,2,0,L|320:160,1,52.2500015945435,0|0,0:0|0:0,0:0:0:0:
96,176,68259,2,0,L|32:176,2,52.2500015945435,10|0|8,0:3|0:0|0:0,0:0:0:0:
240,288,68612,1,10,0:3:0:0:
96,368,68789,1,8,0:0:0:0:
416,192,68965,5,10,0:3:0:0:
288,128,69142,2,8,L|352:128,1,52.2500015945435,8|8,0:3|0:3,0:0:0:0:
496,272,69318,2,8,L|432:272,1,52.2500015945435,10|8,0:0|0:3,0:0:0:0:
256,336,69495,2,8,L|176:336,1,52.2500015945435,8|8,0:3|0:3,0:0:0:0:
384,336,69671,1,10,0:0:0:0:
256,240,69847,2,8,L|192:240,1,52.2500015945435,8|8,0:3|0:3,0:0:0:0:
368,128,70024,2,8,L|304:128,1,52.2500015945435,10|8,0:0|0:3,0:0:0:0:
80,224,70200,2,8,L|144:224,1,52.2500015945435,8|10,0:3|0:3,0:0:0:0:
400,240,70377,6,0,L|400:128,1,104.500003189087,4|0,0:0|0:0,0:0:0:0:
256,80,70730,1,10,0:0:0:0:
416,80,70906,1,0,0:0:0:0:
176,240,71083,2,0,L|64:240,1,104.500003189087,10|0,0:3|0:0,0:0:0:0:
240,160,71436,2,0,L|96:160,1,104.500003189087,10|0,0:0|0:0,0:0:0:0:
400,304,71789,6,0,P|464:256|384:176,1,209.000006378174,10|10,0:3|0:0,0:0:0:0:
240,176,72318,1,0,0:0:0:0:
400,112,72495,2,0,L|512:112,1,104.500003189087,10|8,0:3|0:0,0:0:0:0:
256,240,72847,1,10,0:0:0:0:
496,240,73024,1,2,0:0:0:0:
192,288,73200,6,0,L|304:288,1,104.500003189087,10|0,0:3|0:0,0:0:0:0:
128,224,73553,2,0,L|112:112,1,104.500003189087,10|0,0:0|0:0,0:0:0:0:
384,144,73906,1,10,0:3:0:0:
240,192,74083,1,10,0:3:0:0:
176,256,74171,1,8,0:3:0:0:
240,320,74259,1,10,0:3:0:0:
400,352,74436,1,10,0:0:0:0:
48,352,74612,6,0,L|48:224,1,104.500003189087,6|8,0:0|0:0,0:0:0:0:
192,160,74965,1,10,0:3:0:0:
48,112,75142,1,8,0:0:0:0:
368,96,75318,2,0,L|368:224,1,104.500003189087,10|8,0:3|0:0,0:0:0:0:
192,304,75671,2,0,L|64:304,1,104.500003189087,10|8,0:3|0:0,0:0:0:0:
432,288,76024,6,0,L|432:160,1,104.500003189087,10|8,0:3|0:0,0:0:0:0:
176,112,76377,1,10,0:3:0:0:
432,64,76553,1,10,0:0:0:0:
176,240,76730,2,0,L|48:240,1,104.500003189087,10|8,0:3|0:0,0:0:0:0:
352,160,77083,2,0,L|464:160,1,104.500003189087,10|8,0:3|0:0,0:0:0:0:
400,160,77347,1,2,0:0:0:0:
128,272,77436,5,10,0:3:0:0:
256,272,77612,2,8,L|320:272,1,52.2500015945435,8|8,0:3|0:3,0:0:0:0:
128,192,77789,2,8,L|128:128,1,52.2500015945435,0|0,0:0|0:0,0:0:0:0:
336,128,77965,2,8,L|336:208,1,52.2500015945435,10|8,0:0|0:0,0:0:0:0:
112,208,78142,2,0,L|400:208,1,285.000010871888,6|8,0:0|0:0,0:0:0:0:
112,288,78494,2,0,L|448:288,1,285.000010871888,6|8,0:0|0:0,0:0:0:0:
16,288,78847,5,14,0:0:0:0:
240,208,79200,2,8,L|304:208,1,52.2500015945435,8|8,0:3|0:3,0:0:0:0:
80,288,79377,2,8,L|16:288,1,52.2500015945435,8|8,0:3|0:3,0:0:0:0:
272,272,79553,2,0,P|320:240|272:160,1,156.750004783631,10|0,0:0|0:0,0:0:0:0:
96,160,79906,2,0,P|48:128|96:48,1,156.750004783631,10|0,0:0|0:0,0:0:0:0:
352,48,80259,5,10,0:0:0:0:
144,208,80612,2,8,L|80:208,1,52.2500015945435,8|8,0:3|0:3,0:0:0:0:
304,304,80789,2,8,L|224:304,1,52.2500015945435,8|8,0:3|0:3,0:0:0:0:
464,304,80965,2,0,P|512:240|432:208,1,156.750004783631,10|0,0:0|0:0,0:0:0:0:
256,192,81318,2,0,P|208:128|288:96,1,156.750004783631,10|0,0:0|0:0,0:0:0:0:
496,80,81671,6,8,L|416:80,1,52.2500015945435,10|8,0:3|0:3,0:0:0:0:
224,256,81847,2,8,L|160:256,1,52.2500015945435,8|8,0:3|0:3,0:0:0:0:
368,176,82024,2,8,L|304:176,1,55.515622908719,14|8,0:3|0:3,0:0:0:0:
312,176,82211,2,8,L|367:176,1,55.515622908719,8|8,0:3|0:3,0:0:0:0:
112,256,82399,6,8,L|192:256,1,57.4749983775521,14|8,0:3|0:3,0:0:0:0:
368,208,82592,2,8,L|448:208,1,57.4749983775521,8|8,0:3|0:3,0:0:0:0:
176,208,82786,2,8,L|176:144,1,57.4749983775521,14|8,0:3|0:3,0:0:0:0:
272,144,82979,2,8,L|272:80,1,57.4749983775521,8|8,0:3|0:3,0:0:0:0:
48,128,83173,6,8,L|128:128,1,59.375,14|8,0:3|0:3,0:0:0:0:
368,288,83373,2,8,L|288:288,1,59.375,8|8,0:3|0:3,0:0:0:0:
48,288,83573,1,14,0:3:0:0:
112,256,83680,1,8,0:3:0:0:
112,176,83787,1,8,0:3:0:0:
48,144,83894,1,8,0:3:0:0:
240,144,84001,5,12,0:0:0:0:
48,144,84108,1,8,0:0:0:0:
240,144,84215,2,8,L|304:144,1,63.6499969892122,8|8,0:0|0:0,0:0:0:0:
48,144,84430,1,8,0:0:0:0:
256,224,84541,1,8,0:0:0:0:
464,160,84652,1,8,0:0:0:0:
256,224,84763,1,8,0:0:0:0:
16,224,84874,5,14,0:0:0:0:
256,192,84985,12,0,86651,0:0:0:0:
448,128,88498,5,2,0:0:0:0:
352,192,88674,1,0,0:0:0:0:
352,304,88850,1,0,0:0:0:0:
448,352,89027,1,0,0:0:0:0:
80,336,89909,5,2,0:0:0:0:
176,272,90086,1,0,0:0:0:0:
176,160,90262,1,0,0:0:0:0:
80,96,90439,1,0,0:0:0:0:
208,96,90615,1,2,0:0:0:0:
480,96,91321,5,2,0:0:0:0:
480,208,91498,1,0,0:0:0:0:
368,208,91674,1,0,0:0:0:0:
368,320,91850,1,0,0:0:0:0:
480,320,92027,1,2,0:0:0:0:
96,336,92733,5,2,0:0:0:0:
208,288,92909,1,0,0:0:0:0:
240,176,93086,1,0,0:0:0:0:
208,64,93262,1,0,0:0:0:0:
96,32,93439,1,2,0:0:0:0:
416,336,94145,5,2,0:0:0:0:
304,288,94321,1,0,0:0:0:0:
272,176,94498,1,0,0:0:0:0:
304,64,94674,1,0,0:0:0:0:
416,32,94851,1,2,0:0:0:0:
112,320,95556,5,2,0:0:0:0:
96,208,95733,1,0,0:0:0:0:
208,208,95909,1,0,0:0:0:0:
224,96,96086,1,0,0:0:0:0:
112,64,96262,1,2,0:0:0:0:
384,96,96968,5,2,0:0:0:0:
272,96,97145,1,0,0:0:0:0:
384,96,97321,1,0,0:0:0:0:
272,96,97498,1,0,0:0:0:0:
384,96,97674,1,2,0:0:0:0:
96,240,98380,5,2,0:0:0:0:
208,240,98557,1,0,0:0:0:0:
96,240,98733,1,0,0:0:0:0:
208,240,98910,1,0,0:0:0:0:
96,240,99086,1,2,0:0:0:0:
416,128,99792,5,4,0:0:0:0:
288,288,99968,1,8,0:3:0:0:
272,240,100056,1,0,0:0:0:0:
288,288,100145,1,8,0:0:0:0:
144,288,100321,1,0,0:0:0:0:
128,240,100409,1,0,0:0:0:0:
144,192,100498,1,10,0:3:0:0:
192,160,100586,1,0,0:0:0:0:
256,160,100674,1,0,0:0:0:0:
112,160,100850,1,8,0:0:0:0:
240,192,101027,1,0,0:0:0:0:
240,256,101115,1,0,0:0:0:0:
240,320,101203,5,2,0:0:0:0:
368,320,101380,2,0,L|272:320,1,95,8|0,0:3|0:0,0:0:0:0:
432,224,101733,1,8,0:0:0:0:
304,224,101909,1,2,0:0:0:0:
336,176,101997,1,0,0:0:0:0:
384,160,102086,1,8,0:3:0:0:
256,304,102262,1,8,0:0:0:0:
208,272,102350,1,0,0:0:0:0:
208,208,102439,1,0,0:0:0:0:
256,176,102527,1,0,0:0:0:0:
336,176,102615,6,0,L|224:176,2,95,2|8|8,0:0|0:3|0:0,0:0:0:0:
400,176,103056,1,0,0:0:0:0:
336,176,103145,1,0,0:0:0:0:
272,176,103233,1,0,0:0:0:0:
336,176,103321,2,0,L|336:288,1,95,10|0,0:3|0:0,0:0:0:0:
480,304,103674,1,8,0:0:0:0:
240,272,104027,5,10,0:0:0:0:
368,208,104203,1,0,0:0:0:0:
384,144,104292,1,0,0:0:0:0:
368,208,104380,1,8,0:3:0:0:
208,208,104556,1,10,0:0:0:0:
336,144,104732,1,0,0:0:0:0:
352,80,104821,1,0,0:0:0:0:
336,144,104909,1,8,0:3:0:0:
192,160,105086,2,0,L|192:208,1,47.5,8|8,0:0|0:3,0:0:0:0:
272,224,105262,2,0,L|272:288,1,47.5,8|8,0:0|0:3,0:0:0:0:
176,320,105439,6,0,L|80:320,2,95,10|0|8,0:3|0:0|0:0,0:0:0:0:
304,320,105968,2,0,L|352:320,1,47.5,0|0,0:0|0:0,0:0:0:0:
272,256,106145,2,0,L|256:144,1,95,10|0,0:3|0:0,0:0:0:0:
112,112,106497,2,0,L|64:112,2,47.5,8|0|8,0:0|0:0|0:3,0:0:0:0:
256,176,106850,5,2,0:0:0:0:
160,224,107027,1,8,0:3:0:0:
256,288,107203,1,8,0:3:0:0:
112,336,107380,1,8,0:0:0:0:
240,256,107556,1,2,0:0:0:0:
192,224,107645,1,0,0:0:0:0:
144,192,107733,1,8,0:3:0:0:
304,128,107909,2,0,L|400:128,1,95,8|0,0:0|0:0,0:0:0:0:
240,336,108262,6,0,L|240:240,1,95,10|0,0:3|0:0,0:0:0:0:
384,224,108615,2,0,L|384:160,1,47.5,8|0,0:0|0:0,0:0:0:0:
304,160,108792,2,0,L|304:96,1,47.5,0|0,0:0|0:0,0:0:0:0:
400,80,108968,2,0,L|400:192,1,95,10|0,0:3|0:0,0:0:0:0:
512,192,109321,1,10,0:0:0:0:
512,256,109409,1,0,0:0:0:0:
512,320,109497,1,0,0:0:0:0:
64,352,109674,5,8,0:3:0:0:
176,320,109850,1,0,0:0:0:0:
224,224,110027,1,0,0:0:0:0:
192,112,110203,1,0,0:0:0:0:
64,80,110380,1,2,0:0:0:0:
208,48,110556,2,8,L|272:48,1,47.5,8|8,0:3|0:3,0:0:0:0:
32,160,110733,2,8,L|144:160,1,95,8|8,0:0|0:3,0:0:0:0:
64,160,110997,1,8,0:3:0:0:
368,128,111086,5,6,0:0:0:0:
240,176,111262,2,0,L|240:288,1,104.500003189087,2|8,0:0|0:0,0:0:0:0:
400,336,111615,2,0,L|272:336,1,104.500003189087,8|2,0:3|0:0,0:0:0:0:
32,240,111968,2,0,L|144:240,2,104.500003189087,8|0|10,0:0|0:0|0:3,0:0:0:0:
96,240,112409,1,2,0:0:0:0:
352,192,112497,6,0,L|464:192,2,104.500003189087,10|0|8,0:3|0:0|0:0,0:0:0:0:
192,320,113027,2,8,L|304:320,1,104.500003189087,8|0,0:3|0:0,0:0:0:0:
128,256,113380,1,8,0:3:0:0:
256,176,113556,1,10,0:0:0:0:
128,112,113733,1,10,0:3:0:0:
416,144,113909,6,0,L|304:144,2,104.500003189087,10|0|8,0:3|0:0|0:0,0:0:0:0:
256,256,114439,1,10,0:3:0:0:
400,256,114615,1,0,0:0:0:0:
80,304,114792,1,10,0:0:0:0:
224,176,114968,1,2,0:0:0:0:
80,80,115145,1,10,0:3:0:0:
352,128,115321,5,10,0:3:0:0:
208,208,115497,2,0,L|192:320,1,104.500003189087,0|8,0:0|0:0,0:0:0:0:
368,320,115850,1,10,0:3:0:0:
128,304,116027,2,0,L|16:304,1,104.500003189087,2|8,0:0|0:0,0:0:0:0:
80,304,116292,1,8,0:3:0:0:
240,240,116380,2,8,L|128:240,1,104.500003189087,8|8,0:0|0:3,0:0:0:0:
192,240,116645,1,8,0:0:0:0:
432,112,116733,6,0,L|320:112,2,104.500003189087,2|0|8,0:3|0:0|0:0,0:0:0:0:
272,208,117262,2,0,L|272:320,1,104.500003189087,8|0,0:3|0:0,0:0:0:0:
112,352,117615,1,10,0:0:0:0:
240,352,117792,1,2,0:0:0:0:
368,352,117968,1,10,0:3:0:0:
64,224,118145,6,0,L|176:224,2,104.500003189087,10|0|8,0:3|0:0|0:0,0:0:0:0:
224,272,118674,2,0,L|112:272,1,104.500003189087,10|0,0:3|0:0,0:0:0:0:
288,224,119027,1,10,0:3:0:0:
128,176,119203,2,0,L|128:288,1,104.500003189087,10|8,0:0|0:3,0:0:0:0:
448,160,119556,5,10,0:3:0:0:
320,160,119733,1,0,0:0:0:0:
320,288,119909,1,10,0:0:0:0:
448,288,120086,1,8,0:3:0:0:
192,304,120262,2,0,L|80:304,1,104.500003189087,2|8,0:0|0:0,0:0:0:0:
352,240,120615,2,0,L|464:240,1,104.500003189087,2|8,0:0|0:3,0:0:0:0:
96,176,120968,6,0,L|208:176,2,104.500003189087,10|0|8,0:3|0:0|0:0,0:0:0:0:
256,240,121497,2,8,L|336:240,1,52.2500015945435,8|8,0:3|0:3,0:0:0:0:
144,272,121674,2,0,L|144:160,1,104.500003189087,10|8,0:0|0:3,0:0:0:0:
208,160,121939,1,8,0:3:0:0:
16,256,122027,2,0,L|160:256,1,104.500003189087,8|8,0:0|0:3,0:0:0:0:
64,256,122292,1,8,0:0:0:0:
400,288,122380,6,0,L|400:176,1,104.500003189087,6|0,0:0|0:0,0:0:0:0:
240,256,122733,2,0,L|96:256,1,104.500003189087,8|8,0:0|0:3,0:0:0:0:
288,192,123086,1,0,0:0:0:0:
128,144,123262,2,0,L|240:144,2,104.500003189087,8|0|8,0:0|0:0|0:3,0:0:0:0:
384,272,123792,5,10,0:3:0:0:
512,272,123968,2,0,L|400:272,1,104.500003189087,0|8,0:0|0:0,0:0:0:0:
256,272,124321,2,0,L|192:272,1,52.2500015945435,8|0,0:3|0:0,0:0:0:0:
464,240,124497,1,10,0:0:0:0:
336,240,124674,1,8,0:3:0:0:
336,112,124850,1,10,0:0:0:0:
464,112,125027,1,8,0:3:0:0:
128,224,125203,6,0,L|240:224,2,104.500003189087,10|0|8,0:3|0:0|0:0,0:0:0:0:
272,144,125733,1,10,0:3:0:0:
128,144,125909,2,0,L|112:288,1,104.500003189087,2|8,0:0|0:0,0:0:0:0:
256,320,126262,1,2,0:0:0:0:
96,352,126439,1,10,0:3:0:0:
400,352,126615,6,0,L|512:352,2,104.500003189087,10|0|8,0:3|0:0|0:0,0:0:0:0:
272,256,127145,1,8,0:3:0:0:
416,176,127321,1,2,0:0:0:0:
272,112,127497,2,0,L|192:112,1,52.2500015945435,8|8,0:3|0:3,0:0:0:0:
400,224,127674,2,0,L|512:224,1,104.500003189087,8|0,0:0|0:3,0:0:0:0:
448,224,127939,1,8,0:3:0:0:
176,272,128027,6,0,L|176:160,1,104.500003189087,10|0,0:0|0:0,0:0:0:0:
288,128,128380,1,8,0:0:0:0:
128,96,128556,1,8,0:3:0:0:
288,128,128733,1,2,0:0:0:0:
160,128,128909,1,8,0:0:0:0:
288,128,129086,1,2,0:0:0:0:
160,128,129262,1,8,0:3:0:0:
448,240,129439,6,0,L|448:128,1,104.500003189087,10|0,0:3|0:0,0:0:0:0:
288,224,129792,2,0,L|400:224,1,104.500003189087,10|8,0:0|0:3,0:0:0:0:
224,176,130145,2,0,L|224:288,1,104.500003189087,2|8,0:0|0:3,0:0:0:0:
384,272,130497,2,0,L|384:160,1,104.500003189087,10|8,0:0|0:3,0:0:0:0:
64,224,130850,6,0,L|288:224,1,209.000006378174,10|8,0:3|0:0,0:0:0:0:
144,160,131380,1,8,0:3:0:0:
288,112,131556,2,0,L|288:224,1,104.500003189087,2|8,0:0|0:0,0:0:0:0:
128,240,131909,2,0,L|16:240,1,104.500003189087,2|8,0:0|0:3,0:0:0:0:
352,288,132262,6,0,L|464:288,1,104.500003189087,10|0,0:3|0:0,0:0:0:0:
288,208,132615,1,8,0:0:0:0:
240,176,132703,1,0,0:0:0:0:
192,144,132792,1,8,0:3:0:0:
448,208,132968,2,0,L|336:208,1,104.500003189087,10|8,0:0|0:3,0:0:0:0:
288,208,133233,1,8,0:3:0:0:
496,208,133321,1,8,0:0:0:0:
32,208,133674,5,6,0:0:0:0:
256,192,133762,12,0,136497,0:0:0:0:
