osu file format v14

[General]
AudioFilename: audio.mp3
AudioLeadIn: 0
PreviewTime: 61862
Countdown: 0
SampleSet: Soft
StackLeniency: 0.7
Mode: 2
LetterboxInBreaks: 0
WidescreenStoryboard: 1

[Editor]
DistanceSpacing: 1.2
BeatDivisor: 4
GridSize: 16
TimelineZoom: 1.7

[Metadata]
Title:Axium Crisis
TitleUnicode:Axium Crisis
Artist:ak+q
ArtistUnicode:ak+q
Creator:Lacrima
Version:Platter
Source:Arcaea
Tags:Chunithm チュウニズム Myle dnb video game piano violin artcore otoge tairitsu greaper
BeatmapID:2086388
BeatmapSetID:996639

[Difficulty]
HPDrainRate:5
CircleSize:3.5
OverallDifficulty:8
ApproachRate:8
SliderMultiplier:1.6
SliderTickRate:2

[Events]
//Background and Video events
0,0,"BG.jpg",0,0
//Break Periods
//Storyboard Layer 0 (Background)
//Storyboard Layer 1 (Fail)
//Storyboard Layer 2 (Pass)
//Storyboard Layer 3 (Foreground)
//Storyboard Layer 4 (Overlay)
//Storyboard Sound Samples

[TimingPoints]
496,352.941176470588,4,2,11,20,1,0
11613,-100,4,2,11,60,0,0
23084,-100,4,2,11,40,0,0
45672,-83.3333333333333,4,2,11,70,0,1
60495,352.941176470588,4,2,11,70,1,0
61906,-90.9090909090909,4,2,11,70,0,1
78142,-83.3333333333333,4,2,11,70,0,1
78847,-90.9090909090909,4,2,11,70,0,1
82024,375,4,2,11,70,1,0
82024,-85.5614973262032,4,2,11,70,0,0
82399,387.096774193548,4,2,11,70,1,0
82399,-82.6446280991736,4,2,11,70,0,0
83173,400,4,2,11,70,1,0
83173,-80,4,2,11,70,0,0
83573,428.571428571429,4,2,11,70,1,0
83573,-74.6268656716418,4,2,11,70,0,0
84430,444.444444444444,4,2,11,70,1,0
84430,-71.9424460431655,4,2,11,70,0,0
84874,444.444444444444,4,2,11,70,1,0
84874,-71.9424460431655,4,2,11,70,0,0
86652,461.538461538462,4,2,11,70,1,0
88498,352.941176470588,4,2,11,30,1,0
99792,-100,4,2,11,50,0,0
111086,-90.9090909090909,4,2,11,70,0,1
133674,-100,4,2,11,50,0,0

[Colours]
Combo1 : 15,96,155
Combo2 : 207,203,197
Combo3 : 128,174,202

[HitObjects]
256,192,7554,12,0,11260,0:0:0:0:
384,272,11790,6,0,P|432:240|368:176,1,160,6|8,0:0|0:0,0:0:0:0:
288,176,12319,1,0,0:0:0:0:
432,128,12495,2,0,L|304:128,2,120,0|0|0,0:0|0:0|0:0,0:0:0:0:
272,304,13201,6,0,P|224:256|272:192,1,160,2|8,0:0|0:0,0:0:0:0:
368,192,13731,1,8,0:3:0:0:
224,192,13907,2,0,L|224:16,1,160,2|8,0:0|0:0,0:0:0:0:
320,32,14437,1,8,0:3:0:0:
160,256,14613,6,0,L|336:256,1,160,10|8,0:3|0:0,0:0:0:0:
272,240,15054,1,0,0:0:0:0:
224,176,15143,1,0,0:0:0:0:
384,96,15319,2,0,L|512:96,2,120,0|0|8,0:0|0:0|0:3,0:0:0:0:
144,272,16025,6,0,P|112:208|176:160,1,160,10|8,0:3|0:0,0:0:0:0:
272,176,16554,1,8,0:3:0:0:
176,176,16731,1,2,0:0:0:0:
320,112,16907,2,0,L|368:112,2,40,8|8|8,0:3|0:3|0:0,0:0:0:0:
224,112,17260,1,8,0:3:0:0:
464,240,17437,6,0,P|464:288|352:336,1,160,6|8,0:0|0:0,0:0:0:0:
288,336,17966,1,8,0:3:0:0:
432,304,18143,2,0,L|288:304,2,120,0|0|8,0:0|0:0|0:3,0:0:0:0:
288,288,18848,6,0,P|224:272|224:176,1,160,10|8,0:3|0:0,0:0:0:0:
304,128,19378,1,8,0:3:0:0:
160,224,19554,2,0,L|64:224,1,80,2|8,0:0|0:3,0:0:0:0:
176,224,19907,2,0,L|272:224,1,80,8|8,0:0|0:3,0:0:0:0:
96,320,20260,6,0,P|48:272|96:208,1,160,10|10,0:3|0:0,0:0:0:0:
192,208,20790,2,0,L|256:208,2,40,8|0|2,0:3|0:0|0:0,0:0:0:0:
48,160,21143,2,0,L|144:160,2,80,8|10|8,0:0|0:0|0:3,0:0:0:0:
288,288,21672,6,0,L|384:288,1,80,10|8,0:3|0:0,0:0:0:0:
208,208,22025,2,8,L|144:208,2,40,0|0|0,0:0|0:0|0:0,0:0:0:0:
480,208,22378,2,0,L|480:48,1,160,10|0,0:3|0:0,0:0:0:0:
48,336,23084,6,0,P|16:240|416:352,1,960,6|0,0:0|0:0,0:0:0:0:
336,304,25378,1,0,0:0:0:0:
256,256,25554,1,2,0:0:0:0:
336,304,25731,1,0,0:0:0:0:
176,352,25907,6,0,P|80:320|192:128,1,400,2|2,0:0|0:0,0:0:0:0:
400,112,27319,6,0,P|176:96|48:384,1,560,2|0,0:0|0:0,0:0:0:0:
208,368,28731,6,0,P|304:352|64:208,1,800,2|0,0:0|0:0,0:0:0:0:
144,240,30672,1,2,0:0:0:0:
224,288,30848,1,0,0:0:0:0:
144,240,31025,1,0,0:0:0:0:
224,288,31201,1,2,0:0:0:0:
144,240,31378,1,0,0:0:0:0:
304,336,31554,6,0,P|400:288|320:128,1,320,2|2,0:0|0:0,0:0:0:0:
48,208,32966,6,0,L|288:240,2,240,2|2|0,0:0|0:0|0:0,0:0:0:0:
32,160,34113,1,0,0:0:0:0:
48,112,34201,1,0,0:0:0:0:
208,320,34378,5,2,0:0:0:0:
288,288,34554,1,0,0:0:0:0:
288,192,34731,1,2,0:0:0:0:
208,144,34907,1,0,0:0:0:0:
112,176,35084,1,2,0:0:0:0:
32,144,35260,1,0,0:0:0:0:
32,48,35437,1,2,0:0:0:0:
112,0,35613,1,0,0:0:0:0:
272,288,35790,6,0,L|272:192,1,80,2|0,0:0|0:0,0:0:0:0:
176,192,36143,2,0,L|288:192,1,80,2|0,0:0|0:0,0:0:0:0:
352,160,36495,2,0,L|256:160,1,80,2|0,0:0|0:0,0:0:0:0:
176,160,36848,2,0,L|176:256,1,80,2|0,0:0|0:0,0:0:0:0:
336,336,37201,5,2,0:0:0:0:
416,288,37378,1,0,0:0:0:0:
416,192,37554,1,2,0:0:0:0:
336,144,37731,1,0,0:0:0:0:
240,144,37907,1,2,0:0:0:0:
336,144,38084,1,0,0:0:0:0:
240,144,38260,1,2,0:0:0:0:
336,144,38437,1,0,0:0:0:0:
176,320,38613,5,2,0:0:0:0:
96,272,38790,1,0,0:0:0:0:
96,176,38966,1,2,0:0:0:0:
176,128,39143,1,0,0:0:0:0:
336,96,39319,2,0,L|256:96,1,80,2|0,0:0|0:0,0:0:0:0:
96,256,39672,2,0,L|176:256,1,80,2|0,0:0|0:0,0:0:0:0:
336,336,40025,5,2,0:0:0:0:
375,329,40113,1,0,0:0:0:0:
406,304,40201,1,0,0:0:0:0:
421,268,40290,1,0,0:0:0:0:
417,228,40378,1,2,0:0:0:0:
395,196,40466,1,0,0:0:0:0:
360,177,40554,1,0,0:0:0:0:
208,256,40731,1,2,0:0:0:0:
193,219,40819,1,0,0:0:0:0:
191,179,40907,1,0,0:0:0:0:
203,141,40995,1,0,0:0:0:0:
227,109,41084,1,2,0:0:0:0:
260,87,41172,1,0,0:0:0:0:
298,77,41260,1,0,0:0:0:0:
128,320,41437,5,2,0:0:0:0:
97,294,41525,1,0,0:0:0:0:
80,258,41613,1,0,0:0:0:0:
80,218,41701,1,0,0:0:0:0:
95,182,41789,1,2,0:0:0:0:
125,156,41878,1,0,0:0:0:0:
163,144,41966,1,2,0:0:0:0:
336,144,42143,2,0,L|384:112,6,40,2|0|2|0|2|0|2,0:0|0:0|0:0|0:0|0:0|0:0|0:0,0:0:0:0:
176,304,42848,5,2,0:0:0:0:
128,288,42937,1,0,0:0:0:0:
128,240,43025,1,2,0:0:0:0:
176,224,43113,1,0,0:0:0:0:
224,224,43201,1,2,0:0:0:0:
272,208,43290,1,0,0:0:0:0:
272,160,43378,1,2,0:0:0:0:
112,304,43554,1,2,0:0:0:0:
64,288,43643,1,0,0:0:0:0:
112,288,43731,1,2,0:0:0:0:
160,272,43819,1,0,0:0:0:0:
176,224,43907,1,2,0:0:0:0:
160,176,43995,1,0,0:0:0:0:
112,160,44084,1,2,0:0:0:0:
368,288,44260,5,0,0:0:0:0:
405,274,44348,1,0,0:0:0:0:
430,243,44436,1,0,0:0:0:0:
437,204,44524,1,0,0:0:0:0:
424,167,44612,1,0,0:0:0:0:
394,141,44701,1,0,0:0:0:0:
356,133,44789,1,0,0:0:0:0:
318,144,44877,1,0,0:0:0:0:
291,173,44965,1,0,0:0:0:0:
282,212,45054,1,0,0:0:0:0:
293,250,45142,1,8,0:0:0:0:
321,278,45230,1,4,0:0:0:0:
368,288,45319,2,0,L|336:192,1,80
48,336,45672,6,0,P|80:240|160:176,1,191.999994140625,12|0,0:0|0:0,0:0:0:0:
320,208,46201,2,0,L|416:208,2,95.9999970703126,8|0|0,0:0|0:0|0:0,0:0:0:0:
144,208,46731,6,0,P|160:144|288:80,1,191.999994140625,8|0,0:0|0:0,0:0:0:0:
80,80,47260,2,0,L|176:96,2,95.9999970703126,8|0|0,0:0|0:0|0:0,0:0:0:0:
240,192,47790,2,0,L|240:320,1,95.9999970703126,8|0,0:0|0:0,0:0:0:0:
80,288,48143,2,0,L|80:192,1,95.9999970703126,8|0,0:0|0:0,0:0:0:0:
368,304,48495,6,0,P|432:240|352:192,1,191.999994140625,8|0,0:0|0:0,0:0:0:0:
192,176,49025,1,8,0:0:0:0:
288,128,49201,1,0,0:0:0:0:
384,80,49378,1,0,0:0:0:0:
208,272,49554,6,0,P|144:224|208:160,1,191.999994140625,8|0,0:0|0:0,0:0:0:0:
384,160,50084,2,0,L|480:160,2,95.9999970703126,8|0|0,0:0|0:0|0:0,0:0:0:0:
224,256,50613,2,0,L|112:256,1,95.9999970703126,8|8,0:0|0:3,0:0:0:0:
288,336,50966,2,0,L|384:336,1,95.9999970703126,8|8,0:0|0:3,0:0:0:0:
96,224,51319,6,0,L|96:112,1,95.9999970703126,8|8,0:0|0:3,0:0:0:0:
144,112,51584,1,8,0:3:0:0:
192,96,51672,1,8,0:3:0:0:
368,272,51848,2,0,L|368:160,1,95.9999970703126,8|0,0:0|0:0,0:0:0:0:
272,144,52201,1,0,0:0:0:0:
448,192,52378,6,0,L|448:288,1,95.9999970703126,8|8,0:0|0:3,0:0:0:0:
400,304,52643,1,8,0:3:0:0:
352,320,52731,1,8,0:3:0:0:
176,336,52907,2,0,L|80:336,2,95.9999970703126,8|0|8,0:0|0:0|0:3,0:0:0:0:
336,256,53437,2,0,L|336:144,1,95.9999970703126,8|8,0:0|0:3,0:0:0:0:
176,160,53790,2,0,L|80:160,1,95.9999970703126,8|8,0:0|0:3,0:0:0:0:
368,304,54143,6,0,L|464:304,1,95.9999970703126,8|8,0:0|0:3,0:0:0:0:
416,288,54407,1,8,0:3:0:0:
368,272,54495,1,8,0:3:0:0:
192,224,54672,1,8,0:0:0:0:
288,160,54848,2,0,L|288:256,1,95.9999970703126,0|0,0:0|0:0,0:0:0:0:
112,288,55201,6,0,L|16:288,1,95.9999970703126,8|8,0:0|0:3,0:0:0:0:
64,272,55466,1,8,0:3:0:0:
112,240,55554,1,8,0:3:0:0:
288,192,55731,2,0,L|384:192,1,95.9999970703126,8|8,0:0|0:3,0:0:0:0:
336,176,55996,1,8,0:3:0:0:
288,160,56084,1,8,0:3:0:0:
128,240,56260,6,0,L|80:240,2,47.9999985351563,8|0|8,0:0|0:0|0:0,0:0:0:0:
288,304,56613,2,2,L|336:304,2,47.9999985351563,10|2|10,0:0|0:0|0:0,0:0:0:0:
16,320,56966,6,0,P|16:272|192:96,1,287.999991210938,10|0,0:3|0:0,0:0:0:0:
320,192,57672,1,8,0:3:0:0:
368,160,57760,1,8,0:3:0:0:
384,112,57848,1,2,0:0:0:0:
368,160,57937,1,8,0:3:0:0:
320,192,58025,1,8,0:3:0:0:
160,272,58201,5,8,0:3:0:0:
112,240,58289,1,0,0:0:0:0:
96,192,58377,1,10,0:3:0:0:
112,240,58466,1,0,0:0:0:0:
160,272,58554,1,8,0:3:0:0:
320,288,58731,2,0,L|368:288,2,47.9999985351563,10|8|10,0:3|0:3|0:3,0:0:0:0:
32,288,59084,6,0,P|32:192|240:-16,2,383.99998828125,4|2|2,0:0|0:0|0:0,0:0:0:0:
256,192,60671,12,0,61642,0:0:0:0:
304,192,61906,6,0,L|400:192,2,88.000002685547,4|8|10,0:0|0:0|0:3,0:0:0:0:
128,272,62436,2,0,L|112:224,2,44.0000013427735,8|0|10,0:0|0:0|0:3,0:0:0:0:
304,320,62789,1,8,0:0:0:0:
352,304,62877,1,0,0:0:0:0:
368,256,62965,1,10,0:3:0:0:
352,208,63053,1,0,0:0:0:0:
304,192,63142,1,8,0:0:0:0:
128,144,63318,6,0,L|128:256,1,88.000002685547,10|8,0:3|0:0,0:0:0:0:
304,272,63671,2,0,L|352:272,2,44.0000013427735,10|8|0,0:0|0:0|0:0,0:0:0:0:
128,304,64024,1,10,0:3:0:0:
240,304,64200,1,8,0:0:0:0:
288,272,64289,1,0,0:0:0:0:
304,224,64377,1,10,0:3:0:0:
288,176,64465,1,0,0:0:0:0:
240,144,64553,1,0,0:0:0:0:
64,144,64730,6,0,L|192:144,1,88.000002685547,10|8,0:3|0:0,0:0:0:0:
96,144,64995,1,0,0:0:0:0:
48,144,65083,1,10,0:3:0:0:
48,192,65171,1,0,0:0:0:0:
96,192,65259,1,8,0:3:0:0:
336,240,65436,1,10,0:3:0:0:
240,256,65612,2,8,L|192:256,2,44.0000013427735,8|8|10,0:0|0:3|0:3,0:0:0:0:
336,240,65965,1,8,0:0:0:0:
80,288,66142,6,0,L|80:192,1,88.000002685547,4|8,0:0|0:0,0:0:0:0:
256,192,66495,2,0,L|256:96,1,88.000002685547,10|8,0:3|0:0,0:0:0:0:
80,112,66847,2,0,P|96:64|208:16,1,176.000005371094,10|10,0:3|0:3,0:0:0:0:
112,48,67377,1,8,0:0:0:0:
288,144,67553,6,0,L|288:256,1,88.000002685547,10|8,0:3|0:0,0:0:0:0:
112,304,67906,2,0,L|64:304,2,44.0000013427735,8|8|0,0:3|0:0|0:0,0:0:0:0:
288,288,68259,1,10,0:3:0:0:
336,192,68436,1,8,0:0:0:0:
304,96,68612,1,10,0:3:0:0:
208,80,68789,1,8,0:0:0:0:
384,96,68965,5,10,0:3:0:0:
208,224,69142,2,8,L|160:192,6,44.0000013427735,8|8|10|8|8|8|10,0:3|0:3|0:0|0:3|0:3|0:3|0:0,0:0:0:0:
384,304,69847,2,8,L|432:272,4,44.0000013427735,8|8|10|8|8,0:3|0:3|0:0|0:3|0:3,0:0:0:0:
64,288,70377,6,0,L|64:192,1,88.000002685547,4|0,0:0|0:0,0:0:0:0:
160,160,70730,2,0,L|160:256,1,88.000002685547,10|0,0:0|0:0,0:0:0:0:
0,272,71083,2,0,L|112:272,1,88.000002685547,10|0,0:3|0:0,0:0:0:0:
256,320,71436,2,0,L|352:320,1,88.000002685547,10|0,0:0|0:0,0:0:0:0:
64,256,71789,6,0,P|16:224|80:144,1,176.000005371094,10|10,0:3|0:0,0:0:0:0:
160,112,72318,1,0,0:0:0:0:
336,128,72495,2,0,L|336:224,1,88.000002685547,10|8,0:3|0:0,0:0:0:0:
160,240,72847,2,0,L|160:336,1,88.000002685547,10|2,0:0|0:0,0:0:0:0:
432,288,73200,6,0,L|432:176,1,88.000002685547,10|0,0:3|0:0,0:0:0:0:
336,128,73553,1,10,0:0:0:0:
432,64,73730,1,0,0:0:0:0:
176,224,73906,1,10,0:3:0:0:
64,192,74083,2,0,L|16:192,2,44.0000013427735,10|8|10,0:3|0:3|0:3,0:0:0:0:
176,224,74436,1,10,0:0:0:0:
448,240,74612,6,0,L|448:144,1,88.000002685547,6|8,0:0|0:0,0:0:0:0:
272,144,74965,2,0,L|368:144,1,88.000002685547,10|8,0:3|0:0,0:0:0:0:
192,256,75318,2,0,L|192:144,1,88.000002685547,10|8,0:3|0:0,0:0:0:0:
368,160,75671,2,0,L|368:64,1,88.000002685547,10|8,0:3|0:0,0:0:0:0:
96,160,76024,6,0,L|0:160,3,88.000002685547,10|8|10|10,0:3|0:0|0:3|0:0,0:0:0:0:
192,240,76730,2,0,L|288:240,1,88.000002685547,10|8,0:3|0:0,0:0:0:0:
96,160,77083,2,0,L|-16:160,1,88.000002685547,10|8,0:3|0:0,0:0:0:0:
304,160,77436,5,10,0:3:0:0:
208,160,77612,2,8,L|160:128,4,44.0000013427735,8|8|0|0|10,0:3|0:3|0:0|0:0|0:0,0:0:0:0:
448,160,78142,2,0,L|448:256,1,95.9999970703126,6|8,0:0|0:0,0:0:0:0:
208,224,78494,2,0,L|208:320,1,95.9999970703126,6|8,0:0|0:0,0:0:0:0:
496,320,78847,5,14,0:0:0:0:
320,256,79200,2,8,L|272:256,2,44.0000013427735,8|8|8,0:3|0:3|0:3,0:0:0:0:
480,256,79553,1,10,0:0:0:0:
240,256,79906,1,10,0:0:0:0:
480,256,80259,5,10,0:0:0:0:
240,176,80612,1,8,0:3:0:0:
240,112,80700,1,8,0:3:0:0:
240,48,80789,1,8,0:3:0:0:
80,80,80965,1,10,0:0:0:0:
320,64,81318,1,10,0:0:0:0:
80,224,81671,5,10,0:3:0:0:
32,192,81759,1,8,0:3:0:0:
32,144,81847,1,8,0:3:0:0:
80,112,81936,1,8,0:3:0:0:
176,160,82024,2,8,L|224:160,2,46.7499982389212,14|8|8,0:3|0:3|0:3,0:0:0:0:
352,272,82399,5,14,0:3:0:0:
336,208,82495,1,8,0:3:0:0:
304,160,82592,1,8,0:3:0:0:
256,128,82689,1,8,0:3:0:0:
368,80,82786,2,8,L|416:80,2,48.3999986337281,14|8|8,0:3|0:3|0:3,0:0:0:0:
192,272,83173,6,8,L|128:272,2,50,14|8|8,0:3|0:3|0:3,0:0:0:0:
368,320,83573,2,0,L|432:320,2,53.5999974645997,14|8|8,0:3|0:3|0:3,0:0:0:0:
32,320,84001,5,12,0:0:0:0:
64,256,84108,1,8,0:0:0:0:
112,224,84215,1,8,0:0:0:0:
176,208,84323,1,8,0:0:0:0:
64,144,84430,2,0,L|0:144,2,55.6000016967774,8|8|8,0:0|0:0|0:0,0:0:0:0:
432,144,84874,1,14,0:0:0:0:
256,192,85096,12,0,86651,0:0:0:0:
128,320,88498,5,2,0:0:0:0:
48,272,88674,1,0,0:0:0:0:
16,176,88850,1,0,0:0:0:0:
48,80,89027,1,0,0:0:0:0:
304,64,89909,5,2,0:0:0:0:
304,160,90086,1,0,0:0:0:0:
208,160,90262,1,0,0:0:0:0:
208,256,90439,1,0,0:0:0:0:
304,256,90615,1,2,0:0:0:0:
32,288,91321,5,2,0:0:0:0:
32,192,91498,1,0,0:0:0:0:
128,192,91674,1,0,0:0:0:0:
128,96,91850,1,0,0:0:0:0:
32,96,92027,1,2,0:0:0:0:
256,320,92733,5,2,0:0:0:0:
336,272,92909,1,0,0:0:0:0:
368,176,93086,1,0,0:0:0:0:
336,80,93262,1,0,0:0:0:0:
240,48,93439,1,2,0:0:0:0:
496,64,94145,5,2,0:0:0:0:
416,96,94321,1,0,0:0:0:0:
384,192,94498,1,0,0:0:0:0:
416,288,94674,1,0,0:0:0:0:
496,336,94850,1,2,0:0:0:0:
240,336,95556,5,2,0:0:0:0:
224,240,95733,1,0,0:0:0:0:
320,240,95909,1,0,0:0:0:0:
336,144,96086,1,0,0:0:0:0:
240,144,96262,1,2,0:0:0:0:
48,320,96968,5,2,0:0:0:0:
144,304,97145,1,0,0:0:0:0:
224,256,97321,1,0,0:0:0:0:
256,160,97498,1,0,0:0:0:0:
224,64,97674,1,2,0:0:0:0:
464,320,98380,5,2,0:0:0:0:
368,304,98557,1,0,0:0:0:0:
288,256,98733,1,0,0:0:0:0:
256,160,98910,1,0,0:0:0:0:
288,64,99086,1,2,0:0:0:0:
32,240,99792,6,0,L|112:240,2,80,4|8|8,0:0|0:3|0:0,0:0:0:0:
128,240,100321,2,0,L|128:160,1,80,0|10,0:0|0:3,0:0:0:0:
32,240,100674,1,0,0:0:0:0:
192,320,100850,2,0,L|192:224,1,80,8|0,0:0|0:0,0:0:0:0:
352,192,101203,6,0,L|432:192,2,80,2|8|0,0:0|0:3|0:0,0:0:0:0:
192,256,101733,1,8,0:0:0:0:
272,208,101909,1,2,0:0:0:0:
272,112,102086,1,8,0:3:0:0:
112,112,102262,2,0,L|112:192,1,80,8|0,0:0|0:0,0:0:0:0:
272,320,102615,5,2,0:0:0:0:
368,288,102792,1,8,0:3:0:0:
400,208,102968,1,8,0:0:0:0:
368,112,103145,1,0,0:0:0:0:
272,80,103321,2,0,L|160:80,1,80,10|0,0:3|0:0,0:0:0:0:
352,208,103674,1,8,0:0:0:0:
144,256,104027,6,0,L|144:176,1,80,10|0,0:0|0:0,0:0:0:0:
176,144,104292,1,0,0:0:0:0:
208,112,104380,1,8,0:3:0:0:
368,256,104556,2,0,L|368:176,1,80,10|0,0:0|0:0,0:0:0:0:
336,144,104821,1,0,0:0:0:0:
304,112,104909,1,8,0:3:0:0:
400,64,105086,2,0,L|464:64,2,40,8|8|8,0:0|0:3|0:0,0:0:0:0:
224,304,105439,6,0,L|224:224,1,80,10|0,0:3|0:0,0:0:0:0:
320,208,105792,2,0,L|320:128,1,80,8|0,0:0|0:0,0:0:0:0:
160,224,106145,2,0,L|160:144,1,80,10|0,0:3|0:0,0:0:0:0:
240,176,106497,1,8,0:0:0:0:
160,128,106674,1,8,0:3:0:0:
320,320,106850,5,2,0:0:0:0:
240,272,107027,1,8,0:3:0:0:
208,176,107203,1,8,0:3:0:0:
240,80,107380,1,8,0:0:0:0:
336,48,107556,2,0,L|336:144,1,80,2|8,0:0|0:3,0:0:0:0:
176,208,107909,2,0,L|96:208,1,80,8|0,0:0|0:0,0:0:0:0:
256,304,108262,5,10,0:3:0:0:
336,256,108439,1,0,0:0:0:0:
336,160,108615,1,8,0:0:0:0:
256,112,108792,1,0,0:0:0:0:
96,224,108968,2,0,L|192:224,2,80,10|0|10,0:3|0:0|0:0,0:0:0:0:
368,320,109674,5,8,0:3:0:0:
208,256,110027,2,0,L|128:256,2,80,0|0|2,0:0|0:0|0:0,0:0:0:0:
48,256,110556,1,8,0:3:0:0:
32,208,110645,1,8,0:3:0:0:
48,256,110733,1,8,0:0:0:0:
128,304,110909,1,8,0:3:0:0:
416,304,111086,6,0,L|512:304,1,88.000002685547,6|2,0:0|0:0,0:0:0:0:
336,224,111439,2,0,L|240:224,1,88.000002685547,8|8,0:0|0:3,0:0:0:0:
432,320,111792,2,0,P|480:288|416:208,1,176.000005371094,2|0,0:0|0:0,0:0:0:0:
320,208,112321,1,10,0:3:0:0:
48,208,112497,6,0,P|64:144|176:96,1,176.000005371094,10|8,0:3|0:0,0:0:0:0:
320,192,113027,2,8,L|432:192,2,88.000002685547,8|0|8,0:3|0:0|0:3,0:0:0:0:
160,288,113556,2,0,L|64:288,1,88.000002685547,10|10,0:0|0:3,0:0:0:0:
352,304,113909,6,0,P|336:240|224:192,1,176.000005371094,10|8,0:3|0:0,0:0:0:0:
96,224,114439,2,0,L|96:128,1,88.000002685547,10|0,0:3|0:0,0:0:0:0:
256,96,114792,2,0,L|160:96,2,88.000002685547,10|2|10,0:0|0:0|0:3,0:0:0:0:
16,272,115321,6,0,P|32:224|144:160,1,176.000005371094,10|8,0:3|0:0,0:0:0:0:
288,160,115850,2,0,L|288:272,1,88.000002685547,10|2,0:3|0:0,0:0:0:0:
128,272,116203,2,8,L|80:272,2,44.0000013427735,8|8|8,0:0|0:3|0:0,0:0:0:0:
240,272,116556,1,8,0:3:0:0:
496,272,116733,6,0,P|464:208|352:144,1,176.000005371094,2|8,0:3|0:0,0:0:0:0:
224,288,117262,2,0,P|176:240|240:160,1,176.000005371094,8|10,0:3|0:0,0:0:0:0:
384,144,117792,2,0,L|384:240,1,88.000002685547,2|10,0:0|0:3,0:0:0:0:
64,272,118145,6,0,P|16:240|80:160,1,176.000005371094,10|8,0:3|0:0,0:0:0:0:
240,272,118674,2,0,L|416:272,1,176.000005371094,10|10,0:3|0:3,0:0:0:0:
304,272,119203,1,10,0:0:0:0:
416,272,119380,1,8,0:3:0:0:
128,288,119556,6,0,L|128:192,1,88.000002685547,10|0,0:3|0:0,0:0:0:0:
288,192,119909,2,0,L|288:96,1,88.000002685547,10|8,0:0|0:3,0:0:0:0:
128,320,120262,1,2,0:0:0:0:
224,288,120439,1,8,0:0:0:0:
224,176,120615,1,2,0:0:0:0:
128,128,120792,1,8,0:3:0:0:
384,272,120968,6,0,L|384:80,1,176.000005371094,10|8,0:3|0:0,0:0:0:0:
224,208,121497,2,0,L|160:208,2,44.0000013427735,8|8|10,0:3|0:3|0:0,0:0:0:0:
384,288,121850,2,0,L|384:224,2,44.0000013427735,8|8|8,0:3|0:3|0:0,0:0:0:0:
496,288,122203,1,8,0:3:0:0:
176,320,122380,6,0,L|64:320,2,88.000002685547,6|0|8,0:0|0:0|0:0,0:0:0:0:
336,272,122909,2,0,P|320:192|208:144,1,176.000005371094,8|8,0:3|0:0,0:0:0:0:
80,144,123439,2,0,L|80:240,1,88.000002685547,0|8,0:0|0:3,0:0:0:0:
352,272,123792,6,0,L|352:176,1,88.000002685547,10|0,0:3|0:0,0:0:0:0:
256,160,124145,1,8,0:0:0:0:
416,336,124321,1,8,0:3:0:0:
320,288,124497,1,10,0:0:0:0:
288,192,124674,1,8,0:3:0:0:
336,96,124850,1,10,0:0:0:0:
432,48,125027,1,8,0:3:0:0:
176,240,125203,6,0,L|80:240,1,88.000002685547,10|0,0:3|0:0,0:0:0:0:
192,240,125556,1,8,0:0:0:0:
48,192,125733,1,10,0:3:0:0:
192,160,125909,2,0,L|192:64,1,88.000002685547,2|8,0:0|0:0,0:0:0:0:
32,96,126262,2,0,L|32:192,1,88.000002685547,2|10,0:0|0:3,0:0:0:0:
320,272,126615,6,0,L|416:272,2,88.000002685547,10|0|8,0:3|0:0|0:0,0:0:0:0:
176,272,127145,1,8,0:3:0:0:
320,272,127321,1,2,0:0:0:0:
224,224,127497,2,0,L|176:224,2,44.0000013427735,8|8|8,0:3|0:3|0:0,0:0:0:0:
336,224,127850,1,0,0:3:0:0:
48,288,128027,6,0,P|64:224|160:144,1,176.000005371094,10|8,0:0|0:0,0:0:0:0:
240,144,128556,1,8,0:3:0:0:
80,192,128733,2,0,L|80:80,1,88.000002685547,2|8,0:0|0:0,0:0:0:0:
224,144,129086,2,0,L|128:144,1,88.000002685547,2|8,0:0|0:3,0:0:0:0:
464,272,129439,6,0,L|464:176,1,88.000002685547,10|0,0:3|0:0,0:0:0:0:
304,192,129792,2,0,L|304:96,1,88.000002685547,10|8,0:0|0:3,0:0:0:0:
464,80,130145,1,2,0:0:0:0:
368,144,130321,1,8,0:3:0:0:
368,256,130497,1,10,0:0:0:0:
464,304,130674,1,8,0:3:0:0:
176,304,130850,6,0,P|128:240|192:160,1,176.000005371094,10|8,0:3|0:0,0:0:0:0:
272,160,131380,1,8,0:3:0:0:
112,96,131556,2,0,L|16:96,3,88.000002685547,2|8|2|8,0:0|0:0|0:0|0:3,0:0:0:0:
320,288,132262,6,0,P|400:272|416:160,1,176.000005371094,10|8,0:3|0:0,0:0:0:0:
272,160,132792,1,8,0:3:0:0:
416,160,132968,2,0,L|528:160,1,88.000002685547,10|8,0:0|0:3,0:0:0:0:
504,106,133233,1,8,0:3:0:0:
504,51,133321,1,8,0:0:0:0:
64,256,133674,5,6,0:0:0:0:
256,192,133850,12,0,136497,0:0:0:0:
