osu file format v14

[General]
AudioFilename: audio.mp3
AudioLeadIn: 0
PreviewTime: 45663
Countdown: 0
SampleSet: Soft
StackLeniency: 0.7
Mode: 3
LetterboxInBreaks: 0
SpecialStyle: 0
WidescreenStoryboard: 0

[Editor]
DistanceSpacing: 0.8
BeatDivisor: 4
GridSize: 4
TimelineZoom: 2.4

[Metadata]
Title:Axium Crisis
TitleUnicode:Axium Crisis
Artist:ak+q
ArtistUnicode:ak+q
Creator:Dellvangel
Version:Present
Source:Arcaea
Tags:dnb video game piano violin artcore otoge tairitsu
BeatmapID:1674915
BeatmapSetID:797108

[Difficulty]
HPDrainRate:8
CircleSize:4
OverallDifficulty:7.5
ApproachRate:5
SliderMultiplier:1.4
SliderTickRate:1

[Events]
//Background and Video events
0,0,"BG.jpg",0,0
//Break Periods
//Storyboard Layer 0 (Background)
//Storyboard Layer 1 (Fail)
//Storyboard Layer 2 (Pass)
//Storyboard Layer 3 (Foreground)
//Storyboard Sound Samples

[TimingPoints]
575,352.941176470588,4,2,1,30,1,0
11869,-100,4,2,1,50,0,0
23163,-100,4,2,1,40,0,0
34457,-100,4,2,2,40,0,0
40104,-100,4,2,2,50,0,0
44339,-100,4,2,1,50,0,0
45751,-100,4,2,1,50,0,1
57045,-100,4,2,1,50,0,0
60574,352.941176470588,4,2,1,50,1,0
61985,-100,4,2,1,50,0,1
78221,-80,4,2,1,50,0,1
78397,-133.333333333333,4,2,1,50,0,1
78573,-80,4,2,1,50,0,1
78750,-133.333333333333,4,2,1,50,0,1
78926,-80,4,2,1,50,0,0
79103,-133.333333333333,4,2,1,50,0,0
79279,-100,4,2,1,50,0,0
79632,-80,4,2,1,50,0,0
79809,-133.333333333333,4,2,1,50,0,0
79985,-80,4,2,1,50,0,0
80162,-133.333333333333,4,2,1,50,0,0
80338,-80,4,2,1,50,0,0
80515,-133.333333333333,4,2,1,50,0,0
80691,-100,4,2,1,50,0,0
81044,-80,4,2,1,50,0,0
81221,-133.333333333333,4,2,1,50,0,0
81397,-80,4,2,1,50,0,0
81573,-133.333333333333,4,2,1,50,0,0
81750,-100,4,2,1,50,0,0
82103,375,4,2,1,50,1,0
82103,-94.1176470588235,4,2,1,50,0,0
82478,387.096774193548,4,2,1,50,1,0
82478,-91.1577028258888,4,2,1,50,0,0
83252,400,4,2,1,50,1,0
83252,-88.261253309797,4,2,1,50,0,0
83652,428.571428571429,4,2,1,50,1,0
83652,-82.3723228995058,4,2,1,50,0,0
84509,444.444444444444,4,2,1,50,1,0
84509,-79.428117553614,4,2,1,50,0,0
84953,444.444444444444,4,2,1,50,1,0
84953,-79.428117553614,4,2,1,50,0,0
86731,461.538461538462,4,2,1,50,1,0
86731,-76.4525993883792,4,2,1,50,0,0
88577,352.941176470588,4,2,1,30,1,0
99871,-100,4,2,1,40,0,0
111165,-100,4,2,1,50,0,1
133753,-100,4,2,1,40,0,0
135165,-100,4,2,1,35,0,0
136576,-100,4,2,1,30,0,0

[HitObjects]
64,192,575,5,0,0:0:0:0:
448,192,575,1,0,0:0:0:0:
192,192,751,1,0,0:0:0:0:
320,192,927,1,0,0:0:0:0:
448,192,1104,1,0,0:0:0:0:
192,192,1457,1,0,0:0:0:0:
448,192,1633,1,0,0:0:0:0:
320,192,1810,1,0,0:0:0:0:
192,192,1986,1,0,0:0:0:0:
64,192,1986,1,0,0:0:0:0:
320,192,2163,1,0,0:0:0:0:
64,192,2339,1,0,0:0:0:0:
448,192,2516,1,0,0:0:0:0:
320,192,2869,1,0,0:0:0:0:
192,192,3045,1,0,0:0:0:0:
320,192,3398,1,0,0:0:0:0:
448,192,3398,1,0,0:0:0:0:
64,192,3574,1,0,0:0:0:0:
192,192,3751,1,0,0:0:0:0:
320,192,3927,1,0,0:0:0:0:
448,192,4280,1,0,0:0:0:0:
320,192,4457,1,0,0:0:0:0:
64,192,4633,1,0,0:0:0:0:
192,192,4810,1,0,0:0:0:0:
448,192,4810,1,0,0:0:0:0:
320,192,4986,1,0,0:0:0:0:
64,192,5163,1,0,0:0:0:0:
192,192,5339,1,0,0:0:0:0:
448,192,5692,1,0,0:0:0:0:
320,192,6222,1,0,0:0:0:0:
64,192,6222,1,0,0:0:0:0:
448,192,6398,1,0,0:0:0:0:
192,192,6574,1,0,0:0:0:0:
320,192,6751,1,0,0:0:0:0:
448,192,7104,1,0,0:0:0:0:
320,192,7633,1,0,0:0:0:0:
448,192,7633,1,0,0:0:0:0:
64,192,7810,1,0,0:0:0:0:
320,192,7986,1,0,0:0:0:0:
192,192,8163,1,0,0:0:0:0:
448,192,8339,1,0,0:0:0:0:
320,192,8516,1,0,0:0:0:0:
192,192,8692,1,0,0:0:0:0:
64,192,9045,128,0,10457:0:0:0:0:
320,192,9045,1,0,0:0:0:0:
448,192,9222,1,0,0:0:0:0:
192,192,9398,1,0,0:0:0:0:
320,192,9574,1,0,0:0:0:0:
448,192,9927,1,0,0:0:0:0:
320,192,10104,1,0,0:0:0:0:
192,192,10280,1,0,0:0:0:0:
320,192,10457,1,0,0:0:0:0:
448,192,10457,128,0,11516:0:0:0:0:
64,192,10633,1,0,0:0:0:0:
192,192,10810,1,0,0:0:0:0:
320,192,10986,1,0,0:0:0:0:
64,192,11339,1,0,0:0:0:0:
192,192,11869,1,0,0:0:0:0:
64,192,11869,1,2,0:0:0:0:
448,192,11869,1,4,0:0:0:0:
320,192,12045,1,0,0:0:0:0:
64,192,12222,1,0,0:0:0:0:
448,192,12222,1,8,0:0:0:0:
192,192,12398,1,2,0:0:0:0:
64,192,12398,1,0,0:0:0:0:
320,192,12574,1,0,0:0:0:0:
192,192,12751,1,8,0:0:0:0:
448,192,12751,1,0,0:0:0:0:
320,192,12927,1,0,0:0:0:50:Clap.wav
64,192,12927,1,0,0:0:0:0:
448,192,13104,1,2,0:0:0:0:
64,192,13104,1,0,0:0:0:0:
320,192,13280,1,0,0:0:0:0:
448,192,13280,1,2,0:0:0:0:
192,192,13457,1,2,0:0:0:0:
64,192,13457,1,0,0:0:0:0:
64,192,13633,1,0,0:0:0:0:
448,192,13633,1,8,0:0:0:0:
320,192,13810,1,0,0:0:0:0:
192,192,13810,1,2,0:0:0:0:
448,192,13986,1,0,0:0:0:0:
320,192,14074,1,0,0:0:0:0:
192,192,14163,1,0,0:0:0:0:
64,192,14163,1,2,0:0:0:0:
320,192,14339,1,0,0:0:0:0:
448,192,14339,1,8,0:0:0:0:
192,192,14516,1,0,0:0:0:0:
64,192,14516,1,2,0:0:0:0:
448,192,14604,1,0,0:0:0:0:
192,192,14692,1,0,0:0:0:0:
64,192,14692,1,2,0:0:0:0:
320,192,14869,1,0,0:0:0:0:
64,192,15045,1,0,0:0:0:0:
448,192,15045,1,8,0:0:0:0:
192,192,15133,1,0,0:0:0:0:
320,192,15222,1,2,0:0:0:0:
64,192,15310,1,0,0:0:0:0:
192,192,15398,1,0,0:0:0:0:
448,192,15398,1,0,0:0:0:0:
320,192,15574,1,8,0:0:0:0:
448,192,15574,1,0,0:0:0:0:
192,192,15751,1,0,0:0:0:0:
64,192,15751,1,0,0:0:0:50:Clap.wav
192,192,15927,1,0,0:0:0:0:
320,192,15927,1,2,0:0:0:0:
64,192,16104,1,0,0:0:0:0:
448,192,16104,1,2,0:0:0:0:
192,192,16280,1,0,0:0:0:0:
448,192,16369,1,0,0:0:0:0:
320,192,16457,1,8,0:0:0:0:
64,192,16457,1,0,0:0:0:0:
192,192,16633,1,2,0:0:0:0:
64,192,16633,1,0,0:0:0:0:
448,192,16810,1,0,0:0:0:0:
320,192,16898,1,0,0:0:0:0:
64,192,16986,1,2,0:0:0:0:
192,192,17074,1,2,0:0:0:0:
320,192,17163,1,0,0:0:0:0:
448,192,17163,1,8,0:0:0:0:
192,192,17251,1,0,0:0:0:0:
64,192,17339,1,2,0:0:0:0:
320,192,17427,1,2,0:0:0:0:
64,192,17516,1,2,0:0:0:0:
448,192,17516,1,4,0:0:0:0:
192,192,17516,1,0,0:0:0:0:
320,192,17692,1,0,0:0:0:0:
64,192,17869,1,0,0:0:0:0:
448,192,17869,1,8,0:0:0:0:
64,192,18045,1,2,0:0:0:0:
192,192,18045,1,0,0:0:0:0:
448,192,18133,1,0,0:0:0:0:
320,192,18222,1,0,0:0:0:0:
448,192,18398,1,0,0:0:0:0:
192,192,18398,1,8,0:0:0:0:
64,192,18574,1,0,0:0:0:0:
448,192,18574,1,0,0:0:0:50:Clap.wav
192,192,18751,1,0,0:0:0:0:
320,192,18751,1,2,0:0:0:0:
320,192,18927,1,2,0:0:0:0:
192,192,18927,1,0,0:0:0:0:
64,192,19104,1,2,0:0:0:0:
448,192,19104,1,0,0:0:0:0:
192,192,19280,1,0,0:0:0:0:
448,192,19280,1,8,0:0:0:0:
320,192,19457,1,0,0:0:0:0:
64,192,19457,1,2,0:0:0:0:
192,192,19633,1,0,0:0:0:0:
64,192,19722,1,0,0:0:0:0:
320,192,19810,1,0,0:0:0:0:
448,192,19810,1,2,0:0:0:0:
64,192,19986,1,8,0:0:0:0:
192,192,19986,1,0,0:0:0:0:
320,192,20163,1,0,0:0:0:0:
448,192,20163,1,2,0:0:0:0:
64,192,20251,1,0,0:0:0:0:
320,192,20339,1,0,0:0:0:0:
448,192,20339,1,2,0:0:0:0:
64,192,20516,1,0,0:0:0:0:
192,192,20692,1,0,0:0:0:0:
320,192,20692,1,8,0:0:0:0:
448,192,20869,1,2,0:0:0:0:
64,192,20869,128,0,21045:0:0:0:0:
320,192,20957,1,0,0:0:0:0:
192,192,21045,128,0,21222:0:0:0:0:
64,192,21222,1,8,0:0:0:0:
320,192,21222,128,0,21398:0:0:0:0:
192,192,21398,1,0,0:0:0:50:Clap.wav
448,192,21398,128,0,21574:0:0:0:0:
320,192,21574,1,2,0:0:0:0:
64,192,21574,128,0,21751:0:0:0:0:
192,192,21751,1,2,0:0:0:0:
448,192,21751,128,0,21927:0:0:0:0:
64,192,21927,1,8,0:0:0:0:
320,192,21927,1,0,0:0:0:0:
192,192,22104,1,8,0:0:0:0:
320,192,22192,1,8,0:0:0:0:
192,192,22280,1,8,0:0:0:0:
320,192,22369,1,8,0:0:0:0:
64,192,22457,128,0,23163:0:0:0:0:
448,192,22457,1,2,0:0:0:0:
192,192,22810,128,0,23163:0:0:0:0:
320,192,23163,1,2,0:0:0:0:
448,192,23163,128,4,25280:0:0:0:0:
64,192,23339,1,0,0:0:0:0:
320,192,23516,1,0,0:0:0:0:
192,192,23692,1,0,0:0:0:0:
64,192,23869,1,0,0:0:0:0:
192,192,23957,1,0,0:0:0:0:
320,192,24045,1,0,0:0:0:0:
64,192,24222,1,0,0:0:0:0:
320,192,24398,1,0,0:0:0:0:
192,192,24574,1,0,0:0:0:0:
64,192,24751,1,0,0:0:0:0:
192,192,24927,1,0,0:0:0:0:
320,192,25104,1,0,0:0:0:0:
64,192,25280,128,0,25457:0:0:0:0:
192,192,25280,1,0,0:0:0:0:
320,192,25457,128,0,25633:0:0:0:0:
192,192,25633,128,0,25810:0:0:0:0:
64,192,25633,1,0,0:0:0:0:
448,192,25810,128,0,25986:0:0:0:0:
64,192,25986,128,0,26869:0:0:0:0:
320,192,25986,1,0,0:0:0:0:
192,192,26074,1,0,0:0:0:0:
448,192,26163,1,0,0:0:0:0:
320,192,26339,1,0,0:0:0:0:
448,192,26427,1,0,0:0:0:0:
192,192,26516,1,0,0:0:0:0:
448,192,26692,1,0,0:0:0:0:
320,192,26869,128,0,27398:0:0:0:0:
192,192,27045,1,0,0:0:0:0:
448,192,27222,1,0,0:0:0:0:
192,192,27398,128,0,28810:0:0:0:0:
64,192,27398,1,0,0:0:0:0:
448,192,27574,1,0,0:0:0:0:
64,192,27663,1,0,0:0:0:0:
320,192,27751,1,0,0:0:0:0:
448,192,27927,1,0,0:0:0:0:
64,192,28104,1,0,0:0:0:0:
320,192,28280,1,0,0:0:0:0:
64,192,28457,1,0,0:0:0:0:
448,192,28545,1,0,0:0:0:0:
320,192,28633,1,0,0:0:0:0:
448,192,28810,128,0,30574:0:0:0:0:
64,192,28810,1,0,0:0:0:0:
320,192,28986,1,0,0:0:0:0:
192,192,29163,1,0,0:0:0:0:
320,192,29339,1,0,0:0:0:0:
64,192,29516,1,0,0:0:0:0:
192,192,29604,1,0,0:0:0:0:
320,192,29692,1,0,0:0:0:0:
192,192,29869,1,0,0:0:0:0:
64,192,29957,1,0,0:0:0:0:
320,192,30045,1,0,0:0:0:0:
64,192,30222,1,0,0:0:0:0:
192,192,30398,1,0,0:0:0:0:
320,192,30574,128,0,30751:0:0:0:0:
64,192,30574,1,0,0:0:0:0:
192,192,30751,128,0,30927:0:0:0:0:
448,192,30927,128,0,31104:0:0:0:0:
320,192,30927,1,0,0:0:0:0:
64,192,31104,128,0,31280:0:0:0:0:
192,192,31280,128,0,31457:0:0:0:0:
320,192,31280,1,0,0:0:0:0:
448,192,31457,128,0,31633:0:0:0:0:
320,192,31633,128,0,32339:0:0:0:0:
64,192,31633,1,0,0:0:0:0:
192,192,31810,1,0,0:0:0:0:
64,192,31986,1,0,0:0:0:0:
448,192,32074,1,0,0:0:0:0:
192,192,32163,1,0,0:0:0:0:
64,192,32339,128,0,33045:0:0:0:0:
448,192,32339,1,0,0:0:0:0:
192,192,32516,1,0,0:0:0:0:
448,192,32692,1,0,0:0:0:0:
192,192,32780,1,0,0:0:0:0:
320,192,32869,1,0,0:0:0:0:
192,192,33045,128,0,33574:0:0:0:0:
448,192,33045,1,0,0:0:0:0:
320,192,33222,1,0,0:0:0:0:
64,192,33398,1,0,0:0:0:0:
320,192,33486,1,0,0:0:0:0:
448,192,33574,128,0,34457:0:0:0:0:
64,192,33751,1,0,0:0:0:0:
320,192,33927,1,0,0:0:0:0:
192,192,34104,1,0,0:0:0:0:
64,192,34192,1,0,0:0:0:0:
320,192,34280,1,0,0:0:0:0:
64,192,34457,1,0,0:0:0:0:
320,192,34633,1,0,0:0:0:0:
448,192,34633,1,0,0:0:0:0:
192,192,34810,1,0,0:0:0:0:
64,192,34810,1,0,0:0:0:0:
320,192,34986,1,0,0:0:0:0:
448,192,34986,1,0,0:0:0:0:
192,192,35163,1,0,0:0:0:0:
320,192,35251,1,0,0:0:0:0:
64,192,35339,1,0,0:0:0:0:
448,192,35339,1,0,0:0:0:0:
192,192,35516,1,0,0:0:0:0:
320,192,35516,1,0,0:0:0:0:
448,192,35692,1,0,0:0:0:0:
64,192,35692,1,0,0:0:0:0:
192,192,35869,1,0,0:0:0:0:
320,192,36045,1,0,0:0:0:0:
64,192,36045,1,0,0:0:0:0:
192,192,36222,1,0,0:0:0:0:
448,192,36222,1,0,0:0:0:0:
320,192,36398,1,0,0:0:0:0:
64,192,36398,1,0,0:0:0:0:
448,192,36574,1,0,0:0:0:0:
192,192,36751,1,0,0:0:0:0:
64,192,36751,1,0,0:0:0:0:
320,192,36927,1,0,0:0:0:0:
448,192,36927,1,0,0:0:0:0:
192,192,37104,1,0,0:0:0:0:
64,192,37104,1,0,0:0:0:0:
320,192,37280,1,0,0:0:0:0:
64,192,37457,1,0,0:0:0:0:
448,192,37457,1,0,0:0:0:0:
448,192,37633,1,0,0:0:0:0:
64,192,37633,1,0,0:0:0:0:
192,192,37722,1,0,0:0:0:0:
320,192,37810,1,0,0:0:0:0:
448,192,37810,1,0,0:0:0:0:
64,192,37986,1,0,0:0:0:0:
192,192,38163,1,0,0:0:0:0:
448,192,38163,1,0,0:0:0:0:
320,192,38339,1,0,0:0:0:0:
192,192,38516,1,0,0:0:0:0:
448,192,38516,1,0,0:0:0:0:
64,192,38692,1,0,0:0:0:0:
320,192,38869,1,0,0:0:0:0:
192,192,38869,1,0,0:0:0:0:
448,192,39045,1,0,0:0:0:0:
64,192,39045,1,0,0:0:0:0:
192,192,39222,1,0,0:0:0:0:
320,192,39222,1,0,0:0:0:0:
448,192,39398,1,0,0:0:0:0:
192,192,39574,1,0,0:0:0:0:
64,192,39574,1,0,0:0:0:0:
320,192,39751,1,0,0:0:0:0:
448,192,39751,1,0,0:0:0:0:
192,192,39927,1,0,0:0:0:0:
64,192,39927,1,0,0:0:0:0:
448,192,40104,1,0,0:0:0:0:
320,192,40192,1,0,0:0:0:0:
64,192,40280,1,0,0:0:0:0:
192,192,40369,1,0,0:0:0:0:
448,192,40457,1,0,0:0:0:0:
320,192,40545,1,0,0:0:0:0:
192,192,40633,1,0,0:0:0:0:
64,192,40722,1,0,0:0:0:0:
320,192,40810,1,0,0:0:0:0:
448,192,40898,1,0,0:0:0:0:
64,192,40986,1,0,0:0:0:0:
192,192,41074,1,0,0:0:0:0:
320,192,41163,1,0,0:0:0:0:
448,192,41251,1,0,0:0:0:0:
192,192,41339,1,0,0:0:0:0:
64,192,41427,1,0,0:0:0:0:
448,192,41516,1,0,0:0:0:0:
320,192,41604,1,0,0:0:0:0:
192,192,41692,1,0,0:0:0:0:
64,192,41780,1,0,0:0:0:0:
448,192,41869,1,0,0:0:0:0:
320,192,41957,1,0,0:0:0:0:
64,192,42045,1,0,0:0:0:0:
192,192,42133,1,0,0:0:0:0:
320,192,42222,1,0,0:0:0:0:
448,192,42310,1,0,0:0:0:0:
192,192,42398,1,0,0:0:0:0:
64,192,42486,1,0,0:0:0:0:
320,192,42574,1,0,0:0:0:0:
192,192,42663,1,0,0:0:0:0:
448,192,42751,1,0,0:0:0:0:
320,192,42839,1,0,0:0:0:0:
64,192,42927,128,0,43016:0:0:0:0:
192,192,43016,128,0,43104:0:0:0:0:
320,192,43104,128,0,43192:0:0:0:0:
448,192,43192,128,0,43280:0:0:0:0:
64,192,43280,128,0,43369:0:0:0:0:
192,192,43369,128,0,43457:0:0:0:0:
320,192,43457,128,0,43545:0:0:0:0:
448,192,43545,128,0,43633:0:0:0:0:
192,192,43633,128,0,43722:0:0:0:0:
64,192,43722,128,0,43810:0:0:0:0:
448,192,43810,128,0,43898:0:0:0:0:
320,192,43898,128,0,43986:0:0:0:0:
192,192,43986,128,0,44074:0:0:0:0:
64,192,44074,128,0,44163:0:0:0:0:
448,192,44163,128,0,44251:0:0:0:0:
320,192,44251,128,0,44339:0:0:0:0:
64,192,44339,1,0,0:0:0:0:
192,192,44339,1,2,0:0:0:0:
448,192,44427,1,2,0:0:0:0:
320,192,44516,1,2,0:0:0:0:
192,192,44604,1,2,0:0:0:0:
320,192,44692,1,0,0:0:0:0:
448,192,44692,1,2,0:0:0:0:
192,192,44780,1,2,0:0:0:0:
64,192,44869,1,2,0:0:0:0:
320,192,44957,1,2,0:0:0:0:
448,192,45045,1,2,0:0:0:0:
192,192,45045,1,0,0:0:0:0:
64,192,45133,1,2,0:0:0:0:
320,192,45222,1,2,0:0:0:0:
192,192,45310,1,2,0:0:0:0:
64,192,45398,128,0,45751:0:0:0:0:
448,192,45398,1,0,0:0:0:0:
192,192,45574,128,0,45751:0:0:0:0:
320,192,45751,1,2,0:0:0:0:
448,192,45751,1,4,0:0:0:0:
320,192,45927,1,0,0:0:0:0:
192,192,46104,128,0,46280:0:0:0:0:
64,192,46104,128,0,46280:0:0:0:50:Edge.wav
320,192,46280,1,2,0:0:0:0:
448,192,46280,1,4,0:0:0:0:
320,192,46457,1,0,0:0:0:0:
448,192,46545,1,0,0:0:0:0:
192,192,46633,1,0,0:0:0:50:Edge.wav
64,192,46633,1,0,0:0:0:0:
320,192,46810,1,0,0:0:0:0:
448,192,46810,1,4,0:0:0:0:
64,192,46810,1,2,0:0:0:0:
320,192,46986,1,0,0:0:0:0:
192,192,47163,1,0,0:0:0:50:Edge.wav
448,192,47163,1,0,0:0:0:0:
320,192,47339,1,0,0:0:0:0:
448,192,47339,1,4,0:0:0:0:
64,192,47339,1,2,0:0:0:0:
192,192,47516,1,0,0:0:0:0:
64,192,47516,1,0,0:0:0:0:
320,192,47692,1,0,0:0:0:50:Edge.wav
192,192,47780,1,0,0:0:0:0:
320,192,47869,1,0,0:0:0:0:
64,192,47869,1,2,0:0:0:0:
448,192,47869,1,4,0:0:0:0:
320,192,48045,128,0,48222:0:0:0:0:
192,192,48045,128,0,48222:0:0:0:50:Edge.wav
64,192,48222,1,2,0:0:0:0:
448,192,48222,1,4,0:0:0:0:
192,192,48398,1,0,0:0:0:0:
320,192,48574,1,0,0:0:0:0:
448,192,48574,1,4,0:0:0:0:
64,192,48574,1,2,0:0:0:0:
448,192,48751,1,0,0:0:0:0:
320,192,48927,1,0,0:0:0:50:Edge.wav
192,192,49016,1,0,0:0:0:50:Edge.wav
320,192,49104,1,0,0:0:0:0:
64,192,49104,1,2,0:0:0:0:
448,192,49104,1,4,0:0:0:0:
192,192,49280,1,0,0:0:0:0:
320,192,49369,1,0,0:0:0:0:
192,192,49457,1,0,0:0:0:50:Edge.wav
64,192,49457,1,0,0:0:0:0:
320,192,49633,1,0,0:0:0:0:
448,192,49633,1,4,0:0:0:0:
64,192,49633,1,2,0:0:0:0:
448,192,49810,1,0,0:0:0:0:
192,192,49986,1,0,0:0:0:0:
320,192,49986,1,0,0:0:0:50:Edge.wav
64,192,50163,1,2,0:0:0:0:
320,192,50163,1,0,0:0:0:0:
448,192,50163,1,4,0:0:0:0:
192,192,50339,1,0,0:0:0:0:
64,192,50339,1,0,0:0:0:0:
320,192,50516,1,0,0:0:0:50:Edge.wav
192,192,50604,1,0,0:0:0:0:
64,192,50692,128,2,51045:0:0:0:0:
448,192,50692,1,4,0:0:0:0:
192,192,50869,128,0,51045:0:0:0:0:
320,192,50869,1,2,0:0:0:0:
448,192,51045,128,4,51398:0:0:0:0:
320,192,51045,1,2,0:0:0:0:
64,192,51222,128,0,51398:0:0:0:0:
192,192,51222,1,2,0:0:0:0:
320,192,51398,1,4,0:0:0:0:
192,192,51398,1,2,0:0:0:0:
64,192,51574,1,2,0:0:0:0:
192,192,51663,1,2,0:0:0:0:
320,192,51751,128,2,51927:0:0:0:0:
448,192,51751,128,0,51927:0:0:0:50:Edge.wav
192,192,51927,1,2,0:0:0:0:
64,192,51927,1,4,0:0:0:0:
448,192,52104,1,0,0:0:0:0:
320,192,52192,1,0,0:0:0:0:
192,192,52280,1,0,0:0:0:50:Edge.wav
448,192,52369,1,0,0:0:0:0:
320,192,52457,1,2,0:0:0:0:
64,192,52457,1,4,0:0:0:0:
192,192,52457,1,0,0:0:0:0:
448,192,52633,1,2,0:0:0:0:
64,192,52722,1,2,0:0:0:0:
448,192,52810,1,2,0:0:0:0:
64,192,52898,1,2,0:0:0:0:
320,192,52986,1,0,0:0:0:0:
192,192,52986,1,2,0:0:0:0:
448,192,52986,1,4,0:0:0:0:
64,192,53163,1,0,0:0:0:0:
448,192,53251,1,0,0:0:0:0:
192,192,53339,1,0,0:0:0:50:Edge.wav
320,192,53427,1,0,0:0:0:0:
64,192,53516,1,4,0:0:0:0:
448,192,53516,128,0,53869:0:0:0:0:
192,192,53516,1,2,0:0:0:0:
320,192,53692,128,0,53869:0:0:0:50:Edge.wav
192,192,53869,128,6,54222:0:0:0:0:
64,192,54045,128,0,54222:0:0:0:50:Edge.wav
320,192,54222,1,2,0:0:0:0:
448,192,54222,1,4,0:0:0:0:
192,192,54398,1,2,0:0:0:0:
448,192,54486,1,2,0:0:0:0:
192,192,54574,1,2,0:0:0:0:
448,192,54663,1,2,0:0:0:0:
192,192,54751,1,2,0:0:0:0:
64,192,54751,1,4,0:0:0:0:
320,192,54751,1,0,0:0:0:0:
448,192,54927,1,0,0:0:0:0:
192,192,55016,1,0,0:0:0:0:
320,192,55104,1,0,0:0:0:50:Edge.wav
64,192,55192,1,0,0:0:0:0:
320,192,55280,1,2,0:0:0:0:
448,192,55280,1,4,0:0:0:0:
192,192,55280,1,0,0:0:0:0:
64,192,55457,1,2,0:0:0:0:
320,192,55545,1,2,0:0:0:0:
64,192,55633,1,2,0:0:0:0:
320,192,55722,1,2,0:0:0:0:
192,192,55810,1,2,0:0:0:0:
448,192,55810,1,0,0:0:0:0:
64,192,55810,1,4,0:0:0:0:
320,192,55986,1,2,0:0:0:0:
192,192,56074,1,2,0:0:0:0:
320,192,56163,1,2,0:0:0:0:
192,192,56251,1,2,0:0:0:0:
320,192,56339,1,2,0:0:0:0:
64,192,56339,1,4,0:0:0:0:
448,192,56339,128,0,56692:0:0:0:0:
192,192,56516,128,2,56692:0:0:0:0:
320,192,56692,128,6,57045:0:0:0:0:
64,192,56869,128,2,57045:0:0:0:0:
448,192,57045,1,2,0:0:0:0:
192,192,57045,1,0,0:0:0:0:
320,192,57222,1,2,0:0:0:0:
192,192,57310,1,2,0:0:0:0:
64,192,57398,1,2,0:0:0:0:
448,192,57398,128,0,57751:0:0:0:0:
320,192,57574,128,0,57751:0:0:0:0:
64,192,57751,1,2,0:0:0:0:
192,192,57839,1,2,0:0:0:0:
320,192,57927,1,2,0:0:0:0:
448,192,57927,128,0,58280:0:0:0:0:
64,192,58104,128,0,58280:0:0:0:0:
192,192,58280,1,2,0:0:0:0:
320,192,58369,1,2,0:0:0:0:
64,192,58457,128,0,58810:0:0:0:0:
448,192,58457,1,2,0:0:0:0:
192,192,58633,128,0,58810:0:0:0:0:
448,192,58810,1,2,0:0:0:0:
320,192,58898,1,2,0:0:0:0:
192,192,58986,1,2,0:0:0:0:
320,192,59074,1,2,0:0:0:0:
64,192,59163,128,4,60574:0:0:0:0:
448,192,59163,1,2,0:0:0:0:
192,192,59163,128,0,59869:0:0:0:0:
448,192,59869,128,0,60574:0:0:0:0:
320,192,60574,1,2,0:0:0:0:
192,192,60574,1,0,0:0:0:0:
64,192,61985,1,2,0:0:0:0:
192,192,61985,1,0,0:0:0:0:
448,192,61985,1,4,0:0:0:0:
320,192,62162,1,0,0:0:0:0:
192,192,62338,1,0,0:0:0:0:
448,192,62338,1,8,0:0:0:0:
320,192,62515,1,0,0:0:0:0:
192,192,62603,1,0,0:0:0:0:
448,192,62691,1,0,0:0:0:0:
64,192,62691,1,2,0:0:0:0:
192,192,62868,1,0,0:0:0:0:
320,192,62956,1,0,0:0:0:0:
448,192,63044,1,8,0:0:0:0:
64,192,63044,1,0,0:0:0:0:
192,192,63132,1,0,0:0:0:0:
320,192,63221,1,0,0:0:0:0:
192,192,63309,1,0,0:0:0:0:
320,192,63397,1,2,0:0:0:0:
448,192,63397,1,0,0:0:0:0:
192,192,63574,1,0,0:0:0:0:
64,192,63750,1,0,0:0:0:0:
448,192,63750,1,8,0:0:0:0:
320,192,63838,1,0,0:0:0:0:
192,192,63926,1,0,0:0:0:0:
320,192,64103,1,0,0:0:0:0:
64,192,64103,1,2,0:0:0:0:
448,192,64279,1,0,0:0:0:0:
320,192,64368,1,0,0:0:0:0:
192,192,64456,1,8,0:0:0:0:
64,192,64456,1,0,0:0:0:0:
448,192,64544,1,0,0:0:0:0:
320,192,64632,1,0,0:0:0:0:
64,192,64721,1,0,0:0:0:0:
192,192,64809,1,0,0:0:0:0:
448,192,64809,1,2,0:0:0:0:
448,192,64985,1,0,0:0:0:0:
64,192,65162,1,0,0:0:0:0:
320,192,65162,1,8,0:0:0:0:
192,192,65250,1,0,0:0:0:0:
448,192,65338,1,0,0:0:0:0:
320,192,65426,1,0,0:0:0:0:
192,192,65515,1,0,0:0:0:0:
64,192,65515,1,2,0:0:0:0:
320,192,65691,1,2,0:0:0:0:
192,192,65779,1,2,0:0:0:0:
64,192,65868,1,0,0:0:0:0:
448,192,65868,1,2,0:0:0:0:
320,192,65956,1,2,0:0:0:0:
192,192,66044,1,2,0:0:0:0:
320,192,66132,1,2,0:0:0:0:
448,192,66221,1,4,0:0:0:0:
64,192,66221,1,0,0:0:0:0:
192,192,66221,1,2,0:0:0:0:
320,192,66397,1,0,0:0:0:0:
64,192,66485,1,0,0:0:0:0:
448,192,66574,1,0,0:0:0:0:
192,192,66574,1,8,0:0:0:0:
320,192,66750,1,0,0:0:0:0:
448,192,66926,1,0,0:0:0:0:
64,192,66926,1,2,0:0:0:0:
192,192,67103,1,0,0:0:0:0:
320,192,67279,1,8,0:0:0:0:
64,192,67279,1,0,0:0:0:0:
448,192,67456,1,0,0:0:0:0:
320,192,67544,1,0,0:0:0:0:
64,192,67632,1,2,0:0:0:0:
192,192,67632,1,0,0:0:0:0:
320,192,67809,1,0,0:0:0:0:
192,192,67897,1,0,0:0:0:0:
64,192,67985,1,0,0:0:0:0:
320,192,67985,1,8,0:0:0:0:
448,192,68074,1,0,0:0:0:0:
192,192,68162,1,0,0:0:0:0:
320,192,68250,1,0,0:0:0:0:
448,192,68338,1,2,0:0:0:0:
64,192,68338,128,0,68691:0:0:0:0:
192,192,68515,128,0,68691:0:0:0:0:
448,192,68691,128,8,69044:0:0:0:0:
320,192,68868,128,0,69044:0:0:0:0:
192,192,69044,1,0,0:0:0:0:
64,192,69044,1,2,0:0:0:0:
320,192,69221,1,2,0:0:0:0:
192,192,69309,1,2,0:0:0:0:
448,192,69397,1,4,0:0:0:0:
320,192,69397,1,2,0:0:0:0:
64,192,69485,1,2,0:0:0:0:
192,192,69574,1,2,0:0:0:0:
320,192,69662,1,2,0:0:0:0:
448,192,69750,1,2,0:0:0:0:
64,192,69750,1,0,0:0:0:0:
192,192,69926,1,2,0:0:0:0:
320,192,70015,1,2,0:0:0:0:
192,192,70103,1,2,0:0:0:0:
64,192,70103,1,4,0:0:0:0:
448,192,70191,1,2,0:0:0:0:
320,192,70279,1,2,0:0:0:0:
192,192,70368,1,2,0:0:0:0:
64,192,70456,1,0,0:0:0:0:
320,192,70456,1,2,0:0:0:0:
448,192,70456,1,4,0:0:0:0:
192,192,70632,128,0,70809:0:0:0:0:
64,192,70809,128,0,70985:0:0:0:0:
448,192,70809,1,8,0:0:0:0:
320,192,70985,128,0,71162:0:0:0:0:
448,192,71162,128,0,71338:0:0:0:0:
192,192,71162,1,2,0:0:0:0:
64,192,71338,128,0,71515:0:0:0:0:
192,192,71515,128,0,71691:0:0:0:0:
320,192,71515,1,8,0:0:0:0:
448,192,71691,128,0,71868:0:0:0:0:
64,192,71868,128,0,72044:0:0:0:0:
320,192,71868,1,2,0:0:0:0:
192,192,72044,128,0,72221:0:0:0:0:
320,192,72221,128,0,72397:0:0:0:0:
448,192,72221,1,8,0:0:0:0:
64,192,72397,128,0,72574:0:0:0:0:
448,192,72574,128,0,72750:0:0:0:0:
192,192,72574,1,2,0:0:0:0:
64,192,72750,128,0,72926:0:0:0:0:
320,192,72926,128,0,73103:0:0:0:0:
448,192,72926,1,8,0:0:0:0:
192,192,73103,128,0,73279:0:0:0:0:
448,192,73279,128,0,73456:0:0:0:0:
64,192,73279,1,2,0:0:0:0:
192,192,73456,128,0,73632:0:0:0:0:
320,192,73632,128,0,73809:0:0:0:0:
448,192,73632,1,8,0:0:0:0:
64,192,73809,128,0,73985:0:0:0:0:
448,192,73985,128,0,74162:0:0:0:0:
192,192,73985,1,8,0:0:0:0:
320,192,74162,1,8,0:0:0:0:
192,192,74250,1,8,0:0:0:0:
448,192,74338,1,0,0:0:0:0:
64,192,74338,1,2,0:0:0:0:
320,192,74515,1,8,0:0:0:0:
192,192,74515,1,0,0:0:0:0:
192,192,74691,1,0,0:0:0:0:
448,192,74691,1,4,0:0:0:0:
64,192,74691,1,2,0:0:0:0:
448,192,74868,128,0,75221:0:0:0:0:
192,192,75044,1,8,0:0:0:0:
320,192,75044,128,0,75221:0:0:0:0:
64,192,75221,128,0,75573:0:0:0:0:
192,192,75397,128,0,75573:0:0:0:0:
320,192,75397,1,2,0:0:0:0:
448,192,75573,128,0,75926:0:0:0:0:
64,192,75750,128,0,75926:0:0:0:0:
320,192,75750,1,8,0:0:0:0:
192,192,75926,128,0,76279:0:0:0:0:
448,192,76103,1,2,0:0:0:0:
320,192,76103,128,0,76279:0:0:0:0:
64,192,76279,128,0,76632:0:0:0:0:
448,192,76456,128,0,76632:0:0:0:0:
192,192,76456,1,8,0:0:0:0:
320,192,76632,128,0,76985:0:0:0:0:
192,192,76809,128,0,76985:0:0:0:0:
64,192,76809,1,2,0:0:0:0:
448,192,76985,128,0,77338:0:0:0:0:
320,192,77162,128,0,77338:0:0:0:0:
192,192,77162,1,8,0:0:0:0:
64,192,77338,128,0,77691:0:0:0:0:
192,192,77515,1,2,0:0:0:0:
448,192,77515,128,0,77691:0:0:0:0:
320,192,77691,1,2,0:0:0:0:
192,192,77779,1,2,0:0:0:0:
64,192,77868,1,0,0:0:0:0:
448,192,77868,1,8,0:0:0:0:
320,192,77956,1,2,0:0:0:0:
192,192,78044,1,2,0:0:0:0:
320,192,78132,1,2,0:0:0:0:
192,192,78221,1,2,0:0:0:0:
64,192,78221,1,4,0:0:0:0:
448,192,78221,1,0,0:0:0:0:
320,192,78573,1,4,0:0:0:0:
192,192,78573,1,2,0:0:0:0:
64,192,78573,1,0,0:0:0:0:
320,192,78926,1,2,0:0:0:0:
448,192,78926,1,4,0:0:0:0:
64,192,78926,1,0,0:0:0:0:
64,192,79279,1,2,0:0:0:0:
192,192,79368,1,2,0:0:0:0:
448,192,79456,1,2,0:0:0:0:
320,192,79544,1,2,0:0:0:0:
192,192,79632,1,2,0:0:0:0:
448,192,79632,1,0,0:0:0:0:
64,192,79632,1,4,0:0:0:0:
192,192,79985,1,2,0:0:0:0:
320,192,79985,1,4,0:0:0:0:
448,192,79985,1,0,0:0:0:0:
448,192,80338,1,4,0:0:0:0:
320,192,80338,1,2,0:0:0:0:
64,192,80338,1,0,0:0:0:0:
192,192,80691,1,8,0:0:0:0:
448,192,80779,1,8,0:0:0:0:
64,192,80868,1,8,0:0:0:0:
320,192,80956,1,8,0:0:0:0:
192,192,81044,1,2,0:0:0:0:
64,192,81044,1,4,0:0:0:0:
448,192,81044,1,0,0:0:0:0:
320,192,81397,1,4,0:0:0:0:
192,192,81397,1,2,0:0:0:0:
64,192,81397,1,0,0:0:0:0:
448,192,81750,1,2,0:0:0:0:
64,192,81750,1,4,0:0:0:0:
320,192,81838,1,2,0:0:0:0:
192,192,81926,1,2,0:0:0:0:
320,192,82015,1,2,0:0:0:0:
64,192,82103,1,4,0:0:0:0:
448,192,82103,1,2,0:0:0:0:
320,192,82290,1,2,0:0:0:0:
192,192,82384,1,2,0:0:0:0:
64,192,82478,1,4,0:0:0:0:
448,192,82478,1,2,0:0:0:0:
192,192,82671,1,2,0:0:0:0:
448,192,82768,1,2,0:0:0:0:
320,192,82865,1,2,0:0:0:0:
64,192,82865,1,4,0:0:0:0:
192,192,83058,1,2,0:0:0:0:
320,192,83155,1,2,0:0:0:0:
448,192,83252,1,4,0:0:0:0:
64,192,83252,1,2,0:0:0:0:
320,192,83452,1,2,0:0:0:0:
64,192,83552,1,2,0:0:0:0:
192,192,83652,1,2,0:0:0:0:
448,192,83652,1,4,0:0:0:0:
64,192,83866,1,2,0:0:0:0:
192,192,83973,1,2,0:0:0:0:
320,192,84080,1,8,0:0:0:0:
448,192,84080,1,4,0:0:0:0:
64,192,84187,1,8,0:0:0:0:
448,192,84294,1,8,0:0:0:0:
64,192,84402,1,8,0:0:0:0:
448,192,84509,1,4,0:0:0:0:
320,192,84509,1,8,0:0:0:0:
192,192,84620,1,8,0:0:0:0:
320,192,84731,1,8,0:0:0:0:
192,192,84842,1,8,0:0:0:0:
64,192,84953,128,0,86731:0:0:0:0:
448,192,84953,128,4,86731:0:0:0:0:
320,192,84953,1,8,0:0:0:0:
64,192,88577,1,0,0:0:0:0:
448,192,88577,1,0,0:0:0:0:
192,192,88753,1,0,0:0:0:0:
320,192,88929,1,0,0:0:0:0:
448,192,89106,1,0,0:0:0:0:
192,192,89988,1,0,0:0:0:0:
448,192,89988,1,0,0:0:0:0:
64,192,90165,1,0,0:0:0:0:
320,192,90341,1,0,0:0:0:0:
192,192,90518,1,0,0:0:0:0:
64,192,90694,1,0,0:0:0:0:
448,192,90694,1,0,0:0:0:0:
320,192,91400,1,0,0:0:0:0:
64,192,91400,1,0,0:0:0:0:
448,192,91577,1,0,0:0:0:0:
64,192,91753,1,0,0:0:0:0:
192,192,91929,1,0,0:0:0:0:
320,192,92106,1,0,0:0:0:0:
448,192,92106,1,0,0:0:0:0:
320,192,92812,1,0,0:0:0:0:
448,192,92812,1,0,0:0:0:0:
192,192,92988,1,0,0:0:0:0:
64,192,93165,1,0,0:0:0:0:
320,192,93341,1,0,0:0:0:0:
192,192,93518,1,0,0:0:0:0:
448,192,93518,1,0,0:0:0:0:
320,192,94224,1,0,0:0:0:0:
64,192,94224,1,0,0:0:0:0:
192,192,94400,1,0,0:0:0:0:
448,192,94577,1,0,0:0:0:0:
320,192,94753,1,0,0:0:0:0:
192,192,94929,1,0,0:0:0:0:
64,192,94929,1,0,0:0:0:0:
192,192,95635,1,0,0:0:0:0:
64,192,95635,1,0,0:0:0:0:
448,192,95812,1,0,0:0:0:0:
320,192,95988,1,0,0:0:0:0:
64,192,96165,1,0,0:0:0:0:
192,192,96341,1,0,0:0:0:0:
448,192,96341,1,0,0:0:0:0:
320,192,97047,1,0,0:0:0:0:
64,192,97047,1,0,0:0:0:0:
448,192,97224,1,0,0:0:0:0:
192,192,97400,1,0,0:0:0:0:
320,192,97577,1,0,0:0:0:0:
448,192,97753,1,0,0:0:0:0:
64,192,97753,1,0,0:0:0:0:
192,192,98459,1,0,0:0:0:0:
64,192,98459,1,0,0:0:0:0:
448,192,98635,1,0,0:0:0:0:
320,192,98812,1,0,0:0:0:0:
64,192,98988,1,0,0:0:0:0:
192,192,99165,1,0,0:0:0:0:
448,192,99871,1,4,0:0:0:0:
320,192,99871,1,2,0:0:0:0:
64,192,99871,1,0,0:0:0:0:
192,192,100047,1,0,0:0:0:0:
320,192,100224,1,0,0:0:0:40:Clap.wav
448,192,100224,1,0,0:0:0:0:
192,192,100400,1,0,0:0:0:0:
320,192,100488,1,0,0:0:0:0:
448,192,100577,1,0,0:0:0:0:
64,192,100577,1,2,0:0:0:0:
192,192,100665,1,0,0:0:0:0:
320,192,100753,1,0,0:0:0:0:
192,192,100929,1,0,0:0:0:40:Clap.wav
64,192,100929,1,0,0:0:0:0:
192,192,101106,1,0,0:0:0:0:
448,192,101106,1,2,0:0:0:0:
64,192,101282,1,0,0:0:0:0:
320,192,101459,1,0,0:0:0:0:
448,192,101459,1,2,0:0:0:0:
192,192,101547,1,0,0:0:0:0:
320,192,101635,1,0,0:0:0:0:
448,192,101812,1,0,0:0:0:40:Clap.wav
64,192,101812,1,0,0:0:0:0:
320,192,101988,1,0,0:0:0:0:
64,192,102076,1,0,0:0:0:40:Clap.wav
448,192,102165,1,0,0:0:0:0:
192,192,102165,1,2,0:0:0:0:
64,192,102341,1,0,0:0:0:0:
448,192,102341,1,0,0:0:0:40:Clap.wav
192,192,102518,1,0,0:0:0:0:
320,192,102606,1,0,0:0:0:40:Clap.wav
64,192,102694,1,0,0:0:0:0:
192,192,102694,1,2,0:0:0:0:
448,192,102782,1,0,0:0:0:0:
320,192,102871,1,0,0:0:0:0:
448,192,103047,1,0,0:0:0:40:Clap.wav
192,192,103047,1,0,0:0:0:0:
320,192,103224,1,0,0:0:0:0:
192,192,103312,1,0,0:0:0:0:
448,192,103400,1,0,0:0:0:0:
64,192,103400,1,2,0:0:0:0:
320,192,103576,1,0,0:0:0:0:
64,192,103753,1,0,0:0:0:40:Clap.wav
192,192,103753,1,0,0:0:0:0:
448,192,103841,1,0,0:0:0:0:
320,192,103929,1,0,0:0:0:0:
64,192,104018,1,0,0:0:0:0:
192,192,104106,1,0,0:0:0:0:
448,192,104106,1,0,0:0:0:40:Clap.wav
320,192,104282,1,0,0:0:0:0:
192,192,104371,1,0,0:0:0:0:
320,192,104459,1,0,0:0:0:0:
64,192,104459,1,2,0:0:0:0:
64,192,104635,1,0,0:0:0:0:
448,192,104635,1,0,0:0:0:40:Clap.wav
192,192,104812,1,0,0:0:0:0:
320,192,104900,1,0,0:0:0:40:Clap.wav
448,192,104988,1,2,0:0:0:0:
192,192,104988,1,0,0:0:0:0:
320,192,105165,1,2,0:0:0:0:
64,192,105253,1,0,0:0:0:40:Clap.wav
320,192,105341,1,2,0:0:0:0:
64,192,105429,1,0,0:0:0:40:Clap.wav
320,192,105518,1,0,0:0:0:0:
448,192,105518,1,2,0:0:0:0:
192,192,105606,1,0,0:0:0:0:
64,192,105694,1,0,0:0:0:0:
192,192,105871,1,0,0:0:0:0:
448,192,105871,1,0,0:0:0:40:Clap.wav
320,192,106047,1,0,0:0:0:0:
192,192,106135,1,0,0:0:0:0:
64,192,106224,1,2,0:0:0:0:
448,192,106224,1,0,0:0:0:0:
320,192,106312,1,0,0:0:0:0:
192,192,106400,1,0,0:0:0:0:
320,192,106576,1,0,0:0:0:0:
64,192,106576,1,0,0:0:0:40:Clap.wav
320,192,106753,1,0,0:0:0:0:
448,192,106753,1,2,0:0:0:0:
192,192,106929,1,0,0:0:0:0:
64,192,107106,1,2,0:0:0:0:
320,192,107106,1,0,0:0:0:0:
448,192,107194,1,0,0:0:0:0:
192,192,107282,1,0,0:0:0:0:
320,192,107371,1,0,0:0:0:0:
448,192,107459,1,0,0:0:0:0:
64,192,107459,1,0,0:0:0:40:Clap.wav
320,192,107635,1,0,0:0:0:0:
448,192,107724,1,0,0:0:0:40:Clap.wav
64,192,107812,1,0,0:0:0:0:
192,192,107812,1,2,0:0:0:0:
448,192,107988,1,0,0:0:0:40:Clap.wav
64,192,107988,1,0,0:0:0:0:
320,192,108165,1,0,0:0:0:0:
192,192,108253,1,0,0:0:0:0:
320,192,108341,1,0,0:0:0:0:
448,192,108341,1,2,0:0:0:0:
64,192,108429,1,0,0:0:0:0:
192,192,108518,1,0,0:0:0:0:
320,192,108694,1,0,0:0:0:0:
64,192,108694,1,0,0:0:0:40:Clap.wav
192,192,108782,1,0,0:0:0:0:
448,192,108871,1,0,0:0:0:0:
320,192,108959,1,0,0:0:0:0:
192,192,109047,1,0,0:0:0:0:
64,192,109047,1,2,0:0:0:0:
320,192,109224,1,0,0:0:0:0:
448,192,109400,1,0,0:0:0:40:Clap.wav
64,192,109400,1,0,0:0:0:0:
192,192,109576,1,0,0:0:0:0:
320,192,109753,1,0,0:0:0:0:
448,192,109753,1,2,0:0:0:0:
64,192,109753,128,0,110635:0:0:0:0:
192,192,109929,1,0,0:0:0:0:
448,192,110106,1,0,0:0:0:0:
320,192,110282,1,0,0:0:0:0:
448,192,110459,1,0,0:0:0:0:
192,192,110635,1,2,0:0:0:0:
320,192,110724,1,2,0:0:0:0:
64,192,110812,1,0,0:0:0:0:
448,192,110812,1,8,0:0:0:0:
320,192,110988,1,2,0:0:0:0:
192,192,111076,1,8,0:0:0:0:
320,192,111165,1,2,0:0:0:0:
64,192,111165,1,4,0:0:0:0:
448,192,111165,128,0,111341:0:0:0:0:
192,192,111341,128,0,111518:0:0:0:0:
320,192,111518,128,0,111694:0:0:0:0:
448,192,111518,1,8,0:0:0:0:
64,192,111694,128,0,111871:0:0:0:0:
192,192,111694,1,2,0:0:0:0:
448,192,111871,128,0,112400:0:0:0:0:
320,192,112047,1,8,0:0:0:0:
192,192,112047,1,0,0:0:0:0:
64,192,112224,1,0,0:0:0:0:
320,192,112400,1,2,0:0:0:0:
192,192,112488,1,0,0:0:0:0:
448,192,112576,1,2,0:0:0:0:
64,192,112576,128,0,113635:0:0:0:0:
320,192,112753,1,0,0:0:0:0:
192,192,112929,1,0,0:0:0:0:
448,192,112929,1,8,0:0:0:0:
320,192,113106,1,2,0:0:0:0:
448,192,113282,1,0,0:0:0:0:
192,192,113459,1,2,0:0:0:0:
320,192,113635,1,8,0:0:0:0:
448,192,113635,128,0,113812:0:0:0:0:
320,192,113812,128,0,113988:0:0:0:0:
192,192,113812,1,2,0:0:0:0:
192,192,113988,128,0,114518:0:0:0:0:
64,192,113988,1,2,0:0:0:0:
448,192,114165,1,0,0:0:0:0:
320,192,114341,1,0,0:0:0:0:
64,192,114341,1,8,0:0:0:0:
320,192,114518,1,2,0:0:0:0:
448,192,114518,128,0,114694:0:0:0:0:
64,192,114694,128,0,114871:0:0:0:0:
192,192,114871,128,0,115047:0:0:0:0:
448,192,114871,1,8,0:0:0:0:
320,192,115047,128,0,115224:0:0:0:0:
448,192,115224,128,0,115400:0:0:0:0:
64,192,115224,1,2,0:0:0:0:
192,192,115400,1,2,0:0:0:0:
64,192,115400,128,0,115929:0:0:0:0:
320,192,115576,1,0,0:0:0:0:
192,192,115753,1,0,0:0:0:0:
448,192,115753,1,8,0:0:0:0:
448,192,115929,1,2,0:0:0:0:
320,192,115929,128,0,116106:0:0:0:0:
192,192,116106,128,0,116635:0:0:0:0:
448,192,116282,1,2,0:0:0:0:
320,192,116371,1,2,0:0:0:0:
448,192,116459,1,0,0:0:0:0:
64,192,116459,1,8,0:0:0:0:
320,192,116635,1,2,0:0:0:0:
64,192,116724,1,8,0:0:0:0:
320,192,116812,1,2,0:0:0:0:
448,192,116812,128,0,117694:0:0:0:0:
64,192,116988,1,0,0:0:0:0:
320,192,117165,1,0,0:0:0:0:
192,192,117165,1,8,0:0:0:0:
64,192,117341,1,2,0:0:0:0:
192,192,117518,1,0,0:0:0:0:
320,192,117694,1,8,0:0:0:0:
64,192,117694,128,0,117871:0:0:0:0:
192,192,117871,128,0,118047:0:0:0:0:
320,192,118047,128,0,118224:0:0:0:0:
448,192,118047,1,2,0:0:0:0:
192,192,118224,1,2,0:0:0:0:
64,192,118224,128,0,118753:0:0:0:0:
448,192,118400,1,0,0:0:0:0:
320,192,118576,1,8,0:0:0:0:
192,192,118576,1,0,0:0:0:0:
448,192,118753,1,2,0:0:0:0:
192,192,118753,128,0,119106:0:0:0:0:
320,192,118929,1,0,0:0:0:0:
448,192,119106,128,0,119282:0:0:0:0:
64,192,119106,1,2,0:0:0:0:
320,192,119282,128,0,119459:0:0:0:0:
192,192,119282,1,8,0:0:0:0:
192,192,119459,128,0,119635:0:0:0:0:
64,192,119459,1,2,0:0:0:0:
320,192,119635,1,2,0:0:0:0:
448,192,119635,128,0,119812:0:0:0:0:
64,192,119812,128,0,119988:0:0:0:0:
192,192,119988,128,0,120165:0:0:0:0:
448,192,119988,1,8,0:0:0:0:
320,192,120165,128,0,120341:0:0:0:0:
64,192,120165,1,2,0:0:0:0:
448,192,120341,128,0,120518:0:0:0:0:
320,192,120518,128,0,120694:0:0:0:0:
64,192,120518,1,8,0:0:0:0:
192,192,120694,128,0,120871:0:0:0:0:
64,192,120871,128,0,121047:0:0:0:0:
448,192,120871,1,2,0:0:0:0:
320,192,121047,1,2,0:0:0:0:
448,192,121047,128,0,121576:0:0:0:0:
192,192,121224,1,0,0:0:0:0:
320,192,121400,1,0,0:0:0:0:
64,192,121400,1,8,0:0:0:0:
192,192,121576,1,2,0:0:0:0:
320,192,121665,1,0,0:0:0:0:
448,192,121753,1,0,0:0:0:0:
64,192,121753,128,0,122459:0:0:0:0:
320,192,121929,1,2,0:0:0:0:
192,192,122018,1,2,0:0:0:0:
320,192,122106,1,0,0:0:0:0:
448,192,122106,1,8,0:0:0:0:
192,192,122282,1,2,0:0:0:0:
320,192,122371,1,8,0:0:0:0:
448,192,122459,1,4,0:0:0:0:
192,192,122459,1,2,0:0:0:0:
320,192,122635,1,0,0:0:0:0:
64,192,122635,1,0,0:0:0:0:
192,192,122812,1,0,0:0:0:0:
448,192,122812,1,8,0:0:0:0:
192,192,122988,1,2,0:0:0:0:
64,192,122988,1,0,0:0:0:0:
320,192,123165,1,0,0:0:0:0:
448,192,123165,1,0,0:0:0:0:
192,192,123341,1,0,0:0:0:0:
64,192,123341,1,8,0:0:0:0:
320,192,123518,1,0,0:0:0:0:
192,192,123518,1,0,0:0:0:0:
64,192,123694,1,2,0:0:0:0:
448,192,123694,1,0,0:0:0:0:
64,192,123871,1,2,0:0:0:0:
448,192,123871,1,0,0:0:0:0:
192,192,124047,1,0,0:0:0:0:
64,192,124224,1,0,0:0:0:0:
320,192,124224,1,8,0:0:0:0:
64,192,124400,1,2,0:0:0:0:
192,192,124400,1,0,0:0:0:0:
320,192,124488,1,0,0:0:0:0:
448,192,124576,1,0,0:0:0:0:
192,192,124576,1,0,0:0:0:0:
320,192,124753,1,0,0:0:0:0:
64,192,124753,1,2,0:0:0:0:
448,192,124929,1,8,0:0:0:0:
64,192,124929,1,0,0:0:0:0:
192,192,125106,1,2,0:0:0:0:
448,192,125106,1,0,0:0:0:0:
64,192,125282,1,0,0:0:0:0:
192,192,125282,1,2,0:0:0:0:
320,192,125459,1,0,0:0:0:0:
448,192,125635,1,8,0:0:0:0:
64,192,125635,1,0,0:0:0:0:
192,192,125812,1,2,0:0:0:0:
448,192,125812,1,0,0:0:0:0:
320,192,125988,1,0,0:0:0:0:
64,192,125988,1,0,0:0:0:0:
192,192,126165,1,0,0:0:0:0:
448,192,126165,1,8,0:0:0:0:
64,192,126341,1,0,0:0:0:0:
448,192,126341,1,0,0:0:0:0:
320,192,126518,1,2,0:0:0:0:
192,192,126518,1,0,0:0:0:0:
320,192,126694,1,2,0:0:0:0:
192,192,126694,1,0,0:0:0:0:
448,192,126871,1,0,0:0:0:0:
192,192,127047,1,0,0:0:0:0:
64,192,127047,1,8,0:0:0:0:
192,192,127224,1,2,0:0:0:0:
448,192,127224,1,0,0:0:0:0:
320,192,127400,1,0,0:0:0:0:
64,192,127400,1,0,0:0:0:0:
192,192,127576,1,2,0:0:0:0:
320,192,127665,1,2,0:0:0:0:
448,192,127753,1,8,0:0:0:0:
64,192,127753,1,0,0:0:0:0:
320,192,127929,1,2,0:0:0:0:
192,192,127929,1,0,0:0:0:0:
448,192,128018,1,8,0:0:0:0:
192,192,128106,1,0,0:0:0:0:
64,192,128106,1,2,0:0:0:0:
320,192,128282,1,0,0:0:0:0:
448,192,128459,1,8,0:0:0:0:
192,192,128459,1,0,0:0:0:0:
64,192,128635,1,2,0:0:0:0:
448,192,128635,1,0,0:0:0:0:
192,192,128812,1,0,0:0:0:0:
320,192,128812,1,0,0:0:0:0:
448,192,128988,1,0,0:0:0:0:
64,192,128988,1,8,0:0:0:0:
320,192,129165,1,0,0:0:0:0:
448,192,129165,1,0,0:0:0:0:
64,192,129341,1,2,0:0:0:0:
192,192,129341,1,0,0:0:0:0:
192,192,129518,1,0,0:0:0:0:
64,192,129518,1,2,0:0:0:0:
448,192,129518,128,0,129694:0:0:0:0:
320,192,129694,128,0,129871:0:0:0:0:
192,192,129871,128,0,130047:0:0:0:0:
448,192,129871,1,8,0:0:0:0:
64,192,130047,128,0,130224:0:0:0:0:
320,192,130047,1,2,0:0:0:0:
448,192,130224,128,0,130400:0:0:0:0:
192,192,130400,128,0,130576:0:0:0:0:
64,192,130400,1,2,0:0:0:0:
320,192,130576,128,0,130753:0:0:0:0:
448,192,130576,1,8,0:0:0:0:
64,192,130753,128,0,130929:0:0:0:0:
192,192,130753,1,2,0:0:0:0:
320,192,130929,1,2,0:0:0:0:
448,192,130929,1,0,0:0:0:0:
192,192,131106,1,0,0:0:0:0:
448,192,131282,1,8,0:0:0:0:
64,192,131282,1,0,0:0:0:0:
64,192,131459,1,0,0:0:0:0:
320,192,131459,1,2,0:0:0:0:
192,192,131635,1,0,0:0:0:0:
448,192,131635,1,0,0:0:0:0:
320,192,131812,1,0,0:0:0:0:
64,192,131812,1,8,0:0:0:0:
320,192,131988,1,0,0:0:0:0:
192,192,131988,1,0,0:0:0:0:
64,192,132165,1,2,0:0:0:0:
448,192,132165,1,0,0:0:0:0:
64,192,132341,1,2,0:0:0:0:
448,192,132341,1,0,0:0:0:0:
192,192,132518,1,0,0:0:0:0:
64,192,132694,1,0,0:0:0:0:
448,192,132694,1,8,0:0:0:0:
192,192,132782,1,0,0:0:0:0:
320,192,132871,1,0,0:0:0:0:
64,192,132871,1,2,0:0:0:0:
448,192,133047,128,0,133753:0:0:0:0:
320,192,133224,1,2,0:0:0:0:
192,192,133312,1,2,0:0:0:0:
320,192,133400,1,0,0:0:0:0:
64,192,133400,1,8,0:0:0:0:
192,192,133576,1,0,0:0:0:0:
64,192,133753,128,4,136576:0:0:0:0:
320,192,133753,1,2,0:0:0:0:
192,192,133753,128,0,135165:0:0:0:0:
448,192,133929,1,0,0:0:0:0:
320,192,134106,1,0,0:0:0:0:
448,192,134282,1,0,0:0:0:0:
320,192,134459,1,0,0:0:0:0:
448,192,134635,1,0,0:0:0:0:
320,192,134812,1,0,0:0:0:0:
448,192,134988,1,0,0:0:0:0:
320,192,135165,1,0,0:0:0:0:
192,192,135341,1,0,0:0:0:0:
320,192,135518,1,0,0:0:0:0:
192,192,135694,1,0,0:0:0:0:
448,192,135871,1,0,0:0:0:0:
320,192,136047,1,0,0:0:0:0:
192,192,136224,1,0,0:0:0:0:
320,192,136400,1,0,0:0:0:0:
448,192,136576,1,0,0:0:0:0:
192,192,136576,1,0,0:0:0:0:
64,192,136753,1,0,0:0:0:0:
192,192,136929,1,0,0:0:0:0:
320,192,137106,1,0,0:0:0:0:
448,192,137282,1,0,0:0:0:0:
64,192,137459,1,0,0:0:0:0:
320,192,137635,1,0,0:0:0:0:
192,192,137812,1,0,0:0:0:0:
448,192,137988,1,0,0:0:0:0:
320,192,138165,1,0,0:0:0:0:
64,192,138341,1,0,0:0:0:0:
192,192,138518,1,0,0:0:0:0:
448,192,138694,1,0,0:0:0:0:
320,192,138871,1,0,0:0:0:0:
192,192,139047,1,0,0:0:0:0:
64,192,139224,1,0,0:0:0:0:
320,192,139400,1,0,0:0:0:0:
448,192,139400,1,0,0:0:0:0:
64,192,139576,1,0,0:0:0:0:
192,192,139753,1,0,0:0:0:0:
320,192,139929,1,0,0:0:0:0:
448,192,140106,1,0,0:0:0:0:
192,192,140282,1,0,0:0:0:0:
64,192,140459,1,0,0:0:0:0:
320,192,140635,1,0,0:0:0:0:
448,192,140812,1,0,0:0:0:0:
192,192,140988,1,0,0:0:0:0:
320,192,141165,1,0,0:0:0:0:
64,192,141341,1,0,0:0:0:0:
448,192,141518,1,0,0:0:0:0:
320,192,141694,1,0,0:0:0:0:
192,192,141871,1,0,0:0:0:0:
64,192,142047,1,0,0:0:0:0:
192,192,142224,1,0,0:0:0:0:
448,192,142224,1,0,0:0:0:0:
320,192,142400,1,0,0:0:0:0:
64,192,142576,1,0,0:0:0:0:
192,192,142753,1,0,0:0:0:0:
448,192,142929,1,0,0:0:0:0:
64,192,143106,1,0,0:0:0:0:
320,192,143282,1,0,0:0:0:0:
192,192,143459,1,0,0:0:0:0:
448,192,143635,1,0,0:0:0:0:
64,192,143812,1,0,0:0:0:0:
192,192,143988,1,0,0:0:0:0:
320,192,144165,1,0,0:0:0:0:
448,192,144341,1,0,0:0:0:0:
64,192,144341,1,0,0:0:0:0:
