osu file format v14

[General]
AudioFilename: audio.mp3
AudioLeadIn: 0
PreviewTime: 45663
Countdown: 0
SampleSet: Soft
StackLeniency: 0.7
Mode: 3
LetterboxInBreaks: 0
SpecialStyle: 0
WidescreenStoryboard: 0

[Editor]
DistanceSpacing: 0.8
BeatDivisor: 4
GridSize: 4
TimelineZoom: 2.1

[Metadata]
Title:Axium Crisis
TitleUnicode:Axium Crisis
Artist:ak+q
ArtistUnicode:ak+q
Creator:Dellvangel
Version:Past
Source:Arcaea
Tags:dnb video game piano violin artcore otoge tairitsu
BeatmapID:1674084
BeatmapSetID:797108

[Difficulty]
HPDrainRate:7.5
CircleSize:4
OverallDifficulty:7
ApproachRate:5
SliderMultiplier:1.4
SliderTickRate:1

[Events]
//Background and Video events
0,0,"BG.jpg",0,0
//Break Periods
//Storyboard Layer 0 (Background)
//Storyboard Layer 1 (Fail)
//Storyboard Layer 2 (Pass)
//Storyboard Layer 3 (Foreground)
//Storyboard Sound Samples

[TimingPoints]
575,352.941176470588,4,2,1,30,1,0
11869,-100,4,2,1,50,0,0
23163,-100,4,2,1,40,0,0
34457,-100,4,2,2,40,0,0
40104,-100,4,2,2,50,0,0
44339,-100,4,2,1,50,0,0
45751,-100,4,2,1,50,0,1
57045,-100,4,2,1,50,0,0
60574,352.941176470588,4,2,1,50,1,0
61985,-100,4,2,1,50,0,1
78926,-100,4,2,1,50,0,0
82103,375,4,2,1,50,1,0
82103,-94.1176470588235,4,2,1,50,0,0
82478,387.096774193548,4,2,1,50,1,0
82478,-91.1577028258888,4,2,1,50,0,0
83252,400,4,2,1,50,1,0
83252,-88.261253309797,4,2,1,50,0,0
83652,428.571428571429,4,2,1,50,1,0
83652,-82.3723228995058,4,2,1,50,0,0
84509,444.444444444444,4,2,1,50,1,0
84509,-79.428117553614,4,2,1,50,0,0
84953,444.444444444444,4,2,1,50,1,0
84953,-79.428117553614,4,2,1,50,0,0
86731,461.538461538462,4,2,1,50,1,0
86731,-76.4525993883792,4,2,1,50,0,0
88577,352.941176470588,4,2,1,30,1,0
99871,-100,4,2,1,40,0,0
111165,-100,4,2,1,50,0,1
133753,-100,4,2,1,40,0,0
135165,-100,4,2,1,35,0,0
136576,-100,4,2,1,30,0,0

[HitObjects]
64,192,575,5,0,0:0:0:0:
192,192,751,1,0,0:0:0:0:
320,192,927,1,0,0:0:0:0:
448,192,1104,1,0,0:0:0:0:
192,192,1457,1,0,0:0:0:0:
448,192,1633,1,0,0:0:0:0:
320,192,1810,1,0,0:0:0:0:
192,192,1986,1,0,0:0:0:0:
64,192,2163,1,0,0:0:0:0:
320,192,2339,1,0,0:0:0:0:
448,192,2516,1,0,0:0:0:0:
320,192,2869,1,0,0:0:0:0:
192,192,3045,1,0,0:0:0:0:
448,192,3398,1,0,0:0:0:0:
64,192,3574,1,0,0:0:0:0:
192,192,3751,1,0,0:0:0:0:
320,192,3927,1,0,0:0:0:0:
448,192,4280,1,0,0:0:0:0:
320,192,4457,1,0,0:0:0:0:
64,192,4633,1,0,0:0:0:0:
192,192,4810,1,0,0:0:0:0:
448,192,4986,1,0,0:0:0:0:
64,192,5163,1,0,0:0:0:0:
320,192,5339,1,0,0:0:0:0:
448,192,5692,1,0,0:0:0:0:
320,192,6222,1,0,0:0:0:0:
448,192,6398,1,0,0:0:0:0:
64,192,6574,1,0,0:0:0:0:
192,192,6751,1,0,0:0:0:0:
320,192,7104,1,0,0:0:0:0:
448,192,7633,1,0,0:0:0:0:
64,192,7810,1,0,0:0:0:0:
320,192,7986,1,0,0:0:0:0:
192,192,8163,1,0,0:0:0:0:
448,192,8339,1,0,0:0:0:0:
320,192,8516,1,0,0:0:0:0:
192,192,8692,1,0,0:0:0:0:
64,192,9045,128,0,10457:0:0:0:0:
448,192,9222,1,0,0:0:0:0:
192,192,9398,1,0,0:0:0:0:
320,192,9574,1,0,0:0:0:0:
448,192,9927,1,0,0:0:0:0:
320,192,10104,1,0,0:0:0:0:
192,192,10280,1,0,0:0:0:0:
448,192,10457,128,0,11516:0:0:0:0:
192,192,10633,1,0,0:0:0:0:
64,192,10810,1,0,0:0:0:0:
320,192,10986,1,0,0:0:0:0:
64,192,11339,1,0,0:0:0:0:
64,192,11869,1,2,0:0:0:0:
448,192,11869,1,4,0:0:0:0:
192,192,12222,1,0,0:0:0:0:
448,192,12222,1,8,0:0:0:0:
64,192,12398,1,2,0:0:0:0:
192,192,12751,1,8,0:0:0:0:
448,192,12927,1,0,0:0:0:50:Clap.wav
320,192,12927,1,0,0:0:0:0:
64,192,13104,1,2,0:0:0:0:
192,192,13280,1,2,0:0:0:0:
448,192,13457,1,2,0:0:0:0:
320,192,13633,1,8,0:0:0:0:
64,192,13633,1,0,0:0:0:0:
192,192,13810,1,2,0:0:0:0:
320,192,14163,1,2,0:0:0:0:
192,192,14339,1,0,0:0:0:0:
448,192,14339,1,8,0:0:0:0:
64,192,14516,1,2,0:0:0:0:
320,192,14692,1,2,0:0:0:0:
448,192,15045,1,8,0:0:0:0:
64,192,15045,1,0,0:0:0:0:
192,192,15222,1,2,0:0:0:0:
448,192,15574,1,8,0:0:0:0:
192,192,15751,1,0,0:0:0:50:Clap.wav
64,192,15751,1,0,0:0:0:0:
320,192,15927,1,2,0:0:0:0:
448,192,16104,1,2,0:0:0:0:
64,192,16104,1,0,0:0:0:0:
320,192,16457,1,8,0:0:0:0:
192,192,16457,1,0,0:0:0:0:
64,192,16633,1,2,0:0:0:0:
448,192,16986,128,2,17516:0:0:0:0:
64,192,17163,1,8,0:0:0:0:
320,192,17339,1,2,0:0:0:0:
192,192,17516,1,2,0:0:0:0:
64,192,17516,1,4,0:0:0:0:
64,192,17869,1,0,0:0:0:0:
448,192,17869,1,8,0:0:0:0:
192,192,18045,1,2,0:0:0:0:
320,192,18398,1,8,0:0:0:0:
64,192,18574,1,0,0:0:0:50:Clap.wav
192,192,18574,1,0,0:0:0:0:
448,192,18751,1,2,0:0:0:0:
320,192,18927,1,2,0:0:0:0:
64,192,19104,1,2,0:0:0:0:
192,192,19280,1,0,0:0:0:0:
448,192,19280,1,8,0:0:0:0:
320,192,19457,1,2,0:0:0:0:
448,192,19810,1,2,0:0:0:0:
64,192,19986,1,0,0:0:0:0:
320,192,19986,1,8,0:0:0:0:
192,192,20163,1,2,0:0:0:0:
448,192,20339,128,2,20692:0:0:0:0:
320,192,20692,128,8,21045:0:0:0:0:
64,192,20869,1,2,0:0:0:0:
192,192,21045,128,0,21398:0:0:0:0:
448,192,21222,1,8,0:0:0:0:
64,192,21398,128,0,21751:0:0:0:50:Clap.wav
320,192,21574,1,2,0:0:0:0:
448,192,21751,1,2,0:0:0:0:
192,192,21927,1,8,0:0:0:0:
64,192,21927,1,0,0:0:0:0:
448,192,22104,128,8,22457:0:0:0:0:
320,192,22280,128,8,22457:0:0:0:0:
64,192,22457,128,2,22810:0:0:0:0:
192,192,22810,128,0,23163:0:0:0:0:
320,192,23163,1,2,0:0:0:0:
448,192,23163,128,4,25280:0:0:0:0:
64,192,23516,1,0,0:0:0:0:
320,192,23692,1,0,0:0:0:0:
192,192,24045,1,0,0:0:0:0:
320,192,24222,1,0,0:0:0:0:
64,192,24574,1,0,0:0:0:0:
192,192,24751,1,0,0:0:0:0:
64,192,25104,1,0,0:0:0:0:
320,192,25280,1,0,0:0:0:0:
192,192,25457,1,0,0:0:0:0:
448,192,25633,1,0,0:0:0:0:
320,192,25810,1,0,0:0:0:0:
192,192,25986,128,0,26869:0:0:0:0:
64,192,26339,1,0,0:0:0:0:
448,192,26516,1,0,0:0:0:0:
320,192,26869,128,0,27398:0:0:0:0:
64,192,27045,1,0,0:0:0:0:
64,192,27398,128,0,28810:0:0:0:0:
448,192,27574,1,0,0:0:0:0:
192,192,27927,1,0,0:0:0:0:
448,192,28104,1,0,0:0:0:0:
320,192,28457,1,0,0:0:0:0:
192,192,28633,1,0,0:0:0:0:
448,192,28810,128,0,30574:0:0:0:0:
192,192,29163,1,0,0:0:0:0:
320,192,29339,1,0,0:0:0:0:
64,192,29692,1,0,0:0:0:0:
320,192,29869,1,0,0:0:0:0:
64,192,30222,1,0,0:0:0:0:
192,192,30398,1,0,0:0:0:0:
320,192,30574,1,0,0:0:0:0:
64,192,30751,1,0,0:0:0:0:
448,192,30927,1,0,0:0:0:0:
192,192,31104,1,0,0:0:0:0:
448,192,31280,1,0,0:0:0:0:
64,192,31457,1,0,0:0:0:0:
320,192,31633,128,0,32339:0:0:0:0:
192,192,31810,1,0,0:0:0:0:
448,192,32163,1,0,0:0:0:0:
64,192,32339,128,0,33045:0:0:0:0:
448,192,32692,1,0,0:0:0:0:
320,192,32869,1,0,0:0:0:0:
192,192,33045,128,0,33574:0:0:0:0:
320,192,33398,1,0,0:0:0:0:
448,192,33574,128,0,34457:0:0:0:0:
64,192,33927,1,0,0:0:0:0:
320,192,34104,1,0,0:0:0:0:
64,192,34457,1,0,0:0:0:0:
320,192,34633,1,0,0:0:0:0:
192,192,34810,1,0,0:0:0:0:
64,192,34810,1,0,0:0:0:0:
320,192,34986,1,0,0:0:0:0:
64,192,35339,1,0,0:0:0:0:
320,192,35516,1,0,0:0:0:0:
448,192,35516,1,0,0:0:0:0:
64,192,35692,1,0,0:0:0:0:
448,192,36045,1,0,0:0:0:0:
64,192,36222,1,0,0:0:0:0:
192,192,36222,1,0,0:0:0:0:
448,192,36398,1,0,0:0:0:0:
192,192,36751,1,0,0:0:0:0:
448,192,36927,1,0,0:0:0:0:
320,192,36927,1,0,0:0:0:0:
192,192,37104,1,0,0:0:0:0:
320,192,37457,1,0,0:0:0:0:
320,192,37633,1,0,0:0:0:0:
448,192,37810,1,0,0:0:0:0:
64,192,37810,1,0,0:0:0:0:
192,192,38163,1,0,0:0:0:0:
192,192,38516,1,0,0:0:0:0:
64,192,38869,1,0,0:0:0:0:
448,192,39045,1,0,0:0:0:0:
320,192,39045,1,0,0:0:0:0:
64,192,39222,1,0,0:0:0:0:
320,192,39574,1,0,0:0:0:0:
64,192,39751,1,0,0:0:0:0:
192,192,39751,1,0,0:0:0:0:
320,192,39927,1,0,0:0:0:0:
448,192,40104,1,0,0:0:0:0:
64,192,40280,1,0,0:0:0:0:
320,192,40457,1,0,0:0:0:0:
448,192,40457,1,0,0:0:0:0:
64,192,40633,1,0,0:0:0:0:
192,192,40810,1,0,0:0:0:0:
448,192,40986,1,0,0:0:0:0:
192,192,41163,1,0,0:0:0:0:
64,192,41163,1,0,0:0:0:0:
448,192,41339,1,0,0:0:0:0:
320,192,41516,1,0,0:0:0:0:
64,192,41692,1,0,0:0:0:0:
192,192,41869,1,0,0:0:0:0:
320,192,41869,1,0,0:0:0:0:
448,192,42045,1,0,0:0:0:0:
192,192,42222,1,0,0:0:0:0:
64,192,42222,1,0,0:0:0:0:
320,192,42398,1,0,0:0:0:0:
64,192,42574,1,0,0:0:0:0:
448,192,42574,1,0,0:0:0:0:
192,192,42751,1,0,0:0:0:0:
448,192,42927,128,0,44339:0:0:0:0:
64,192,43104,1,0,0:0:0:0:
320,192,43280,1,0,0:0:0:0:
192,192,43457,1,0,0:0:0:0:
64,192,43633,1,0,0:0:0:0:
192,192,43810,1,0,0:0:0:0:
320,192,43986,1,0,0:0:0:0:
192,192,44163,1,0,0:0:0:0:
64,192,44339,128,0,44516:0:0:0:0:
320,192,44339,1,2,0:0:0:0:
192,192,44516,128,2,44692:0:0:0:0:
448,192,44692,128,0,44869:0:0:0:0:
320,192,44692,1,2,0:0:0:0:
64,192,44869,128,2,45045:0:0:0:0:
320,192,45045,128,0,45222:0:0:0:0:
192,192,45045,1,2,0:0:0:0:
448,192,45222,128,2,45398:0:0:0:0:
64,192,45398,128,0,45751:0:0:0:0:
192,192,45398,128,0,45751:0:0:0:0:
320,192,45751,1,2,0:0:0:0:
448,192,45751,1,4,0:0:0:0:
192,192,46104,1,0,0:0:0:50:Edge.wav
64,192,46280,1,2,0:0:0:0:
448,192,46280,1,4,0:0:0:0:
320,192,46633,1,0,0:0:0:50:Edge.wav
192,192,46810,1,2,0:0:0:0:
448,192,46810,1,4,0:0:0:0:
64,192,47163,1,0,0:0:0:50:Edge.wav
320,192,47339,1,2,0:0:0:0:
448,192,47339,1,4,0:0:0:0:
192,192,47692,1,0,0:0:0:50:Edge.wav
64,192,47869,1,2,0:0:0:0:
320,192,47869,1,4,0:0:0:0:
192,192,48222,1,2,0:0:0:0:
448,192,48222,1,4,0:0:0:0:
64,192,48574,1,2,0:0:0:0:
448,192,48574,1,4,0:0:0:0:
192,192,48927,1,0,0:0:0:50:Edge.wav
320,192,49104,1,2,0:0:0:0:
448,192,49104,1,4,0:0:0:0:
448,192,49457,1,0,0:0:0:50:Edge.wav
192,192,49633,1,2,0:0:0:0:
64,192,49633,1,4,0:0:0:0:
320,192,49986,1,0,0:0:0:50:Edge.wav
64,192,50163,1,2,0:0:0:0:
448,192,50163,1,4,0:0:0:0:
192,192,50516,1,0,0:0:0:50:Edge.wav
320,192,50692,128,6,50869:0:0:0:0:
192,192,50869,128,2,51045:0:0:0:0:
448,192,51045,128,6,51222:0:0:0:0:
64,192,51222,128,2,51398:0:0:0:0:
192,192,51398,1,2,0:0:0:0:
320,192,51398,1,4,0:0:0:0:
448,192,51574,128,2,51927:0:0:0:0:
192,192,51751,1,0,0:0:0:50:Edge.wav
64,192,51927,1,4,0:0:0:0:
320,192,51927,1,2,0:0:0:0:
192,192,52104,128,0,52457:0:0:0:0:
320,192,52280,1,0,0:0:0:50:Edge.wav
64,192,52457,1,2,0:0:0:0:
448,192,52457,1,4,0:0:0:0:
320,192,52633,128,2,52986:0:0:0:0:
64,192,52810,1,2,0:0:0:0:
192,192,52986,1,2,0:0:0:0:
448,192,52986,1,4,0:0:0:0:
64,192,53163,128,0,53516:0:0:0:0:
320,192,53339,1,0,0:0:0:50:Edge.wav
448,192,53516,128,6,53692:0:0:0:0:
192,192,53692,128,0,53869:0:0:0:50:Edge.wav
320,192,53869,128,6,54045:0:0:0:0:
64,192,54045,128,0,54222:0:0:0:50:Edge.wav
448,192,54222,1,4,0:0:0:0:
320,192,54222,1,2,0:0:0:0:
192,192,54398,128,2,54751:0:0:0:0:
320,192,54574,1,2,0:0:0:0:
448,192,54751,1,2,0:0:0:0:
64,192,54751,1,4,0:0:0:0:
320,192,54927,128,0,55280:0:0:0:0:
64,192,55104,1,0,0:0:0:50:Edge.wav
448,192,55280,1,4,0:0:0:0:
192,192,55280,1,2,0:0:0:0:
64,192,55457,128,0,55810:0:0:0:0:
448,192,55633,1,2,0:0:0:0:
320,192,55810,1,2,0:0:0:0:
192,192,55810,1,4,0:0:0:0:
448,192,55986,128,0,56339:0:0:0:0:
320,192,56163,1,2,0:0:0:0:
64,192,56339,128,6,56516:0:0:0:0:
192,192,56516,128,2,56692:0:0:0:0:
448,192,56692,128,6,56869:0:0:0:0:
320,192,56869,128,2,57045:0:0:0:0:
64,192,57045,1,2,0:0:0:0:
192,192,57045,1,0,0:0:0:0:
448,192,57222,1,2,0:0:0:0:
64,192,57398,128,2,57751:0:0:0:0:
320,192,57751,1,2,0:0:0:0:
448,192,57927,128,2,58280:0:0:0:0:
192,192,58280,1,2,0:0:0:0:
64,192,58457,128,2,58810:0:0:0:0:
320,192,58810,128,2,58986:0:0:0:0:
192,192,58986,128,2,59163:0:0:0:0:
448,192,59163,128,4,60574:0:0:0:0:
64,192,59163,1,2,0:0:0:0:
320,192,59869,128,0,60574:0:0:0:0:
192,192,60574,1,0,0:0:0:0:
64,192,60574,1,2,0:0:0:0:
64,192,61985,1,2,0:0:0:0:
448,192,61985,1,4,0:0:0:0:
320,192,62338,1,8,0:0:0:0:
192,192,62338,1,0,0:0:0:0:
64,192,62515,1,0,0:0:0:0:
448,192,62691,1,2,0:0:0:0:
64,192,62868,128,0,63397:0:0:0:0:
320,192,63044,1,8,0:0:0:0:
192,192,63221,1,0,0:0:0:0:
448,192,63397,1,2,0:0:0:0:
192,192,63574,1,0,0:0:0:0:
448,192,63750,1,8,0:0:0:0:
64,192,63750,1,0,0:0:0:0:
320,192,63926,1,0,0:0:0:0:
192,192,64103,1,2,0:0:0:0:
448,192,64279,128,0,64809:0:0:0:0:
64,192,64456,1,8,0:0:0:0:
320,192,64632,1,0,0:0:0:0:
192,192,64809,1,2,0:0:0:0:
192,192,64985,1,0,0:0:0:0:
320,192,65162,128,0,65515:0:0:0:0:
64,192,65162,1,8,0:0:0:0:
448,192,65338,1,0,0:0:0:0:
192,192,65515,1,2,0:0:0:0:
64,192,65691,1,2,0:0:0:0:
320,192,65868,1,2,0:0:0:0:
192,192,66044,1,2,0:0:0:0:
64,192,66221,1,2,0:0:0:0:
448,192,66221,1,4,0:0:0:0:
192,192,66574,1,8,0:0:0:0:
320,192,66574,1,0,0:0:0:0:
448,192,66750,1,0,0:0:0:0:
64,192,66926,1,2,0:0:0:0:
320,192,67103,1,0,0:0:0:0:
192,192,67279,1,0,0:0:0:0:
448,192,67279,1,8,0:0:0:0:
64,192,67456,1,0,0:0:0:0:
448,192,67632,1,2,0:0:0:0:
192,192,67809,1,0,0:0:0:0:
448,192,67985,128,0,68338:0:0:0:0:
320,192,67985,1,8,0:0:0:0:
64,192,68162,1,0,0:0:0:0:
192,192,68338,128,2,68515:0:0:0:0:
320,192,68515,128,0,68691:0:0:0:0:
64,192,68691,128,8,68868:0:0:0:0:
448,192,68868,128,0,69044:0:0:0:0:
320,192,69044,1,2,0:0:0:0:
192,192,69221,128,2,69397:0:0:0:0:
320,192,69397,128,6,69574:0:0:0:0:
64,192,69574,128,2,69750:0:0:0:0:
448,192,69750,1,2,0:0:0:0:
320,192,69926,128,2,70103:0:0:0:0:
192,192,70103,128,6,70279:0:0:0:0:
448,192,70279,128,2,70456:0:0:0:0:
64,192,70456,128,4,71162:0:0:0:0:
320,192,70456,1,2,0:0:0:0:
192,192,70632,1,0,0:0:0:0:
448,192,70809,1,8,0:0:0:0:
320,192,70985,1,0,0:0:0:0:
192,192,71162,128,2,71868:0:0:0:0:
448,192,71338,1,0,0:0:0:0:
64,192,71515,1,8,0:0:0:0:
448,192,71691,1,0,0:0:0:0:
320,192,71868,128,2,72574:0:0:0:0:
64,192,72044,1,0,0:0:0:0:
448,192,72221,1,8,0:0:0:0:
192,192,72397,1,0,0:0:0:0:
448,192,72574,128,2,73279:0:0:0:0:
64,192,72750,1,0,0:0:0:0:
320,192,72926,1,8,0:0:0:0:
64,192,73103,1,0,0:0:0:0:
192,192,73279,128,2,73985:0:0:0:0:
320,192,73456,1,0,0:0:0:0:
448,192,73632,1,8,0:0:0:0:
64,192,73809,1,0,0:0:0:0:
320,192,73985,128,8,74691:0:0:0:0:
448,192,74162,1,8,0:0:0:0:
64,192,74338,1,2,0:0:0:0:
192,192,74515,1,8,0:0:0:0:
64,192,74691,1,2,0:0:0:0:
448,192,74691,1,4,0:0:0:0:
320,192,74868,1,0,0:0:0:0:
192,192,75044,128,8,75221:0:0:0:0:
448,192,75221,128,0,75397:0:0:0:0:
64,192,75397,128,2,75573:0:0:0:0:
192,192,75573,128,0,75750:0:0:0:0:
320,192,75750,128,8,75926:0:0:0:0:
192,192,75926,128,0,76103:0:0:0:0:
448,192,76103,128,2,76279:0:0:0:0:
320,192,76279,128,0,76456:0:0:0:0:
64,192,76456,128,8,76632:0:0:0:0:
192,192,76632,128,0,76809:0:0:0:0:
448,192,76809,128,2,76985:0:0:0:0:
64,192,76985,128,0,77162:0:0:0:0:
320,192,77162,128,8,77338:0:0:0:0:
192,192,77338,128,0,77515:0:0:0:0:
448,192,77515,128,2,77691:0:0:0:0:
320,192,77691,128,2,77868:0:0:0:0:
64,192,77868,128,8,78044:0:0:0:0:
448,192,78044,128,2,78221:0:0:0:0:
320,192,78221,1,4,0:0:0:0:
192,192,78221,1,2,0:0:0:0:
192,192,78573,1,2,0:0:0:0:
64,192,78573,1,4,0:0:0:0:
448,192,78926,1,4,0:0:0:0:
320,192,78926,1,2,0:0:0:0:
192,192,79279,128,2,79632:0:0:0:0:
320,192,79456,1,2,0:0:0:0:
64,192,79632,1,2,0:0:0:0:
448,192,79632,1,4,0:0:0:0:
64,192,79985,1,4,0:0:0:0:
320,192,79985,1,2,0:0:0:0:
192,192,80338,1,2,0:0:0:0:
448,192,80338,1,4,0:0:0:0:
320,192,80691,128,2,81044:0:0:0:0:
192,192,80868,1,2,0:0:0:0:
64,192,81044,1,2,0:0:0:0:
448,192,81044,1,4,0:0:0:0:
192,192,81397,1,2,0:0:0:0:
64,192,81397,1,4,0:0:0:0:
320,192,81750,1,2,0:0:0:0:
448,192,81750,1,4,0:0:0:0:
192,192,81926,1,2,0:0:0:0:
448,192,82103,1,4,0:0:0:0:
64,192,82103,1,2,0:0:0:0:
320,192,82290,1,2,0:0:0:0:
192,192,82478,1,2,0:0:0:0:
64,192,82478,1,4,0:0:0:0:
320,192,82671,1,2,0:0:0:0:
448,192,82865,1,4,0:0:0:0:
64,192,82865,1,2,0:0:0:0:
192,192,83058,1,2,0:0:0:0:
320,192,83252,1,2,0:0:0:0:
64,192,83252,1,4,0:0:0:0:
448,192,83452,1,2,0:0:0:0:
320,192,83652,1,2,0:0:0:0:
192,192,83652,1,4,0:0:0:0:
64,192,83866,1,2,0:0:0:0:
320,192,84080,1,8,0:0:0:0:
448,192,84080,128,4,84294:0:0:0:0:
64,192,84294,128,8,84509:0:0:0:0:
192,192,84509,128,4,84731:0:0:0:0:
448,192,84509,1,8,0:0:0:0:
320,192,84731,128,8,84953:0:0:0:0:
448,192,84953,128,4,86731:0:0:0:0:
64,192,84953,128,8,86730:0:0:0:0:
64,192,88577,1,0,0:0:0:0:
192,192,88753,1,0,0:0:0:0:
320,192,88929,1,0,0:0:0:0:
448,192,89106,1,0,0:0:0:0:
448,192,89988,1,0,0:0:0:0:
64,192,90165,1,0,0:0:0:0:
320,192,90341,1,0,0:0:0:0:
192,192,90518,1,0,0:0:0:0:
448,192,90694,1,0,0:0:0:0:
320,192,91400,1,0,0:0:0:0:
192,192,91577,1,0,0:0:0:0:
64,192,91753,1,0,0:0:0:0:
320,192,91929,1,0,0:0:0:0:
448,192,92106,1,0,0:0:0:0:
448,192,92812,1,0,0:0:0:0:
320,192,92988,1,0,0:0:0:0:
64,192,93165,1,0,0:0:0:0:
192,192,93341,1,0,0:0:0:0:
448,192,93518,1,0,0:0:0:0:
192,192,94224,1,0,0:0:0:0:
448,192,94400,1,0,0:0:0:0:
64,192,94577,1,0,0:0:0:0:
192,192,94753,1,0,0:0:0:0:
320,192,94929,1,0,0:0:0:0:
320,192,95635,1,0,0:0:0:0:
64,192,95812,1,0,0:0:0:0:
192,192,95988,1,0,0:0:0:0:
448,192,96165,1,0,0:0:0:0:
320,192,96341,1,0,0:0:0:0:
64,192,97047,1,0,0:0:0:0:
448,192,97224,1,0,0:0:0:0:
320,192,97400,1,0,0:0:0:0:
64,192,97577,1,0,0:0:0:0:
192,192,97753,1,0,0:0:0:0:
64,192,98459,1,0,0:0:0:0:
448,192,98635,1,0,0:0:0:0:
192,192,98812,1,0,0:0:0:0:
320,192,98988,1,0,0:0:0:0:
448,192,99165,1,0,0:0:0:0:
64,192,99871,1,2,0:0:0:0:
448,192,99871,1,4,0:0:0:0:
320,192,100047,1,0,0:0:0:0:
64,192,100224,1,0,0:0:0:0:
192,192,100224,1,0,0:0:0:40:Clap.wav
448,192,100400,1,0,0:0:0:0:
320,192,100577,1,2,0:0:0:0:
192,192,100929,1,0,0:0:0:0:
448,192,100929,1,0,0:0:0:40:Clap.wav
64,192,101106,1,2,0:0:0:0:
320,192,101282,1,0,0:0:0:0:
448,192,101459,1,2,0:0:0:0:
64,192,101635,1,0,0:0:0:0:
448,192,101812,1,0,0:0:0:0:
320,192,101812,1,0,0:0:0:40:Clap.wav
192,192,101988,1,0,0:0:0:0:
448,192,102165,1,2,0:0:0:0:
64,192,102341,1,0,0:0:0:0:
320,192,102341,1,0,0:0:0:40:Clap.wav
64,192,102694,1,2,0:0:0:0:
448,192,102694,1,0,0:0:0:0:
320,192,102871,1,0,0:0:0:0:
448,192,103047,1,0,0:0:0:0:
192,192,103047,1,0,0:0:0:40:Clap.wav
64,192,103224,1,0,0:0:0:0:
320,192,103400,1,2,0:0:0:0:
192,192,103753,1,0,0:0:0:0:
64,192,103753,1,0,0:0:0:40:Clap.wav
192,192,104106,1,0,0:0:0:0:
64,192,104106,1,0,0:0:0:40:Clap.wav
448,192,104282,1,0,0:0:0:0:
192,192,104459,1,2,0:0:0:0:
320,192,104635,1,0,0:0:0:0:
448,192,104635,1,0,0:0:0:40:Clap.wav
64,192,104812,1,0,0:0:0:0:
192,192,104988,1,2,0:0:0:0:
448,192,105165,128,2,105518:0:0:0:0:
320,192,105341,1,2,0:0:0:0:
192,192,105518,1,0,0:0:0:0:
64,192,105518,1,2,0:0:0:0:
320,192,105694,1,0,0:0:0:0:
64,192,105871,1,0,0:0:0:0:
448,192,105871,1,0,0:0:0:40:Clap.wav
192,192,106047,1,0,0:0:0:0:
320,192,106224,1,2,0:0:0:0:
192,192,106576,1,0,0:0:0:0:
448,192,106576,1,0,0:0:0:40:Clap.wav
64,192,106753,1,2,0:0:0:0:
320,192,106929,1,0,0:0:0:0:
192,192,107106,1,2,0:0:0:0:
448,192,107282,1,0,0:0:0:0:
320,192,107459,1,0,0:0:0:0:
64,192,107459,1,0,0:0:0:40:Clap.wav
192,192,107635,1,0,0:0:0:0:
320,192,107812,1,2,0:0:0:0:
448,192,107988,1,0,0:0:0:40:Clap.wav
64,192,107988,1,0,0:0:0:0:
192,192,108341,1,2,0:0:0:0:
448,192,108518,1,0,0:0:0:0:
320,192,108694,1,0,0:0:0:0:
64,192,108694,1,0,0:0:0:40:Clap.wav
192,192,108871,1,0,0:0:0:0:
448,192,109047,1,2,0:0:0:0:
320,192,109400,1,0,0:0:0:40:Clap.wav
192,192,109400,1,0,0:0:0:0:
448,192,109753,1,2,0:0:0:0:
64,192,109753,128,0,110812:0:0:0:0:
192,192,110106,1,0,0:0:0:0:
320,192,110282,1,0,0:0:0:0:
448,192,110459,1,0,0:0:0:0:
320,192,110635,1,2,0:0:0:0:
192,192,110812,1,0,0:0:0:0:
448,192,110812,1,8,0:0:0:0:
64,192,110988,1,2,0:0:0:0:
320,192,111165,1,2,0:0:0:0:
448,192,111165,128,4,111341:0:0:0:0:
192,192,111341,128,0,111518:0:0:0:0:
320,192,111518,128,8,111694:0:0:0:0:
64,192,111694,128,2,111871:0:0:0:0:
448,192,111871,128,0,112400:0:0:0:0:
192,192,112047,1,8,0:0:0:0:
320,192,112400,1,2,0:0:0:0:
64,192,112576,128,2,113635:0:0:0:0:
448,192,112929,1,8,0:0:0:0:
320,192,113106,1,2,0:0:0:0:
192,192,113459,1,2,0:0:0:0:
448,192,113635,128,8,113812:0:0:0:0:
320,192,113812,128,2,113988:0:0:0:0:
192,192,113988,128,2,114518:0:0:0:0:
320,192,114341,1,8,0:0:0:0:
448,192,114518,128,2,114694:0:0:0:0:
64,192,114694,128,0,114871:0:0:0:0:
192,192,114871,128,8,115047:0:0:0:0:
320,192,115047,128,0,115224:0:0:0:0:
448,192,115224,128,2,115400:0:0:0:0:
64,192,115400,128,2,115929:0:0:0:0:
448,192,115753,1,8,0:0:0:0:
320,192,115929,128,2,116106:0:0:0:0:
192,192,116106,128,0,116635:0:0:0:0:
448,192,116282,1,2,0:0:0:0:
64,192,116459,1,8,0:0:0:0:
320,192,116635,1,2,0:0:0:0:
64,192,116812,128,2,117694:0:0:0:0:
448,192,117165,1,8,0:0:0:0:
192,192,117341,1,2,0:0:0:0:
448,192,117694,128,8,117871:0:0:0:0:
192,192,117871,128,0,118047:0:0:0:0:
320,192,118047,128,2,118224:0:0:0:0:
64,192,118224,128,2,118753:0:0:0:0:
448,192,118576,1,8,0:0:0:0:
192,192,118753,128,2,119106:0:0:0:0:
448,192,119106,128,2,119282:0:0:0:0:
320,192,119282,128,8,119459:0:0:0:0:
192,192,119459,128,2,119635:0:0:0:0:
448,192,119635,128,2,119812:0:0:0:0:
64,192,119812,128,0,119988:0:0:0:0:
192,192,119988,128,8,120165:0:0:0:0:
320,192,120165,128,2,120341:0:0:0:0:
448,192,120341,128,0,120518:0:0:0:0:
192,192,120518,128,8,120694:0:0:0:0:
64,192,120694,128,0,120871:0:0:0:0:
320,192,120871,128,2,121047:0:0:0:0:
448,192,121047,128,2,121576:0:0:0:0:
192,192,121400,1,8,0:0:0:0:
320,192,121576,1,2,0:0:0:0:
64,192,121753,128,0,122459:0:0:0:0:
192,192,121929,1,2,0:0:0:0:
448,192,122106,1,8,0:0:0:0:
192,192,122282,1,2,0:0:0:0:
448,192,122459,1,4,0:0:0:0:
320,192,122459,1,2,0:0:0:0:
192,192,122635,1,0,0:0:0:0:
448,192,122812,1,0,0:0:0:0:
64,192,122812,1,8,0:0:0:0:
320,192,122988,1,2,0:0:0:0:
192,192,123165,1,0,0:0:0:0:
320,192,123341,1,0,0:0:0:0:
448,192,123341,1,8,0:0:0:0:
64,192,123518,1,0,0:0:0:0:
192,192,123694,1,2,0:0:0:0:
320,192,123871,1,2,0:0:0:0:
448,192,124224,1,8,0:0:0:0:
192,192,124224,1,0,0:0:0:0:
64,192,124400,1,2,0:0:0:0:
320,192,124576,1,0,0:0:0:0:
192,192,124753,1,2,0:0:0:0:
320,192,124929,1,8,0:0:0:0:
64,192,124929,1,0,0:0:0:0:
448,192,125106,1,2,0:0:0:0:
192,192,125282,1,2,0:0:0:0:
320,192,125635,1,0,0:0:0:0:
448,192,125635,1,8,0:0:0:0:
64,192,125812,1,2,0:0:0:0:
192,192,125988,1,0,0:0:0:0:
320,192,126165,1,8,0:0:0:0:
64,192,126341,1,0,0:0:0:0:
448,192,126518,1,2,0:0:0:0:
192,192,126694,1,2,0:0:0:0:
448,192,127047,1,8,0:0:0:0:
320,192,127047,1,0,0:0:0:0:
64,192,127224,1,2,0:0:0:0:
448,192,127400,1,0,0:0:0:0:
320,192,127576,1,2,0:0:0:0:
192,192,127753,1,8,0:0:0:0:
64,192,127753,1,0,0:0:0:0:
448,192,127929,1,2,0:0:0:0:
64,192,128106,1,2,0:0:0:0:
192,192,128459,1,0,0:0:0:0:
448,192,128459,1,8,0:0:0:0:
320,192,128635,1,2,0:0:0:0:
64,192,128812,1,0,0:0:0:0:
320,192,128988,1,0,0:0:0:0:
448,192,128988,1,8,0:0:0:0:
192,192,129165,1,0,0:0:0:0:
64,192,129341,1,2,0:0:0:0:
448,192,129518,128,2,129694:0:0:0:0:
320,192,129694,128,0,129871:0:0:0:0:
192,192,129871,128,8,130047:0:0:0:0:
64,192,130047,128,2,130224:0:0:0:0:
448,192,130224,128,0,130400:0:0:0:0:
192,192,130400,128,2,130576:0:0:0:0:
320,192,130576,128,8,130753:0:0:0:0:
64,192,130753,128,2,130929:0:0:0:0:
448,192,130929,1,2,0:0:0:0:
320,192,131282,1,8,0:0:0:0:
64,192,131282,1,0,0:0:0:0:
448,192,131459,1,2,0:0:0:0:
192,192,131635,1,0,0:0:0:0:
320,192,131812,1,8,0:0:0:0:
448,192,131812,1,0,0:0:0:0:
64,192,131988,1,0,0:0:0:0:
192,192,132165,1,2,0:0:0:0:
320,192,132341,1,2,0:0:0:0:
192,192,132694,1,0,0:0:0:0:
448,192,132694,1,8,0:0:0:0:
64,192,132871,1,2,0:0:0:0:
448,192,133047,128,0,133753:0:0:0:0:
192,192,133224,1,2,0:0:0:0:
320,192,133400,1,8,0:0:0:0:
192,192,133753,1,2,0:0:0:0:
64,192,133753,128,4,135165:0:0:0:0:
448,192,134459,1,0,0:0:0:0:
320,192,135165,1,0,0:0:0:0:
448,192,135871,1,0,0:0:0:0:
192,192,136047,1,0,0:0:0:0:
320,192,136224,1,0,0:0:0:0:
64,192,136400,1,0,0:0:0:0:
448,192,136576,1,0,0:0:0:0:
320,192,137282,1,0,0:0:0:0:
64,192,137988,1,0,0:0:0:0:
448,192,138694,1,0,0:0:0:0:
320,192,138871,1,0,0:0:0:0:
192,192,139047,1,0,0:0:0:0:
64,192,139224,1,0,0:0:0:0:
448,192,139400,1,0,0:0:0:0:
320,192,140106,1,0,0:0:0:0:
192,192,140812,1,0,0:0:0:0:
448,192,141518,1,0,0:0:0:0:
64,192,141694,1,0,0:0:0:0:
320,192,141871,1,0,0:0:0:0:
192,192,142047,1,0,0:0:0:0:
448,192,142224,1,0,0:0:0:0:
192,192,142929,1,0,0:0:0:0:
320,192,143635,1,0,0:0:0:0:
448,192,144341,1,0,0:0:0:0:
64,192,144341,1,0,0:0:0:0:
