osu file format v14

[General]
AudioFilename: audio.mp3
AudioLeadIn: 0
PreviewTime: 54581
Countdown: 0
SampleSet: Soft
StackLeniency: 0.7
Mode: 0
LetterboxInBreaks: 0
WidescreenStoryboard: 0

[Editor]
Bookmarks: 27895,50221,55802,76732,89290,97663,100453,111616,128360,133942,145104,156267,157663,178593,189756
DistanceSpacing: 0.8
BeatDivisor: 4
GridSize: 16
TimelineZoom: 3.599998

[Metadata]
Title:Enigma Helix
TitleUnicode:Enigma Helix
Artist:ak+q & Redeilia
ArtistUnicode:ak+q & Redeilia
Creator:Icekalt
Version:Pure Void
Source:
Tags:artcore shiirn halfslashed celektus yaspo
BeatmapID:1814107
BeatmapSetID:867825

[Difficulty]
HPDrainRate:5.6
CircleSize:4.1
OverallDifficulty:9.1
ApproachRate:9.5
SliderMultiplier:2
SliderTickRate:1

[Events]
//Background and Video events
0,0,"res.jpg",0,0
//Break Periods
2,100653,110221
//Storyboard Layer 0 (Background)
//Storyboard Layer 1 (Fail)
//Storyboard Layer 2 (Pass)
//Storyboard Layer 3 (Foreground)
//Storyboard Sound Samples

[TimingPoints]
5570,348.837209302326,4,2,1,55,1,0
27895,-125,4,2,1,55,0,0
29290,-90.9090909090909,4,2,1,55,0,0
29552,-90.9090909090909,4,2,1,20,0,0
29639,-90.9090909090909,4,2,1,55,0,0
29901,-90.9090909090909,4,2,1,20,0,0
29988,-90.9090909090909,4,2,1,55,0,0
30250,-90.9090909090909,4,2,1,20,0,0
30337,-90.9090909090909,4,2,1,55,0,0
30599,-90.9090909090909,4,2,1,20,0,0
30686,-125,4,2,1,55,0,0
31645,-125,4,2,1,20,0,0
31732,-125,4,2,1,55,0,0
32692,-125,4,2,1,20,0,0
32779,-125,4,2,1,55,0,0
33389,-125,4,2,1,20,0,0
33476,-125,4,2,1,55,0,0
40453,-90.9090909090909,4,2,1,55,0,0
40715,-90.9090909090909,4,2,1,20,0,0
40802,-90.9090909090909,4,2,1,55,0,0
41064,-90.9090909090909,4,2,1,20,0,0
41151,-90.9090909090909,4,2,1,55,0,0
41413,-90.9090909090909,4,2,1,20,0,0
41500,-90.9090909090909,4,2,1,55,0,0
41761,-90.9090909090909,4,2,1,20,0,0
41848,-90.9090909090909,4,2,1,55,0,0
41849,-125,4,2,1,55,0,0
44552,-125,4,2,1,20,0,0
44639,-125,4,2,1,55,0,0
45947,-125,4,2,1,20,0,0
46034,-125,4,2,1,55,0,0
50221,-83.3333333333333,4,2,1,55,0,0
53011,-71.4285714285714,4,2,1,55,0,0
55104,-71.4285714285714,4,2,0,55,0,0
55802,-55.5555555555556,4,2,1,55,0,0
56151,-71.4285714285714,4,2,1,55,0,0
57197,-222.222222222221,4,2,1,55,0,0
57895,-66.6666666666667,4,2,1,55,0,0
61035,-50,4,2,1,55,0,0
61383,-222.222222222221,4,2,1,55,0,0
61732,-71.4285714285714,4,2,1,55,0,0
62779,-222.222222222221,4,2,1,55,0,0
63476,-66.6666666666667,4,2,1,55,0,0
65570,-66.6666666666667,4,2,1,30,0,0
65918,-66.6666666666667,4,2,1,55,0,0
66267,-100,4,2,1,55,0,0
66965,-55.5555555555556,4,2,1,55,0,0
67314,-71.4285714285714,4,2,1,55,0,0
68360,-222.222222222221,4,2,1,55,0,0
69058,-100,4,2,1,55,0,0
69756,-66.6666666666667,4,2,1,55,0,0
72197,-50,4,2,1,55,0,0
72546,-222.222222222221,4,2,1,55,0,0
73070,-71.4285714285714,4,2,1,55,0,0
73942,-222.222222222221,4,2,1,55,0,0
74639,-66.6666666666667,4,2,1,55,0,0
77430,-83.3333333333333,4,2,1,55,0,0
77779,-58.8235294117647,4,2,1,55,0,0
78476,-66.6666666666667,4,2,1,55,0,0
79523,-50,4,2,1,55,0,0
79697,-222.222222222221,4,2,1,55,0,0
79872,-50,4,2,1,55,0,0
80046,-222.222222222221,4,2,1,55,0,0
80221,-66.6666666666667,4,2,1,55,0,0
81093,-133.333333333333,4,2,1,55,0,0
83011,-133.333333333333,4,2,1,5,0,0
83033,-133.333333333333,4,2,2,7,0,0
83055,-133.333333333333,4,2,1,10,0,0
83077,-133.333333333333,4,2,2,12,0,0
83099,-133.333333333333,4,2,1,15,0,0
83120,-133.333333333333,4,2,2,17,0,0
83142,-133.333333333333,4,2,1,20,0,0
83164,-133.333333333333,4,2,2,25,0,0
83186,-133.333333333333,4,2,1,30,0,0
83208,-133.333333333333,4,2,2,35,0,0
83229,-133.333333333333,4,2,1,40,0,0
83251,-133.333333333333,4,2,2,45,0,0
83273,-133.333333333333,4,2,1,55,0,0
83360,-133.333333333333,4,2,1,5,0,0
83382,-133.333333333333,4,2,2,7,0,0
83404,-133.333333333333,4,2,1,10,0,0
83426,-133.333333333333,4,2,2,12,0,0
83448,-133.333333333333,4,2,1,15,0,0
83469,-133.333333333333,4,2,2,17,0,0
83491,-133.333333333333,4,2,1,20,0,0
83513,-133.333333333333,4,2,2,25,0,0
83535,-133.333333333333,4,2,1,30,0,0
83557,-133.333333333333,4,2,2,35,0,0
83578,-133.333333333333,4,2,1,40,0,0
83600,-133.333333333333,4,2,2,45,0,0
83622,-133.333333333333,4,2,1,55,0,0
83709,-66.6666666666667,4,2,1,55,0,0
85104,-58.8235294117647,4,2,1,55,0,0
85802,-66.6666666666667,4,2,1,55,0,0
86674,-125,4,2,1,55,0,0
86849,-83.3333333333333,4,2,1,55,0,0
88593,-133.333333333333,4,2,1,55,0,0
89290,-50,4,2,1,55,0,0
89988,-66.6666666666667,4,2,1,55,0,0
90686,-66.6666666666667,4,2,1,55,0,0
90860,-200,4,2,1,55,0,0
91035,-50,4,2,1,55,0,0
91383,-66.6666666666667,4,2,1,55,0,0
92256,-200,4,2,1,55,0,0
94174,-133.333333333333,4,2,1,55,0,0
94523,-200,4,2,1,55,0,0
94872,-50,4,2,1,55,0,0
95570,-66.6666666666667,4,2,1,55,0,0
97663,-50,4,2,1,55,0,0
111616,-83.3333333333333,4,2,1,55,0,0
128360,-111.111111111111,4,2,1,55,0,0
133593,-83.3333333333333,4,2,1,55,0,0
138128,-71.4285714285714,4,2,1,55,0,0
138302,-71.4285714285714,4,2,1,25,0,0
138389,-71.4285714285714,4,2,1,55,0,0
138564,-71.4285714285714,4,2,1,25,0,0
138651,-71.4285714285714,4,2,1,55,0,0
138825,-71.4285714285714,4,2,1,25,0,0
138912,-71.4285714285714,4,2,1,55,0,0
139087,-71.4285714285714,4,2,1,25,0,0
139174,-71.4285714285714,4,2,1,55,0,0
139523,-83.3333333333333,4,2,1,55,0,0
143796,-71.4285714285714,4,2,1,55,0,0
143883,-71.4285714285714,4,2,1,25,0,0
143970,-71.4285714285714,4,2,1,55,0,0
144145,-71.4285714285714,4,2,1,25,0,0
144232,-71.4285714285714,4,2,1,55,0,0
144407,-71.4285714285714,4,2,1,25,0,0
144494,-71.4285714285714,4,2,1,55,0,0
144668,-71.4285714285714,4,2,1,25,0,0
144756,-62.5,4,2,1,55,0,0
145104,-66.6666666666667,4,2,1,55,0,0
150686,-58.8235294117647,4,2,1,55,0,0
155918,-50,4,2,1,55,0,0
156267,-76.9230769230769,4,2,1,55,0,0
157663,-71.4285714285714,4,2,1,55,0,0
178593,-90.9090909090909,4,2,1,55,0,0
184174,-153.846153846153,4,2,1,55,0,0
184523,-71.4285714285714,4,2,1,55,0,0
184872,-90.9090909090909,4,2,1,55,0,0
189756,-133.333333333333,4,2,1,55,0,0

[Colours]
Combo1 : 84,140,243
Combo2 : 92,237,219
Combo3 : 97,33,203
Combo4 : 101,106,211

[HitObjects]
20,171,27895,6,0,P|50:119|61:32,1,120,0|0,0:0|0:0,0:0:0:0:
121,152,28244,2,0,P|165:135|219:138,1,80,0|0,0:0|0:0,0:0:0:0:
264,190,28593,1,0,0:0:0:0:
249,276,28767,1,0,0:0:0:0:
349,286,28942,2,0,L|248:294,1,80,0|0,0:0|0:0,0:0:0:0:
479,206,29290,6,0,P|414:193|433:95,1,165.000005035401,2|0,0:0|0:0,0:0:0:0:
418,24,29639,2,0,P|385:81|298:33,1,165.000005035401,2|0,0:0|0:0,0:0:0:0:
213,23,29988,2,0,P|257:71|184:139,1,165.000005035401,2|0,0:0|0:0,0:0:0:0:
96,200,30337,2,0,P|156:172|198:262,1,165.000005035401,2|0,0:0|0:0,0:0:0:0:
152,341,30686,6,0,P|212:338|291:364,1,120,2|0,0:0|0:0,0:0:0:0:
341,310,31035,2,0,P|353:273|339:217,1,80,0|0,0:0|0:0,0:0:0:0:
480,173,31383,2,0,L|394:172,1,80,2|0,0:0|0:0,0:0:0:0:
330,93,31732,1,2,0:0:0:0:
46,209,32081,5,0,0:0:0:0:
56,220,32430,2,0,P|149:227|186:165,1,160,2|0,0:0|0:0,0:0:0:0:
287,355,33128,2,0,P|214:338|195:351,1,80,2|0,0:0|0:0,0:0:0:0:
389,344,33476,6,0,P|414:284|404:212,1,120,0|0,0:0|0:0,0:0:0:0:
493,285,33825,2,0,P|520:239|521:188,1,80,0|0,0:0|0:0,0:0:0:0:
508,126,34174,1,0,0:0:0:0:
428,87,34349,1,0,0:0:0:0:
329,116,34523,2,0,L|419:108,1,80,0|0,0:0|0:0,0:0:0:0:
271,202,34872,5,0,0:0:0:0:
259,220,35221,2,0,L|145:231,1,80,0|0,0:0|0:0,0:0:0:0:
91,94,35570,2,0,P|86:149|96:192,1,80,2|0,0:0|0:0,0:0:0:0:
163,38,35918,2,0,P|224:33|275:79,1,120,2|0,0:0|0:0,0:0:0:0:
273,85,36267,5,0,0:0:0:0:
377,213,36529,1,0,0:0:0:0:
382,195,36616,2,0,L|462:194,1,80,0|0,0:0|0:0,0:0:0:0:
309,318,36965,2,0,P|298:249|266:200,1,120,2|0,0:0|0:0,0:0:0:0:
224,323,37314,2,0,P|188:341|131:342,1,80,2|0,0:0|0:0,0:0:0:0:
52,158,37663,6,0,P|52:84|134:88,1,160,0|2,0:0|0:0,0:0:0:0:
327,224,38360,2,0,P|327:150|245:154,1,160,0|2,0:0|0:0,0:0:0:0:
512,384,39058,6,0,P|482:332|471:245,1,120,0|0,0:0|0:0,0:0:0:0:
407,355,39407,2,0,P|372:378|330:373,1,80,0|0,0:0|0:0,0:0:0:0:
269,316,39756,1,0,0:0:0:0:
295,232,39930,1,0,0:0:0:0:
259,144,40105,2,0,L|273:237,1,80,0|0,0:0|0:0,0:0:0:0:
153,55,40453,6,0,P|219:60|200:154,1,165.000005035401,2|0,0:0|0:0,0:0:0:0:
135,58,40802,2,0,P|77:91|135:168,1,165.000005035401,2|0,0:0|0:0,0:0:0:0:
207,70,41151,2,0,P|280:92|285:183,1,165.000005035401,2|0,0:0|0:0,0:0:0:0:
90,90,41500,2,0,P|36:137|60:231,1,165.000005035401,2|0,0:0|0:0,0:0:0:0:
205,257,41849,6,0,P|265:254|344:280,1,120,2|0,0:0|0:0,0:0:0:0:
289,183,42197,2,0,P|281:143|299:91,1,80,0|0,0:0|0:0,0:0:0:0:
477,55,42546,2,0,L|391:54,1,80,2|0,0:0|0:0,0:0:0:0:
368,144,42895,1,2,0:0:0:0:
46,209,43244,5,0,0:0:0:0:
56,220,43593,2,0,P|149:227|81:128,1,240,2|0,0:0|0:0,0:0:0:0:
281,216,44291,2,0,P|256:196|260:141,1,80,2|0,0:0|0:0,0:0:0:0:
384,319,44639,6,0,P|324:294|252:304,1,120,2|0,0:0|0:0,0:0:0:0:
164,320,44988,2,0,P|191:274|192:223,1,80,2|0,0:0|0:0,0:0:0:0:
148,173,45337,1,0,0:0:0:0:
170,87,45512,1,0,0:0:0:0:
277,78,45686,2,0,L|187:70,1,80,2|0,0:0|0:0,0:0:0:0:
368,11,46035,5,0,0:0:0:0:
384,20,46384,2,0,L|393:104,1,80,2|0,0:0|0:0,0:0:0:0:
392,241,46732,1,0,0:0:0:0:
485,129,46907,2,0,L|387:120,1,80,0|0,0:0|0:0,0:0:0:0:
70,341,47430,5,2,0:0:0:0:
164,153,47692,1,0,0:0:0:0:
175,168,47779,2,0,L|167:247,1,80,0|0,0:0|0:0,0:0:0:0:
326,351,48128,2,0,P|280:326|200:334,1,120,0|0,0:0|0:0,0:0:0:0:
297,250,48476,1,2,0:0:0:0:
277,143,48651,1,2,0:0:0:0:
440,168,48825,6,0,B|357:130|366:196|277:159,1,160,2|0,0:0|0:0,0:0:0:0:
131,83,49349,2,0,P|191:94|216:114,1,80,2|0,0:0|0:0,0:0:0:0:
163,189,49610,1,2,0:0:0:0:
147,196,49697,2,0,P|130:249|251:265,1,200,2|0,0:0|0:0,0:0:0:0:
424,54,50221,5,4,0:0:0:0:
435,62,50570,2,0,P|461:99|472:178,1,119.999996337891,0|0,0:0|0:0,0:0:0:0:
318,275,50918,2,0,P|351:225|359:166,1,119.999996337891,0|0,0:0|0:0,0:0:0:0:
217,48,51267,1,0,0:0:0:0:
221,77,51354,1,0,0:0:0:0:
240,100,51442,1,0,0:0:0:0:
267,112,51529,1,0,0:0:0:0:
296,110,51616,1,0,0:0:0:0:
275,95,51965,6,0,P|208:138|186:171,1,119.999996337891,0|0,0:0|0:0,0:0:0:0:
282,345,52314,2,0,P|279:285|301:229,1,119.999996337891,0|0,0:0|0:0,0:0:0:0:
481,285,52663,2,0,L|421:289,1,59.9999981689454,0|0,0:0|0:0,0:0:0:0:
413,305,52837,2,0,L|472:300,1,59.9999981689454,0|0,0:0|0:0,0:0:0:0:
512,145,53011,6,0,B|491:115|459:110|459:110|426:125|379:104,1,139.999995727539,0|0,3:0|0:0,0:0:0:0:
262,280,53360,2,0,P|272:203|254:135,1,139.999995727539,0|0,0:0|0:0,0:0:0:0:
0,61,53709,2,0,P|61:93|107:145,1,139.999995727539,0|0,0:0|0:0,0:0:0:0:
15,384,54058,1,0,0:0:0:0:
262,298,54232,1,0,0:0:0:0:
334,308,54320,1,0,0:0:0:0:
405,319,54407,1,0,0:0:0:0:
416,308,55104,5,4,3:0:0:0:
435,270,55192,1,4,3:0:0:0:
434,246,55279,1,0,3:0:0:0:
378,196,55366,5,4,3:0:0:0:
359,158,55454,1,8,3:0:0:0:
360,134,55541,1,0,3:0:0:0:
424,96,55628,5,4,3:0:0:0:
425,83,55715,1,8,3:0:0:0:
347,34,55802,6,0,B|226:9|173:72|173:72|228:65|267:90,1,269.999991760254,0|0,3:0|0:0,0:0:0:0:
287,223,56151,1,0,3:0:0:0:
259,225,56238,1,0,0:0:0:0:
233,214,56325,2,0,P|221:176|188:145,1,69.9999978637696,0|0,0:0|0:0,0:0:0:0:
151,266,56500,2,0,B|134:366|134:366|105:338,1,139.999995727539,0|0,3:0|0:0,0:0:0:0:
19,165,56761,1,0,0:0:0:0:
29,158,56849,2,0,B|21:108|21:108|32:72|32:72|24:15,1,139.999995727539,0|0,3:0|0:0,0:0:0:0:
219,20,57110,5,0,0:0:0:0:
152,61,57197,2,0,B|179:69|202:61|202:61|217:67|226:72,1,67.4999979400635,0|0,3:0|0:0,0:0:0:0:
265,130,57546,1,2,3:3:0:0:
261,137,57634,1,2,0:3:0:0:
257,145,57721,1,0,0:0:0:0:
485,2,57895,6,0,B|463:58|484:103|484:103|531:152|487:232,1,225.000008583069,0|0,3:0|0:0,0:0:0:0:
424,257,58244,1,2,0:0:0:0:
414,238,58331,1,2,0:0:0:0:
395,236,58418,1,2,0:0:0:0:
385,217,58505,1,2,0:0:0:0:
366,211,58593,6,0,B|300:239|300:239|215:227,1,150.000005722046,0|0,3:0|0:0,0:0:0:0:
58,83,58942,5,0,3:0:0:0:
79,90,59029,1,2,3:3:0:0:
101,86,59116,1,2,0:3:0:0:
116,69,59203,1,0,0:3:0:0:
165,142,59290,5,0,3:0:0:0:
144,149,59378,1,2,3:3:0:0:
122,145,59464,1,2,0:3:0:0:
107,128,59551,1,0,0:0:0:0:
59,206,59640,5,0,3:0:0:0:
80,213,59727,1,2,3:3:0:0:
102,209,59814,1,2,0:3:0:0:
117,192,59901,1,0,0:0:0:0:
166,266,59988,5,0,3:0:0:0:
151,278,60075,2,0,P|136:336|211:371,1,150.000005722046,0|0,0:0|0:0,0:0:0:0:
278,314,60337,1,2,3:0:0:0:
324,289,60424,1,2,0:0:0:0:
376,284,60511,1,2,0:0:0:0:
426,299,60599,1,2,0:0:0:0:
456,366,60686,6,0,B|441:286|484:235|484:235|480:174|416:181,1,225.000008583069,0|0,3:0|0:0,0:0:0:0:
428,197,61035,6,0,B|455:223|506:205|506:205|516:136|487:85|411:80|378:109|367:120,1,300,0|0,3:0|0:0,0:0:0:0:
277,281,61383,6,0,B|290:298|290:298|298:266|293:241,1,67.4999979400635,0|0,3:0|0:0,0:0:0:0:
213,125,61732,1,0,3:0:0:0:
195,147,61820,1,0,0:0:0:0:
195,174,61907,2,0,P|186:202|144:242,1,69.9999978637696,0|0,0:0|0:0,0:0:0:0:
69,250,62081,2,0,B|48:271|48:271|58:384,1,139.999995727539,0|0,3:0|0:0,0:0:0:0:
103,163,62343,1,0,0:0:0:0:
110,147,62430,2,0,B|104:102|104:102|86:81|86:81|114:57|122:9,1,139.999995727539,0|0,3:0|0:0,0:0:0:0:
252,126,62692,5,0,0:0:0:0:
285,55,62779,2,0,B|300:29|319:33|319:33|310:23|315:4,1,67.4999979400635,0|0,3:0|0:0,0:0:0:0:
396,11,63128,1,2,3:0:0:0:
408,17,63215,1,2,0:3:0:0:
417,28,63302,1,0,0:0:0:0:
491,217,63476,6,0,B|439:208|426:163|426:163|359:204|287:140,1,225.000008583069
200,216,63825,1,2,0:0:0:0:
205,231,63913,1,2,0:0:0:0:
190,253,64000,1,2,0:0:0:0:
195,268,64088,1,2,0:0:0:0:
180,290,64174,6,0,B|112:303|112:303|47:222,1,150.000005722046,0|0,3:0|0:0,0:0:0:0:
98,24,64523,5,0,3:0:0:0:
116,47,64610,1,2,3:3:0:0:
122,76,64697,1,2,0:3:0:0:
119,106,64785,1,0,0:0:0:0:
220,82,64872,5,0,3:0:0:0:
202,105,64959,1,2,3:3:0:0:
196,134,65046,1,2,0:3:0:0:
199,164,65134,1,0,0:0:0:0:
119,106,65221,5,0,3:0:0:0:
116,130,65308,1,2,3:3:0:0:
103,157,65395,1,2,0:3:0:0:
83,181,65483,1,0,0:0:0:0:
144,261,65570,6,0,B|201:254|201:254|212:270|212:270|225:257|225:257|311:275,1,150.000005722046,2|2,0:3|0:3,0:0:0:0:
418,331,65831,1,2,0:3:0:0:
480,290,65918,1,0,3:0:0:0:
487,243,66006,1,2,0:0:0:0:
468,213,66093,1,0,3:0:0:0:
445,201,66180,1,2,0:0:0:0:
430,199,66267,6,0,B|481:195|506:176|506:176|492:158|492:158|499:136|481:109,1,150,0|0,3:0|0:0,0:0:0:0:
373,41,66616,2,0,P|346:33|317:36,1,50,0|0,3:0|0:0,0:0:0:0:
267,95,66790,2,0,P|242:103|202:99,1,50,0|0,3:0|0:0,0:0:0:0:
34,44,66965,6,0,B|100:16|177:27|208:82|208:82|186:94|186:94|194:130|166:156,1,269.999991760254,0|0,3:0|0:0,0:0:0:0:
75,279,67314,1,0,3:0:0:0:
91,256,67401,1,0,0:0:0:0:
114,241,67488,2,0,P|150:228|202:234,1,69.9999978637696,0|0,0:0|0:0,0:0:0:0:
264,277,67663,2,0,B|364:260|364:260|336:231,1,139.999995727539,0|0,3:0|0:3,0:0:0:0:
252,50,67924,1,0,0:0:0:0:
253,65,68012,2,0,B|241:120|241:120|260:145|260:145|258:208,1,139.999995727539,0|0,3:0|0:0,0:0:0:0:
439,129,68273,5,0,0:0:0:0:
366,149,68360,2,0,B|378:145|396:154|396:154|401:147|401:147|421:150|435:160,1,67.4999979400635,0|0,3:0|0:0,0:0:0:0:
490,212,68709,1,2,3:3:0:0:
495,221,68797,1,2,0:3:0:0:
496,231,68884,1,0,0:0:0:0:
459,297,68971,1,0,0:0:0:0:
385,321,69058,6,0,P|321:283|235:287,1,150,2|0,0:0|0:0,0:0:0:0:
236,361,69407,2,0,P|259:335|268:307,1,50,2|0,0:0|0:0,0:0:0:0:
239,242,69581,2,0,P|242:207|233:179,1,50,2|0,0:0|0:0,0:0:0:0:
86,101,69756,6,0,B|138:155|138:155|171:86,1,150.000005722046,0|0,3:0|0:0,0:0:0:0:
340,115,70104,5,0,3:0:0:0:
302,113,70192,1,2,3:3:0:0:
266,125,70279,1,2,0:3:0:0:
239,151,70366,1,0,0:0:0:0:
331,228,70453,5,0,3:0:0:0:
308,197,70541,1,2,3:3:0:0:
275,177,70628,1,2,0:3:0:0:
238,173,70715,1,0,0:0:0:0:
249,297,70802,5,0,3:0:0:0:
257,259,70890,1,2,3:3:0:0:
252,221,70977,1,2,0:3:0:0:
231,190,71064,1,0,0:0:0:0:
108,249,71151,5,0,3:0:0:0:
92,235,71238,2,0,B|77:177|132:168|113:83,1,150.000005722046,0|0,0:0|0:0,0:0:0:0:
265,30,71500,5,2,3:0:0:0:
302,67,71587,1,2,0:0:0:0:
353,77,71674,1,2,0:0:0:0:
405,67,71762,1,2,0:0:0:0:
489,36,71849,6,0,B|417:61|403:132|403:132|371:178|411:221,1,225.000008583069,0|0,3:0|0:0,0:0:0:0:
416,230,72197,2,0,B|429:180|408:130|408:130|323:116|283:153|283:153|280:188|301:222,1,300,0|0,3:0|0:0,0:0:0:0:
376,346,72546,6,0,B|391:331|391:331|358:326|334:334,1,67.4999979400635,0|0,3:0|0:0,0:0:0:0:
205,371,72895,5,0,3:0:0:0:
202,349,72983,1,0,0:0:0:0:
187,331,73070,2,0,P|176:297|186:253,1,69.9999978637696,0|0,0:0|0:0,0:0:0:0:
144,185,73244,2,0,B|109:155|109:155|10:174,1,139.999995727539,0|0,3:0|0:0,0:0:0:0:
218,48,73506,1,0,0:0:0:0:
203,42,73593,2,0,B|154:71|154:71|166:97|166:97|230:151,1,139.999995727539,0|0,3:0|0:0,0:0:0:0:
390,146,73855,5,0,0:0:0:0:
329,193,73942,2,0,B|318:202|299:198|299:198|314:217|296:234,1,67.4999979400635,0|0,3:0|0:0,0:0:0:0:
238,288,74291,1,2,3:3:0:0:
233,300,74378,1,2,0:3:0:0:
235,314,74465,1,0,0:0:0:0:
437,378,74639,5,2,3:2:0:0:
215,205,74814,1,2,0:0:0:0:
205,209,74901,1,2,0:0:0:0:
465,139,75076,1,2,0:0:0:0:
475,143,75163,1,2,0:0:0:0:
149,24,75337,6,0,B|70:23|70:23|16:92,1,150.000005722046,0|0,3:0|0:0,0:0:0:0:
135,245,75686,5,0,3:0:0:0:
147,236,75773,1,2,3:3:0:0:
138,224,75860,1,2,0:3:0:0:
126,233,75947,1,0,0:0:0:0:
241,304,76035,5,0,3:0:0:0:
253,295,76122,1,2,3:3:0:0:
244,283,76209,1,2,0:3:0:0:
232,292,76296,1,0,0:0:0:0:
364,318,76383,5,0,3:0:0:0:
376,309,76470,1,2,3:3:0:0:
367,297,76557,1,2,0:3:0:0:
355,306,76644,1,0,0:0:0:0:
462,294,76732,5,2,3:2:0:0:
507,233,76820,1,2,0:0:0:0:
477,164,76907,1,0,0:0:0:0:
402,156,76994,1,2,0:0:0:0:
351,211,77081,5,0,0:0:0:0:
357,197,77168,1,2,0:0:0:0:
361,182,77256,1,0,0:0:0:0:
361,167,77343,1,2,0:0:0:0:
327,89,77430,6,0,B|296:67|224:71|224:71|197:101|197:143,1,179.999994506836,2|0,3:2|0:2,0:0:0:0:
216,146,77779,6,0,B|228:111|213:73|213:73|150:66|90:116|105:202,1,255.000004863739,0|0,0:0|0:0,0:0:0:0:
200,362,78128,6,0,B|211:303|264:262|264:262|307:293|317:340|317:340|323:310|338:292,1,255.000004863739,0|0,3:0|0:0,0:0:0:0:
371,176,78476,1,0,3:0:0:0:
374,206,78564,1,0,0:0:0:0:
392,229,78651,2,0,P|424:259|471:272,1,75.0000028610231,0|0,0:0|0:0,0:0:0:0:
498,199,78825,2,0,B|515:104|515:104|474:46,1,150.000005722046,8|0,3:2|0:0,0:0:0:0:
294,31,79087,1,0,0:0:0:0:
303,43,79174,5,0,3:0:0:0:
292,94,79261,1,0,0:0:0:0:
244,117,79349,1,0,0:0:0:0:
198,90,79436,1,0,0:0:0:0:
192,37,79523,6,0,P|160:91|119:109,1,100,8|0,3:2|0:0,0:0:0:0:
52,62,79697,1,2,0:1:0:0:
33,268,79872,6,0,P|2:213|7:168,1,100,8|0,3:2|0:0,0:0:0:0:
81,134,80046,1,2,0:1:0:0:
234,207,80221,6,0,P|139:201|205:267,1,225.000008583069,0|0,3:0|0:0,0:0:0:0:
255,320,80570,1,10,3:2:0:0:
268,308,80657,1,2,0:0:0:0:
289,309,80744,1,2,0:0:0:0:
302,297,80831,1,2,0:0:0:0:
323,298,80918,6,0,P|345:266|355:227,1,75.0000028610231,8|0,3:2|0:0,0:0:0:0:
365,214,81093,2,0,P|367:195|356:207,1,37.5000014305115,0|0,0:0|0:0,0:0:0:0:
283,154,81267,5,0,3:0:0:0:
239,148,81354,1,2,3:3:0:0:
195,157,81442,1,2,0:3:0:0:
156,180,81529,1,0,0:0:0:0:
131,294,81616,5,0,3:0:0:0:
158,258,81703,1,2,3:3:0:0:
172,216,81791,1,2,0:3:0:0:
171,171,81878,1,0,0:0:0:0:
98,66,81964,5,0,3:0:0:0:
114,107,82051,1,2,3:3:0:0:
144,140,82139,1,2,0:3:0:0:
184,162,82226,1,0,0:0:0:0:
331,134,82314,5,0,3:0:0:0:
287,107,82401,1,2,3:3:0:0:
236,115,82488,1,2,0:3:0:0:
201,154,82575,1,0,0:0:0:0:
306,211,82663,5,0,3:0:0:0:
353,181,82750,1,2,3:3:0:0:
408,190,82837,1,2,0:3:0:0:
445,232,82924,1,0,0:0:0:0:
429,336,83011,6,0,L|415:218,1,112.500004291535,0|0,3:0|0:0,0:0:0:0:
388,0,83360,2,0,L|402:111,1,112.500004291535,0|0,0:1|0:0,0:0:0:0:
116,224,83709,6,0,B|168:202|213:227|232:277|232:277|286:261|282:195,1,225.000008583069,0|0,3:1|0:0,0:0:0:0:
299,58,84058,1,8,3:2:0:0:
302,88,84146,1,0,0:0:0:0:
320,111,84233,2,0,P|352:141|399:154,1,75.0000028610231,0|0,0:0|0:0,0:0:0:0:
216,102,84407,2,0,B|132:104|132:104|77:149,1,150.000005722046,8|0,3:2|0:0,0:0:0:0:
154,271,84669,1,0,0:0:0:0:
148,255,84756,5,8,3:2:0:0:
95,255,84843,1,0,0:0:0:0:
70,301,84931,1,0,0:0:0:0:
98,345,85018,1,0,0:0:0:0:
151,347,85104,6,0,B|183:293|292:288|292:288|289:339|241:380,1,255.000004863739,0|0,3:0|0:0,0:0:0:0:
228,206,85453,1,8,3:2:0:0:
265,132,85540,1,0,0:0:0:0:
332,95,85628,1,0,0:0:0:0:
362,52,85715,1,0,0:0:0:0:
331,31,85803,6,0,B|303:107|347:175|347:175|420:143,1,225.000008583069,8|0,3:2|0:0,0:0:0:0:
308,269,86152,1,2,3:2:0:0:
295,281,86239,1,2,0:0:0:0:
295,302,86326,1,2,0:0:0:0:
282,314,86413,1,2,0:0:0:0:
282,335,86500,6,0,P|239:342|202:333,1,75.0000028610231,8|0,3:2|0:0,0:0:0:0:
177,257,86674,2,0,P|198:247|208:271,1,40,0|0,0:0|0:0,0:0:0:0:
41,360,86849,5,8,3:2:0:0:
39,312,86936,1,0,0:0:0:0:
37,264,87023,1,0,0:0:0:0:
35,216,87110,1,0,0:0:0:0:
76,181,87197,6,0,B|88:152|88:152|79:98,1,59.9999981689454,2|0,3:2|0:0,0:0:0:0:
199,35,87372,1,2,0:0:0:0:
184,85,87459,2,0,B|203:109|203:109|254:129,1,59.9999981689454,2|0,0:0|3:0,0:0:0:0:
266,255,87633,1,2,0:0:0:0:
222,228,87721,2,0,B|190:232|190:232|148:266,1,59.9999981689454,2|0,0:0|0:0,0:0:0:0:
332,340,87895,5,8,3:2:0:0:
371,303,87982,1,0,0:0:0:0:
395,254,88070,1,0,0:0:0:0:
398,200,88157,1,0,0:0:0:0:
350,129,88244,5,8,3:2:0:0:
409,156,88331,1,0,0:0:0:0:
459,113,88418,1,0,0:0:0:0:
450,46,88506,1,0,0:0:0:0:
390,18,88593,6,0,B|344:11|344:11|331:17|331:17|269:3,1,112.500004291535,0|0,3:0|0:0,0:0:0:0:
506,230,88942,2,0,B|460:236|460:236|447:231|447:231|385:245,1,112.500004291535,0|0,3:0|0:0,0:0:0:0:
196,365,89290,6,0,B|243:279|201:178|201:178|132:183|107:264,1,300,0|0,3:0|0:0,0:0:0:0:
258,267,89639,1,8,3:2:0:0:
308,218,89726,1,0,0:0:0:0:
317,148,89814,1,0,0:0:0:0:
282,87,89901,1,0,0:0:0:0:
216,61,89988,6,0,L|120:71,1,75.0000028610231,8|0,3:2|0:0,0:0:0:0:
74,129,90163,2,0,L|-22:139,1,75.0000028610231,0|0,0:0|0:0,0:0:0:0:
165,262,90337,5,8,3:2:0:0:
238,273,90424,1,0,0:0:0:0:
311,259,90511,1,0,0:0:0:0:
376,221,90599,1,0,0:0:0:0:
405,152,90686,6,0,L|421:70,1,75.0000028610231,8|0,3:2|0:0,0:0:0:0:
438,326,90860,6,0,L|442:372,1,25,0|0,0:0|0:0,0:0:0:0:
412,372,91035,6,0,L|303:356,1,100,8|0,3:2|0:0,0:0:0:0:
82,321,91209,2,0,L|180:335,1,100,2|2,0:0|0:0,0:0:0:0:
346,281,91383,6,0,B|334:193|241:171|241:171|304:224,1,225.000008583069,0|0,3:0|0:0,0:0:0:0:
447,227,91732,1,10,3:2:0:0:
454,209,91820,1,2,0:0:0:0:
479,176,91907,1,2,0:0:0:0:
472,157,91995,1,2,0:0:0:0:
469,106,92081,6,0,L|383:78,1,75.0000028610231,8|0,3:2|0:0,0:0:0:0:
178,15,92256,6,0,L|145:4,1,25,0|0,0:0|0:0,0:0:0:0:
129,28,92430,5,0,3:0:0:0:
106,64,92517,1,2,3:3:0:0:
110,106,92604,1,2,0:3:0:0:
139,137,92692,1,0,0:0:0:0:
213,183,92779,5,0,3:0:0:0:
240,140,92866,1,2,3:3:0:0:
235,92,92953,1,2,0:3:0:0:
201,57,93041,1,0,0:0:0:0:
112,13,93128,5,0,3:0:0:0:
82,60,93215,1,2,3:3:0:0:
86,114,93302,1,2,0:3:0:0:
125,155,93390,1,0,0:0:0:0:
215,198,93476,5,0,3:0:0:0:
256,153,93564,1,2,3:3:0:0:
315,143,93651,1,2,0:3:0:0:
368,171,93738,1,0,0:0:0:0:
318,288,93825,5,0,3:0:0:0:
271,238,93913,1,2,3:3:0:0:
205,226,94000,1,2,0:3:0:0:
142,252,94087,1,0,0:0:0:0:
250,345,94174,6,0,P|273:285|266:223,1,112.500004291535,0|0,3:2|0:0,0:0:0:0:
47,377,94523,6,0,P|30:336|28:288,1,75,0|0,0:0|0:0,0:0:0:0:
159,108,94872,6,0,B|166:180|109:208|109:208|43:177|59:87|59:87|116:43,1,300,0|0,0:0|0:0,0:0:0:0:
311,77,95221,1,8,3:2:0:0:
354,117,95308,1,0,0:0:0:0:
345,176,95395,1,0,0:0:0:0:
288,195,95482,1,0,0:0:0:0:
253,165,95570,6,0,B|334:170|388:241|388:241|336:288,1,225.000008583069,8|0,3:2|0:0,0:0:0:0:
71,366,95918,1,8,3:2:0:0:
102,321,96006,1,0,0:0:0:0:
152,300,96093,1,0,0:0:0:0:
206,312,96180,1,0,0:0:0:0:
244,352,96267,6,0,B|171:342|95:264|130:174|184:206,1,225.000008583069,8|0,3:2|0:0,0:0:0:0:
402,66,96616,1,8,3:2:0:0:
414,139,96703,1,0,0:0:0:0:
426,212,96790,1,0,0:0:0:0:
438,286,96878,1,0,0:0:0:0:
452,359,96965,6,0,L|473:275,1,75.0000028610231,0|0,3:0|0:0,0:0:0:0:
321,154,97139,2,0,L|335:229,1,75.0000028610231,0|0,0:0|0:0,0:0:0:0:
388,30,97314,5,2,0:0:0:0:
378,41,97401,1,2,0:0:0:0:
303,57,97488,1,2,0:0:0:0:
293,68,97575,1,2,0:0:0:0:
232,14,97663,6,0,P|180:15|121:59,1,100,10|0,0:0|0:0,0:0:0:0:
92,208,97837,2,0,P|78:155|108:89,1,100,8|0,0:0|0:0,0:0:0:0:
245,214,98011,5,8,3:2:0:0:
244,264,98099,1,0,3:2:0:0:
212,302,98186,1,0,3:2:0:0:
164,316,98273,1,0,3:2:0:0:
116,301,98360,5,8,3:2:0:0:
165,267,98447,1,0,3:2:0:0:
225,269,98535,1,0,3:2:0:0:
277,297,98622,1,0,3:2:0:0:
311,345,98709,5,10,3:2:0:0:
350,318,98796,1,0,3:2:0:0:
355,300,98883,5,2,3:2:0:0:
394,273,98970,1,0,3:2:0:0:
399,252,99058,5,10,0:0:0:0:
331,232,99145,1,0,0:0:0:0:
297,170,99232,1,0,0:0:0:0:
315,101,99320,1,0,0:0:0:0:
374,64,99407,1,8,0:0:0:0:
442,74,99494,1,0,0:0:0:0:
480,132,99581,5,2,0:0:0:0:
400,140,99668,1,0,0:0:0:0:
325,108,99756,1,8,0:0:0:0:
296,33,99843,5,2,0:0:0:0:
281,23,99930,5,2,0:0:0:0:
201,15,100017,1,0,0:0:0:0:
139,66,100104,1,8,0:0:0:0:
133,146,100192,1,0,0:0:0:0:
187,214,100279,1,0,0:0:0:0:
172,304,100366,1,0,0:0:0:0:
82,350,100453,5,4,0:0:0:0:
206,138,111616,6,0,P|129:94|41:98,1,179.999994506836,6|0,3:2|0:0,0:0:0:0:
156,281,111965,2,0,P|166:244|182:222,1,59.9999981689454,8|0,0:3|0:0,0:0:0:0:
277,197,112139,1,0,0:0:0:0:
402,371,112314,1,0,0:0:0:0:
450,221,112488,1,0,3:0:0:0:
455,238,112575,1,0,0:0:0:0:
460,255,112663,1,8,0:3:0:0:
486,342,112837,1,0,0:0:0:0:
297,163,113011,6,0,L|482:124,1,179.999994506836,2|0,3:2|0:0,0:0:0:0:
504,35,113360,2,0,B|452:3|452:3|382:2,1,119.999996337891,8|0,0:3|0:0,0:0:0:0:
336,64,113709,1,0,0:0:0:0:
156,30,113883,1,0,3:0:0:0:
194,47,113971,1,0,0:0:0:0:
220,79,114058,1,8,0:3:0:0:
160,176,114232,1,0,0:0:0:0:
413,291,114407,6,0,P|399:221|295:246,1,179.999994506836,2|0,3:2|0:0,0:0:0:0:
310,364,114756,2,0,P|287:327|280:294,1,59.9999981689454,8|0,0:3|0:0,0:0:0:0:
292,222,114930,1,0,0:0:0:0:
127,266,115104,2,0,P|122:285|202:318,1,119.999996337891,0|0,0:0|3:0,0:0:0:0:
208,245,115366,1,0,0:0:0:0:
208,245,115453,1,8,0:3:0:0:
114,173,115628,1,0,0:0:0:0:
312,103,115802,6,0,P|259:55|133:34,1,179.999994506836,2|0,3:2|0:0,0:0:0:0:
82,84,116151,1,8,0:3:0:0:
267,7,116325,1,0,3:0:0:0:
348,25,116500,1,2,0:0:0:0:
178,166,116674,1,0,3:0:0:0:
173,142,116761,1,0,0:0:0:0:
167,118,116849,1,8,0:3:0:0:
100,205,117023,1,0,0:0:0:0:
326,318,117197,6,0,P|392:298|411:192,1,179.999994506836,6|0,3:2|0:0,0:0:0:0:
288,83,117546,2,0,L|304:151,1,59.9999981689454,8|0,0:3|0:0,0:0:0:0:
327,227,117720,1,0,0:0:0:0:
234,201,117895,1,0,0:0:0:0:
374,75,118070,1,0,3:0:0:0:
391,72,118156,1,0,0:0:0:0:
409,70,118244,1,8,0:3:0:0:
283,9,118418,1,0,0:0:0:0:
482,240,118592,6,0,P|480:160|406:184,1,179.999994506836,2|0,3:2|0:0,0:0:0:0:
417,290,118942,2,0,P|367:251|301:248,1,119.999996337891,8|0,0:3|0:0,0:0:0:0:
244,303,119290,1,0,0:0:0:0:
118,333,119464,1,0,3:0:0:0:
132,294,119551,1,0,0:0:0:0:
163,266,119639,1,8,0:3:0:0:
249,327,119813,1,0,0:0:0:0:
185,111,119988,6,0,P|77:116|-5:164,1,179.999994506836,2|0,3:2|0:0,0:0:0:0:
103,69,120337,2,0,P|126:32|133:-1,1,59.9999981689454,8|0,0:3|0:0,0:0:0:0:
194,91,120511,1,0,0:0:0:0:
299,28,120685,2,0,P|346:7|441:13,1,119.999996337891,0|0,0:0|3:0,0:0:0:0:
483,67,120947,1,0,0:0:0:0:
483,67,121034,1,8,0:3:0:0:
371,112,121209,1,0,0:0:0:0:
512,357,121383,6,0,P|453:270|373:287,1,179.999994506836,2|0,3:2|0:0,0:0:0:0:
330,356,121732,1,8,0:3:0:0:
505,201,121906,1,0,3:0:0:0:
431,155,122081,1,2,0:0:0:0:
230,252,122255,1,0,3:0:0:0:
266,234,122342,1,0,0:0:0:0:
303,217,122430,1,8,0:3:0:0:
241,344,122604,1,0,0:0:0:0:
39,130,122779,6,0,P|120:150|239:120,1,179.999994506836,6|0,3:2|0:0,0:0:0:0:
254,0,123128,2,0,P|269:25|275:54,1,59.9999981689454,8|0,0:3|0:0,0:0:0:0:
288,175,123302,1,0,0:0:0:0:
355,91,123477,1,0,0:0:0:0:
494,197,123651,1,0,3:0:0:0:
476,201,123738,1,0,0:0:0:0:
459,205,123826,1,8,0:3:0:0:
470,83,124000,1,0,0:0:0:0:
367,309,124174,6,0,B|280:335|280:335|185:287,1,179.999994506836,2|0,3:2|0:0,0:0:0:0:
109,155,124523,2,0,P|128:217|112:304,1,119.999996337891,8|0,0:3|0:0,0:0:0:0:
44,313,124872,1,0,0:0:0:0:
209,176,125046,1,0,3:0:0:0:
250,181,125134,1,0,0:0:0:0:
284,205,125221,1,8,0:3:0:0:
251,81,125395,1,0,0:0:0:0:
422,313,125570,6,0,P|388:254|390:143,1,179.999994506836,2|0,3:2|0:0,0:0:0:0:
317,26,125919,2,0,P|332:52|359:71,1,59.9999981689454,8|0,0:3|0:0,0:0:0:0:
457,70,126093,1,0,3:0:0:0:
365,179,126267,2,0,P|304:201|250:188,1,119.999996337891,0|0,0:0|3:0,0:0:0:0:
203,110,126529,1,0,0:0:0:0:
203,110,126616,1,8,0:3:0:0:
160,219,126791,1,0,0:0:0:0:
37,24,126965,6,0,L|58:222,1,179.999994506836,2|8,0:0|0:3,0:0:0:0:
5,295,127314,1,8,0:3:0:0:
122,326,127488,1,0,3:0:0:0:
298,246,127663,1,8,0:3:0:0:
254,237,127750,1,0,3:0:0:0:
179,125,127924,1,8,0:3:0:0:
264,106,128011,1,8,0:3:0:0:
160,219,128186,1,0,3:0:0:0:
159,234,128273,2,0,L|125:234,1,29.9999990844727,0|0,3:0|3:0,0:0:0:0:
160,250,128360,5,4,3:1:0:0:
278,331,128709,1,0,3:0:0:0:
417,296,129058,1,0,3:0:0:0:
465,160,129407,1,0,3:0:0:0:
157,73,129756,5,0,3:0:0:0:
97,229,130104,1,0,3:0:0:0:
225,337,130453,1,0,3:0:0:0:
378,269,130802,1,0,3:0:0:0:
163,169,131151,6,0,L|141:112,1,44.999998626709,0|0,3:0|0:0,0:0:0:0:
264,210,131413,1,0,0:0:0:0:
259,193,131500,2,0,L|247:73,1,89.9999972534181,0|0,3:0|0:0,0:0:0:0:
353,269,131849,1,0,3:0:0:0:
345,254,131936,2,0,L|357:134,1,89.9999972534181,0|0,0:0|0:0,0:0:0:0:
365,82,132197,1,0,3:0:0:0:
468,234,132372,1,0,0:0:0:0:
444,286,132459,1,0,0:0:0:0:
421,338,132546,5,0,0:0:0:0:
408,346,132633,1,0,0:0:0:0:
294,370,132895,1,0,0:0:0:0:
189,307,133157,1,0,0:0:0:0:
178,295,133244,1,4,3:0:0:0:
173,272,133331,1,0,3:0:0:0:
185,238,133419,1,0,3:0:0:0:
231,216,133506,1,4,3:0:0:0:
308,237,133593,2,0,P|314:249|303:266,4,29.9999990844727,0|0|0|0|8,3:0|0:0|3:0|0:0|0:0,0:0:0:0:
371,104,133942,5,0,3:0:0:0:
396,112,134029,2,0,P|433:105|466:82,1,59.9999981689454,0|0,3:0|0:0,0:0:0:0:
294,99,134203,2,0,P|263:76|244:41,2,59.9999981689454,0|0|0,3:0|0:0|0:0,0:0:0:0:
188,154,134465,2,0,P|219:92|224:32,1,119.999996337891,0|0,3:0|0:0,0:0:0:0:
104,182,134726,2,0,P|76:167|45:140,1,59.9999981689454,0|0,3:0|0:0,0:0:0:0:
11,292,134901,1,0,3:0:0:0:
118,315,134988,2,0,L|-9:334,1,119.999996337891,8|0,0:3|0:0,0:0:0:0:
229,225,135337,5,0,3:2:0:0:
254,217,135424,2,0,P|291:224|324:247,1,59.9999981689454,0|0,3:0|0:0,0:0:0:0:
387,344,135598,2,0,P|386:314|396:286,2,59.9999981689454,0|0|0,3:0|0:0|0:0,0:0:0:0:
488,243,135860,2,0,P|435:209|415:133,1,119.999996337891,0|0,3:0|0:0,0:0:0:0:
439,26,136122,2,0,P|419:43|407:77,1,59.9999981689454,0|0,3:0|0:0,0:0:0:0:
302,207,136296,1,0,3:0:0:0:
239,137,136383,2,0,B|251:198|251:198|300:236,1,119.999996337891,8|0,0:3|0:0,0:0:0:0:
83,305,136732,5,0,3:0:0:0:
67,285,136820,2,0,L|57:214,1,59.9999981689454,0|0,3:0|0:0,0:0:0:0:
165,317,136994,2,0,L|178:250,2,59.9999981689454,0|0|0,3:0|0:0|0:0,0:0:0:0:
250,372,137256,2,0,L|334:262,1,119.999996337891,0|0,3:0|0:0,0:0:0:0:
263,162,137517,2,0,L|255:229,1,59.9999981689454,0|0,3:0|0:0,0:0:0:0:
387,225,137692,1,0,3:0:0:0:
371,139,137779,2,0,P|365:174|375:204,1,59.9999981689454,8|0,0:3|0:0,0:0:0:0:
469,69,137953,1,0,0:0:0:0:
403,25,138040,1,0,0:0:0:0:
322,29,138128,5,0,3:0:0:0:
311,54,138215,2,0,P|282:73|243:60,1,69.9999978637696,0|0,3:0|0:0,0:0:0:0:
68,187,138389,1,0,3:0:0:0:
86,187,138476,2,0,P|115:168|120:127,1,69.9999978637696,0|0,3:0|0:0,3:0:0:0:
347,211,138651,1,0,3:0:0:0:
355,195,138738,2,0,P|357:160|335:135,1,69.9999978637696,0|0,3:0|0:0,3:0:0:0:
223,284,138913,1,0,3:0:0:0:
205,287,139000,2,0,P|172:277|155:247,1,69.9999978637696,0|0,3:0|0:0,3:0:0:0:
329,319,139174,6,0,B|342:342|342:342|356:339|356:339|370:367,1,69.9999978637696,8|0,0:3|0:0,0:0:0:0:
461,367,139349,6,0,P|478:367|492:351,3,34.9999989318848,0|0|0|0,3:3|3:0|3:0|3:0,2:0:0:0:
489,268,139523,5,0,3:0:0:0:
469,258,139610,2,0,P|450:229|441:183,1,59.9999981689454,0|0,3:0|0:0,0:0:0:0:
464,62,139785,2,0,P|446:86|437:114,2,59.9999981689454,0|0|0,3:0|0:0|0:0,0:0:0:0:
262,206,140046,2,0,P|311:169|380:165,1,119.999996337891,0|0,3:0|0:0,0:0:0:0:
197,274,140307,2,0,P|172:260|134:253,1,59.9999981689454,0|0,3:0|0:0,0:0:0:0:
11,372,140482,1,0,3:0:0:0:
25,259,140569,2,0,L|44:387,1,119.999996337891,8|0,3:3|0:0,0:0:0:0:
190,74,140918,5,0,3:0:0:0:
205,59,141005,2,0,P|241:37|284:41,1,59.9999981689454,0|0,3:0|0:0,0:0:0:0:
99,101,141179,2,0,P|98:71|108:43,2,59.9999981689454,0|0|0,3:0|0:0|0:0,0:0:0:0:
152,221,141441,2,0,P|99:187|18:188,1,119.999996337891,0|0,3:0|0:0,0:0:0:0:
239,135,141703,2,0,P|233:167|238:194,1,59.9999981689454,0|0,3:0|0:0,0:0:0:0:
340,282,141877,1,0,3:0:0:0:
232,305,141964,2,0,B|298:303|298:303|364:341,1,119.999996337891,8|0,0:3|0:0,0:0:0:0:
396,95,142313,5,0,3:0:0:0:
411,105,142401,2,0,P|422:136|418:178,1,59.9999981689454,0|0,3:0|0:0,0:0:0:0:
305,59,142575,2,0,P|294:28|298:-14,2,59.9999981689454,0|0|0,3:0|0:0|0:0,0:0:0:0:
193,183,142837,2,0,P|187:123|230:42,1,119.999996337891,0|0,3:0|0:0,0:0:0:0:
65,23,143098,2,0,P|101:45|116:69,1,59.9999981689454,0|0,3:0|0:0,0:0:0:0:
119,225,143273,1,0,3:0:0:0:
36,247,143360,2,0,P|72:225|87:201,1,59.9999981689454,8|0,0:3|0:0,0:0:0:0:
187,348,143534,1,0,0:0:0:0:
264,331,143621,1,0,0:0:0:0:
309,266,143709,5,0,3:0:0:0:
287,238,143796,2,0,P|278:199|312:171,1,69.9999978637696,0|0,3:0|0:0,0:0:0:0:
247,10,143971,1,0,3:0:0:0:
267,18,144058,2,0,P|276:57|242:85,1,69.9999978637696,0|0,3:0|0:0,0:0:0:0:
423,228,144232,1,0,3:0:0:0:
402,234,144319,2,0,P|370:208|380:165,1,69.9999978637696,0|0,3:0|0:0,0:0:0:0:
131,37,144494,1,0,3:0:0:0:
151,30,144581,2,0,P|179:49|182:82,1,69.9999978637696,0|0,3:0|0:0,0:0:0:0:
88,244,144756,6,0,B|89:259|89:259|78:264|78:264|80:268|82:284,3,40,8|0|8|0,0:3|0:0|0:3|0:0,0:0:0:0:
101,293,144930,6,0,P|120:288|136:303,3,40,0|0|0|0,3:0|3:0|3:0|3:0,2:0:0:0:
208,362,145104,5,0,3:0:0:0:
222,344,145192,2,0,P|261:343|305:324,1,75.0000028610231,0|0,3:0|0:0,0:0:0:0:
301,147,145366,1,0,0:0:0:0:
295,157,145454,2,0,B|301:195|301:195|325:232,1,75.0000028610231,8|0,0:1|0:0,0:0:0:0:
512,194,145628,2,0,B|492:227|492:227|457:253,1,75.0000028610231,0|0,3:0|0:0,0:0:0:0:
294,330,145802,1,8,3:3:0:0:
275,287,145889,2,0,P|243:270|184:259,1,75.0000028610231,8|0,0:0|0:0,0:0:0:0:
395,49,146064,5,0,0:0:0:0:
395,49,146151,2,0,B|434:129|377:153|388:186|414:189|437:161,1,150.000005722046,8|0,0:3|0:0,0:0:0:0:
40,338,146500,5,0,3:0:0:0:
48,318,146588,2,0,P|83:301|132:292,1,75.0000028610231,0|0,3:0|0:0,0:0:0:0:
224,95,146761,1,0,0:0:0:0:
230,104,146850,2,0,L|217:187,1,75.0000028610231,8|0,0:1|0:0,0:0:0:0:
72,30,147023,2,0,L|85:113,1,75.0000028610231,0|0,3:0|0:0,0:0:0:0:
314,258,147197,1,8,0:3:0:0:
303,214,147285,2,0,P|260:199|210:199,1,75.0000028610231,8|0,0:2|0:0,0:0:0:0:
20,378,147459,5,0,0:2:0:0:
20,378,147546,2,0,B|21:317|57:271|37:253|10:244|-1:256,1,150.000005722046,8|0,0:3|0:0,0:0:0:0:
298,332,147895,5,0,3:0:0:0:
314,349,147982,2,0,P|349:355|388:345,1,75.0000028610231,0|0,3:0|0:0,0:0:0:0:
457,147,148157,1,0,0:0:0:0:
463,160,148244,2,0,B|441:194|441:194|410:208,1,75.0000028610231,8|0,0:1|0:0,0:0:0:0:
248,104,148418,2,0,B|245:144|245:144|262:173,1,75.0000028610231,0|0,3:0|0:0,0:0:0:0:
386,23,148593,1,8,0:3:0:0:
347,11,148680,1,8,0:0:0:0:
334,15,148767,2,0,P|297:17|249:2,1,75.0000028610231,0|0,0:0|0:0,0:0:0:0:
110,109,148942,6,0,B|105:77|105:77|109:65|109:65|106:35,1,75.0000028610231,8|0,0:3|0:0,0:0:0:0:
23,174,149116,1,0,0:0:0:0:
55,248,149203,1,0,0:0:0:0:
133,273,149290,5,0,3:0:0:0:
145,254,149378,2,0,P|184:252|190:303,1,75.0000028610231,0|0,3:0|0:0,0:0:0:0:
447,191,149552,1,0,3:0:0:0:
435,172,149640,2,0,P|396:170|390:221,1,75.0000028610231,0|0,3:0|0:0,0:0:0:0:
145,50,149814,1,0,3:0:0:0:
157,31,149902,2,0,P|196:29|202:80,1,75.0000028610231,8|8,0:0|3:0,0:0:0:0:
277,238,150075,5,0,3:3:0:0:
306,167,150163,2,0,B|314:133|314:133|302:121|302:121|299:78,1,75.0000028610231,0|0,3:0|0:0,0:0:0:0:
396,304,150337,6,0,B|385:326|355:330|340:303|314:315,1,75.0000028610231,8|0,0:3|0:0,0:0:0:0:
257,353,150511,6,0,B|258:371|258:371|250:375|250:375|254:402,3,37.5000014305115,0|0|0|0,3:0|3:0|3:0|3:0,0:0:0:0:
199,296,150686,5,0,3:0:0:0:
181,313,150774,2,0,P|142:312|96:285,1,85.0000016212464,0|0,3:0|0:0,0:0:0:0:
105,60,150948,1,0,0:0:0:0:
93,62,151036,2,0,B|69:92|69:92|61:138,1,85.0000016212464,8|0,0:1|0:0,0:0:0:0:
246,30,151209,2,0,B|281:45|281:45|309:82,1,85.0000016212464,0|0,3:0|0:0,0:0:0:0:
101,290,151384,1,8,0:3:0:0:
120,247,151471,2,0,P|161:222|219:218,1,85.0000016212464,8|0,0:0|0:0,0:0:0:0:
420,364,151646,1,0,0:0:0:0:
420,364,151733,2,0,B|399:283|459:280|452:219|394:229|393:267,1,170.000003242493,8|0,0:3|0:0,0:0:0:0:
64,10,152082,5,0,3:0:0:0:
72,30,152168,2,0,P|100:53|166:57,1,85.0000016212464
363,11,152343,1,0,0:0:0:0:
371,17,152430,2,0,L|379:110,1,85.0000016212464
216,198,152604,2,0,L|224:291,1,85.0000016212464,0|0,3:0|0:0,0:0:0:0:
448,338,152779,1,8,0:3:0:0:
426,296,152867,2,0,P|383:281|317:291,1,85.0000016212464,8|0,0:0|0:0,0:0:0:0:
66,362,153041,5,0,0:0:0:0:
66,362,153128,2,0,B|178:340|153:406|214:396|209:328|149:339,1,170.000003242493,8|0,0:3|0:0,0:0:0:0:
435,27,153477,5,0,3:0:0:0:
414,39,153564,2,0,P|401:82|402:125,1,85.0000016212464,0|0,3:0|0:0,0:0:0:0:
501,296,153739,1,0,0:0:0:0:
494,287,153826,2,0,B|454:267|454:267|411:274,1,85.0000016212464,8|0,0:1|0:0,0:0:0:0:
186,158,154000,2,0,B|226:138|226:138|269:145,1,85.0000016212464,0|0,3:0|0:0,0:0:0:0:
341,363,154175,1,8,0:0:0:0:
333,313,154262,1,8,0:0:0:0:
320,297,154349,2,0,P|322:248|346:204,1,85.0000016212464,0|0,0:0|0:0,0:0:0:0:
358,27,154524,6,0,B|365:58|365:58|355:75|355:75|367:111,1,85.0000016212464,8|0,0:3|0:0,0:0:0:0:
184,244,154698,1,0,0:0:0:0:
100,223,154785,1,0,0:0:0:0:
77,139,154872,5,0,3:0:0:0:
96,124,154960,2,0,P|128:95|116:34,1,85.0000016212464,8|0,3:2|0:0,0:0:0:0:
336,215,155133,1,0,3:0:0:0:
317,200,155221,2,0,P|285:171|297:110,1,85.0000016212464,0|0,3:0|0:0,0:0:0:0:
63,361,155395,1,0,3:0:0:0:
82,346,155482,2,0,P|114:324|126:299,2,42.5000008106232,0|0|8,3:0|0:0|0:0,0:0:0:0:
217,366,155657,5,0,3:0:0:0:
192,284,155744,1,0,3:0:0:0:
232,201,155831,1,0,3:3:0:0:
319,169,155918,2,0,P|354:137|360:63,1,100,8|0,3:0|0:0,0:0:0:0:
226,5,156093,2,0,P|191:37|185:111,1,100,0|0,3:0|0:0,0:0:0:0:
371,350,156267,5,0,3:0:0:0:
376,363,156442,1,0,0:0:0:0:
381,376,156790,1,0,0:0:0:0:
444,296,156965,2,0,B|444:247|444:247|455:236|455:236|441:196|455:153,1,129.999994049073,2|0,0:1|0:0,0:0:0:0:
240,22,157314,2,0,P|271:40|311:29,1,64.9999970245363,0|0,0:0|0:0,0:0:0:0:
164,121,157488,2,0,P|195:123|222:106,1,64.9999970245363,0|0,0:0|0:0,0:0:0:0:
83,16,157663,5,0,3:0:0:0:
64,32,157750,2,0,L|59:158,1,69.9999978637696,2|0,0:1|0:0,0:0:0:0:
1,300,157924,1,0,0:0:0:0:
9,284,158011,2,0,P|95:263|179:300,1,139.999995727539,8|0,0:3|0:0,0:0:0:0:
485,160,158360,6,0,B|450:182|409:164|409:164|398:177|398:177|371:165|323:168,1,139.999995727539,2|0,0:1|0:0,0:0:0:0:
281,283,158622,1,0,0:0:0:0:
213,225,158709,2,0,P|212:180|283:214,1,139.999995727539,8|0,0:3|0:0,0:0:0:0:
418,357,158971,1,0,0:0:0:0:
404,374,159058,6,0,L|410:130,1,209.999993591309,2|0,0:1|0:0,0:0:0:0:
251,55,159407,2,0,L|351:67,1,69.9999978637696,8|0,0:3|0:0,0:0:0:0:
506,89,159581,2,0,L|436:80,1,69.9999978637696,0|0,0:0|0:0,0:0:0:0:
180,198,159756,6,0,B|190:129|175:89|175:89|134:57,1,139.999995727539,2|0,0:1|0:0,0:0:0:0:
31,283,160017,1,0,0:0:0:0:
13,289,160104,2,0,B|8:261|61:247|44:299|151:281,1,139.999995727539,8|0,0:3|0:0,0:0:0:0:
447,356,160453,5,0,0:0:0:0:
420,334,160540,2,0,L|341:342,1,69.9999978637696,2|0,0:1|0:0,0:0:0:0:
249,253,160715,1,0,0:0:0:0:
266,245,160802,2,0,P|336:234|333:167,1,139.999995727539,8|0,0:3|0:0,0:0:0:0:
47,83,161151,6,0,P|116:114|203:92,1,139.999995727539,2|0,0:1|0:0,0:0:0:0:
333,39,161413,1,0,0:0:0:0:
327,22,161500,2,0,P|293:16|259:54,1,69.9999978637696,8|0,0:3|0:0,0:0:0:0:
404,121,161674,2,0,P|413:103|414:89,3,34.9999989318848,0|0|0|0,0:0|0:0|0:0|0:0,0:0:0:0:
465,180,161849,6,0,P|491:231|388:234,1,209.999993591309,2|0,0:1|0:0,0:0:0:0:
387,212,162197,1,8,0:3:0:0:
286,376,162372,1,0,0:0:0:0:
195,135,162546,6,0,B|188:181|201:210|201:210|181:217|181:217|182:245|178:268,1,139.999995727539,2|0,0:1|0:0,0:0:0:0:
61,358,162808,1,0,0:0:0:0:
68,376,162895,2,0,L|169:389,1,69.9999978637696,8|0,0:3|0:0,0:0:0:0:
21,291,163070,2,0,P|25:239|35:217,1,69.9999978637696,0|0,0:0|0:0,0:0:0:0:
240,139,163244,5,0,0:0:0:0:
220,126,163331,2,0,P|158:85|248:54,1,209.999993591309,2|8,0:1|0:3,0:0:0:0:
299,260,163767,1,0,0:0:0:0:
405,89,163942,2,0,P|421:157|411:250,1,139.999995727539,2|0,0:1|0:0,0:0:0:0:
239,335,164203,1,0,0:0:0:0:
248,321,164290,2,0,P|304:308|331:313,1,69.9999978637696,8|0,0:3|0:0,0:0:0:0:
185,215,164465,2,0,P|129:202|102:207,1,69.9999978637696,0|0,0:0|0:0,0:0:0:0:
18,350,164639,6,0,B|37:280|37:280|28:200,1,139.999995727539,2|0,0:1|0:0,0:0:0:0:
6,41,164988,1,8,0:3:0:0:
64,127,165163,1,0,0:0:0:0:
349,70,165337,2,0,B|252:55|279:117|193:115|150:67,1,209.999993591309,2|0,0:1|0:0,0:0:0:0:
248,197,165686,2,0,P|265:163|266:114,1,69.9999978637696,8|0,0:3|0:0,0:0:0:0:
133,261,165860,2,0,P|116:227|115:178,1,69.9999978637696,0|0,0:0|0:0,0:0:0:0:
307,295,166035,5,0,0:0:0:0:
259,285,166122,1,2,0:1:0:0:
215,303,166209,2,0,P|192:334|149:350,1,69.9999978637696,0|0,0:0|0:0,0:0:0:0:
20,229,166383,2,0,P|23:297|73:345,1,139.999995727539,8|0,0:3|0:0,0:0:0:0:
244,81,166732,6,0,L|25:97,1,209.999993591309,2|0,0:1|0:0,0:0:0:0:
20,115,167081,1,8,0:3:0:0:
172,172,167256,2,0,L|184:136,3,34.9999989318848,0|0|0|0,0:0|0:0|0:0|0:0,0:0:0:0:
244,81,167430,6,0,L|344:74,1,69.9999978637696,0|0,0:0|0:0,0:0:0:0:
224,63,167604,2,0,L|400:50,1,139.999995727539,2|8,0:1|0:3,0:0:0:0:
463,182,167866,1,0,0:0:0:0:
445,168,167953,2,0,P|434:135|437:86,1,69.9999978637696,0|2,0:0|0:1,0:0:0:0:
165,275,168215,2,0,L|165:323,1,34.9999989318848,8|0,0:0|0:0,0:0:0:0:
189,255,168302,2,0,L|259:243,1,69.9999978637696,2|0,0:1|0:0,0:0:0:0:
347,384,168476,1,8,0:3:0:0:
92,353,168651,1,0,0:0:0:0:
495,353,168825,5,0,0:0:0:0:
470,319,168913,2,0,P|455:251|471:156,1,139.999995727539,2|0,0:1|0:0,0:0:0:0:
337,88,169174,2,0,P|367:107|410:113,1,69.9999978637696,8|0,0:3|0:0,0:0:0:0:
310,219,169349,2,0,P|280:238|237:244,1,69.9999978637696,0|0,0:0|0:0,0:0:0:0:
102,61,169523,6,0,P|122:122|124:221,1,139.999995727539,2|0,0:1|0:0,0:0:0:0:
78,353,169785,1,0,0:0:0:0:
3,356,169872,2,0,P|22:301|116:289,1,139.999995727539,8|0,0:3|0:0,0:0:0:0:
357,384,170221,6,0,B|361:314|361:314|386:277|386:277|392:170,1,209.999993591309,2|0,0:1|0:0,0:0:0:0:
379,164,170570,1,8,0:3:0:0:
462,311,170744,1,0,0:0:0:0:
219,176,170918,6,0,P|199:92|304:69,1,209.999993591309,2|0,0:1|0:0,0:0:0:0:
307,221,171267,2,0,P|228:214|173:253,1,139.999995727539,8|0,0:3|0:0,0:0:0:0:
58,15,171616,5,0,0:0:0:0:
26,46,171703,2,0,P|19:81|22:134,1,69.9999978637696,2|0,0:1|0:0,0:0:0:0:
67,246,171878,1,0,0:0:0:0:
81,256,171965,2,0,L|150:259,1,69.9999978637696,8|0,0:3|0:0,0:0:0:0:
218,138,172139,2,0,L|149:141,1,69.9999978637696,0|0,0:0|0:0,0:0:0:0:
275,340,172314,6,0,B|257:228|257:228|321:145,1,209.999993591309,2|0,0:1|0:0,0:0:0:0:
453,219,172663,2,0,B|416:222|416:222|384:210,1,69.9999978637696,8|0,0:3|0:0,0:0:0:0:
341,66,172837,2,0,P|342:42|353:31,3,34.9999989318848,0|0|0|0,0:0|0:0|0:0|0:0,0:0:0:0:
396,132,173011,6,0,L|473:143,1,69.9999978637696,2|0,0:1|0:0,0:0:0:0:
483,147,173186,1,0,0:0:0:0:
252,266,173360,1,8,0:3:0:0:
390,302,173535,1,0,0:0:0:0:
216,161,173709,6,0,B|174:161|145:185|145:185|93:136|20:169,1,209.999993591309,2|0,0:1|0:0,0:0:0:0:
64,326,174058,2,0,L|77:245,1,69.9999978637696,8|0,0:3|0:0,0:0:0:0:
237,353,174232,2,0,P|169:354|144:361,1,69.9999978637696,0|0,0:0|0:0,0:0:0:0:
314,177,174407,5,0,0:0:0:0:
327,193,174494,2,0,B|362:271|321:268|328:339,1,139.999995727539,2|0,0:1|0:0,0:0:0:0:
407,382,174756,1,8,0:3:0:0:
480,239,174930,1,0,0:0:0:0:
221,134,175104,6,0,B|157:132|129:157|129:157|129:132|118:109,1,139.999995727539,2|0,0:1|0:0,0:0:0:0:
67,299,175366,1,0,0:0:0:0:
24,231,175453,2,0,P|21:194|43:160,1,69.9999978637696,8|0,0:3|0:0,0:0:0:0:
185,228,175628,2,0,P|173:261|146:282,1,69.9999978637696,0|0,0:0|0:0,0:0:0:0:
327,343,175802,6,0,P|243:337|182:365,1,139.999995727539,2|0,0:1|0:0,0:0:0:0:
386,217,176151,1,8,0:3:0:0:
441,374,176325,1,0,0:0:0:0:
468,144,176500,6,0,B|473:104|449:72|449:72|463:55|463:55|462:6,1,139.999995727539,2|0,0:1|0:0,0:0:0:0:
282,57,176761,1,0,0:0:0:0:
294,75,176849,2,0,L|373:86,1,69.9999978637696,8|0,0:3|0:0,0:0:0:0:
251,175,177023,2,0,L|192:138,1,69.9999978637696,0|0,0:0|0:0,0:0:0:0:
288,335,177197,5,0,0:0:0:0:
276,320,177285,2,0,P|309:247|405:307,1,209.999993591309,2|8,0:1|0:3,0:0:0:0:
450,145,177721,1,0,0:0:0:0:
207,98,177895,5,0,0:0:0:0:
265,171,177982,2,0,B|253:110|253:110|246:60|285:37,1,139.999995727539,2|0,0:1|0:0,0:0:0:0:
151,212,178244,2,0,L|72:210,1,69.9999978637696,8|0,0:3|0:0,0:0:0:0:
300,278,178418,2,0,L|289:230,3,34.9999989318848,0|0|0|0,0:0|0:0|0:0|0:0,0:0:0:0:
219,326,178593,5,2,0:1:0:0:
139,350,178767,1,0,0:0:0:0:
423,119,179116,5,0,3:0:0:0:
286,74,179290,1,8,0:2:0:0:
420,101,179465,1,0,0:0:0:0:
282,166,179639,2,0,L|285:78,1,55.0000016784668,0|0,0:0|0:0,0:0:0:0:
285,91,179814,1,0,0:0:0:0:
192,310,179988,5,0,3:0:0:0:
40,342,180163,1,0,0:0:0:0:
36,325,180250,2,0,L|22:262,1,55.0000016784668,0|0,0:0|0:0,0:0:0:0:
204,357,180511,1,0,0:0:0:0:
342,95,180686,5,8,0:0:0:0:
400,245,180860,1,0,0:0:0:0:
359,106,181035,1,0,0:0:0:0:
406,226,181209,1,0,0:0:0:0:
90,2,181383,6,0,L|75:180,1,165.000005035401,2|0,3:1|0:0,0:0:0:0:
87,185,181732,1,0,0:0:0:0:
5,91,181907,1,0,0:0:0:0:
301,236,182081,5,8,0:0:0:0:
163,283,182256,1,0,0:0:0:0:
305,294,182430,1,0,3:0:0:0:
304,275,182516,1,0,3:0:0:0:
303,256,182604,1,0,3:0:0:0:
456,31,182779,5,0,3:0:0:0:
512,211,182953,1,0,0:0:0:0:
504,229,183040,1,0,0:0:0:0:
472,9,183302,1,0,0:0:0:0:
146,73,183476,5,8,0:0:0:0:
220,194,183651,1,0,0:0:0:0:
46,95,183825,2,0,L|120:78,1,55.0000016784668,0|0,3:0|0:0,0:0:0:0:
124,78,184000,1,0,0:0:0:0:
69,294,184174,6,0,L|75:358,1,64.9999970245363,0|0,0:0|0:0,0:0:0:0:
203,232,184523,2,0,B|175:282|175:282|172:365,1,139.999995727539,2|0,0:1|0:0,0:0:0:0:
456,137,184872,5,8,0:0:0:0:
271,88,185046,1,0,0:0:0:0:
470,229,185221,2,0,L|462:162,1,55.0000016784668,0|0,0:0|0:0,0:0:0:0:
459,157,185395,1,0,0:0:0:0:
181,260,185570,5,0,3:0:0:0:
53,141,185744,1,0,0:0:0:0:
37,148,185831,1,0,0:0:0:0:
189,240,186093,1,0,0:0:0:0:
329,14,186267,5,8,0:0:0:0:
381,171,186442,1,0,0:0:0:0:
338,41,186616,1,0,0:0:0:0:
372,143,186790,1,0,0:0:0:0:
82,12,186965,6,0,L|42:182,1,165.000005035401,2|0,3:1|0:0,0:0:0:0:
59,185,187314,1,0,0:0:0:0:
182,146,187489,1,0,0:0:0:0:
259,360,187663,5,8,0:0:0:0:
362,224,187838,1,0,0:0:0:0:
334,366,188012,1,0,0:0:0:0:
315,365,188098,1,0,0:0:0:0:
296,364,188186,1,0,0:0:0:0:
168,19,188360,5,0,3:3:0:0:
164,161,188535,1,0,0:0:0:0:
165,139,188622,1,0,0:0:0:0:
166,117,188709,1,0,3:0:0:0:
156,366,188883,1,0,3:0:0:0:
284,124,189058,1,8,0:0:0:0:
47,112,189232,1,0,0:0:0:0:
356,16,189407,6,0,B|382:8|382:8|414:9,1,55.0000016784668,0|0,3:0|0:0,0:0:0:0:
466,254,189581,2,0,B|436:243|436:243|399:244,1,55.0000016784668,0|0,3:0|0:0,0:0:0:0:
159,286,189756,6,0,L|160:233,1,37.5000014305115,0|0,0:0|0:0,0:0:0:0:
232,378,190279,1,0,3:0:0:0:
234,363,190628,1,0,3:0:0:0:
363,302,190802,2,0,B|339:313|318:291|273:313,1,75.0000028610231,0|0,0:0|3:0,0:0:0:0:
47,103,191325,6,0,L|44:30,1,37.5000014305115,0|0,3:0|0:0,0:0:0:0:
121,166,191674,1,0,3:0:0:0:
135,170,192023,1,0,3:0:0:0:
201,55,192197,2,0,B|214:93|196:107|207:138,1,75.0000028610231,0|0,0:0|3:0,0:0:0:0:
477,238,192721,5,0,3:0:0:0:
462,242,193070,1,0,3:0:0:0:
447,246,193418,1,0,3:0:0:0:
341,183,193593,2,0,B|389:190|396:165|426:175,1,75.0000028610231,0|0,0:0|3:0,0:0:0:0:
105,317,194116,6,0,L|112:265,1,37.5000014305115,0|0,3:0|0:0,0:0:0:0:
43,382,194465,1,0,3:0:0:0:
41,367,194814,1,0,3:0:0:0:
173,380,194988,2,0,B|215:334|173:305|197:207,1,150.000005722046,0|0,3:0|0:0,0:0:0:0:
390,189,195511,5,0,3:0:0:0:
376,182,195860,1,0,3:0:0:0:
362,175,196209,1,0,3:0:0:0:
451,275,196383,2,0,B|451:245|469:221|457:192,1,75.0000028610231,0|0,0:0|3:0,0:0:0:0:
102,66,196907,5,0,3:0:0:0:
116,62,197256,1,0,3:0:0:0:
130,58,197604,1,0,3:0:0:0:
24,166,197779,2,0,B|41:123|19:118|25:80,1,75.0000028610231,0|0,0:0|3:0,0:0:0:0:
260,356,198302,5,0,3:0:0:0:
262,341,198651,1,0,3:0:0:0:
264,326,199000,1,0,3:0:0:0:
152,381,199174,2,0,B|139:351|146:323|144:297,1,75.0000028610231,0|0,0:0|3:0,0:0:0:0:
425,58,199697,5,0,3:0:0:0:
350,64,200046,1,0,3:0:0:0:
275,69,200395,1,0,3:0:0:0:
132,216,200570,6,0,B|165:153|111:136|146:99|189:104|200:136,1,150.000005722046,0|0,0:0|0:0,0:0:0:0:
