osu file format v14

[General]
AudioFilename: audio.mp3
AudioLeadIn: 0
PreviewTime: 28479
Countdown: 0
SampleSet: None
StackLeniency: 0.7
Mode: 0
LetterboxInBreaks: 1
WidescreenStoryboard: 1

[Editor]
DistanceSpacing: 1
BeatDivisor: 4
GridSize: 8
TimelineZoom: 1

[Metadata]
Title:Alone Together
TitleUnicode:Alone Together
Artist:aivi & surrashu
ArtistUnicode:aivi & surrashu
Creator:Angelin Dash
Version:Easy
Source:Steven Universe
Tags:crystal gems acoustic
BeatmapID:1098478
BeatmapSetID:516946

[Difficulty]
HPDrainRate:2
CircleSize:3
OverallDifficulty:4
ApproachRate:4
SliderMultiplier:1.2
SliderTickRate:1

[Events]
//Background and Video events
0,0,"a0KSyxR.jpg",0,0
//Break Periods
//Storyboard Layer 0 (Background)
//Storyboard Layer 1 (Fail)
//Storyboard Layer 2 (Pass)
//Storyboard Layer 3 (Foreground)
//Storyboard Sound Samples

[TimingPoints]
244,588.235294117647,4,3,0,50,1,0
28479,-100,4,2,0,70,0,1
35538,-100,4,2,0,100,0,1
37302,-100,4,2,0,70,0,1
43185,-100,4,2,0,100,0,1
44949,-100,4,2,0,70,0,0
49067,-100,4,2,0,10,0,0

[Colours]
Combo1 : 217,148,243
Combo2 : 248,140,129
Combo3 : 255,255,164
Combo4 : 242,187,225

[HitObjects]
264,192,244,6,0,P|319:140|317:88,2,120
240,112,2008,2,0,P|195:145|183:210,2,120
264,192,3773,5,0,0:0:0:0:
344,192,4361,1,0,0:0:0:0:
424,192,4949,6,0,L|488:304,2,120
312,192,6714,1,0,0:0:0:0:
200,192,7302,6,0,P|272:300|423:172,1,360,0|8,0:0|0:0,0:0:0:0:
312,192,9655,5,0,0:0:0:0:
368,192,9949,1,0,0:0:0:0:
423,191,10243,2,0,L|433:129,1,60,4|0,0:0|0:0,0:0:0:0:
360,96,10832,1,0,0:0:0:0:
280,104,11420,2,0,P|231:137|203:190,2,120,0|4|0,0:0|0:0|0:0,0:0:0:0:
416,256,13185,5,0,0:0:0:0:
368,288,13479,1,0,0:0:0:0:
320,320,13773,2,0,L|264:258,1,60,4|0,0:0|0:0,0:0:0:0:
240,209,14361,1,0,0:0:0:0:
308,163,14949,2,0,P|246:127|180:155,2,120,0|4|0,0:0|0:0|0:0,0:0:0:0:
219,247,16714,5,0,0:0:0:0:
265,279,17008,1,0,0:0:0:0:
310,310,17302,2,0,L|359:249,1,60,4|0,0:0|0:0,0:0:0:0:
384,192,17891,1,0,0:0:0:0:
304,168,18479,2,0,P|343:117|421:116,2,120,0|4|0,0:0|0:0|0:0,0:0:0:0:
328,264,20243,5,0,0:0:0:0:
280,264,20537,1,0,0:0:0:0:
232,264,20832,1,4,0:0:0:0:
184,264,21126,2,0,L|128:208,1,60
272,128,22008,5,0,0:0:0:0:
320,128,22303,1,0,0:0:0:0:
360,128,22596,1,0,0:0:0:0:
400,128,22891,2,0,L|460:180,1,60,0|4,0:0|0:0,0:0:0:0:
256,312,23773,5,0,0:0:0:0:
320,224,24361,1,4,0:0:0:0:
320,224,24655,2,0,P|293:187|291:149,1,60
208,176,25243,1,0,0:0:0:0:
208,176,25538,2,0,P|198:204|178:226,2,60,4|0|0,0:0|0:0|0:0,0:0:0:0:
40,136,26714,5,0,0:0:0:0:
88,136,27008,1,4,0:0:0:0:
136,136,27302,2,0,P|235:79|328:144,1,240,0|2,0:0|0:0,0:0:0:0:
240,176,29067,5,8,0:0:0:0:
240,176,29361,2,0,L|288:240,1,60
126,221,30243,1,8,0:0:0:0:
74,285,30832,2,0,P|176:284|194:260,1,120,0|8,0:0|0:0,0:0:0:0:
264,280,32008,1,0,0:0:0:0:
224,208,32596,1,8,0:0:0:0:
144,176,33185,6,0,P|178:134|256:128,2,120,0|8|0,0:0|0:0|0:0,0:0:0:0:
88,176,34655,1,0,0:0:0:0:
32,176,34949,1,4,0:0:0:0:
112,272,35538,5,2,0:0:0:0:
194,185,36126,5,0,0:0:0:0:
307,226,36714,5,2,0:0:0:0:
392,152,37302,5,0,0:0:0:0:
311,231,37891,5,0,0:0:0:0:
311,231,38479,2,0,L|351:279,1,60,8|0,0:0|0:0,0:0:0:0:
424,232,39067,2,0,L|508:328,2,120,0|8|0,0:0|0:0|0:0,0:0:0:0:
311,231,40832,5,8,0:0:0:0:
281,155,41126,2,0,P|252:172|233:217,2,60
236,85,42008,2,0,P|187:118|160:178,1,120,8|0,0:0|0:0,0:0:0:0:
256,336,43185,6,0,L|304:288,1,60,2|0,0:0|0:0,0:0:0:0:
256,192,43773,6,0,L|200:144,1,60
256,40,44361,6,0,L|320:40,1,60,2|0,0:0|0:0,0:0:0:0:
256,192,44949,12,2,49067,0:0:0:0:
