osu file format v14

[General]
AudioFilename: audio.mp3
AudioLeadIn: 0
PreviewTime: 209
Countdown: 0
SampleSet: Soft
StackLeniency: 0.7
Mode: 0
LetterboxInBreaks: 0
WidescreenStoryboard: 0

[Editor]
DistanceSpacing: 1
BeatDivisor: 4
GridSize: 4
TimelineZoom: 1

[Metadata]
Title:We Are The Crystal Gems (feat. Zach Callison) (Change Your Mind Version)
TitleUnicode:We Are The Crystal Gems (feat. Zach Callison) (Change Your Mind Version)
Artist:aivi & surasshu
ArtistUnicode:aivi & surasshu
Creator:riot1133
Version:Insane
Source:Steven Universe
Tags:steven universe vol 2 zach callison english pop rock tv size cartoon network cn hand shake
BeatmapID:3444649
BeatmapSetID:1685504

[Difficulty]
HPDrainRate:5
CircleSize:4
OverallDifficulty:8.5
ApproachRate:9
SliderMultiplier:1.4
SliderTickRate:1

[Events]
//Background and Video events
0,0,"735747.png",0,0
//Break Periods
//Storyboard Layer 0 (Background)
//Storyboard Layer 1 (Fail)
//Storyboard Layer 2 (Pass)
//Storyboard Layer 3 (Foreground)
//Storyboard Layer 4 (Overlay)
//Storyboard Sound Samples

[TimingPoints]
300,363.636363636364,4,2,1,70,1,0
25845,-100,4,2,1,30,0,0
25936,-100,4,2,1,70,0,0
31663,-100,4,2,1,30,0,0
31754,-100,4,2,1,70,0,0
37481,-100,4,2,1,30,0,0
37572,-100,4,2,1,70,0,0
39845,-100,4,2,1,30,0,0
39936,-100,4,2,1,70,0,0
40390,-100,4,2,1,30,0,0
40481,-100,4,2,1,70,0,0
41027,-133.333333333333,4,2,1,50,0,0
46845,-100,4,2,1,60,0,0
84027,-100,4,2,1,30,0,0
84118,-100,4,2,1,70,0,0
89845,-100,4,2,1,30,0,0
89936,-100,4,2,1,70,0,0
95663,-100,4,2,1,30,0,0
95754,-100,4,2,1,70,0,0
98572,-100,4,2,1,30,0,0
98663,-100,4,2,1,70,0,0
99209,-133.333333333333,4,2,1,70,0,0
100936,-133.333333333333,4,2,1,30,0,0
101027,-133.333333333333,4,2,1,70,0,0
101481,-133.333333333333,4,2,1,30,0,0
101572,-133.333333333333,4,2,1,70,0,0
102118,-133.333333333333,4,2,1,50,0,0
103390,-133.333333333333,4,2,1,30,0,0
103572,-133.333333333333,4,2,1,50,0,0
105027,-100,4,2,1,70,0,0
116663,-200,4,2,1,70,0,0
118118,-200,4,2,1,50,0,0
119572,-200,4,2,1,30,0,0
121027,-200,4,2,1,20,0,0
122481,-200,4,2,1,10,0,0

[Colours]
Combo1 : 255,128,192
Combo2 : 128,0,64
Combo3 : 128,128,192
Combo4 : 162,222,242

[HitObjects]
223,184,300,6,4,P|261:168|291:174,1,70,6|0,3:0|0:0,0:0:0:0:
358,238,663,1,8,0:0:0:0:
277,330,845,2,0,L|268:257,1,70,0|0,3:0|0:0,0:0:0:0:
223,184,1209,1,8,0:0:0:0:
138,222,1390,2,0,L|129:291,1,70,0|0,3:0|0:0,0:0:0:0:
0,146,1754,6,0,B|34:163|34:163|68:156,1,70,2|0,3:0|0:0,0:0:0:0:
118,73,2118,1,10,0:0:0:0:
222,17,2300,2,0,L|213:86,1,70,2|0,3:0|0:0,0:0:0:0:
276,159,2663,1,10,0:0:0:0:
369,141,2845,2,0,L|360:71,1,70,0|2,3:0|3:0,0:0:0:0:
512,220,3209,6,0,P|442:227|373:237,1,140,0|8,3:0|0:0,0:0:0:0:
287,288,3754,2,0,P|217:277|148:270,1,140,0|8,3:0|0:0,0:0:0:0:
52,306,4300,2,0,L|61:376,1,70,0|2,3:0|0:0,0:0:0:0:
0,223,4663,5,2,3:0:0:0:
122,175,4845,1,0,3:0:0:0:
34,36,5027,1,10,0:0:0:0:
17,129,5209,1,0,3:0:0:0:
208,136,5390,5,2,0:0:0:0:
138,22,5572,1,0,3:0:0:0:
106,204,5754,1,10,0:0:0:0:
239,40,5936,1,10,0:0:0:0:
307,113,6118,6,0,B|375:106|363:151|439:145,1,140,4|8,3:0|0:0,0:0:0:0:
512,218,6663,2,0,P|501:287|494:356,1,140,0|8,3:0|0:0,0:0:0:0:
409,306,7209,1,0,3:0:0:0:
409,306,7390,1,2,0:0:0:0:
325,353,7572,5,2,3:0:0:0:
249,266,7754,2,0,L|318:257,1,70,2|8,0:0|0:0,0:0:0:0:
473,211,8118,2,0,L|403:202,1,70,2|0,3:0|0:0,0:0:0:0:
351,83,8481,1,10,0:0:0:0:
286,164,8663,1,0,3:0:0:0:
226,44,8845,1,2,3:0:0:0:
138,91,9027,6,0,P|148:160|155:229,1,140,0|8,3:0|0:0,0:0:0:0:
187,315,9572,2,0,P|140:264|72:259,1,140,0|8,3:0|0:0,0:0:0:0:
14,328,10118,1,0,3:0:0:0:
14,328,10300,1,2,0:0:0:0:
7,199,10481,5,2,3:0:0:0:
102,346,10663,1,0,3:0:0:0:
187,220,10845,1,10,0:0:0:0:
72,259,11027,1,0,3:0:0:0:
220,319,11209,5,10,0:0:0:0:
286,189,11390,1,8,0:0:0:0:
286,189,11481,1,8,0:0:0:0:
381,155,11663,1,8,0:0:0:0:
381,155,11754,1,10,0:0:0:0:
512,216,11936,6,0,B|443:209|455:254|379:248,1,140,4|8,3:0|0:0,0:0:0:0:
267,330,12481,2,0,P|336:336|405:347,1,140,0|8,3:0|0:0,0:0:0:0:
512,372,13027,2,0,P|496:340|500:306,1,70,2|0,3:0|0:0,0:0:0:0:
379,248,13390,5,0,3:0:0:0:
456,99,13572,1,2,3:0:0:0:
512,216,13754,1,8,0:0:0:0:
311,146,13936,2,0,L|380:154,1,70,2|2,3:0|0:0,0:0:0:0:
512,0,14300,1,10,0:0:0:0:
334,49,14481,1,0,3:0:0:0:
456,99,14663,1,0,0:0:0:0:
222,131,14845,6,0,P|217:165|233:196,1,70,2|0,3:0|0:0,0:0:0:0:
324,244,15209,1,8,0:0:0:0:
157,264,15390,1,0,3:0:0:0:
238,384,15572,2,0,P|253:352|249:318,1,70,2|8,0:0|0:0,0:0:0:0:
65,311,15936,2,0,L|73:381,1,70,0|0,3:0|0:0,0:0:0:0:
24,179,16300,6,0,B|58:196|58:196|90:189,1,70,2|0,3:0|3:0,0:0:0:0:
157,264,16663,1,8,0:0:0:0:
222,131,16845,2,0,B|287:103|287:103|359:111,1,140,0|0,3:0|3:0,0:0:0:0:
409,30,17390,1,10,0:0:0:0:
434,165,17572,1,10,0:0:0:0:
512,245,17754,6,0,P|443:251|374:262,1,140,4|8,3:0|0:0,0:0:0:0:
224,341,18300,2,0,P|293:347|362:358,1,140,0|8,3:0|0:0,0:0:0:0:
457,338,18845,1,0,3:0:0:0:
277,225,19209,6,0,P|242:221|211:236,1,70,2|0,3:0|0:0,0:0:0:0:
128,376,19572,1,10,0:0:0:0:
51,268,19754,2,0,P|85:264|116:279,1,70,2|0,3:0|0:0,0:0:0:0:
224,341,20118,1,10,0:0:0:0:
211,236,20300,1,0,3:0:0:0:
326,305,20481,1,2,3:0:0:0:
187,145,20663,6,0,P|233:195|301:201,1,140,0|8,3:0|0:0,0:0:0:0:
362,127,21209,1,0,3:0:0:0:
168,50,21390,1,2,0:0:0:0:
289,23,21572,1,8,0:0:0:0:
187,144,21754,2,0,B|155:151|155:151|121:134,1,70,0|0,3:0|0:0,0:0:0:0:
78,3,22118,5,2,3:0:0:0:
28,169,22300,1,0,3:0:0:0:
0,64,22481,1,8,0:0:0:0:
121,134,22663,1,0,3:0:0:0:
45,315,22845,5,10,0:0:0:0:
28,169,23027,1,8,0:0:0:0:
28,169,23118,1,8,0:0:0:0:
107,236,23300,1,8,0:0:0:0:
107,236,23390,1,8,0:0:0:0:
170,380,23572,6,0,B|239:387|227:342|303:348,1,140,6|8,3:0|0:0,0:0:0:0:
402,384,24118,2,0,P|390:314|384:245,1,140,0|0,3:0|3:0,0:0:0:0:
438,172,24663,1,8,0:0:0:0:
438,172,25027,6,0,P|432:103|382:57,1,140,2|8,3:0|0:0,0:0:0:0:
250,106,25572,1,0,3:0:0:0:
346,146,25754,1,2,0:0:0:0:
346,146,25845,1,8,0:0:0:0:
346,146,25936,1,0,3:0:0:0:
253,11,26118,1,8,0:0:0:0:
155,135,26300,1,0,0:0:0:0:
76,63,26481,6,0,P|69:132|58:201,1,140,2|8,3:0|0:0,0:0:0:0:
47,299,27027,2,0,B|116:306|104:261|180:267,1,140,0|0,3:0|3:0,0:0:0:0:
237,334,27572,1,8,0:0:0:0:
33,328,27936,5,0,3:0:0:0:
33,328,28118,1,0,3:0:0:0:
159,168,28300,1,2,3:0:0:0:
179,266,28481,1,8,0:0:0:0:
179,266,28572,1,8,0:0:0:0:
179,266,28663,1,0,3:0:0:0:
256,124,28845,2,0,P|290:120|321:135,1,70,2|0,3:0|0:0,0:0:0:0:
287,287,29209,1,8,0:0:0:0:
287,287,29300,1,8,0:0:0:0:
287,287,29390,6,0,P|333:236|401:231,1,140,2|8,3:0|0:0,0:0:0:0:
512,361,29936,2,0,B|443:368|455:323|379:329,1,140,0|0,3:0|3:0,0:0:0:0:
301,384,30481,1,8,0:0:0:0:
301,384,30845,6,0,P|255:334|187:328,1,140,2|8,3:0|0:0,0:0:0:0:
97,384,31390,1,0,3:0:0:0:
0,244,31572,1,2,0:0:0:0:
0,244,31663,1,8,0:0:0:0:
0,244,31754,1,0,3:0:0:0:
95,293,31936,1,8,0:0:0:0:
184,127,32118,1,0,0:0:0:0:
80,65,32300,6,0,P|91:134|98:203,1,140,2|8,3:0|0:0,0:0:0:0:
187,357,32845,2,0,P|194:287|205:218,1,140,0|0,3:0|3:0,0:0:0:0:
280,150,33390,1,8,0:0:0:0:
167,22,33754,5,0,3:0:0:0:
167,22,33936,1,0,3:0:0:0:
327,71,34118,1,2,3:0:0:0:
256,0,34300,1,8,0:0:0:0:
256,0,34390,1,8,0:0:0:0:
256,0,34481,1,0,3:0:0:0:
280,150,34663,2,0,P|311:165|345:161,1,70,2|0,3:0|0:0,0:0:0:0:
460,0,35027,1,8,0:0:0:0:
460,0,35117,1,8,0:0:0:0:
460,0,35209,6,0,P|448:69|441:138,1,140,2|8,3:0|0:0,0:0:0:0:
512,294,35754,2,0,P|466:243|398:237,1,140,0|0,3:0|3:0,0:0:0:0:
320,296,36300,1,8,0:0:0:0:
104,265,36663,6,0,B|173:272|161:227|237:233,1,140,2|8,3:0|0:0,0:0:0:0:
320,296,37209,1,0,3:0:0:0:
301,152,37390,1,2,0:0:0:0:
301,152,37481,1,8,0:0:0:0:
301,152,37572,1,0,3:0:0:0:
132,157,37754,1,8,0:0:0:0:
224,323,37936,1,0,0:0:0:0:
79,384,38118,6,0,P|71:314|60:245,1,140,2|8,3:0|0:0,0:0:0:0:
0,125,38663,2,0,B|69:118|57:163|133:157,1,140,0|0,3:0|3:0,0:0:0:0:
207,84,39209,1,8,0:0:0:0:
16,29,39572,5,2,3:0:0:0:
118,70,39754,1,2,0:0:0:0:
15,215,39936,1,10,0:0:0:0:
163,176,40118,1,2,3:0:0:0:
12,121,40300,5,2,0:0:0:0:
207,84,40481,1,2,3:0:0:0:
82,283,40663,1,10,0:0:0:0:
270,179,40845,1,2,3:0:0:0:
208,334,41027,6,0,B|254:220|341:306|361:250|327:214|351:164|453:255|499:128,1,367.500014019013,2|0,3:0|3:0,0:0:0:0:
406,105,42481,2,0,P|353:117|302:121,3,105.000004005432,0|0|0|0,3:0|0:0|0:0|0:0,0:0:0:0:
176,82,43936,2,0,P|123:76|72:65,1,105.000004005432,0|0,3:0|0:0,0:0:0:0:
0,189,44663,2,0,P|52:183|103:172,1,105.000004005432,0|0,3:0|0:0,0:0:0:0:
187,235,45209,1,0,3:0:0:0:
187,235,45390,5,0,3:0:0:0:
124,310,45754,1,0,3:0:0:0:
199,373,46118,1,0,3:0:0:0:
199,373,46845,6,0,P|237:357|267:363,1,70,4|0,3:0|0:0,0:0:0:0:
354,324,47209,1,10,0:0:0:0:
354,324,47390,1,2,3:0:0:0:
288,256,47572,1,2,0:0:0:0:
288,256,47754,1,10,0:0:0:0:
336,123,47936,1,2,3:0:0:0:
381,211,48118,1,2,0:0:0:0:
243,167,48300,6,0,L|234:98,1,70,2|0,3:0|0:0,0:0:0:0:
223,3,48663,1,10,0:0:0:0:
129,48,48845,2,0,L|120:117,1,70,2|0,3:0|0:0,0:0:0:0:
65,204,49209,2,0,P|27:188|-3:194,2,70,8|0|0,0:0|3:0|0:0,0:0:0:0:
168,291,49754,5,2,3:0:0:0:
207,203,49936,2,0,B|241:186|241:186|275:193,1,70,2|8,0:0|0:0,0:0:0:0:
336,285,50300,2,0,B|302:302|302:302|268:295,1,70,2|0,3:0|0:0,0:0:0:0:
79,312,50663,2,0,P|113:307|144:323,1,70,10|0,0:0|3:0,0:0:0:0:
224,384,51027,1,2,0:0:0:0:
336,285,51209,5,2,3:0:0:0:
336,285,51390,1,2,3:0:0:0:
289,197,51572,1,10,0:0:0:0:
236,281,51754,1,2,3:0:0:0:
222,123,51936,5,2,0:0:0:0:
222,123,52118,1,2,3:0:0:0:
83,159,52300,1,10,0:0:0:0:
172,206,52481,1,8,0:0:0:0:
134,76,52663,5,0,3:0:0:0:
285,49,53027,1,10,0:0:0:0:
285,49,53209,1,2,3:0:0:0:
378,104,53390,1,2,0:0:0:0:
378,104,53572,1,10,0:0:0:0:
469,57,53754,1,2,3:0:0:0:
416,181,53936,1,2,0:0:0:0:
288,159,54118,6,0,L|297:228,1,70,2|0,3:0|0:0,0:0:0:0:
419,276,54481,1,10,0:0:0:0:
501,225,54663,2,0,L|510:156,1,70,2|0,3:0|0:0,0:0:0:0:
350,192,55027,2,0,P|388:176|418:182,2,70,8|0|0,0:0|3:0|0:0,0:0:0:0:
300,315,55572,5,0,3:0:0:0:
300,315,55754,1,2,0:0:0:0:
188,211,55936,1,10,0:0:0:0:
110,315,56118,1,2,3:0:0:0:
201,300,56300,1,2,0:0:0:0:
201,300,56481,1,10,0:0:0:0:
18,328,56663,1,2,3:0:0:0:
97,222,56845,1,2,0:0:0:0:
49,134,57027,6,0,L|118:125,1,70,2|0,3:0|3:0,0:0:0:0:
341,98,57390,1,10,0:0:0:0:
214,40,57572,2,0,L|145:31,1,70,2|8,3:0|0:0,0:0:0:0:
18,7,57936,1,10,0:0:0:0:
18,7,58027,1,8,0:0:0:0:
118,124,58209,1,8,0:0:0:0:
118,124,58300,2,0,L|113:167,1,35,10|0,0:0|0:0,0:0:0:0:
0,244,58481,6,0,P|68:250|113:301,1,140,6|8,3:0|0:0,0:0:0:0:
184,219,59027,2,0,B|253:212|241:257|317:251,1,140,0|10,3:0|0:0,0:0:0:0:
380,171,59572,1,0,3:0:0:0:
380,171,59936,6,0,P|425:221|493:228,1,140,2|8,3:0|0:0,0:0:0:0:
428,69,60481,2,0,B|359:61|359:61|294:89,1,140,0|10,3:0|0:0,0:0:0:0:
183,30,61027,1,0,3:0:0:0:
183,30,61390,6,0,P|194:99|201:168,1,140,2|8,3:0|0:0,0:0:0:0:
306,232,61936,2,0,P|298:301|287:370,1,140,0|8,3:0|0:0,0:0:0:0:
183,370,62481,1,2,3:0:0:0:
184,370,62845,6,0,B|115:377|127:332|51:338,1,140,2|8,3:0|0:0,0:0:0:0:
37,246,63390,2,0,P|43:177|94:132,1,140,0|0,3:0|3:0,0:0:0:0:
202,169,63936,1,8,0:0:0:0:
145,42,64118,1,8,0:0:0:0:
242,81,64300,6,0,P|311:69|380:62,1,140,2|8,3:0|0:0,0:0:0:0:
507,131,64845,2,0,B|431:125|443:170|374:163,1,140,0|8,3:0|0:0,0:0:0:0:
308,232,65390,1,2,3:0:0:0:
308,232,65754,5,0,3:0:0:0:
392,329,65936,2,0,L|401:260,1,70,2|8,0:0|0:0,0:0:0:0:
490,159,66300,2,0,L|499:228,1,70,0|0,3:0|0:0,0:0:0:0:
512,338,66663,1,10,0:0:0:0:
405,226,66845,1,0,3:0:0:0:
405,226,67209,5,0,3:0:0:0:
318,185,67390,2,0,B|284:202|284:202|250:195,1,70,2|8,0:0|0:0,0:0:0:0:
127,259,67754,2,0,B|203:253|191:298|260:291,1,140,0|8,3:0|0:0,0:0:0:0:
362,323,68300,1,0,3:0:0:0:
362,323,68663,5,0,3:0:0:0:
252,195,68845,1,0,3:0:0:0:
140,353,69027,1,8,0:0:0:0:
120,225,69209,1,0,3:0:0:0:
259,291,69390,5,8,0:0:0:0:
158,125,69572,1,8,0:0:0:0:
35,278,69754,1,0,0:0:0:0:
150,228,69936,1,8,0:0:0:0:
11,74,70118,6,0,P|56:124|124:131,1,140,6|8,3:0|0:0,0:0:0:0:
306,45,70663,2,0,P|236:37|167:26,1,140,2|8,3:0|0:0,0:0:0:0:
236,155,71209,1,0,3:0:0:0:
236,155,71572,6,0,P|305:143|374:137,1,140,2|8,3:0|0:0,0:0:0:0:
505,219,72118,2,0,P|473:234|439:229,1,70,2|0,3:0|0:0,0:0:0:0:
314,194,72481,1,8,0:0:0:0:
303,309,72663,1,0,3:0:0:0:
303,309,73027,6,0,P|256:359|188:366,1,140,2|8,3:0|0:0,0:0:0:0:
142,155,73572,2,0,P|134:224|123:293,1,140,2|8,3:0|0:0,0:0:0:0:
67,379,74118,1,0,3:0:0:0:
67,379,74481,5,2,3:0:0:0:
101,223,74663,1,0,3:0:0:0:
13,288,74845,1,8,0:0:0:0:
67,120,75027,1,2,3:0:0:0:
205,248,75209,5,0,0:0:0:0:
101,223,75390,1,0,3:0:0:0:
150,52,75572,1,8,0:0:0:0:
275,162,75754,1,8,0:0:0:0:
386,28,75936,6,0,B|310:22|322:67|253:60,1,140,6|8,3:0|0:0,0:0:0:0:
61,87,76481,2,0,P|129:94|175:144,1,140,0|8,3:0|0:0,0:0:0:0:
205,248,77027,1,0,3:0:0:0:
205,248,77390,6,0,P|274:236|343:229,1,140,0|8,3:0|0:0,0:0:0:0:
512,214,77936,2,0,L|503:283,1,70,2|0,3:0|0:0,0:0:0:0:
484,373,78300,1,10,0:0:0:0:
411,304,78481,1,2,3:0:0:0:
313,320,78663,1,2,3:0:0:0:
205,248,78845,6,0,P|198:316|148:362,1,140,4|8,3:0|0:0,0:0:0:0:
18,295,79390,2,0,P|25:227|75:181,1,140,0|8,3:0|0:0,0:0:0:0:
175,152,79936,1,0,3:0:0:0:
175,152,80300,5,0,3:0:0:0:
111,268,80481,1,0,3:0:0:0:
41,70,80663,1,8,0:0:0:0:
268,120,80845,1,0,3:0:0:0:
167,19,81027,5,8,0:0:0:0:
71,164,81209,1,8,0:0:0:0:
71,164,81300,1,8,0:0:0:0:
216,260,81481,1,8,0:0:0:0:
216,260,81572,1,8,0:0:0:0:
295,85,81754,6,0,B|219:79|231:124|162:117,1,140,6|8,3:0|0:0,0:0:0:0:
52,25,82300,2,0,P|63:94|70:163,1,140,0|0,3:0|3:0,0:0:0:0:
20,247,82845,1,8,0:0:0:0:
236,312,83209,6,0,P|189:261|121:254,1,140,2|8,3:0|0:0,0:0:0:0:
64,335,83754,1,0,3:0:0:0:
70,163,83936,1,2,0:0:0:0:
70,163,84027,1,8,0:0:0:0:
70,163,84118,1,0,3:0:0:0:
208,228,84300,1,8,0:0:0:0:
174,114,84481,1,0,3:0:0:0:
322,46,84663,6,0,P|310:115|303:184,1,140,2|8,3:0|0:0,0:0:0:0:
297,292,85209,2,0,B|373:286|361:331|430:324,1,140,0|0,3:0|3:0,0:0:0:0:
512,262,85754,1,8,0:0:0:0:
419,76,86118,5,0,3:0:0:0:
419,76,86481,1,2,3:0:0:0:
303,184,86663,1,8,0:0:0:0:
303,184,86754,1,8,0:0:0:0:
303,184,86845,1,0,3:0:0:0:
410,241,87027,2,0,L|401:172,1,70,2|0,3:0|0:0,0:0:0:0:
450,0,87390,1,8,0:0:0:0:
450,0,87481,1,8,0:0:0:0:
450,0,87572,6,0,P|403:50|335:57,1,140,2|8,3:0|0:0,0:0:0:0:
239,102,88118,2,0,P|192:51|124:44,1,140,0|0,3:0|3:0,0:0:0:0:
43,106,88663,1,8,0:0:0:0:
132,282,89027,6,0,P|139:212|151:143,1,140,2|8,3:0|0:0,0:0:0:0:
215,16,89572,1,0,3:0:0:0:
324,166,89754,1,2,0:0:0:0:
324,166,89845,1,8,0:0:0:0:
324,166,89936,1,0,3:0:0:0:
189,217,90118,1,8,0:0:0:0:
286,262,90300,1,0,3:0:0:0:
205,378,90481,6,0,B|274:385|262:340|338:346,1,140,2|8,3:0|0:0,0:0:0:0:
444,384,91027,2,0,P|432:315|424:245,1,140,0|0,3:0|3:0,0:0:0:0:
491,175,91572,1,8,0:0:0:0:
449,22,91936,5,0,3:0:0:0:
449,22,92300,1,2,3:0:0:0:
392,154,92481,1,8,0:0:0:0:
392,154,92572,1,8,0:0:0:0:
392,154,92663,1,0,3:0:0:0:
325,41,92845,2,0,L|256:50,1,70,2|0,3:0|0:0,0:0:0:0:
133,3,93209,1,8,0:0:0:0:
133,3,93300,1,8,0:0:0:0:
133,3,93390,6,0,P|125:71|75:117,1,140,6|8,3:0|0:0,0:0:0:0:
13,226,93936,2,0,P|82:214|152:206,1,140,0|0,3:0|3:0,0:0:0:0:
251,231,94481,1,8,0:0:0:0:
379,299,94845,6,0,B|310:292|322:337|246:331,1,140,2|8,3:0|0:0,0:0:0:0:
150,366,95390,1,0,3:0:0:0:
93,265,95572,1,2,0:0:0:0:
93,265,95663,1,8,0:0:0:0:
93,265,95754,1,0,3:0:0:0:
0,335,95936,1,8,0:0:0:0:
36,175,96118,1,0,3:0:0:0:
196,253,96300,6,0,P|184:184|176:114,1,140,2|8,3:0|0:0,0:0:0:0:
310,0,96845,2,0,P|302:70|290:138,1,140,0|0,3:0|3:0,0:0:0:0:
372,207,97390,1,8,0:0:0:0:
487,15,97754,5,2,3:0:0:0:
354,81,97936,1,2,0:0:0:0:
484,206,98118,1,10,0:0:0:0:
459,102,98300,1,2,3:0:0:0:
310,280,98481,5,2,0:0:0:0:
512,309,98663,1,2,3:0:0:0:
354,81,98845,1,10,0:0:0:0:
413,316,99027,1,10,0:0:0:0:
310,280,99209,6,0,P|275:284|205:295,1,105.000004005432,2|8,3:0|0:0,0:0:0:0:
160,379,99754,2,0,P|108:371|56:364,1,105.000004005432,0|0,3:0|3:0,0:0:0:0:
0,285,100300,1,8,0:0:0:0:
0,285,100663,6,0,P|21:241|85:223,1,105.000004005432,0|8,3:0|0:0,0:0:0:0:
144,160,101209,2,0,L|210:168,1,52.5000020027161,0|0,3:0|0:0,0:0:0:0:
208,181,101481,1,8,0:0:0:0:
208,180,101572,1,0,3:0:0:0:
305,129,101754,1,8,0:0:0:0:
234,72,101936,1,0,3:0:0:0:
366,56,102118,6,0,P|418:62|470:71,3,105.000004005432,0|0|0|0,3:0|0:0|0:0|0:0,0:0:0:0:
512,171,103390,1,0,3:0:0:0:
512,171,103481,1,0,3:0:0:0:
512,171,103572,2,0,P|460:177|408:186,2,105.000004005432,0|0|0,3:0|0:0|0:0,0:0:0:0:
408,185,105027,6,0,B|339:178|351:223|275:217,1,140,6|8,3:0|0:0,0:0:0:0:
122,368,105572,2,0,P|168:317|236:311,1,140,0|8,3:0|0:0,0:0:0:0:
324,372,106118,1,0,3:0:0:0:
233,124,106481,6,0,L|225:54,1,70,2|0,3:0|0:0,0:0:0:0:
13,5,106845,1,10,0:0:0:0:
72,155,107027,2,0,L|80:85,1,70,2|0,3:0|0:0,0:0:0:0:
233,124,107390,1,10,0:0:0:0:
107,312,107572,1,0,3:0:0:0:
80,177,107754,1,0,3:0:0:0:
263,308,107936,6,0,P|193:314|124:326,1,140,2|8,3:0|0:0,0:0:0:0:
72,155,108481,2,0,P|118:104|186:98,1,140,0|8,3:0|0:0,0:0:0:0:
280,204,109027,1,0,3:0:0:0:
427,0,109390,5,2,3:0:0:0:
289,108,109572,1,0,3:0:0:0:
499,123,109754,1,10,0:0:0:0:
388,77,109936,1,0,3:0:0:0:
488,233,110118,5,2,0:0:0:0:
280,204,110300,1,0,3:0:0:0:
499,123,110481,1,10,0:0:0:0:
382,218,110663,1,10,0:0:0:0:
289,108,110845,6,0,B|220:100|220:100|155:128,1,140,2|8,3:0|0:0,0:0:0:0:
35,51,111390,2,0,P|47:120|53:190,1,140,0|8,3:0|0:0,0:0:0:0:
41,295,111936,2,0,B|72:301|72:301|106:284,1,70,0|2,3:0|0:0,0:0:0:0:
227,189,112300,5,2,3:0:0:0:
329,78,112481,2,0,P|334:112|318:143,1,70,2|8,0:0|0:0,0:0:0:0:
364,288,112845,2,0,P|332:275|313:246,1,70,2|0,3:0|0:0,0:0:0:0:
165,212,113209,2,0,P|192:191|226:189,1,70,10|0,0:0|3:0,0:0:0:0:
452,141,113572,1,2,3:0:0:0:
461,45,113754,6,0,B|392:38|404:83|328:77,1,140,2|8,3:0|0:0,0:0:0:0:
184,30,114300,1,0,3:0:0:0:
226,188,114481,2,0,L|234:118,1,70,2|8,0:0|0:0,0:0:0:0:
83,68,114845,2,0,L|91:138,1,70,0|0,3:0|0:0,0:0:0:0:
124,329,115209,5,2,3:0:0:0:
23,213,115390,1,0,3:0:0:0:
11,383,115572,1,8,0:0:0:0:
140,233,115754,1,0,3:0:0:0:
221,372,115936,5,10,0:0:0:0:
269,172,116118,1,8,0:0:0:0:
269,172,116209,1,8,0:0:0:0:
429,292,116390,1,8,0:0:0:0:
429,292,116481,1,8,0:0:0:0:
319,270,116663,6,0,B|413:286|505:213|510:112|510:112|510:112|510:112|462:197|350:226|268:171|268:171|307:73|307:73|306:74|306:74|207:106|207:106|127:38|127:38|126:39|126:39|126:144|126:144|38:198|38:198|39:198|39:198|137:232|137:232|163:333|163:333|225:248,1,1400,6|0,3:0|0:0,0:0:0:0:
