osu file format v14

[General]
AudioFilename: audio.mp3
AudioLeadIn: 2000
PreviewTime: 51221
Countdown: 0
SampleSet: None
StackLeniency: 0.2
Mode: 1
LetterboxInBreaks: 0
WidescreenStoryboard: 1

[Editor]
Bookmarks: 18721,24054,29388,40054,45388,52054,76054,78721,89388,100054,110721,116054,122721,146721,152054,160054,174721,189388,210721
DistanceSpacing: 0.6
BeatDivisor: 4
GridSize: 8
TimelineZoom: 2.999999

[Metadata]
Title:BIRTH
TitleUnicode:BIRTH
Artist:airportexpress feat.Itsuneko
ArtistUnicode:airportexpress feat.伍猫
Creator:nyanmi-1828
Version:Inner Oni
Source:神さまのいない日曜日
Tags:sunday without god Kamisama no Inai Nichiyoubi
BeatmapID:1865282
BeatmapSetID:892305

[Difficulty]
HPDrainRate:4.5
CircleSize:4
OverallDifficulty:6.5
ApproachRate:9.2
SliderMultiplier:1.4
SliderTickRate:1

[Events]
//Background and Video events
0,0,"140522200953.jpg",0,0
//Break Periods
2,18921,23484
2,146921,151484
2,174921,182151
//Storyboard Layer 0 (Background)
//Storyboard Layer 1 (Fail)
//Storyboard Layer 2 (Pass)
//Storyboard Layer 3 (Foreground)
//Storyboard Sound Samples

[TimingPoints]
44,446.428571428571,4,1,0,50,1,0
4954,-111.111111111111,4,1,0,20,0,0
8055,333.333333333333,4,1,0,85,1,0
18804,-133.333333333333,4,1,0,70,0,0
24054,-111.111111111111,4,1,0,70,0,0
26721,-100,4,1,0,75,0,0
29388,-100,4,1,0,80,0,0
40554,-111.111111111111,4,1,0,80,0,0
44638,-109.89010989011,4,1,0,80,0,0
44721,-108.695652173913,4,1,0,80,0,0
44888,-106.382978723404,4,1,0,80,0,0
45054,-104.166666666667,4,1,0,80,0,0
45221,-102.040816326531,4,1,0,80,0,0
45388,-100,4,1,0,80,0,0
52054,-100,4,1,0,90,0,1
74721,-100,4,1,0,80,0,0
122721,-100,4,1,0,80,0,1
146721,-100,4,1,0,80,0,0
189388,-100,4,1,0,80,0,1
210721,-100,4,1,0,80,0,0

[Colours]
Combo1 : 0,236,0
Combo2 : 31,243,254
Combo3 : 255,23,40
Combo4 : 233,46,228
Combo5 : 255,255,0
Combo6 : 11,175,255

[HitObjects]
408,272,44,5,4,0:0:0:0:
368,224,936,1,8,0:0:0:0:
368,232,1829,1,0,0:0:0:0:
368,232,2722,1,8,0:0:0:0:
376,248,3168,1,0,0:0:0:0:
376,248,3615,1,8,0:0:0:0:
400,256,4061,1,8,0:0:0:0:
376,248,4508,1,0,0:0:0:0:
256,192,4954,12,0,7633,0:0:0:0:
360,232,8055,5,4,0:0:0:0:
360,232,8221,1,0,0:0:0:0:
360,232,8388,1,8,0:0:0:0:
384,240,8555,1,8,0:0:0:0:
376,240,8721,1,0,0:0:0:0:
368,248,8888,1,0,0:0:0:0:
376,248,8971,1,0,0:0:0:0:
376,248,9054,1,8,0:0:0:0:
376,248,9221,1,8,0:0:0:0:
384,256,9388,1,0,0:0:0:0:
336,240,9554,1,8,0:0:0:0:
368,232,9638,1,8,0:0:0:0:
336,240,9721,1,0,0:0:0:0:
368,232,9888,1,0,0:0:0:0:
368,232,10054,1,8,0:0:0:0:
384,248,10138,1,0,0:0:0:0:
384,224,10221,1,8,0:0:0:0:
384,224,10277,1,8,0:0:0:0:
384,224,10332,1,8,0:0:0:0:
384,224,10388,1,0,0:0:0:0:
384,224,10554,1,8,0:0:0:0:
408,240,10721,1,0,0:0:0:0:
408,240,10888,1,0,0:0:0:0:
408,240,11054,1,8,0:0:0:0:
408,240,11221,1,8,0:0:0:0:
408,264,11388,1,0,0:0:0:0:
400,256,11554,1,0,0:0:0:0:
400,256,11638,1,0,0:0:0:0:
400,264,11721,1,8,0:0:0:0:
400,264,11888,1,8,0:0:0:0:
408,264,12054,1,0,0:0:0:0:
384,232,12221,1,0,0:0:0:0:
408,272,12304,1,0,0:0:0:0:
408,272,12388,1,8,0:0:0:0:
392,256,12554,1,8,0:0:0:0:
384,232,12721,1,0,0:0:0:0:
416,280,12888,1,0,0:0:0:0:
392,256,12971,1,0,0:0:0:0:
392,256,13054,1,8,0:0:0:0:
363,249,13138,1,8,0:0:0:0:
360,247,13221,1,0,0:0:0:0:
388,274,13388,1,8,0:0:0:0:
384,248,13721,1,0,0:0:0:0:
384,248,13888,1,8,0:0:0:0:
400,248,14054,1,0,0:0:0:0:
416,208,14221,1,8,0:0:0:0:
408,224,14277,1,8,0:0:0:0:
408,232,14332,1,8,0:0:0:0:
408,232,14388,1,0,0:0:0:0:
408,232,14554,1,8,0:0:0:0:
400,264,14721,1,0,0:0:0:0:
384,240,14888,1,8,0:0:0:0:
384,240,14971,1,8,0:0:0:0:
384,248,15054,1,0,0:0:0:0:
400,248,15221,1,8,0:0:0:0:
400,248,15388,1,0,0:0:0:0:
400,248,15471,1,0,0:0:0:0:
392,240,15638,1,0,0:0:0:0:
392,240,15721,1,8,0:0:0:0:
392,240,15888,1,8,0:0:0:0:
392,248,16054,1,0,0:0:0:0:
400,248,16138,1,0,0:0:0:0:
400,248,16221,1,8,0:0:0:0:
400,248,16304,1,0,0:0:0:0:
400,248,16388,1,8,0:0:0:0:
400,248,16471,1,8,0:0:0:0:
392,248,16554,1,0,0:0:0:0:
392,248,16638,1,0,0:0:0:0:
392,256,16721,1,8,0:0:0:0:
392,256,16804,1,0,0:0:0:0:
392,256,16888,1,8,0:0:0:0:
392,256,16971,1,8,0:0:0:0:
392,256,17054,1,0,0:0:0:0:
392,256,17138,1,8,0:0:0:0:
408,240,17221,1,0,0:0:0:0:
408,248,17304,1,0,0:0:0:0:
408,248,17388,1,8,0:0:0:0:
384,264,17721,1,0,0:0:0:0:
408,264,17804,1,0,0:0:0:0:
384,240,17888,1,0,0:0:0:0:
384,240,18054,1,12,0:0:0:0:
384,240,18221,1,12,0:0:0:0:
392,232,18721,1,4,0:0:0:0:
392,224,24054,5,4,0:0:0:0:
392,240,24388,1,8,0:0:0:0:
392,248,24554,1,0,0:0:0:0:
400,264,24888,1,0,0:0:0:0:
400,264,25054,1,8,0:0:0:0:
400,272,25388,1,0,0:0:0:0:
400,272,25721,1,8,0:0:0:0:
400,272,25888,1,0,0:0:0:0:
384,240,26221,1,0,0:0:0:0:
384,240,26304,1,0,0:0:0:0:
384,240,26388,1,8,0:0:0:0:
384,240,26554,1,8,0:0:0:0:
384,240,26721,1,4,0:0:0:0:
384,248,27054,1,8,0:0:0:0:
384,248,27221,1,4,0:0:0:0:
400,264,27554,1,4,0:0:0:0:
408,264,27888,1,4,0:0:0:0:
400,240,28221,1,0,0:0:0:0:
400,240,28388,1,8,0:0:0:0:
392,256,28471,1,0,0:0:0:0:
400,240,28554,1,0,0:0:0:0:
400,240,28721,1,8,0:0:0:0:
400,280,28804,1,8,0:0:0:0:
400,272,28888,1,0,0:0:0:0:
400,272,28943,1,0,0:0:0:0:
416,248,28999,1,0,0:0:0:0:
400,272,29054,1,8,0:0:0:0:
416,264,29388,1,4,0:0:0:0:
416,264,29554,1,0,0:0:0:0:
456,376,29638,1,0,0:0:0:0:
416,264,29721,1,8,0:0:0:0:
376,264,29888,1,8,0:0:0:0:
376,264,30054,1,0,0:0:0:0:
400,248,30221,1,0,0:0:0:0:
408,248,30388,1,8,0:0:0:0:
408,248,30554,1,0,0:0:0:0:
416,264,30721,1,0,0:0:0:0:
424,264,30804,1,8,0:0:0:0:
416,264,30888,1,0,0:0:0:0:
416,264,31054,1,8,0:0:0:0:
408,264,31221,5,0,0:0:0:0:
368,240,31388,1,8,0:0:0:0:
368,248,31471,1,0,0:0:0:0:
368,248,31554,1,8,0:0:0:0:
368,256,31638,1,0,0:0:0:0:
400,264,31721,1,8,0:0:0:0:
400,264,31888,1,8,0:0:0:0:
400,264,32054,1,0,0:0:0:0:
376,256,32221,1,0,0:0:0:0:
376,256,32304,1,0,0:0:0:0:
376,256,32388,1,8,0:0:0:0:
376,264,32554,1,8,0:0:0:0:
376,264,32721,1,0,0:0:0:0:
376,256,32888,1,8,0:0:0:0:
376,264,32971,1,8,0:0:0:0:
376,264,33054,1,0,0:0:0:0:
384,248,33221,1,8,0:0:0:0:
392,240,33388,1,0,0:0:0:0:
416,256,33471,1,0,0:0:0:0:
400,264,33638,1,0,0:0:0:0:
400,264,33721,1,8,0:0:0:0:
408,272,33888,1,0,0:0:0:0:
344,216,34054,1,8,0:0:0:0:
384,248,34138,1,8,0:0:0:0:
400,216,34221,1,0,0:0:0:0:
400,216,34277,1,0,0:0:0:0:
400,216,34332,1,0,0:0:0:0:
400,216,34388,1,8,0:0:0:0:
400,216,34554,1,8,0:0:0:0:
384,256,34638,1,8,0:0:0:0:
384,240,34721,1,0,0:0:0:0:
400,240,34971,1,0,0:0:0:0:
376,224,35054,1,8,0:0:0:0:
400,240,35221,1,8,0:0:0:0:
392,232,35388,1,0,0:0:0:0:
392,240,35471,1,8,0:0:0:0:
400,232,35554,1,0,0:0:0:0:
400,232,35638,1,0,0:0:0:0:
400,232,35721,1,8,0:0:0:0:
400,232,35888,1,8,0:0:0:0:
384,224,36054,1,0,0:0:0:0:
384,224,36221,1,0,0:0:0:0:
384,224,36304,1,8,0:0:0:0:
384,224,36388,1,8,0:0:0:0:
400,240,36554,1,0,0:0:0:0:
400,240,36721,1,8,0:0:0:0:
384,256,36888,1,0,0:0:0:0:
416,256,37054,1,8,0:0:0:0:
384,256,37138,1,0,0:0:0:0:
408,232,37221,1,8,0:0:0:0:
408,232,37304,1,8,0:0:0:0:
408,232,37388,1,0,0:0:0:0:
392,240,37721,1,8,0:0:0:0:
376,264,37888,1,4,0:0:0:0:
384,256,38221,1,4,0:0:0:0:
376,264,38554,1,4,0:0:0:0:
408,240,38888,1,8,0:0:0:0:
376,248,38971,1,0,0:0:0:0:
376,248,39054,1,8,0:0:0:0:
376,248,39138,1,8,0:0:0:0:
376,248,39221,1,0,0:0:0:0:
384,264,39304,1,0,0:0:0:0:
376,256,39388,1,8,0:0:0:0:
384,248,39554,1,0,0:0:0:0:
384,248,39610,1,0,0:0:0:0:
376,256,39666,1,0,0:0:0:0:
384,248,39721,1,8,0:0:0:0:
384,248,39804,1,8,0:0:0:0:
384,248,39888,1,0,0:0:0:0:
384,248,40054,1,4,0:0:0:0:
384,248,40554,1,0,0:0:0:0:
384,248,40721,1,8,0:0:0:0:
384,240,41054,1,0,0:0:0:0:
376,249,41221,1,8,0:0:0:0:
384,248,41388,1,4,0:0:0:0:
392,240,41638,1,0,0:0:0:0:
384,248,41721,1,0,0:0:0:0:
384,248,41888,1,0,0:0:0:0:
384,248,42054,1,8,0:0:0:0:
360,222,42221,1,0,0:0:0:0:
392,240,42388,1,8,0:0:0:0:
397,228,42471,1,8,0:0:0:0:
392,240,42554,1,8,0:0:0:0:
392,240,42721,1,4,0:0:0:0:
392,232,43221,1,8,0:0:0:0:
392,232,43304,1,8,0:0:0:0:
392,240,43388,1,0,0:0:0:0:
392,240,43554,1,0,0:0:0:0:
392,240,43721,1,8,0:0:0:0:
360,224,44054,1,4,0:0:0:0:
384,232,44388,1,0,0:0:0:0:
360,224,44554,1,0,0:0:0:0:
360,224,44638,1,0,0:0:0:0:
360,224,44721,1,8,0:0:0:0:
376,248,44888,1,0,0:0:0:0:
376,248,45054,1,8,0:0:0:0:
384,256,45221,1,8,0:0:0:0:
384,256,45388,1,4,0:0:0:0:
392,264,45554,1,0,0:0:0:0:
392,264,45638,1,0,0:0:0:0:
392,264,45721,1,8,0:0:0:0:
368,248,45888,1,8,0:0:0:0:
349,261,45971,1,8,0:0:0:0:
408,240,46054,1,0,0:0:0:0:
349,262,46138,1,0,0:0:0:0:
392,248,46221,1,8,0:0:0:0:
392,248,46277,1,8,0:0:0:0:
392,248,46332,1,8,0:0:0:0:
392,248,46388,1,0,0:0:0:0:
384,232,46554,1,8,0:0:0:0:
392,264,46721,1,0,0:0:0:0:
400,272,46888,1,0,0:0:0:0:
377,235,46971,1,8,0:0:0:0:
408,264,47054,1,8,0:0:0:0:
408,264,47221,1,0,0:0:0:0:
416,232,47277,1,0,0:0:0:0:
416,240,47332,1,0,0:0:0:0:
416,240,47388,1,8,0:0:0:0:
373,243,47471,1,8,0:0:0:0:
424,256,47554,1,0,0:0:0:0:
376,248,47638,1,0,0:0:0:0:
400,256,47721,1,8,0:0:0:0:
408,240,47888,1,8,0:0:0:0:
408,240,47943,1,0,0:0:0:0:
408,240,47999,1,0,0:0:0:0:
408,240,48054,1,8,0:0:0:0:
424,248,48138,1,0,0:0:0:0:
424,248,48221,1,0,0:0:0:0:
424,248,48304,1,8,0:0:0:0:
424,248,48388,1,0,0:0:0:0:
424,248,48471,1,0,0:0:0:0:
424,248,48554,1,8,0:0:0:0:
424,248,48638,1,0,0:0:0:0:
424,248,48721,1,8,0:0:0:0:
424,248,48804,1,0,0:0:0:0:
424,248,48888,1,0,0:0:0:0:
424,248,48971,1,8,0:0:0:0:
424,248,49054,1,0,0:0:0:0:
424,248,49138,1,0,0:0:0:0:
424,248,49221,1,8,0:0:0:0:
416,264,49304,1,0,0:0:0:0:
416,264,49388,1,8,0:0:0:0:
424,256,49554,1,0,0:0:0:0:
424,264,49638,1,0,0:0:0:0:
424,264,49721,1,8,0:0:0:0:
424,264,49888,1,0,0:0:0:0:
384,256,50054,1,12,0:0:0:0:
384,256,50304,1,4,0:0:0:0:
384,256,50554,1,4,0:0:0:0:
408,264,50721,1,12,0:0:0:0:
424,256,52054,1,4,0:0:0:0:
384,248,52304,1,0,0:0:0:0:
384,248,52388,1,8,0:0:0:0:
400,256,52554,1,8,0:0:0:0:
400,256,52721,1,0,0:0:0:0:
400,256,52804,1,8,0:0:0:0:
376,248,52888,1,0,0:0:0:0:
360,272,52971,1,0,0:0:0:0:
384,224,53054,1,8,0:0:0:0:
392,256,53221,1,8,0:0:0:0:
392,256,53388,1,0,0:0:0:0:
392,256,53554,1,0,0:0:0:0:
392,256,53721,1,8,0:0:0:0:
392,256,53888,1,8,0:0:0:0:
392,264,54054,1,0,0:0:0:0:
392,256,54138,1,0,0:0:0:0:
392,264,54304,1,0,0:0:0:0:
392,272,54388,1,8,0:0:0:0:
400,272,54554,1,8,0:0:0:0:
400,272,54721,1,0,0:0:0:0:
392,264,54971,1,0,0:0:0:0:
392,264,55054,1,8,0:0:0:0:
392,264,55221,1,8,0:0:0:0:
392,264,55388,1,0,0:0:0:0:
376,248,55554,1,0,0:0:0:0:
384,240,55638,1,0,0:0:0:0:
408,256,55721,1,8,0:0:0:0:
408,256,55888,1,8,0:0:0:0:
408,256,56054,1,0,0:0:0:0:
384,264,56221,1,0,0:0:0:0:
416,272,56304,1,8,0:0:0:0:
384,272,56388,1,8,0:0:0:0:
400,264,56554,1,0,0:0:0:0:
400,264,56721,1,8,0:0:0:0:
408,248,56888,1,0,0:0:0:0:
408,248,56971,1,0,0:0:0:0:
408,248,57054,1,8,0:0:0:0:
408,248,57138,1,0,0:0:0:0:
408,248,57221,1,8,0:0:0:0:
408,248,57388,1,0,0:0:0:0:
384,256,57638,1,0,0:0:0:0:
384,256,57721,1,8,0:0:0:0:
400,264,57888,1,0,0:0:0:0:
408,272,58054,1,0,0:0:0:0:
408,272,58138,1,8,0:0:0:0:
392,264,58221,1,0,0:0:0:0:
408,272,58304,1,0,0:0:0:0:
392,264,58388,1,8,0:0:0:0:
392,264,58554,1,8,0:0:0:0:
392,264,58721,1,0,0:0:0:0:
400,256,58971,1,0,0:0:0:0:
392,264,59054,1,8,0:0:0:0:
400,264,59221,1,8,0:0:0:0:
392,272,59388,1,0,0:0:0:0:
392,272,59471,1,0,0:0:0:0:
392,264,59554,1,8,0:0:0:0:
392,264,59638,1,8,0:0:0:0:
400,272,59721,1,8,0:0:0:0:
400,272,59888,1,8,0:0:0:0:
400,272,60054,1,0,0:0:0:0:
392,272,60304,1,0,0:0:0:0:
392,272,60388,1,8,0:0:0:0:
392,272,60554,1,8,0:0:0:0:
400,264,60721,1,0,0:0:0:0:
400,264,60888,1,0,0:0:0:0:
400,264,60971,1,8,0:0:0:0:
400,264,61138,1,0,0:0:0:0:
400,264,61221,1,8,0:0:0:0:
400,264,61388,1,0,0:0:0:0:
408,248,61554,1,8,0:0:0:0:
408,248,61610,1,8,0:0:0:0:
408,248,61666,1,8,0:0:0:0:
408,248,61721,1,0,0:0:0:0:
392,256,61804,1,0,0:0:0:0:
400,248,61888,1,8,0:0:0:0:
400,248,61943,1,8,0:0:0:0:
400,248,61999,1,8,0:0:0:0:
400,248,62054,1,0,0:0:0:0:
392,264,62138,1,0,0:0:0:0:
424,248,62221,1,8,0:0:0:0:
424,248,62277,1,0,0:0:0:0:
424,248,62332,1,0,0:0:0:0:
424,248,62388,1,8,0:0:0:0:
392,264,62471,1,0,0:0:0:0:
408,240,62554,1,8,0:0:0:0:
408,240,62610,1,8,0:0:0:0:
360,216,62666,1,8,0:0:0:0:
408,248,62721,1,0,0:0:0:0:
408,240,63054,1,8,0:0:0:0:
392,240,63221,1,0,0:0:0:0:
392,240,63304,1,0,0:0:0:0:
392,240,63388,1,8,0:0:0:0:
392,232,63471,1,8,0:0:0:0:
384,240,63554,1,0,0:0:0:0:
384,248,63638,1,0,0:0:0:0:
392,240,63721,1,8,0:0:0:0:
392,240,63888,1,8,0:0:0:0:
392,240,64054,1,0,0:0:0:0:
395,250,64221,1,0,0:0:0:0:
392,248,64304,1,0,0:0:0:0:
392,248,64388,1,8,0:0:0:0:
392,272,64554,1,8,0:0:0:0:
392,272,64721,1,0,0:0:0:0:
366,262,64804,1,0,0:0:0:0:
400,280,64971,1,0,0:0:0:0:
400,280,65054,1,8,0:0:0:0:
400,272,65221,1,8,0:0:0:0:
376,264,65388,1,0,0:0:0:0:
400,280,65471,1,0,0:0:0:0:
400,280,65554,1,0,0:0:0:0:
376,264,65638,1,0,0:0:0:0:
376,264,65721,1,8,0:0:0:0:
376,264,65888,1,8,0:0:0:0:
376,264,66054,1,0,0:0:0:0:
392,256,66138,1,8,0:0:0:0:
376,264,66221,1,0,0:0:0:0:
376,264,66304,1,0,0:0:0:0:
376,264,66388,1,8,0:0:0:0:
376,264,66554,1,8,0:0:0:0:
384,264,66721,1,0,0:0:0:0:
384,264,66888,1,8,0:0:0:0:
384,264,66971,1,0,0:0:0:0:
384,264,67054,1,8,0:0:0:0:
392,264,67221,1,8,0:0:0:0:
400,288,67304,1,8,0:0:0:0:
392,264,67388,1,0,0:0:0:0:
400,288,67471,1,8,0:0:0:0:
400,272,67554,1,0,0:0:0:0:
400,272,67638,1,0,0:0:0:0:
400,272,67721,1,8,0:0:0:0:
400,272,67888,1,8,0:0:0:0:
400,272,68054,1,0,0:0:0:0:
408,272,68221,1,0,0:0:0:0:
408,280,68304,1,0,0:0:0:0:
408,280,68388,1,8,0:0:0:0:
400,272,68554,1,8,0:0:0:0:
400,280,68721,1,0,0:0:0:0:
400,280,68804,1,8,0:0:0:0:
400,288,68888,1,0,0:0:0:0:
400,288,68971,1,0,0:0:0:0:
400,288,69054,1,8,0:0:0:0:
400,288,69221,1,8,0:0:0:0:
400,272,69388,1,0,0:0:0:0:
400,272,69554,1,0,0:0:0:0:
408,272,69638,1,0,0:0:0:0:
400,280,69721,1,8,0:0:0:0:
408,264,69888,1,8,0:0:0:0:
392,272,70054,1,0,0:0:0:0:
408,248,70138,1,8,0:0:0:0:
400,280,70221,1,8,0:0:0:0:
400,288,70304,1,0,0:0:0:0:
400,288,70388,1,8,0:0:0:0:
392,256,70554,1,8,0:0:0:0:
376,264,70721,1,0,0:0:0:0:
424,272,70971,1,0,0:0:0:0:
424,272,71054,1,8,0:0:0:0:
424,272,71221,1,8,0:0:0:0:
424,272,71388,1,0,0:0:0:0:
408,280,71638,1,0,0:0:0:0:
408,280,71721,1,8,0:0:0:0:
408,280,71888,1,8,0:0:0:0:
408,280,72054,1,0,0:0:0:0:
384,264,72221,1,0,0:0:0:0:
400,272,72304,1,0,0:0:0:0:
384,264,72388,1,8,0:0:0:0:
392,264,72554,1,0,0:0:0:0:
392,272,72610,1,0,0:0:0:0:
336,264,72666,1,0,0:0:0:0:
392,272,72721,1,8,0:0:0:0:
392,272,72888,1,8,0:0:0:0:
392,272,72943,1,8,0:0:0:0:
400,256,72999,1,8,0:0:0:0:
392,272,73054,1,0,0:0:0:0:
392,272,73221,1,8,0:0:0:0:
416,264,73388,1,0,0:0:0:0:
400,264,73471,1,8,0:0:0:0:
400,264,73554,1,0,0:0:0:0:
400,264,73638,1,0,0:0:0:0:
400,264,73721,1,8,0:0:0:0:
400,264,73804,1,0,0:0:0:0:
392,272,73888,1,8,0:0:0:0:
400,272,73971,1,8,0:0:0:0:
392,272,74054,1,0,0:0:0:0:
392,272,74138,1,0,0:0:0:0:
392,272,74221,1,8,0:0:0:0:
400,272,74304,1,0,0:0:0:0:
400,272,74388,1,8,0:0:0:0:
400,272,74471,1,8,0:0:0:0:
400,272,74554,1,0,0:0:0:0:
392,264,74721,1,12,0:0:0:0:
392,264,74888,1,12,0:0:0:0:
256,192,75388,12,0,75721,0:0:0:0:
336,248,76054,5,4,0:0:0:0:
336,240,76304,1,0,0:0:0:0:
336,240,76388,1,8,0:0:0:0:
336,240,76554,1,4,0:0:0:0:
368,240,76888,1,8,0:0:0:0:
368,240,77054,1,4,0:0:0:0:
392,240,77388,1,8,0:0:0:0:
400,248,77554,1,4,0:0:0:0:
384,256,77888,1,0,0:0:0:0:
384,256,78054,1,12,0:0:0:0:
384,256,78221,1,12,0:0:0:0:
368,248,78388,1,0,0:0:0:0:
360,232,78721,5,4,0:0:0:0:
368,240,78971,1,0,0:0:0:0:
360,232,79054,1,8,0:0:0:0:
384,240,79221,1,8,0:0:0:0:
384,256,79387,1,0,0:0:0:0:
384,256,79471,1,8,0:0:0:0:
368,248,79554,1,0,0:0:0:0:
376,248,79637,1,0,0:0:0:0:
376,248,79720,1,8,0:0:0:0:
376,248,79887,1,8,0:0:0:0:
384,256,80054,1,0,0:0:0:0:
392,256,80220,1,8,0:0:0:0:
368,232,80304,1,8,0:0:0:0:
392,248,80387,1,0,0:0:0:0:
368,232,80554,1,0,0:0:0:0:
368,232,80720,1,8,0:0:0:0:
384,248,80804,1,0,0:0:0:0:
384,224,80887,1,8,0:0:0:0:
384,224,80943,1,8,0:0:0:0:
384,224,80998,1,8,0:0:0:0:
384,224,81054,1,0,0:0:0:0:
384,224,81220,1,8,0:0:0:0:
408,240,81387,1,0,0:0:0:0:
408,240,81554,1,0,0:0:0:0:
408,240,81720,1,8,0:0:0:0:
408,240,81887,1,8,0:0:0:0:
408,264,82054,1,0,0:0:0:0:
400,256,82220,1,0,0:0:0:0:
400,256,82304,1,0,0:0:0:0:
400,264,82387,1,8,0:0:0:0:
400,264,82554,1,8,0:0:0:0:
408,264,82720,1,0,0:0:0:0:
384,232,82887,1,0,0:0:0:0:
408,272,82970,1,0,0:0:0:0:
408,272,83054,1,8,0:0:0:0:
392,256,83220,1,8,0:0:0:0:
384,232,83387,1,0,0:0:0:0:
416,280,83470,1,8,0:0:0:0:
416,280,83554,1,8,0:0:0:0:
392,256,83637,1,8,0:0:0:0:
394,262,83721,1,0,0:0:0:0:
373,261,83888,1,0,0:0:0:0:
373,260,83971,1,0,0:0:0:0:
373,260,84054,1,8,0:0:0:0:
384,248,84387,1,0,0:0:0:0:
384,248,84554,1,8,0:0:0:0:
400,248,84720,1,0,0:0:0:0:
416,208,84887,1,8,0:0:0:0:
408,224,84943,1,8,0:0:0:0:
408,232,84998,1,8,0:0:0:0:
408,232,85054,1,0,0:0:0:0:
408,232,85220,1,8,0:0:0:0:
400,264,85387,1,0,0:0:0:0:
384,240,85554,1,8,0:0:0:0:
384,240,85637,1,8,0:0:0:0:
384,248,85720,1,0,0:0:0:0:
400,248,85887,1,8,0:0:0:0:
400,248,86054,1,0,0:0:0:0:
400,248,86137,1,0,0:0:0:0:
392,240,86304,1,0,0:0:0:0:
392,240,86387,1,8,0:0:0:0:
392,240,86554,1,8,0:0:0:0:
392,248,86720,1,0,0:0:0:0:
400,248,86804,1,0,0:0:0:0:
400,248,86887,1,8,0:0:0:0:
368,248,86971,1,0,0:0:0:0:
400,248,87054,1,8,0:0:0:0:
400,248,87137,1,0,0:0:0:0:
392,248,87220,1,0,0:0:0:0:
392,248,87304,1,8,0:0:0:0:
392,256,87387,1,8,0:0:0:0:
392,256,87470,1,0,0:0:0:0:
392,256,87554,1,8,0:0:0:0:
392,256,87638,1,8,0:0:0:0:
392,256,87720,1,0,0:0:0:0:
392,256,87804,1,8,0:0:0:0:
408,240,87887,1,0,0:0:0:0:
408,248,87970,1,0,0:0:0:0:
408,248,88054,1,8,0:0:0:0:
384,264,88387,1,0,0:0:0:0:
408,264,88470,1,0,0:0:0:0:
384,240,88554,1,0,0:0:0:0:
384,240,88720,1,12,0:0:0:0:
384,240,88887,1,12,0:0:0:0:
392,232,89387,1,4,0:0:0:0:
336,248,93388,1,0,0:0:0:0:
336,248,93554,1,0,0:0:0:0:
336,248,93721,1,8,0:0:0:0:
336,248,93888,1,0,0:0:0:0:
336,256,94054,1,0,0:0:0:0:
336,248,94221,1,8,0:0:0:0:
336,248,94388,1,0,0:0:0:0:
368,240,94721,1,4,0:0:0:0:
328,248,95054,1,8,0:0:0:0:
336,256,95221,1,0,0:0:0:0:
344,232,95554,1,0,0:0:0:0:
352,240,95721,1,8,0:0:0:0:
320,232,96054,1,0,0:0:0:0:
336,256,96387,1,8,0:0:0:0:
336,256,96554,1,0,0:0:0:0:
336,256,96888,1,0,0:0:0:0:
336,256,97054,1,8,0:0:0:0:
352,224,97388,1,4,0:0:0:0:
352,224,97721,1,8,0:0:0:0:
344,232,97888,1,4,0:0:0:0:
344,240,98221,1,4,0:0:0:0:
344,248,98554,1,4,0:0:0:0:
320,232,98888,1,8,0:0:0:0:
328,232,98971,1,8,0:0:0:0:
336,232,99054,1,0,0:0:0:0:
360,256,99221,1,8,0:0:0:0:
360,248,99388,1,0,0:0:0:0:
344,240,99554,1,8,0:0:0:0:
344,240,99638,1,0,0:0:0:0:
344,240,99721,1,8,0:0:0:0:
360,240,99804,1,0,0:0:0:0:
352,240,99888,1,8,0:0:0:0:
416,264,100054,1,4,0:0:0:0:
416,264,100220,1,0,0:0:0:0:
456,376,100304,1,0,0:0:0:0:
416,264,100387,1,8,0:0:0:0:
376,264,100554,1,8,0:0:0:0:
376,264,100720,1,0,0:0:0:0:
400,248,100887,1,0,0:0:0:0:
408,248,101054,1,8,0:0:0:0:
408,248,101220,1,0,0:0:0:0:
416,264,101387,1,0,0:0:0:0:
424,264,101470,1,8,0:0:0:0:
416,264,101554,1,0,0:0:0:0:
407,256,101638,1,0,0:0:0:0:
416,264,101720,1,8,0:0:0:0:
408,264,101887,5,0,0:0:0:0:
368,240,102054,1,8,0:0:0:0:
368,248,102137,1,0,0:0:0:0:
368,248,102220,1,8,0:0:0:0:
368,256,102304,1,0,0:0:0:0:
400,264,102387,1,8,0:0:0:0:
400,264,102554,1,8,0:0:0:0:
400,264,102720,1,0,0:0:0:0:
376,256,102887,1,0,0:0:0:0:
376,256,102970,1,0,0:0:0:0:
376,256,103054,1,8,0:0:0:0:
376,264,103220,1,8,0:0:0:0:
376,264,103387,1,0,0:0:0:0:
389,245,103471,1,0,0:0:0:0:
376,256,103554,1,8,0:0:0:0:
376,264,103637,1,8,0:0:0:0:
376,264,103720,1,0,0:0:0:0:
384,248,103887,1,8,0:0:0:0:
392,240,104054,1,0,0:0:0:0:
416,256,104137,1,0,0:0:0:0:
400,264,104304,1,0,0:0:0:0:
400,264,104387,1,8,0:0:0:0:
408,272,104554,1,0,0:0:0:0:
344,216,104720,1,8,0:0:0:0:
384,248,104804,1,8,0:0:0:0:
400,216,104887,1,0,0:0:0:0:
400,216,104943,1,0,0:0:0:0:
400,216,104998,1,0,0:0:0:0:
400,216,105054,1,8,0:0:0:0:
400,216,105220,1,8,0:0:0:0:
382,238,105304,1,0,0:0:0:0:
384,240,105387,1,0,0:0:0:0:
400,240,105637,1,0,0:0:0:0:
376,224,105720,1,8,0:0:0:0:
400,240,105887,1,8,0:0:0:0:
392,232,106054,1,0,0:0:0:0:
397,249,106138,1,0,0:0:0:0:
400,232,106220,1,0,0:0:0:0:
400,232,106387,1,8,0:0:0:0:
400,232,106554,1,8,0:0:0:0:
384,224,106720,1,0,0:0:0:0:
384,224,106887,1,0,0:0:0:0:
384,224,106970,1,8,0:0:0:0:
384,224,107054,1,8,0:0:0:0:
400,240,107220,1,0,0:0:0:0:
400,240,107387,1,8,0:0:0:0:
384,256,107554,1,0,0:0:0:0:
416,256,107720,1,8,0:0:0:0:
384,256,107804,1,0,0:0:0:0:
408,232,107887,1,8,0:0:0:0:
408,232,107970,1,8,0:0:0:0:
408,232,108054,1,0,0:0:0:0:
392,240,108387,1,8,0:0:0:0:
376,264,108554,1,4,0:0:0:0:
384,256,108887,1,4,0:0:0:0:
376,264,109220,1,4,0:0:0:0:
408,240,109554,1,8,0:0:0:0:
376,248,109637,1,0,0:0:0:0:
376,248,109720,1,8,0:0:0:0:
376,248,109804,1,8,0:0:0:0:
376,248,109887,1,0,0:0:0:0:
384,264,109970,1,0,0:0:0:0:
376,256,110054,1,8,0:0:0:0:
369,243,110138,1,8,0:0:0:0:
384,248,110220,1,0,0:0:0:0:
384,248,110276,1,0,0:0:0:0:
376,256,110332,1,0,0:0:0:0:
384,248,110387,1,8,0:0:0:0:
384,248,110470,1,0,0:0:0:0:
375,232,110554,1,8,0:0:0:0:
390,227,110610,1,8,0:0:0:0:
390,227,110666,1,8,0:0:0:0:
384,248,110720,1,0,0:0:0:0:
384,248,111220,1,0,0:0:0:0:
384,248,111387,1,8,0:0:0:0:
384,240,111720,1,0,0:0:0:0:
394,246,111888,1,0,0:0:0:0:
384,248,112054,1,4,0:0:0:0:
392,240,112304,1,0,0:0:0:0:
384,248,112387,1,0,0:0:0:0:
384,248,112554,1,0,0:0:0:0:
384,248,112720,1,8,0:0:0:0:
391,226,112888,1,0,0:0:0:0:
391,226,112971,1,0,0:0:0:0:
392,240,113054,1,8,0:0:0:0:
391,226,113138,1,0,0:0:0:0:
392,240,113220,1,8,0:0:0:0:
392,240,113387,1,4,0:0:0:0:
385,227,113554,1,0,0:0:0:0:
391,226,113721,1,0,0:0:0:0:
392,240,114054,1,8,0:0:0:0:
392,240,114387,1,8,0:0:0:0:
374,231,114554,1,8,0:0:0:0:
360,224,114720,1,4,0:0:0:0:
384,243,114888,1,0,0:0:0:0:
384,244,114971,1,0,0:0:0:0:
384,244,115054,1,8,0:0:0:0:
360,224,115220,1,0,0:0:0:0:
403,247,115554,1,8,0:0:0:0:
376,248,115721,1,0,0:0:0:0:
367,263,115777,1,0,0:0:0:0:
376,275,115832,1,0,0:0:0:0:
382,263,115888,1,0,0:0:0:0:
382,263,115943,1,0,0:0:0:0:
382,263,115999,1,0,0:0:0:0:
389,276,116054,1,0,0:0:0:0:
392,264,116220,1,0,0:0:0:0:
392,264,116304,1,0,0:0:0:0:
392,264,116387,1,8,0:0:0:0:
368,248,116554,1,8,0:0:0:0:
408,240,116720,1,0,0:0:0:0:
392,248,116887,1,8,0:0:0:0:
384,256,116971,1,8,0:0:0:0:
392,248,117054,1,0,0:0:0:0:
367,250,117138,1,0,0:0:0:0:
384,232,117220,1,8,0:0:0:0:
392,264,117387,1,0,0:0:0:0:
400,272,117554,1,0,0:0:0:0:
405,247,117638,1,8,0:0:0:0:
411,275,117721,1,0,0:0:0:0:
408,264,117887,1,0,0:0:0:0:
416,232,117943,1,0,0:0:0:0:
416,240,117998,1,0,0:0:0:0:
416,240,118054,1,8,0:0:0:0:
424,256,118220,1,0,0:0:0:0:
376,248,118304,1,0,0:0:0:0:
400,256,118387,1,8,0:0:0:0:
408,240,118554,1,8,0:0:0:0:
408,240,118609,1,0,0:0:0:0:
408,240,118665,1,0,0:0:0:0:
408,240,118720,1,8,0:0:0:0:
424,248,118804,1,0,0:0:0:0:
424,248,118887,1,0,0:0:0:0:
424,248,118970,1,8,0:0:0:0:
424,248,119054,1,0,0:0:0:0:
424,248,119137,1,0,0:0:0:0:
424,248,119220,1,8,0:0:0:0:
424,248,119304,1,0,0:0:0:0:
424,248,119387,1,8,0:0:0:0:
424,248,119470,1,0,0:0:0:0:
424,248,119554,1,0,0:0:0:0:
424,248,119637,1,8,0:0:0:0:
424,248,119720,1,0,0:0:0:0:
424,248,119804,1,0,0:0:0:0:
424,248,119887,1,8,0:0:0:0:
416,264,119970,1,0,0:0:0:0:
416,264,120054,1,8,0:0:0:0:
424,256,120220,1,0,0:0:0:0:
424,264,120304,1,0,0:0:0:0:
424,264,120387,1,8,0:0:0:0:
424,264,120554,1,0,0:0:0:0:
384,256,120720,1,12,0:0:0:0:
384,256,120970,1,4,0:0:0:0:
384,256,121220,1,4,0:0:0:0:
408,264,121387,1,12,0:0:0:0:
256,192,122054,12,0,122554,0:0:0:0:
424,256,122721,5,4,0:0:0:0:
384,248,122971,1,0,0:0:0:0:
384,248,123055,1,8,0:0:0:0:
400,256,123221,1,8,0:0:0:0:
400,256,123388,1,0,0:0:0:0:
400,256,123471,1,8,0:0:0:0:
376,248,123555,1,0,0:0:0:0:
360,272,123638,1,0,0:0:0:0:
384,224,123721,1,8,0:0:0:0:
392,256,123888,1,8,0:0:0:0:
392,256,124055,1,0,0:0:0:0:
391,240,124138,1,8,0:0:0:0:
392,256,124221,1,0,0:0:0:0:
392,256,124388,1,8,0:0:0:0:
391,258,124554,1,0,0:0:0:0:
392,264,124721,1,0,0:0:0:0:
392,256,124805,1,0,0:0:0:0:
392,264,124971,1,0,0:0:0:0:
392,272,125055,1,8,0:0:0:0:
400,272,125221,1,8,0:0:0:0:
400,272,125388,1,0,0:0:0:0:
392,264,125638,1,0,0:0:0:0:
392,264,125721,1,8,0:0:0:0:
392,264,125888,1,8,0:0:0:0:
392,264,126055,1,0,0:0:0:0:
390,252,126138,1,8,0:0:0:0:
391,251,126221,1,8,0:0:0:0:
384,240,126305,1,0,0:0:0:0:
408,256,126388,1,8,0:0:0:0:
408,256,126555,1,8,0:0:0:0:
408,256,126721,1,0,0:0:0:0:
384,264,126888,1,0,0:0:0:0:
416,272,126971,1,8,0:0:0:0:
384,272,127055,1,8,0:0:0:0:
400,264,127221,1,0,0:0:0:0:
400,264,127388,1,8,0:0:0:0:
399,248,127471,1,8,0:0:0:0:
408,248,127555,1,0,0:0:0:0:
408,248,127638,1,0,0:0:0:0:
408,248,127721,1,8,0:0:0:0:
408,248,127805,1,0,0:0:0:0:
408,248,127888,1,8,0:0:0:0:
408,248,128055,1,0,0:0:0:0:
384,256,128305,1,0,0:0:0:0:
384,256,128388,1,8,0:0:0:0:
400,264,128555,1,0,0:0:0:0:
408,272,128721,1,0,0:0:0:0:
408,272,128805,1,8,0:0:0:0:
392,264,128888,1,0,0:0:0:0:
408,272,128971,1,0,0:0:0:0:
392,264,129055,1,8,0:0:0:0:
392,264,129221,1,8,0:0:0:0:
392,264,129388,1,0,0:0:0:0:
400,256,129638,1,0,0:0:0:0:
392,264,129721,1,8,0:0:0:0:
400,264,129888,1,8,0:0:0:0:
392,272,130055,1,0,0:0:0:0:
392,272,130138,1,0,0:0:0:0:
392,264,130221,1,8,0:0:0:0:
392,264,130305,1,8,0:0:0:0:
397,257,130388,1,0,0:0:0:0:
400,272,130555,1,8,0:0:0:0:
400,272,130721,1,0,0:0:0:0:
392,272,130971,1,0,0:0:0:0:
392,272,131055,1,8,0:0:0:0:
392,272,131221,1,8,0:0:0:0:
400,264,131388,1,0,0:0:0:0:
400,264,131555,1,0,0:0:0:0:
400,264,131638,1,8,0:0:0:0:
400,264,131805,1,0,0:0:0:0:
400,264,131888,1,8,0:0:0:0:
400,264,132055,1,0,0:0:0:0:
408,248,132221,1,8,0:0:0:0:
408,248,132277,1,8,0:0:0:0:
408,248,132333,1,8,0:0:0:0:
408,248,132388,1,0,0:0:0:0:
392,256,132471,1,0,0:0:0:0:
400,248,132555,1,8,0:0:0:0:
400,248,132610,1,8,0:0:0:0:
400,248,132666,1,8,0:0:0:0:
400,248,132721,1,0,0:0:0:0:
392,264,132805,1,0,0:0:0:0:
424,248,132888,1,8,0:0:0:0:
424,248,132944,1,0,0:0:0:0:
424,248,132999,1,0,0:0:0:0:
424,248,133055,1,8,0:0:0:0:
392,264,133138,1,0,0:0:0:0:
408,240,133221,1,8,0:0:0:0:
408,240,133277,1,8,0:0:0:0:
360,216,133333,1,8,0:0:0:0:
408,248,133388,1,0,0:0:0:0:
408,240,133721,1,8,0:0:0:0:
392,240,133888,1,0,0:0:0:0:
392,240,133971,1,0,0:0:0:0:
392,240,134055,1,8,0:0:0:0:
385,228,134138,1,0,0:0:0:0:
384,240,134221,1,0,0:0:0:0:
384,248,134305,1,0,0:0:0:0:
392,240,134388,1,8,0:0:0:0:
392,240,134555,1,8,0:0:0:0:
417,257,134638,1,8,0:0:0:0:
392,240,134721,1,0,0:0:0:0:
416,264,134888,1,0,0:0:0:0:
392,248,134971,1,0,0:0:0:0:
392,248,135055,1,8,0:0:0:0:
392,272,135221,1,8,0:0:0:0:
384,248,135304,1,8,0:0:0:0:
392,272,135388,1,0,0:0:0:0:
392,272,135471,1,0,0:0:0:0:
400,280,135638,1,0,0:0:0:0:
400,280,135721,1,8,0:0:0:0:
400,272,135888,1,8,0:0:0:0:
376,264,136055,1,0,0:0:0:0:
400,280,136138,1,0,0:0:0:0:
400,280,136221,1,0,0:0:0:0:
376,264,136305,1,0,0:0:0:0:
376,264,136388,1,8,0:0:0:0:
376,264,136555,1,8,0:0:0:0:
376,264,136721,1,0,0:0:0:0:
392,256,136805,1,8,0:0:0:0:
376,264,136888,1,0,0:0:0:0:
376,264,136971,1,0,0:0:0:0:
376,264,137055,1,8,0:0:0:0:
376,264,137221,1,8,0:0:0:0:
403,262,137304,1,8,0:0:0:0:
384,264,137388,1,0,0:0:0:0:
384,264,137555,1,8,0:0:0:0:
384,264,137638,1,0,0:0:0:0:
384,264,137721,1,8,0:0:0:0:
392,264,137888,1,8,0:0:0:0:
400,288,137971,1,8,0:0:0:0:
392,264,138055,1,0,0:0:0:0:
400,288,138138,1,8,0:0:0:0:
400,272,138221,1,0,0:0:0:0:
400,272,138305,1,0,0:0:0:0:
400,272,138388,1,8,0:0:0:0:
400,272,138555,1,8,0:0:0:0:
400,272,138721,1,0,0:0:0:0:
408,272,138888,1,0,0:0:0:0:
408,280,138971,1,0,0:0:0:0:
408,280,139055,1,8,0:0:0:0:
400,272,139221,1,8,0:0:0:0:
400,280,139388,1,0,0:0:0:0:
400,280,139471,1,8,0:0:0:0:
400,288,139555,1,0,0:0:0:0:
400,288,139638,1,0,0:0:0:0:
400,288,139721,1,8,0:0:0:0:
400,288,139888,1,8,0:0:0:0:
400,272,140055,1,0,0:0:0:0:
400,272,140221,1,0,0:0:0:0:
408,272,140305,1,0,0:0:0:0:
400,280,140388,1,8,0:0:0:0:
408,264,140555,1,8,0:0:0:0:
392,272,140721,1,0,0:0:0:0:
408,248,140805,1,8,0:0:0:0:
400,280,140888,1,8,0:0:0:0:
400,288,140971,1,0,0:0:0:0:
400,288,141055,1,8,0:0:0:0:
392,256,141221,1,8,0:0:0:0:
393,259,141304,1,8,0:0:0:0:
376,264,141388,1,0,0:0:0:0:
424,272,141638,1,0,0:0:0:0:
424,272,141721,1,8,0:0:0:0:
424,272,141888,1,8,0:0:0:0:
424,272,142055,1,0,0:0:0:0:
408,280,142305,1,0,0:0:0:0:
408,280,142388,1,8,0:0:0:0:
408,280,142555,1,8,0:0:0:0:
408,280,142721,1,0,0:0:0:0:
384,264,142888,1,0,0:0:0:0:
400,272,142971,1,0,0:0:0:0:
384,264,143055,1,8,0:0:0:0:
392,264,143221,1,0,0:0:0:0:
392,272,143277,1,0,0:0:0:0:
336,264,143333,1,0,0:0:0:0:
392,272,143388,1,8,0:0:0:0:
392,272,143555,1,8,0:0:0:0:
392,272,143610,1,8,0:0:0:0:
400,256,143666,1,8,0:0:0:0:
392,272,143721,1,0,0:0:0:0:
392,272,143888,1,8,0:0:0:0:
416,264,144055,1,0,0:0:0:0:
400,264,144138,1,8,0:0:0:0:
400,264,144221,1,0,0:0:0:0:
400,264,144305,1,0,0:0:0:0:
400,264,144388,1,8,0:0:0:0:
400,264,144471,1,0,0:0:0:0:
392,272,144555,1,8,0:0:0:0:
400,272,144638,1,8,0:0:0:0:
392,272,144721,1,0,0:0:0:0:
392,272,144805,1,0,0:0:0:0:
392,272,144888,1,8,0:0:0:0:
400,272,144971,1,0,0:0:0:0:
400,272,145055,1,8,0:0:0:0:
400,272,145138,1,8,0:0:0:0:
400,272,145221,1,0,0:0:0:0:
392,264,145388,1,12,0:0:0:0:
392,264,145555,1,12,0:0:0:0:
256,192,146055,12,0,146388,0:0:0:0:
399,235,146721,5,4,0:0:0:0:
328,208,152054,5,4,0:0:0:0:
320,232,152388,1,8,0:0:0:0:
352,256,152888,1,0,0:0:0:0:
352,256,153054,1,8,0:0:0:0:
368,248,153388,1,0,0:0:0:0:
386,261,153554,1,0,0:0:0:0:
368,248,153721,1,8,0:0:0:0:
368,248,153888,1,0,0:0:0:0:
376,256,154221,1,0,0:0:0:0:
376,256,154388,1,8,0:0:0:0:
360,272,154554,1,8,0:0:0:0:
360,272,154721,1,4,0:0:0:0:
352,256,155054,1,8,0:0:0:0:
360,264,155221,1,0,0:0:0:0:
360,264,155388,1,0,0:0:0:0:
360,272,155554,1,0,0:0:0:0:
360,272,155721,1,8,0:0:0:0:
360,264,155888,1,8,0:0:0:0:
368,256,156054,1,4,0:0:0:0:
376,264,156388,1,8,0:0:0:0:
376,264,156554,1,4,0:0:0:0:
376,264,156888,1,8,0:0:0:0:
392,264,157054,1,0,0:0:0:0:
392,264,157221,1,8,0:0:0:0:
392,264,157304,1,8,0:0:0:0:
392,264,157388,1,0,0:0:0:0:
392,256,157554,1,0,0:0:0:0:
376,256,157721,1,8,0:0:0:0:
376,264,157888,1,0,0:0:0:0:
376,264,157971,1,0,0:0:0:0:
376,264,158054,1,0,0:0:0:0:
376,256,158221,1,0,0:0:0:0:
384,272,158388,1,8,0:0:0:0:
384,272,158554,1,4,0:0:0:0:
416,264,158888,1,0,0:0:0:0:
416,264,158971,1,0,0:0:0:0:
416,264,159054,1,8,0:0:0:0:
392,208,159221,1,12,0:0:0:0:
400,224,159554,1,0,0:0:0:0:
390,238,159721,1,12,0:0:0:0:
400,264,159888,1,0,0:0:0:0:
393,234,160054,1,0,0:0:0:0:
393,254,160138,1,0,0:0:0:0:
402,251,160221,1,8,0:0:0:0:
390,241,160304,1,0,0:0:0:0:
390,241,160388,1,8,0:0:0:0:
407,262,160471,1,8,0:0:0:0:
407,262,160554,1,0,0:0:0:0:
377,232,160638,1,8,0:0:0:0:
391,231,160721,1,0,0:0:0:0:
411,261,160832,1,0,0:0:0:0:
411,261,160943,1,0,0:0:0:0:
407,246,161054,1,8,0:0:0:0:
407,246,161166,1,0,0:0:0:0:
407,246,161277,1,0,0:0:0:0:
407,246,161388,1,8,0:0:0:0:
403,250,161471,1,8,0:0:0:0:
403,255,161554,1,0,0:0:0:0:
403,255,161638,1,0,0:0:0:0:
403,258,161721,1,8,0:0:0:0:
404,255,161832,1,0,0:0:0:0:
404,255,161943,1,0,0:0:0:0:
384,244,162054,1,8,0:0:0:0:
403,233,162221,1,0,0:0:0:0:
403,233,162304,1,0,0:0:0:0:
418,250,162388,1,8,0:0:0:0:
397,234,162554,1,8,0:0:0:0:
398,235,162638,1,8,0:0:0:0:
398,235,162721,1,0,0:0:0:0:
395,238,162804,1,0,0:0:0:0:
385,233,162888,1,8,0:0:0:0:
385,235,162971,1,0,0:0:0:0:
385,235,163054,1,8,0:0:0:0:
393,228,163138,1,8,0:0:0:0:
396,223,163221,1,0,0:0:0:0:
383,237,163304,1,8,0:0:0:0:
383,237,163388,1,0,0:0:0:0:
384,239,163471,1,0,0:0:0:0:
384,239,163554,1,8,0:0:0:0:
384,239,163638,1,0,0:0:0:0:
384,239,163721,1,8,0:0:0:0:
384,239,163804,1,8,0:0:0:0:
399,248,163888,1,8,0:0:0:0:
394,227,163971,1,8,0:0:0:0:
394,232,164054,1,0,0:0:0:0:
396,223,164221,1,0,0:0:0:0:
395,226,164304,1,0,0:0:0:0:
395,226,164388,1,8,0:0:0:0:
384,239,164554,1,0,0:0:0:0:
385,245,164638,1,0,0:0:0:0:
385,245,164721,1,8,0:0:0:0:
385,245,164804,1,0,0:0:0:0:
396,275,164888,1,8,0:0:0:0:
420,258,164943,1,8,0:0:0:0:
417,261,164999,1,8,0:0:0:0:
417,261,165054,1,0,0:0:0:0:
379,239,165221,1,8,0:0:0:0:
400,246,165388,1,4,0:0:0:0:
380,246,165610,1,0,0:0:0:0:
390,251,165721,1,8,0:0:0:0:
386,256,165832,1,0,0:0:0:0:
386,256,165943,1,0,0:0:0:0:
397,252,166054,1,8,0:0:0:0:
383,247,166138,1,8,0:0:0:0:
391,250,166221,1,0,0:0:0:0:
400,246,166304,1,0,0:0:0:0:
400,246,166388,1,8,0:0:0:0:
407,238,166499,1,0,0:0:0:0:
407,238,166610,1,0,0:0:0:0:
405,238,166721,1,8,0:0:0:0:
391,234,166832,1,0,0:0:0:0:
391,234,166943,1,0,0:0:0:0:
391,234,167054,1,8,0:0:0:0:
402,261,167166,1,8,0:0:0:0:
402,261,167277,1,0,0:0:0:0:
369,239,167388,1,8,0:0:0:0:
394,240,167554,1,0,0:0:0:0:
395,245,167638,1,0,0:0:0:0:
395,245,167721,1,8,0:0:0:0:
397,235,167888,1,8,0:0:0:0:
380,245,167971,1,8,0:0:0:0:
390,249,168054,1,0,0:0:0:0:
382,260,168138,1,0,0:0:0:0:
389,241,168221,1,0,0:0:0:0:
389,241,168304,1,8,0:0:0:0:
389,241,168388,1,0,0:0:0:0:
394,240,168554,1,8,0:0:0:0:
367,235,168638,1,8,0:0:0:0:
368,237,168721,1,0,0:0:0:0:
368,237,168804,1,8,0:0:0:0:
382,235,168888,1,8,0:0:0:0:
382,235,169054,1,0,0:0:0:0:
377,246,169221,1,8,0:0:0:0:
377,246,169304,1,8,0:0:0:0:
379,245,169388,1,0,0:0:0:0:
381,244,169554,1,0,0:0:0:0:
379,247,169721,1,8,0:0:0:0:
377,229,169888,1,8,0:0:0:0:
397,255,169971,1,8,0:0:0:0:
380,240,170054,1,0,0:0:0:0:
377,246,170138,1,0,0:0:0:0:
377,246,170221,1,8,0:0:0:0:
377,246,170304,1,0,0:0:0:0:
369,234,170388,1,8,0:0:0:0:
369,234,170471,1,8,0:0:0:0:
369,234,170554,1,0,0:0:0:0:
369,234,170638,1,8,0:0:0:0:
369,234,170721,1,0,0:0:0:0:
369,234,170804,1,0,0:0:0:0:
369,234,170888,1,8,0:0:0:0:
391,250,170971,1,0,0:0:0:0:
385,262,171054,1,8,0:0:0:0:
414,281,171138,1,0,0:0:0:0:
385,262,171221,1,0,0:0:0:0:
410,295,171304,1,8,0:0:0:0:
407,260,171388,1,8,0:0:0:0:
387,274,171471,1,0,0:0:0:0:
387,274,171554,1,8,0:0:0:0:
393,260,171638,1,0,0:0:0:0:
393,260,171721,1,8,0:0:0:0:
392,272,171804,1,8,0:0:0:0:
393,273,171888,1,0,0:0:0:0:
409,246,172054,1,0,0:0:0:0:
422,283,172138,1,0,0:0:0:0:
401,256,172221,1,8,0:0:0:0:
393,264,172304,1,0,0:0:0:0:
393,264,172388,1,8,0:0:0:0:
367,246,172471,1,0,0:0:0:0:
367,246,172554,1,0,0:0:0:0:
400,275,172638,1,8,0:0:0:0:
383,241,172721,1,0,0:0:0:0:
401,292,172804,1,0,0:0:0:0:
393,273,172888,1,8,0:0:0:0:
399,256,172971,1,0,0:0:0:0:
399,256,173054,1,8,0:0:0:0:
401,256,173138,1,8,0:0:0:0:
388,246,173221,1,0,0:0:0:0:
389,256,173304,1,0,0:0:0:0:
393,264,173388,1,8,0:0:0:0:
400,275,173638,1,12,0:0:0:0:
374,240,173888,1,12,0:0:0:0:
359,238,174054,1,12,0:0:0:0:
390,244,174721,1,4,0:0:0:0:
384,248,182721,5,0,0:0:0:0:
376,224,183054,1,8,0:0:0:0:
384,240,183388,1,0,0:0:0:0:
384,248,183638,1,0,0:0:0:0:
384,248,183721,1,8,0:0:0:0:
384,248,183888,1,0,0:0:0:0:
384,248,183971,1,0,0:0:0:0:
384,248,184054,1,8,0:0:0:0:
392,240,184221,1,0,0:0:0:0:
392,240,184388,1,0,0:0:0:0:
392,240,184554,1,8,0:0:0:0:
384,248,184721,1,0,0:0:0:0:
400,248,184888,1,0,0:0:0:0:
400,256,185054,1,8,0:0:0:0:
400,256,185110,1,8,0:0:0:0:
400,256,185166,1,8,0:0:0:0:
400,256,185221,1,8,0:0:0:0:
400,256,185277,1,8,0:0:0:0:
400,256,185332,1,8,0:0:0:0:
400,256,185388,1,0,0:0:0:0:
256,192,186054,12,4,186388,0:0:0:0:
384,232,186721,5,4,0:0:0:0:
376,264,187221,1,0,0:0:0:0:
376,264,187388,1,8,0:0:0:0:
352,248,187721,1,8,0:0:0:0:
384,264,187888,1,0,0:0:0:0:
384,264,187971,1,0,0:0:0:0:
352,256,188054,1,0,0:0:0:0:
376,264,188221,1,8,0:0:0:0:
376,264,188388,1,8,0:0:0:0:
376,264,188554,1,0,0:0:0:0:
376,248,188888,1,0,0:0:0:0:
376,248,189054,1,8,0:0:0:0:
368,224,189138,1,8,0:0:0:0:
368,224,189221,1,8,0:0:0:0:
400,272,189388,1,4,0:0:0:0:
368,240,189554,1,0,0:0:0:0:
392,264,189638,1,0,0:0:0:0:
392,264,189721,1,8,0:0:0:0:
392,264,189888,1,8,0:0:0:0:
392,264,190055,1,0,0:0:0:0:
400,248,190138,1,8,0:0:0:0:
376,248,190221,1,0,0:0:0:0:
408,256,190388,1,8,0:0:0:0:
408,256,190555,1,8,0:0:0:0:
392,248,190638,1,8,0:0:0:0:
408,256,190721,1,0,0:0:0:0:
384,264,190888,1,0,0:0:0:0:
384,272,191055,1,8,0:0:0:0:
400,264,191221,1,0,0:0:0:0:
416,272,191304,1,0,0:0:0:0:
384,240,191388,1,8,0:0:0:0:
408,240,191471,1,8,0:0:0:0:
408,248,191555,1,0,0:0:0:0:
408,248,191638,1,0,0:0:0:0:
408,248,191721,1,8,0:0:0:0:
408,248,191805,1,0,0:0:0:0:
408,248,191888,1,8,0:0:0:0:
408,248,191971,1,8,0:0:0:0:
408,248,192055,1,0,0:0:0:0:
384,256,192221,1,0,0:0:0:0:
384,256,192305,1,0,0:0:0:0:
384,256,192388,1,8,0:0:0:0:
400,264,192555,1,0,0:0:0:0:
408,272,192721,1,0,0:0:0:0:
408,272,192805,1,8,0:0:0:0:
392,264,192888,1,0,0:0:0:0:
408,272,192971,1,0,0:0:0:0:
392,264,193055,1,8,0:0:0:0:
392,264,193221,1,8,0:0:0:0:
392,264,193388,1,0,0:0:0:0:
392,264,193555,1,0,0:0:0:0:
384,256,193638,1,0,0:0:0:0:
392,264,193721,1,8,0:0:0:0:
400,264,193888,1,8,0:0:0:0:
392,272,194055,1,0,0:0:0:0:
392,272,194138,1,0,0:0:0:0:
392,264,194221,1,8,0:0:0:0:
392,264,194305,1,8,0:0:0:0:
400,272,194388,1,8,0:0:0:0:
400,272,194555,1,8,0:0:0:0:
400,272,194721,1,0,0:0:0:0:
392,272,194971,1,0,0:0:0:0:
392,272,195055,1,8,0:0:0:0:
392,272,195221,1,8,0:0:0:0:
400,264,195388,1,0,0:0:0:0:
400,264,195555,1,0,0:0:0:0:
400,264,195638,1,8,0:0:0:0:
400,264,195805,1,0,0:0:0:0:
400,264,195888,1,8,0:0:0:0:
400,264,196055,1,0,0:0:0:0:
408,248,196221,1,8,0:0:0:0:
408,248,196277,1,8,0:0:0:0:
408,248,196333,1,8,0:0:0:0:
408,248,196388,1,0,0:0:0:0:
400,256,196471,1,0,0:0:0:0:
400,248,196555,1,8,0:0:0:0:
400,248,196610,1,8,0:0:0:0:
400,248,196666,1,8,0:0:0:0:
400,248,196721,1,0,0:0:0:0:
400,256,196804,1,0,0:0:0:0:
424,248,196888,1,8,0:0:0:0:
424,248,196944,1,0,0:0:0:0:
424,248,196999,1,0,0:0:0:0:
424,248,197055,1,8,0:0:0:0:
400,256,197138,1,0,0:0:0:0:
408,240,197221,1,8,0:0:0:0:
408,240,197277,1,8,0:0:0:0:
360,216,197333,1,8,0:0:0:0:
408,248,197388,1,0,0:0:0:0:
392,256,197721,1,12,0:0:0:0:
392,240,197888,1,0,0:0:0:0:
392,240,197971,1,0,0:0:0:0:
392,240,198055,1,8,0:0:0:0:
392,232,198138,1,8,0:0:0:0:
384,240,198221,1,0,0:0:0:0:
392,240,198388,1,8,0:0:0:0:
392,240,198555,1,8,0:0:0:0:
400,264,198638,1,8,0:0:0:0:
392,240,198721,1,0,0:0:0:0:
408,272,198888,1,0,0:0:0:0:
392,248,198971,1,0,0:0:0:0:
392,248,199055,1,8,0:0:0:0:
392,272,199221,1,8,0:0:0:0:
392,272,199305,1,8,0:0:0:0:
392,272,199388,1,0,0:0:0:0:
392,272,199471,1,8,0:0:0:0:
376,248,199555,1,0,0:0:0:0:
400,280,199638,1,0,0:0:0:0:
400,280,199721,1,8,0:0:0:0:
400,264,199805,1,0,0:0:0:0:
400,272,199888,1,8,0:0:0:0:
376,264,200055,1,0,0:0:0:0:
400,280,200138,1,0,0:0:0:0:
400,280,200221,1,0,0:0:0:0:
376,264,200305,1,0,0:0:0:0:
376,264,200388,1,8,0:0:0:0:
376,264,200555,1,8,0:0:0:0:
400,264,200638,1,8,0:0:0:0:
376,264,200721,1,0,0:0:0:0:
392,256,200805,1,8,0:0:0:0:
376,264,200888,1,0,0:0:0:0:
376,264,200971,1,0,0:0:0:0:
376,264,201055,1,8,0:0:0:0:
376,264,201221,1,8,0:0:0:0:
384,256,201304,1,8,0:0:0:0:
384,264,201388,1,0,0:0:0:0:
384,264,201555,1,8,0:0:0:0:
384,264,201638,1,0,0:0:0:0:
384,264,201721,1,8,0:0:0:0:
392,264,201888,1,8,0:0:0:0:
400,288,201971,1,8,0:0:0:0:
392,264,202055,1,0,0:0:0:0:
400,288,202138,1,8,0:0:0:0:
400,272,202221,1,0,0:0:0:0:
400,272,202305,1,0,0:0:0:0:
400,272,202388,1,8,0:0:0:0:
384,264,202471,1,0,0:0:0:0:
400,272,202555,1,8,0:0:0:0:
400,264,202721,1,4,0:0:0:0:
408,272,202888,1,0,0:0:0:0:
408,280,202971,1,0,0:0:0:0:
408,280,203055,1,8,0:0:0:0:
408,280,203221,1,4,0:0:0:0:
400,288,203555,1,0,0:0:0:0:
400,288,203638,1,0,0:0:0:0:
400,288,203721,1,8,0:0:0:0:
408,280,203804,1,0,0:0:0:0:
400,288,203888,1,8,0:0:0:0:
400,272,204055,1,4,0:0:0:0:
408,280,204221,1,8,0:0:0:0:
408,280,204304,1,8,0:0:0:0:
400,280,204388,1,8,0:0:0:0:
408,280,204554,1,4,0:0:0:0:
400,280,204888,1,8,0:0:0:0:
400,288,204971,1,0,0:0:0:0:
400,288,205055,1,8,0:0:0:0:
400,288,205138,1,8,0:0:0:0:
416,272,205221,1,8,0:0:0:0:
408,272,205388,1,4,0:0:0:0:
424,272,205638,1,0,0:0:0:0:
424,272,205721,1,8,0:0:0:0:
424,272,205888,1,8,0:0:0:0:
424,272,206055,1,0,0:0:0:0:
392,272,206221,1,0,0:0:0:0:
408,280,206305,1,0,0:0:0:0:
408,280,206388,1,8,0:0:0:0:
408,280,206555,1,8,0:0:0:0:
408,280,206721,1,0,0:0:0:0:
384,272,206888,1,8,0:0:0:0:
400,280,206971,1,0,0:0:0:0:
384,264,207055,1,8,0:0:0:0:
392,264,207221,1,0,0:0:0:0:
392,272,207277,1,0,0:0:0:0:
336,264,207333,1,0,0:0:0:0:
392,272,207388,1,8,0:0:0:0:
392,272,207555,1,8,0:0:0:0:
392,272,207610,1,8,0:0:0:0:
400,256,207666,1,8,0:0:0:0:
392,272,207721,1,0,0:0:0:0:
392,272,207888,1,8,0:0:0:0:
416,264,208055,1,0,0:0:0:0:
400,264,208138,1,8,0:0:0:0:
400,264,208221,1,0,0:0:0:0:
400,264,208305,1,0,0:0:0:0:
400,264,208388,1,8,0:0:0:0:
400,264,208471,1,0,0:0:0:0:
392,272,208555,1,8,0:0:0:0:
400,272,208638,1,8,0:0:0:0:
392,272,208721,1,0,0:0:0:0:
392,272,208805,1,0,0:0:0:0:
392,272,208888,1,8,0:0:0:0:
400,272,208971,1,0,0:0:0:0:
400,272,209055,1,8,0:0:0:0:
400,272,209138,1,8,0:0:0:0:
400,272,209221,1,0,0:0:0:0:
392,264,209388,1,12,0:0:0:0:
392,264,209638,1,12,0:0:0:0:
416,272,209888,1,12,0:0:0:0:
376,224,210054,1,12,0:0:0:0:
336,248,210721,5,4,0:0:0:0:
376,256,210971,1,0,0:0:0:0:
376,256,211054,1,8,0:0:0:0:
376,256,211221,1,8,0:0:0:0:
368,248,211388,1,0,0:0:0:0:
368,248,211471,1,0,0:0:0:0:
368,248,211554,1,0,0:0:0:0:
368,248,211721,1,8,0:0:0:0:
376,248,211888,1,0,0:0:0:0:
376,248,211971,1,0,0:0:0:0:
376,248,212054,1,8,0:0:0:0:
376,248,212221,1,0,0:0:0:0:
384,248,212388,1,8,0:0:0:0:
392,248,212471,1,8,0:0:0:0:
392,248,212554,1,0,0:0:0:0:
384,248,212721,1,8,0:0:0:0:
376,256,212888,1,0,0:0:0:0:
376,256,212971,1,8,0:0:0:0:
376,256,213054,1,8,0:0:0:0:
376,264,213221,1,0,0:0:0:0:
384,264,213388,1,0,0:0:0:0:
400,248,213638,1,0,0:0:0:0:
400,248,213721,1,8,0:0:0:0:
400,248,213888,1,8,0:0:0:0:
400,248,214054,1,0,0:0:0:0:
400,248,214138,1,8,0:0:0:0:
400,248,214221,1,0,0:0:0:0:
400,248,214304,1,0,0:0:0:0:
400,248,214388,1,8,0:0:0:0:
400,248,214554,1,8,0:0:0:0:
400,248,214721,1,0,0:0:0:0:
400,264,214888,1,0,0:0:0:0:
400,264,214971,1,0,0:0:0:0:
400,264,215054,1,8,0:0:0:0:
384,264,215221,1,8,0:0:0:0:
384,264,215388,1,0,0:0:0:0:
384,264,215554,1,8,0:0:0:0:
384,264,215638,1,0,0:0:0:0:
384,264,215721,1,8,0:0:0:0:
376,248,215804,1,8,0:0:0:0:
376,248,215888,1,8,0:0:0:0:
376,248,215971,1,8,0:0:0:0:
376,248,216054,1,0,0:0:0:0:
376,240,216304,1,0,0:0:0:0:
376,240,216388,1,8,0:0:0:0:
376,240,216554,1,8,0:0:0:0:
376,240,216721,1,0,0:0:0:0:
376,248,216804,1,0,0:0:0:0:
376,248,216888,1,0,0:0:0:0:
376,240,217054,1,8,0:0:0:0:
376,240,217221,1,0,0:0:0:0:
376,240,217304,1,0,0:0:0:0:
376,240,217388,1,8,0:0:0:0:
376,248,217471,1,8,0:0:0:0:
376,248,217554,1,0,0:0:0:0:
384,264,217721,1,8,0:0:0:0:
384,264,217888,1,0,0:0:0:0:
384,264,218054,1,8,0:0:0:0:
400,264,218138,1,0,0:0:0:0:
384,264,218221,1,0,0:0:0:0:
424,280,218304,1,8,0:0:0:0:
384,264,218388,1,8,0:0:0:0:
384,264,218554,1,8,0:0:0:0:
384,264,218721,1,0,0:0:0:0:
352,272,218804,1,0,0:0:0:0:
368,272,218888,1,0,0:0:0:0:
368,272,218971,1,0,0:0:0:0:
368,280,219054,1,8,0:0:0:0:
368,280,219138,1,0,0:0:0:0:
368,280,219221,1,0,0:0:0:0:
368,280,219304,1,0,0:0:0:0:
392,280,219388,1,8,0:0:0:0:
392,280,219471,1,0,0:0:0:0:
392,280,219554,1,0,0:0:0:0:
392,280,219638,1,8,0:0:0:0:
392,280,219721,1,0,0:0:0:0:
392,280,219804,1,0,0:0:0:0:
392,280,219888,1,8,0:0:0:0:
392,280,219971,1,0,0:0:0:0:
392,280,220054,1,8,0:0:0:0:
408,296,220221,1,0,0:0:0:0:
376,272,220388,1,8,0:0:0:0:
376,272,220554,1,0,0:0:0:0:
384,272,220721,1,0,0:0:0:0:
376,272,220888,1,8,0:0:0:0:
376,272,221054,1,0,0:0:0:0:
376,272,221221,1,0,0:0:0:0:
392,272,221304,1,0,0:0:0:0:
392,272,221388,1,8,0:0:0:0:
392,272,221554,1,0,0:0:0:0:
392,280,221721,1,0,0:0:0:0:
400,264,221888,1,8,0:0:0:0:
400,264,222054,1,0,0:0:0:0:
400,264,222221,1,0,0:0:0:0:
400,264,222388,1,8,0:0:0:0:
400,272,222554,1,8,0:0:0:0:
392,264,222721,1,0,0:0:0:0:
408,264,222804,1,0,0:0:0:0:
408,272,222888,1,8,0:0:0:0:
400,264,222971,1,0,0:0:0:0:
400,264,223054,1,8,0:0:0:0:
384,256,223138,1,8,0:0:0:0:
400,264,223221,1,0,0:0:0:0:
400,264,223304,1,0,0:0:0:0:
400,264,223388,1,8,0:0:0:0:
376,256,223471,1,0,0:0:0:0:
376,256,223554,1,8,0:0:0:0:
384,256,223638,1,8,0:0:0:0:
384,256,223721,1,0,0:0:0:0:
384,256,223804,1,0,0:0:0:0:
400,264,223888,1,8,0:0:0:0:
400,264,223971,1,0,0:0:0:0:
400,264,224054,1,8,0:0:0:0:
400,256,224221,1,0,0:0:0:0:
400,256,224304,1,0,0:0:0:0:
400,256,224388,1,8,0:0:0:0:
400,256,224554,1,0,0:0:0:0:
400,256,224721,1,12,0:0:0:0:
400,256,224888,1,12,0:0:0:0:
