osu file format v14

[General]
AudioFilename: audio.mp3
AudioLeadIn: 0
PreviewTime: 31851
Countdown: 0
SampleSet: Soft
StackLeniency: 0.7
Mode: 0
LetterboxInBreaks: 0
WidescreenStoryboard: 0

[Editor]
Bookmarks: 113986
DistanceSpacing: 1
BeatDivisor: 4
GridSize: 4
TimelineZoom: 0.8

[Metadata]
Title:Koi wo Shita no wa
TitleUnicode:恋をしたのは
Artist:aiko
ArtistUnicode:aiko
Creator:frostnova0
Version:Easy
Source:聲の形
Tags:Koe no Katachi
BeatmapID:1370434
BeatmapSetID:632593

[Difficulty]
HPDrainRate:3
CircleSize:3
OverallDifficulty:3
ApproachRate:5
SliderMultiplier:1.4
SliderTickRate:1

[Events]
//Background and Video events
0,0,"koenokatachi.png",0,0
//Break Periods
2,8589,10347
2,61503,65956
//Storyboard Layer 0 (Background)
//Storyboard Layer 1 (Fail)
//Storyboard Layer 2 (Pass)
//Storyboard Layer 3 (Foreground)
//Storyboard Sound Samples

[TimingPoints]
1284,1578.94736842105,4,2,0,10,1,0
11547,731.707317073171,4,2,0,60,1,0
78864,-100,4,2,0,60,0,1
99351,-100,4,2,0,60,0,0
125693,-100,4,2,0,100,0,1
125876,-100,4,2,0,100,0,0

[Colours]
Combo1 : 66,238,62
Combo2 : 62,194,251
Combo3 : 222,179,97
Combo4 : 207,86,86

[HitObjects]
224,124,1284,6,0,P|268:115|317:133,2,70,0|0|0,2:0|2:0|2:0,2:0:0:0:
296,244,4441,6,0,P|262:252|227:248,2,70,0|0|0,2:0|2:0|2:0,2:0:0:0:
256,92,8389,5,0,0:0:0:0:
140,80,11547,6,0,P|236:47|347:81,1,210
400,120,13010,2,0,P|396:220|308:212,1,210
247,167,14473,2,0,B|173:88|116:186|47:114,1,210
25,48,15937,1,0,0:0:0:0:
323,54,17400,6,0,P|363:170|315:242,1,210
270,296,18864,6,0,P|178:340|86:297,1,210
52,226,20327,1,0,0:0:0:0:
124,93,21059,1,0,0:0:0:0:
265,52,21790,1,0,0:0:0:0:
390,127,22522,1,0,0:0:0:0:
384,272,23254,6,0,P|333:319|266:337,1,140
132,296,24717,2,0,P|79:239|102:166,1,140
176,72,26181,2,0,P|235:37|307:58,1,140
408,144,27644,2,0,P|440:203|440:272,1,140
304,296,29107,5,0,0:0:0:0:
208,192,29839,2,0,P|201:132|272:92,1,140
400,60,31303,1,0,0:0:0:0:
460,180,32034,6,0,P|432:248|360:260,1,140
236,240,33498,2,0,P|177:195|184:122,1,140
300,68,34961,6,0,P|366:97|376:170,1,140
312,320,36425,1,0,0:0:0:0:
240,200,37156,1,0,0:0:0:0:
152,88,37888,2,0,P|114:143|136:207,1,140
224,316,39351,1,0,0:0:0:0:
328,224,40083,1,0,0:0:0:0:
428,124,40815,6,0,P|396:64|329:54,2,140
444,264,43010,1,0,0:0:0:0:
308,236,43742,6,0,P|236:204|188:136,1,140
336,128,45205,2,0,P|398:159|439:214,1,140
336,308,46668,6,0,B|263:297|265:236|202:239,1,140
80,216,48132,1,0,0:0:0:0:
148,92,48864,1,0,0:0:0:0:
264,168,49595,6,0,P|321:207|354:267,1,140
216,272,51059,2,0,P|157:230|122:170,1,140
244,100,52522,2,0,P|316:132|352:192,2,140,0|0|0,2:0|2:0|2:0,2:0:0:0:
92,76,54717,5,0,0:0:0:0:
144,208,55449,2,0,P|206:265|282:261,1,140
396,240,56912,1,0,0:0:0:0:
452,112,57644,1,0,0:0:0:0:
314,116,58376,6,0,P|236:149|209:220,1,140
348,220,59839,2,0,P|419:174|434:100,1,140
324,40,61303,1,0,0:0:0:0:
64,68,67156,6,0,P|136:56|196:80,1,140
320,148,68620,1,0,0:0:0:0:
431,235,69351,1,0,0:0:0:0:
480,361,70083,6,0,P|412:373|351:341,1,140
263,176,71547,2,0,P|215:126|147:116,1,140
132,256,73010,2,0,P|175:309|241:324,1,140
384,312,74473,2,0,P|440:296|476:216,1,140
464,88,75937,5,0,0:0:0:0:
378,202,76668,1,0,0:0:0:0:
253,138,77400,1,0,0:0:0:0:
151,234,78132,1,0,0:0:0:0:
130,95,78864,6,0,P|190:59|262:71,1,140
384,128,80327,2,0,P|420:188|408:260,1,140
288,324,81790,6,0,P|220:280|208:204,1,140
336,176,83254,2,0,P|309:112|247:83,1,140
108,64,84717,5,0,0:0:0:0:
128,200,85449,1,0,0:0:0:0:
224,304,86181,1,0,0:0:0:0:
364,320,86912,1,0,0:0:0:0:
468,228,87644,2,0,P|476:144|440:100,1,140
304,96,89107,5,0,0:0:0:0:
352,228,89839,1,0,0:0:0:0:
216,200,90571,2,0,P|249:142|326:85,1,140
352,228,92034,5,0,0:0:0:0:
483,180,92766,1,0,0:0:0:0:
455,316,93498,2,0,P|397:282|340:205,1,140
288,104,94961,5,0,0:0:0:0:
164,40,95693,1,0,0:0:0:0:
172,180,96425,2,0,P|237:155|290:110,1,140
408,32,97888,5,0,0:0:0:0:
464,160,98620,1,0,0:0:0:0:
424,292,99351,1,0,0:0:0:0:
296,344,100083,1,0,0:0:0:0:
152,321,100815,2,0,B|125:268|63:265|66:188,1,140
140,93,102278,6,0,P|225:50|275:58,1,140
398,103,103742,2,0,P|463:171|460:227,1,140
382,325,105205,2,0,P|289:347|252:316,1,140
152,232,106668,2,0,P|119:142|133:93,1,140
258,45,108132,5,0,0:0:0:0:
370,129,108864,1,0,0:0:0:0:
385,267,109595,1,0,0:0:0:0:
268,344,110327,1,0,0:0:0:0:
130,317,111059,2,0,P|72:273|66:190,1,140
104,76,112522,6,0,B|184:76|184:76|208:132,1,140
260,260,113986,2,0,B|284:316|284:316|364:316,1,140
504,300,115449,2,0,P|520:204|496:148,1,140
416,60,116912,2,0,P|319:69|271:107,1,140
176,180,118376,2,0,P|117:143|83:83,2,140
256,192,120571,12,0,125693,0:0:0:0:
