osu file format v14

[General]
AudioFilename: audio.mp3
AudioLeadIn: 0
PreviewTime: 224666
Countdown: 0
SampleSet: Soft
StackLeniency: 0.4
Mode: 0
LetterboxInBreaks: 0
WidescreenStoryboard: 0

[Editor]
Bookmarks: 11780,32267,55682,79097,102511,125926,131780,155194,178609,202023,225438,248853,272267,295682,319097
DistanceSpacing: 2
BeatDivisor: 4
GridSize: 16
TimelineZoom: 2

[Metadata]
Title:Koi wo Shita no wa
TitleUnicode:恋をしたのは
Artist:aiko
ArtistUnicode:aiko
Creator:Hey lululu
Version:Voice of Shouko
Source:聲の形
Tags:the shape of voice a silent voice koe no katachi
BeatmapID:1267580
BeatmapSetID:594055

[Difficulty]
HPDrainRate:6
CircleSize:4
OverallDifficulty:7.5
ApproachRate:8.5
SliderMultiplier:2.5
SliderTickRate:1

[Events]
//Background and Video events
0,0,"BG.jpg",0,0
//Break Periods
2,126095,131074
2,272436,281805
//Storyboard Layer 0 (Background)
//Storyboard Layer 1 (Fail)
//Storyboard Layer 2 (Pass)
//Storyboard Layer 3 (Foreground)
//Storyboard Sound Samples

[TimingPoints]
2267,1578.94736842105,4,2,2,10,1,0
8582,-100,4,2,3,10,0,0
11749,731.707317073171,4,2,2,30,1,0
16139,-100,4,2,4,30,0,0
16383,-100,4,2,4,5,0,0
16505,-76.9230769230769,4,2,4,30,0,0
16749,-76.9230769230769,4,2,4,5,0,0
16870,-66.6666666666667,4,2,4,30,0,0
17114,-66.6666666666667,4,2,4,5,0,0
17236,-100,4,2,4,30,0,0
17602,-76.9230769230769,4,2,1,30,0,0
29309,-100,4,2,1,20,0,0
31505,-200,4,2,1,10,0,0
32236,-90.9090909090909,4,2,1,30,0,0
102480,-76.9230769230769,4,2,1,40,0,0
125895,-100,4,2,1,30,0,0
131749,-200,4,2,1,20,0,0
136139,-100,4,2,1,20,0,0
137602,-90.9090909090909,4,2,1,30,0,0
178578,-76.9230769230769,4,2,1,30,0,0
201261,-76.9230769230769,4,2,10,30,0,0
201992,-76.9230769230769,4,2,1,30,0,0
225407,-76.9230769230769,4,2,5,40,0,1
248822,-90.9090909090909,4,2,6,35,0,0
260529,-76.9230769230769,4,2,6,35,0,0
270773,-100,4,2,8,30,0,0
270956,-100,4,2,1,30,0,0
271139,-90.9090909090909,4,2,8,30,0,0
271383,-90.9090909090909,4,2,1,5,0,0
271505,-83.3333333333333,4,2,8,30,0,0
271688,-83.3333333333333,4,2,10,30,0,0
271870,-76.9230769230769,4,2,8,30,0,0
272236,-200,4,2,1,10,0,0
282480,-76.9230769230769,4,2,1,30,0,0
295651,-76.9230769230769,4,2,1,40,0,1
316139,-83.3333333333333,4,2,1,40,0,1
317602,-90.9090909090909,4,2,1,40,0,1
319066,-100,4,2,2,30,0,0
323456,-100,4,2,1,40,0,0
323822,-100,4,2,10,40,0,0
324919,-76.9230769230769,4,2,7,30,0,0
335163,-76.9230769230769,4,2,8,40,0,0
335407,-76.9230769230769,4,2,8,30,0,0
335529,-76.9230769230769,4,2,8,40,0,0
335773,-76.9230769230769,4,2,8,30,0,0
335895,-76.9230769230769,4,2,8,40,0,0
336139,-76.9230769230769,4,2,8,30,0,0
336261,-76.9230769230769,4,2,8,40,0,0
336505,-76.9230769230769,4,2,8,30,0,0
336627,-200,4,2,9,10,0,0
337358,750,4,2,9,10,1,0
337358,-200,4,2,9,10,0,0
339608,731.707317073171,4,2,9,10,1,0
339608,-200,4,2,9,10,0,0
341071,722.89156626506,4,2,9,10,1,0
341071,-200,4,2,9,10,0,0
344685,750,4,2,9,10,1,0
344685,-200,4,2,9,10,0,0
345435,727.272727272727,4,2,9,10,1,0
345435,-200,4,2,9,10,0,0
346768,-200,4,2,9,5,0,0
346889,759.493670886076,4,2,9,10,1,0
346889,-200,4,2,9,10,0,0
348281,-200,4,2,9,5,0,0
348407,-200,4,2,9,8,0,337358

[Colours]
Combo1 : 255,0,255
Combo2 : 255,128,192
Combo3 : 0,128,255
Combo4 : 128,128,192

[HitObjects]
256,192,2267,5,2,0:0:0:0:
256,192,3845,1,2,0:0:0:0:
256,192,5424,2,0,B|230:205|201:185|201:185|173:227|136:240|97:245|76:220|77:181|106:156|133:168|130:201,1,250,2|2,0:0|0:0,0:0:0:0:
234,332,8582,1,2,0:0:0:0:
256,192,8845,12,0,11214,0:0:0:0:
440,234,11749,6,0,P|449:300|402:354,1,125,2|0,0:0|0:0,0:0:0:0:
308,281,12297,1,0,0:0:0:0:
308,281,12480,2,0,L|371:278,1,62.5,2|0,0:0|0:0,0:0:0:0:
415,118,12846,1,0,0:0:0:0:
415,118,13212,6,0,B|446:163|446:163|437:258,2,125,2|0|2,0:0|0:0|0:0,0:0:0:0:
415,118,14309,1,0,0:0:0:0:
298,57,14675,2,0,P|360:53|417:4,2,125,2|0|2,0:0|0:0|0:0,0:0:0:0:
150,0,15773,1,0,0:0:0:0:
101,149,16139,6,0,L|106:244,1,83.3333333333333,8|0,0:0|0:0,0:0:0:0:
257,140,16505,6,0,L|249:273,1,108.333328374227,8|0,0:0|0:0,0:0:0:0:
100,133,16870,6,0,L|107:266,1,125.000004768372,8|0,0:0|0:0,0:0:0:0:
159,368,17236,5,8,0:0:0:0:
130,355,17327,1,0,0:0:0:0:
99,351,17418,1,0,0:0:0:0:
69,356,17510,1,0,0:0:0:0:
41,369,17602,6,0,L|31:245,1,108.333328374227,12|0,0:0|0:0,0:0:0:0:
123,142,17968,2,0,P|87:175|21:173,1,108.333328374227,8|0,0:0|0:0,0:0:0:0:
52,95,18334,2,0,L|167:87,1,108.333328374227,10|0,0:0|0:0,0:0:0:0:
160,87,18700,1,10,0:0:0:0:
333,58,18944,1,0,0:0:0:0:
333,58,19066,6,0,B|359:99|359:99|352:187,1,108.333328374227,8|0,0:0|0:0,0:0:0:0:
374,324,19431,2,0,P|384:270|431:231,1,108.333328374227,8|0,0:0|0:0,0:0:0:0:
266,199,19797,2,0,L|287:312,1,108.333328374227,10|0,0:0|0:0,0:0:0:0:
285,305,20163,1,10,0:0:0:0:
293,84,20407,1,0,0:0:0:0:
293,84,20529,6,0,B|240:98|240:98|177:73,1,108.333328374227,8|0,0:0|0:0,0:0:0:0:
125,246,20895,2,0,B|139:193|139:193|192:151,1,108.333328374227,8|0,0:0|0:0,0:0:0:0:
75,19,21261,2,0,B|113:57|113:57|123:124,1,108.333328374227,10|0,0:0|0:0,0:0:0:0:
121,110,21627,1,10,0:0:0:0:
3,172,21870,1,0,0:0:0:0:
3,172,21992,6,0,B|7:227|7:227|-2:292,1,108.333328374227,8|0,0:0|0:0,0:0:0:0:
97,384,22358,2,0,B|93:329|93:329|102:264,1,108.333328374227,8|0,0:0|0:0,0:0:0:0:
201,171,22724,2,0,B|205:226|205:226|196:291,1,108.333328374227,10|0,0:0|0:0,0:0:0:0:
269,362,23090,2,0,P|325:373|373:334,1,108.333328374227,10|0,0:0|0:0,0:0:0:0:
365,346,23456,5,8,0:0:0:0:
245,264,23700,1,0,0:0:0:0:
245,264,23822,2,0,P|243:326|276:367,1,108.333328374227,8|0,0:0|0:0,0:0:0:0:
154,318,24188,2,0,P|101:285|49:293,1,108.333328374227,10|0,0:0|0:0,0:0:0:0:
148,201,24553,2,0,P|202:171|221:122,1,108.333328374227,10|0,0:0|0:0,0:0:0:0:
220,130,24919,5,8,0:0:0:0:
36,196,25163,1,0,0:0:0:0:
36,196,25285,2,0,B|50:140|50:140|30:89,1,108.333328374227,8|0,0:0|0:0,0:0:0:0:
138,276,25651,2,0,B|124:332|124:332|144:383,1,108.333328374227,10|0,0:0|0:0,0:0:0:0:
277,193,26017,2,0,L|167:183,1,108.333328374227,10|0,0:0|0:0,0:0:0:0:
169,183,26383,5,8,0:0:0:0:
372,65,26627,1,0,0:0:0:0:
372,65,26749,2,0,B|370:125|370:125|332:161,1,108.333328374227,8|0,0:0|0:0,0:0:0:0:
318,265,27114,2,0,B|267:233|267:233|254:182,1,108.333328374227,10|0,0:0|0:0,0:0:0:0:
173,122,27480,2,0,B|225:93|225:93|276:108,1,108.333328374227,10|0,0:0|0:0,0:0:0:0:
98,159,27846,6,0,P|92:101|128:53,1,108.333328374227,8|0,0:0|0:0,0:0:0:0:
133,253,28212,2,0,B|61:265|61:265|23:249,1,108.333328374227,8|0,0:0|0:0,0:0:0:0:
231,212,28578,2,0,L|224:346,1,108.333328374227,10|0,0:0|0:0,0:0:0:0:
225,320,28944,1,10,0:0:0:0:
317,276,29309,6,0,P|361:306|433:293,2,125,0|0|0,0:0|0:0|0:0,0:0:0:0:
384,223,30407,1,0,0:0:0:0:
384,223,30651,2,0,B|409:198|409:198|498:201,1,125
498,201,31139,1,0,0:0:0:0:
375,119,31383,1,0,0:0:0:0:
375,119,31505,6,0,L|384:230,1,104.166666666667
316,334,32236,6,0,P|260:337|218:307,1,91.6666694641114,12|0,0:0|0:0,0:0:0:0:
280,170,32602,2,0,L|288:277,1,91.6666694641114,8|0,0:0|0:0,0:0:0:0:
104,220,32968,2,0,P|160:217|202:247,1,91.6666694641114,10|0,0:0|0:0,0:0:0:0:
143,384,33334,2,0,L|132:277,1,91.6666694641114,10|0,0:0|0:0,0:0:0:0:
100,125,33700,6,0,P|57:116|4:148,1,91.6666694641114,8|0,0:0|0:0,0:0:0:0:
100,125,34066,2,0,P|144:133|185:114,1,91.6666694641114,8|0,0:0|0:0,0:0:0:0:
270,125,34431,2,0,P|225:133|184:114,1,91.6666694641114,10|0,0:0|0:0,0:0:0:0:
270,125,34797,2,0,P|312:116|365:148,1,91.6666694641114,10|0,0:0|0:0,0:0:0:0:
443,271,35163,6,0,L|449:170,1,91.6666694641114,8|0,0:0|0:0,0:0:0:0:
453,87,35529,2,0,L|447:178,1,91.6666694641114,8|0,0:0|0:0,0:0:0:0:
377,323,35895,2,0,P|358:263|372:225,1,91.6666694641114,10|0,0:0|0:0,0:0:0:0:
443,271,36261,1,10,0:0:0:0:
286,341,36627,6,0,L|173:358,1,91.6666694641114,2|0,0:0|0:0,0:0:0:0:
195,354,36992,1,0,0:0:0:0:
37,236,37358,2,0,L|150:253,1,91.6666694641114,2|0,0:0|0:0,0:0:0:0:
127,249,37723,1,0,0:0:0:0:
222,120,37968,1,0,0:0:0:0:
222,120,38090,6,0,B|246:149|246:149|237:223,1,91.6666694641114,8|0,0:0|0:0,0:0:0:0:
326,384,38456,2,0,B|302:355|302:355|311:281,1,91.6666694641114,8|0,0:0|0:0,0:0:0:0:
412,224,38822,2,0,P|368:232|318:218,1,91.6666694641114,10|0,0:0|0:0,0:0:0:0:
133,276,39188,2,0,P|177:268|227:282,1,91.6666694641114,10|0,0:0|0:0,0:0:0:0:
88,198,39553,6,0,P|44:206|-6:192,1,91.6666694641114,8|0,0:0|0:0,0:0:0:0:
41,24,39919,2,0,B|56:71|56:71|43:124,1,91.6666694641114,8|0,0:0|0:0,0:0:0:0:
146,40,40285,2,0,L|242:50,1,91.6666694641114,10|0,0:0|0:0,0:0:0:0:
397,68,40651,1,10,0:0:0:0:
313,131,41017,6,0,P|306:178|271:212,1,91.6666694641114,8|0,0:0|0:0,0:0:0:0:
240,287,41383,2,0,P|270:253|276:208,1,91.6666694641114,8|0,0:0|0:0,0:0:0:0:
109,210,41749,2,0,B|141:219|141:219|218:211,1,91.6666694641114,10|0,0:0|0:0,0:0:0:0:
232,139,42114,1,10,0:0:0:0:
93,31,42358,1,0,0:0:0:0:
93,31,42480,6,0,L|101:135,1,91.6666694641114,2|0,0:0|0:0,0:0:0:0:
111,253,42846,1,0,0:0:0:0:
118,344,43212,2,0,L|110:240,1,91.6666694641114,2|0,0:0|0:0,0:0:0:0:
100,122,43578,1,0,0:0:0:0:
211,191,43944,6,0,P|259:200|299:186,1,91.6666694641114,8|0,0:0|0:0,0:0:0:0:
404,89,44309,2,0,L|394:203,1,91.6666694641114,8|0,0:0|0:0,0:0:0:0:
419,332,44675,2,0,B|451:308|451:308|460:231,1,91.6666694641114,10|0,0:0|0:0,0:0:0:0:
456,256,45041,1,10,0:0:0:0:
276,293,45285,1,0,0:0:0:0:
276,293,45407,6,0,L|183:288,1,91.6666694641114,8|0,0:0|0:0,0:0:0:0:
100,371,45773,2,0,L|191:375,1,91.6666694641114,8|0,0:0|0:0,0:0:0:0:
153,201,46139,2,0,L|62:197,1,91.6666694641114,10|0,0:0|0:0,0:0:0:0:
288,204,46505,1,10,0:0:0:0:
412,264,46870,6,0,P|408:217|430:179,1,91.6666694641114,8|0,0:0|0:0,0:0:0:0:
276,64,47236,2,0,P|318:84|340:122,1,91.6666694641114,8|0,0:0|0:0,0:0:0:0:
511,40,47602,2,0,P|472:66|428:66,1,91.6666694641114,10|0,0:0|0:0,0:0:0:0:
394,36,47968,1,10,0:0:0:0:
188,81,48212,1,0,0:0:0:0:
188,81,48334,6,0,B|204:129|204:129|190:184,1,91.6666694641114,8|0,0:0|0:0,0:0:0:0:
91,258,48700,2,0,B|75:210|75:210|89:155,1,91.6666694641114,8|0,0:0|0:0,0:0:0:0:
276,290,49066,2,0,L|176:308,1,91.6666694641114,10|0,0:0|0:0,0:0:0:0:
185,306,49431,1,10,0:0:0:0:
332,219,49675,1,0,0:0:0:0:
332,219,49797,6,0,P|360:258|362:312,1,91.6666694641114,8|0,0:0|0:0,0:0:0:0:
473,160,50163,2,0,P|445:199|443:253,1,91.6666694641114,8|0,0:0|0:0,0:0:0:0:
282,39,50529,2,0,P|310:78|312:132,1,91.6666694641114,10|0,0:0|0:0,0:0:0:0:
492,0,50895,2,0,P|464:39|462:93,1,91.6666694641114,10|0,0:0|0:0,0:0:0:0:
501,210,51261,6,0,B|458:197|458:197|413:206,1,91.6666694641114,8|0,0:0|0:0,0:0:0:0:
274,275,51627,2,0,B|317:288|317:288|362:279,1,91.6666694641114,8|0,0:0|0:0,0:0:0:0:
326,92,51992,2,0,L|321:198,1,91.6666694641114,10|0,0:0|0:0,0:0:0:0:
321,183,52358,1,10,0:0:0:0:
176,104,52602,1,0,0:0:0:0:
176,104,52724,6,0,L|180:12,1,91.6666694641114,8|0,0:0|0:0,0:0:0:0:
331,0,53090,2,0,L|326:91,1,91.6666694641114,8|0,0:0|0:0,0:0:0:0:
325,91,53456,1,8,0:0:0:0:
295,239,53822,2,0,B|255:238|230:261|230:261|204:285|153:279,1,137.500004196167,2|0,0:0|0:0,0:0:0:0:
374,68,54553,6,0,L|368:164,1,91.6666694641114
363,205,54919,1,2,0:0:0:0:
377,21,55285,1,8,0:3:0:0:
416,274,55651,6,0,P|374:290|300:267,1,91.6666694641114,12|0,0:0|0:0,0:0:0:0:
248,229,56017,2,0,L|252:337,1,91.6666694641114,8|0,0:0|0:0,0:0:0:0:
167,384,56383,2,0,L|163:292,1,91.6666694641114,8|0,0:0|0:0,0:0:0:0:
164,293,56749,1,8,0:0:0:0:
53,164,56992,1,0,0:0:0:0:
53,164,57114,6,0,B|58:213|58:213|44:260,1,91.6666694641114,8|0,0:0|0:0,0:0:0:0:
142,146,57480,2,0,P|99:149|50:165,1,91.6666694641114,10|0,0:0|0:0,0:0:0:0:
142,146,57846,2,0,B|138:91|138:91|150:48,1,91.6666694641114,8|0,0:0|0:0,0:0:0:0:
244,0,58212,2,0,B|248:55|248:55|238:90,1,91.6666694641114,8|0,0:0|0:0,0:0:0:0:
238,90,58578,6,0,L|335:106,1,91.6666694641114,8|0,0:0|0:0,0:0:0:0:
392,194,58944,2,0,L|301:179,1,91.6666694641114,8|0,0:0|0:0,0:0:0:0:
372,299,59309,2,0,P|419:302|465:273,1,91.6666694641114,8|0,0:0|0:0,0:0:0:0:
413,87,59675,2,0,P|366:84|320:113,1,91.6666694641114,8|0,0:0|0:0,0:0:0:0:
259,258,60041,6,0,B|247:209|247:209|263:144,1,91.6666694641114,8|0,0:0|0:0,0:0:0:0:
238,0,60407,2,0,B|250:49|250:49|234:114,1,91.6666694641114,10|0,0:0|0:0,0:0:0:0:
69,138,60773,2,0,B|159:126,1,91.6666694641114,8|0,0:0|0:0,0:0:0:0:
159,126,61139,1,8,0:0:0:0:
126,252,61383,1,0,0:0:0:0:
126,252,61505,6,0,L|132:346,1,91.6666694641114,8|0,0:0|0:0,0:0:0:0:
216,353,61870,2,0,L|210:261,1,91.6666694641114,8|0,0:0|0:0,0:0:0:0:
295,272,62236,2,0,L|301:366,1,91.6666694641114,8|0,0:0|0:0,0:0:0:0:
385,373,62602,2,0,L|379:281,1,91.6666694641114,8|0,0:0|0:0,0:0:0:0:
370,193,62968,5,8,0:0:0:0:
270,84,63212,1,0,0:0:0:0:
270,84,63334,2,0,B|272:38|272:38|297:-1,1,91.6666694641114,8|0,0:0|0:0,0:0:0:0:
175,72,63700,2,0,B|134:93|134:93|87:91,1,91.6666694641114,8|0,0:0|0:0,0:0:0:0:
205,158,64065,2,0,B|243:182|243:182|265:223,1,91.6666694641114,8|0,0:0|0:0,0:0:0:0:
193,358,64431,6,0,P|180:306|208:246,1,91.6666694641114,8|0,0:0|0:0,0:0:0:0:
356,309,64797,2,0,P|309:321|264:310,1,91.6666694641114,8|0,0:0|0:0,0:0:0:0:
443,189,65163,2,0,L|449:290,1,91.6666694641114,8|0,0:0|0:0,0:0:0:0:
451,326,65529,1,8,0:0:0:0:
372,148,65773,1,0,0:0:0:0:
372,148,65895,6,0,P|409:111|457:107,1,91.6666694641114,8|0,0:0|0:0,0:0:0:0:
297,95,66261,2,0,L|205:87,1,91.6666694641114,10|0,0:0|0:0,0:0:0:0:
118,180,66627,2,0,B|130:133|130:133|116:90,1,91.6666694641114,8|0,0:0|0:0,0:0:0:0:
209,175,66992,2,0,B|197:222|197:222|211:265,1,91.6666694641114,8|0,0:0|0:0,0:0:0:0:
299,216,67358,6,0,L|408:220,1,91.6666694641114,8|0,0:0|0:0,0:0:0:0:
511,307,67724,2,0,L|419:303,1,91.6666694641114,8|0,0:0|0:0,0:0:0:0:
472,128,68090,2,0,B|486:175|486:175|472:225,1,91.6666694641114,8|0,0:0|0:0,0:0:0:0:
374,139,68456,2,0,B|362:97|362:97|376:50,1,91.6666694641114,8|0,0:0|0:0,0:0:0:0:
259,37,68822,6,0,P|214:32|166:52,1,91.6666694641114,8|0,0:0|0:0,0:0:0:0:
21,89,69188,2,0,P|66:84|114:104,1,91.6666694641114,8|0,0:0|0:0,0:0:0:0:
183,231,69553,2,0,P|173:186|195:130,1,91.6666694641114,8|0,0:0|0:0,0:0:0:0:
225,120,69919,1,8,0:0:0:0:
343,261,70163,1,0,0:0:0:0:
343,261,70285,6,0,P|391:269|439:245,1,91.6666694641114,8|0,0:0|0:0,0:0:0:0:
512,194,70651,2,0,L|506:297,1,91.6666694641114,8|0,0:0|0:0,0:0:0:0:
436,163,71017,2,0,P|460:126|507:113,1,91.6666694641114,8|0,0:0|0:0,0:0:0:0:
376,0,71383,2,0,L|385:100,1,91.6666694641114,8|0,0:0|0:0,0:0:0:0:
344,162,71749,6,0,P|300:149|277:100,1,91.6666694641114,10|0,0:0|0:0,0:0:0:0:
186,113,72114,2,0,L|283:111,1,91.6666694641114,10|0,0:0|0:0,0:0:0:0:
182,201,72480,2,0,B|196:157|196:157|182:96,1,91.6666694641114,10|0,0:0|0:0,0:0:0:0:
94,201,72846,2,0,P|144:189|181:200,1,91.6666694641114,10|0,0:0|0:0,0:0:0:0:
257,286,73212,6,0,B|304:298|304:298|350:273,1,91.6666694641114,8|0,0:0|0:0,0:0:0:0:
430,222,73578,2,0,L|428:323,1,91.6666694641114,8|0,0:0|0:0,0:0:0:0:
289,197,73944,2,0,L|290:105,1,91.6666694641114,8|0,0:0|0:0,0:0:0:0:
463,147,74309,2,0,B|416:135|416:135|370:160,1,91.6666694641114,8|0,0:0|0:0,0:0:0:0:
182,290,74675,6,0,P|170:245|190:183,1,91.6666694641114,8|0,0:0|0:0,0:0:0:0:
7,156,75041,2,0,P|51:168|95:216,1,91.6666694641114,10|0,0:0|0:0,0:0:0:0:
209,66,75407,2,0,P|176:98|112:112,1,91.6666694641114,8|0,0:0|0:0,0:0:0:0:
133,112,75773,1,8,0:0:0:0:
327,148,76017,1,0,0:0:0:0:
327,148,76139,6,0,L|336:252,1,91.6666694641114,8|0,0:0|0:0,0:0:0:0:
462,276,76505,2,0,L|454:184,1,91.6666694641114,8|0,0:0|0:0,0:0:0:0:
454,184,76870,1,8,0:0:0:0:
379,327,77114,1,0,0:0:0:0:
379,327,77236,1,8,0:0:0:0:
242,260,77480,1,0,0:0:0:0:
242,260,77602,6,0,P|292:265|332:246,1,91.6666694641114,8|0,0:0|0:0,0:0:0:0:
144,232,77968,2,0,P|94:227|54:246,1,91.6666694641114,8|0,0:0|0:0,0:0:0:0:
110,310,78334,1,8,0:0:0:0:
124,107,78578,1,0,0:0:0:0:
124,107,78700,1,8,0:3:0:0:
208,297,79066,6,0,B|233:272|233:272|231:191,1,91.6666694641114,12|0,0:0|0:0,0:0:0:0:
248,40,79431,2,0,B|223:65|223:65|225:146,1,91.6666694641114,8|0,0:0|0:0,0:0:0:0:
335,229,79797,2,0,P|382:234|433:228,1,91.6666694641114,8|0,0:0|0:0,0:0:0:0:
425,109,80163,2,0,P|379:104|333:108,1,91.6666694641114,8|0,0:0|0:0,0:0:0:0:
259,170,80529,6,0,L|138:172,1,91.6666694641114,8|0,0:0|0:0,0:0:0:0:
0,127,80895,2,0,L|91:125,1,91.6666694641114,10|0,0:0|0:0,0:0:0:0:
92,213,81261,2,0,L|0:214,1,91.6666694641114,8|0,0:0|0:0,0:0:0:0:
170,82,81627,2,0,L|261:80,1,91.6666694641114,8|0,0:0|0:0,0:0:0:0:
325,125,81992,6,0,P|341:78|325:33,1,91.6666694641114,8|0,0:0|0:0,0:0:0:0:
329,210,82358,2,0,P|313:163|329:118,1,91.6666694641114,8|0,0:0|0:0,0:0:0:0:
324,295,82724,2,0,P|340:248|324:203,1,91.6666694641114,8|0,0:0|0:0,0:0:0:0:
255,249,83090,1,8,0:0:0:0:
451,225,83334,1,0,0:0:0:0:
451,225,83456,6,0,L|445:325,1,91.6666694641114,8|0,0:0|0:0,0:0:0:0:
395,162,83822,2,0,P|432:142|488:148,1,91.6666694641114,10|0,0:0|0:0,0:0:0:0:
318,106,84188,2,0,P|281:126|225:120,1,91.6666694641114,8|0,0:0|0:0,0:0:0:0:
232,123,84553,1,8,0:0:0:0:
139,47,84797,1,0,0:0:0:0:
139,47,84919,6,0,B|156:95|156:95|146:150,1,91.6666694641114,8|0,0:0|0:0,0:0:0:0:
50,200,85285,2,0,P|101:212|132:245,1,91.6666694641114,8|0,0:0|0:0,0:0:0:0:
207,336,85651,2,0,L|210:238,1,91.6666694641114,8|0,0:0|0:0,0:0:0:0:
209,244,86017,1,8,0:0:0:0:
320,164,86261,1,0,0:0:0:0:
320,164,86383,6,0,B|336:209|336:209|322:265,1,91.6666694641114,8|0,0:0|0:0,0:0:0:0:
409,380,86749,2,0,B|393:335|393:335|407:279,1,91.6666694641114,10|0,0:0|0:0,0:0:0:0:
512,210,87114,2,0,L|411:213,1,91.6666694641114,8|0,0:0|0:0,0:0:0:0:
420,127,87480,2,0,L|511:124,1,91.6666694641114,8|0,0:0|0:0,0:0:0:0:
386,52,87846,6,0,P|349:80|337:134,1,91.6666694641114,8|0,0:0|0:0,0:0:0:0:
334,303,88212,2,0,B|353:259|353:259|343:202,1,91.6666694641114,8|0,0:0|0:0,0:0:0:0:
223,108,88578,2,0,L|235:207,1,91.6666694641114,8|0,0:0|0:0,0:0:0:0:
234,199,88944,1,8,0:0:0:0:
105,303,89188,1,0,0:0:0:0:
105,303,89309,6,0,B|125:282|125:282|204:285,1,91.6666694641114,10|0,0:0|0:0,0:0:0:0:
340,332,89675,2,0,B|295:348|295:348|240:333,1,91.6666694641114,10|0,0:0|0:0,0:0:0:0:
395,176,90041,2,0,L|400:274,1,91.6666694641114,10|0,0:0|0:0,0:0:0:0:
280,190,90407,2,0,L|275:98,1,91.6666694641114,10|0,0:0|0:0,0:0:0:0:
371,9,90773,6,0,B|395:31|395:31|390:108,1,91.6666694641114,8|0,0:0|0:0,0:0:0:0:
482,175,91139,2,0,P|437:187|388:172,1,91.6666694641114,8|0,0:0|0:0,0:0:0:0:
334,255,91505,2,0,L|343:355,1,91.6666694641114,8|0,0:0|0:0,0:0:0:0:
241,307,91870,2,0,P|193:301|143:317,1,91.6666694641114,8|0,0:0|0:0,0:0:0:0:
35,360,92236,6,0,B|35:313|35:313|61:266,1,91.6666694641114,8|0,0:0|0:0,0:0:0:0:
117,103,92602,2,0,B|117:150|117:150|91:197,1,91.6666694641114,8|0,0:0|0:0,0:0:0:0:
127,383,92968,2,0,B|127:336|127:336|153:289,1,91.6666694641114,8|0,0:0|0:0,0:0:0:0:
209,126,93334,2,0,B|209:173|209:173|183:220,1,91.6666694641114,8|0,0:0|0:0,0:0:0:0:
249,305,93700,6,0,P|295:320|349:304,1,91.6666694641114,8|0,0:0|0:0,0:0:0:0:
380,152,94066,2,0,L|380:252,1,91.6666694641114,8|0,0:0|0:0,0:0:0:0:
473,304,94431,2,0,L|473:212,1,91.6666694641114,8|0,0:0|0:0,0:0:0:0:
473,212,94797,1,8,0:0:0:0:
299,239,95041,1,0,0:0:0:0:
299,239,95163,6,0,P|253:224|199:240,1,91.6666694641114,10|0,0:0|0:0,0:0:0:0:
123,225,95529,2,0,P|168:217|211:232,1,91.6666694641114,10|0,0:0|0:0,0:0:0:0:
123,225,95895,2,0,P|80:210|36:219,1,91.6666694641114,10|0,0:0|0:0,0:0:0:0:
31,127,96261,2,0,L|36:234,1,91.6666694641114,10|0,0:0|0:0,0:0:0:0:
215,323,96627,6,0,L|210:231,1,91.6666694641114,8|0,0:0|0:0,0:0:0:0:
301,119,96992,2,0,P|280:75|241:56,1,91.6666694641114,8|0,0:0|0:0,0:0:0:0:
135,138,97358,2,0,L|243:129,1,91.6666694641114,8|0,0:0|0:0,0:0:0:0:
226,130,97724,1,8,0:0:0:0:
399,64,97968,1,0,0:0:0:0:
399,64,98090,6,0,P|381:108|388:159,1,91.6666694641114,8|0,0:0|0:0,0:0:0:0:
452,328,98456,2,0,B|470:289|470:289|464:230,1,91.6666694641114,8|0,0:0|0:0,0:0:0:0:
282,232,98822,2,0,P|324:243|380:230,1,91.6666694641114,8|0,0:0|0:0,0:0:0:0:
227,156,99188,2,0,L|118:158,1,91.6666694641114,8|0,0:0|0:0,0:0:0:0:
41,302,99553,6,0,B|26:258|26:258|45:203,1,91.6666694641114,8|0,0:0|0:0,0:0:0:0:
154,281,99919,2,0,B|169:325|169:325|150:380,1,91.6666694641114,8|0,0:0|0:0,0:0:0:0:
135,157,100285,2,0,L|227:156,1,91.6666694641114,8|0,0:0|0:0,0:0:0:0:
227,156,100651,1,8,0:0:0:0:
338,46,100895,1,0,0:0:0:0:
338,46,101017,6,0,B|349:94|349:94|333:141,1,91.6666694641114,8|0,0:0|0:0,0:0:0:0:
335,134,101383,1,8,0:0:0:0:
302,315,101627,1,8,0:0:0:0:
302,315,101749,2,0,B|291:267|291:267|307:220,1,91.6666694641114,8|0,0:0|0:0,0:0:0:0:
380,273,102114,1,8,0:3:0:0:
216,337,102480,6,0,P|162:327|100:339,1,108.333328374227,12|0,0:0|0:0,0:0:0:0:
97,231,102846,2,0,B|116:268|116:268|107:359,1,108.333328374227,8|0,0:0|0:0,0:0:0:0:
19,284,103212,2,0,B|0:247|0:247|9:156,1,108.333328374227,10|0,0:0|0:0,0:0:0:0:
6,180,103578,1,10,0:0:0:0:
169,161,103822,1,0,0:0:0:0:
169,161,103944,6,0,P|144:209|83:231,1,108.333328374227,8|0,0:0|0:0,0:0:0:0:
90,153,104309,2,0,L|219:159,1,108.333328374227,8|0,0:0|0:0,0:0:0:0:
313,221,104675,2,0,B|303:167|303:167|321:113,1,108.333328374227,10|0,0:0|0:0,0:0:0:0:
319,116,105041,1,10,0:0:0:0:
409,296,105285,1,0,0:0:0:0:
409,296,105407,6,0,B|343:295|343:295|309:327,1,108.333328374227,8|0,0:0|0:0,0:0:0:0:
104,230,105773,2,0,B|170:229|170:229|204:261,1,108.333328374227,8|0,0:0|0:0,0:0:0:0:
403,141,106139,2,0,B|337:140|337:140|303:172,1,108.333328374227,10|0,0:0|0:0,0:0:0:0:
306,169,106505,1,10,0:0:0:0:
485,245,106749,1,0,0:0:0:0:
485,245,106870,6,0,B|477:188|477:188|493:132,1,108.333328374227,10|0,0:0|0:0,0:0:0:0:
435,62,107236,2,0,P|445:114|509:137,1,108.333328374227,10|0,0:0|0:0,0:0:0:0:
327,73,107602,2,0,B|375:66|375:66|388:68|388:68|441:60,1,108.333328374227,10|0,0:0|0:0,0:0:0:0:
434,61,107968,1,10,0:0:0:0:
264,127,108212,1,0,0:0:0:0:
264,127,108334,6,0,P|244:73|263:19,1,108.333328374227,8|0,0:0|0:0,0:0:0:0:
353,160,108700,2,0,L|346:275,1,108.333328374227,8|0,0:0|0:0,0:0:0:0:
184,349,109066,2,0,B|231:341|231:341|251:344|251:344|309:335,1,108.333328374227,10|0,0:0|0:0,0:0:0:0:
160,273,109431,2,0,P|113:307|104:361,1,108.333328374227,10|0,0:0|0:0,0:0:0:0:
251,249,109797,6,0,L|243:138,1,108.333328374227,8|0,0:0|0:0,0:0:0:0:
54,70,110163,2,0,P|81:121|129:137,1,108.333328374227,8|0,0:0|0:0,0:0:0:0:
133,53,110529,2,0,L|144:179,1,108.333328374227,10|0,0:0|0:0,0:0:0:0:
342,268,110895,2,0,L|332:160,1,108.333328374227,10|0,0:0|0:0,0:0:0:0:
272,41,111261,6,0,P|324:58|375:42,1,108.333328374227,8|0,0:0|0:0,0:0:0:0:
472,0,111627,2,0,L|461:114,1,108.333328374227,8|0,0:0|0:0,0:0:0:0:
408,286,111992,2,0,L|418:178,1,108.333328374227,10|0,0:0|0:0,0:0:0:0:
417,178,112358,1,10,0:0:0:0:
269,320,112602,1,0,0:0:0:0:
269,320,112724,6,0,P|227:283|164:288,1,108.333328374227,10|0,0:0|0:0,0:0:0:0:
73,349,113090,2,0,B|82:307|82:307|77:281|77:281|88:225,1,108.333328374227,10|0,0:0|0:0,0:0:0:0:
92,165,113456,2,0,P|43:173|8:225,1,108.333328374227,10|0,0:0|0:0,0:0:0:0:
167,207,113822,2,0,B|179:153|179:153|155:91,1,108.333328374227,10|0,0:0|0:0,0:0:0:0:
61,25,114188,6,0,L|188:17,1,108.333328374227,8|0,0:0|0:0,0:0:0:0:
312,141,114553,2,0,P|302:90|338:36,1,108.333328374227,8|0,0:0|0:0,0:0:0:0:
463,65,114919,2,0,P|473:116|437:170,1,108.333328374227,10|0,0:0|0:0,0:0:0:0:
446,163,115285,1,10,0:0:0:0:
269,220,115529,1,0,0:0:0:0:
269,220,115651,6,0,L|282:331,1,108.333328374227,8|0,0:0|0:0,0:0:0:0:
194,178,116017,2,0,P|250:135|299:140,1,108.333328374227,8|0,0:0|0:0,0:0:0:0:
123,96,116383,2,0,P|67:53|18:58,1,108.333328374227,10|0,0:0|0:0,0:0:0:0:
0,219,116749,2,0,B|53:229|53:229|117:208,1,108.333328374227,10|0,0:0|0:0,0:0:0:0:
238,161,117114,6,0,L|224:277,1,108.333328374227,8|0,0:0|0:0,0:0:0:0:
317,376,117480,2,0,L|329:268,1,108.333328374227,8|0,0:0|0:0,0:0:0:0:
342,160,117846,2,0,L|328:276,1,108.333328374227,10|0,0:0|0:0,0:0:0:0:
370,303,118212,1,10,0:0:0:0:
342,160,118456,1,0,0:0:0:0:
342,160,118578,6,0,P|393:172|449:146,1,108.333328374227,10|0,0:0|0:0,0:0:0:0:
354,52,118944,2,0,L|340:168,1,108.333328374227,10|0,0:0|0:0,0:0:0:0:
218,279,119309,2,0,B|213:222|213:222|252:176,1,108.333328374227,10|0,0:0|0:0,0:0:0:0:
273,341,119675,2,0,P|215:362|166:342,1,108.333328374227,10|0,0:0|0:0,0:0:0:0:
64,259,120041,6,0,L|72:370,1,108.333328374227,8|0,0:0|0:0,0:0:0:0:
140,222,120407,2,0,P|107:183|39:181,1,108.333328374227,8|0,0:0|0:0,0:0:0:0:
139,58,120773,2,0,B|202:51|202:51|243:70|243:70|317:64,1,162.499992561341,8|8,0:0|0:0,0:0:0:0:
297,66,121505,5,8,0:0:0:0:
325,175,121688,1,0,0:0:0:0:
479,71,121870,1,10,0:0:0:0:
451,180,122053,1,0,0:0:0:0:
278,54,122236,5,8,0:0:0:0:
314,194,122419,1,0,0:0:0:0:
504,56,122602,1,8,0:0:0:0:
468,196,122785,1,0,0:0:0:0:
250,263,122968,6,0,P|221:202|237:142,1,108.333328374227,8|0,0:0|0:0,0:0:0:0:
197,346,123334,2,0,P|264:351|308:395,1,108.333328374227,8|0,0:0|0:0,0:0:0:0:
147,252,123700,2,0,P|108:307|48:323,1,108.333328374227,8|0,0:0|0:0,0:0:0:0:
72,322,124066,5,8,0:0:0:0:
126,145,124249,1,0,0:0:0:0:
126,145,124431,6,0,L|149:267,1,108.333328374227,8|0,0:0|0:0,0:0:0:0:
146,251,124797,1,8,0:3:0:0:
175,42,124980,1,8,0:3:0:0:
236,157,125163,1,8,0:3:0:0:
47,64,125346,1,8,0:3:0:0:
29,193,125529,1,8,0:3:0:0:
29,193,125895,5,4,0:0:0:0:
135,208,131749,6,0,L|68:260,2,62.5,2|2|2,0:0|0:0|0:1,0:0:0:0:
178,96,133212,2,0,L|166:11,2,62.5,2|2|2,0:0|0:0|0:1,0:0:0:0:
256,189,134675,2,0,L|334:221,2,62.5,2|2|2,0:0|0:0|0:1,0:0:0:0:
378,140,136139,6,0,B|410:181|410:181|396:276,1,125,2|0,0:0|0:0,0:0:0:0:
256,382,136870,2,0,B|224:341|224:341|238:246,1,125,2|0,0:0|0:0,0:0:0:0:
65,188,137602,6,0,L|176:182,1,91.6666694641114,8|0,0:0|0:0,0:0:0:0:
239,27,137968,2,0,P|216:82|225:132,1,91.6666694641114,8|0,0:0|0:0,0:0:0:0:
338,25,138334,2,0,P|361:80|352:130,1,91.6666694641114,8|0,0:0|0:0,0:0:0:0:
512,186,138700,2,0,L|401:180,1,91.6666694641114,8|0,0:0|0:0,0:0:0:0:
367,372,139066,6,0,P|385:330|383:275,1,91.6666694641114,8|0,0:0|0:0,0:0:0:0:
261,194,139431,2,0,L|272:287,1,91.6666694641114,8|0,0:0|0:0,0:0:0:0:
157,361,139797,2,0,L|167:269,1,91.6666694641114,8|0,0:0|0:0,0:0:0:0:
14,320,140163,1,8,0:0:0:0:
0,152,140529,6,0,L|105:139,1,91.6666694641114,8|0,0:0|0:0,0:0:0:0:
210,93,140895,2,0,B|195:136|195:136|210:189,1,91.6666694641114,8|0,0:0|0:0,0:0:0:0:
226,358,141261,2,0,B|241:315|241:315|226:262,1,91.6666694641114,8|0,0:0|0:0,0:0:0:0:
228,270,141627,1,8,0:0:0:0:
115,355,141870,1,0,0:0:0:0:
115,355,141992,6,0,P|95:311|108:253,1,91.6666694641114,10|0,0:0|0:0,0:0:0:0:
149,201,142358,1,8,0:0:0:0:
115,47,142724,2,0,P|95:91|108:149,1,91.6666694641114,10|0,0:0|0:0,0:0:0:0:
149,201,143090,1,8,0:0:0:0:
274,147,143334,1,0,0:0:0:0:
274,147,143456,6,0,B|319:139|319:139|373:155,1,91.6666694641114,12|0,0:0|0:0,0:0:0:0:
472,223,143822,2,0,L|465:123,1,91.6666694641114,8|0,0:0|0:0,0:0:0:0:
353,255,144188,2,0,L|346:346,1,91.6666694641114,10|0,0:0|0:0,0:0:0:0:
346,346,144553,1,10,0:0:0:0:
205,151,144797,1,0,0:0:0:0:
205,151,144919,6,0,B|225:195|225:195|219:240,1,91.6666694641114,8|0,0:0|0:0,0:0:0:0:
106,145,145285,2,0,L|89:53,1,91.6666694641114,8|0,0:0|0:0,0:0:0:0:
18,189,145651,2,0,B|13:236|13:236|30:276,1,91.6666694641114,10|0,0:0|0:0,0:0:0:0:
140,335,146017,1,10,0:0:0:0:
276,187,146383,6,0,P|293:227|278:286,1,91.6666694641114,8|0,0:0|0:0,0:0:0:0:
304,367,146749,2,0,L|212:363,1,91.6666694641114,8|0,0:0|0:0,0:0:0:0:
286,274,147114,2,0,L|378:278,1,91.6666694641114,10|0,0:0|0:0,0:0:0:0:
484,334,147480,2,0,P|501:294|486:235,1,91.6666694641114,10|0,0:0|0:0,0:0:0:0:
409,179,147846,6,0,B|400:134|400:134|408:87,1,91.6666694641114,8|0,0:0|0:0,0:0:0:0:
458,4,148212,2,0,L|354:8,1,91.6666694641114,8|0,0:0|0:0,0:0:0:0:
283,122,148578,2,0,P|288:73|273:29,1,91.6666694641114,10|0,0:0|0:0,0:0:0:0:
135,190,148944,2,0,B|182:198|182:198|230:179,1,91.6666694641114,10|0,0:0|0:0,0:0:0:0:
161,25,149309,6,0,L|168:131,1,91.6666694641114,8|0,0:0|0:0,0:0:0:0:
263,354,149675,2,0,L|256:262,1,91.6666694641114,8|0,0:0|0:0,0:0:0:0:
256,262,150041,1,10,0:0:0:0:
113,199,150285,2,0,B|155:199|155:199|194:175|194:175|243:176,1,137.500004196167,2|0,0:0|0:0,0:0:0:0:
309,125,150773,6,0,B|329:167|329:167|316:218,1,91.6666694641114,10|0,0:0|0:0,0:0:0:0:
317,210,151139,1,8,0:0:0:0:
132,109,151383,1,0,0:0:0:0:
132,109,151505,1,10,0:0:0:0:
188,311,151749,2,0,P|128:324|139:245,1,137.500004196167,2|0,0:0|0:0,0:0:0:0:
239,247,152236,6,0,L|227:391,1,137.500004196167,8|8,0:0|0:0,0:0:0:0:
247,168,152968,1,8,0:0:0:0:
247,168,153334,2,0,B|205:164|181:189|181:189|157:212|105:202,1,137.500004196167,6|0,0:0|0:0,0:0:0:0:
336,188,154066,6,0,L|317:72,1,91.6666694641114,2|0,0:0|0:0,0:0:0:0:
304,11,154431,1,8,0:3:0:0:
133,119,154797,1,0,0:0:0:0:
214,0,155163,6,0,L|316:13,1,91.6666694641114,12|0,0:0|0:0,0:0:0:0:
389,116,155529,2,0,B|377:70|377:70|397:14,1,91.6666694641114,8|0,0:0|0:0,0:0:0:0:
294,98,155895,2,0,B|306:144|306:144|286:200,1,91.6666694641114,8|0,0:0|0:0,0:0:0:0:
291,185,156261,1,8,0:0:0:0:
116,149,156505,1,0,0:0:0:0:
116,149,156627,6,0,L|221:138,1,91.6666694641114,8|0,0:0|0:0,0:0:0:0:
57,205,156992,2,0,P|35:170|43:114,1,91.6666694641114,10|0,0:0|0:0,0:0:0:0:
173,92,157358,2,0,P|195:127|187:183,1,91.6666694641114,8|0,0:0|0:0,0:0:0:0:
190,175,157724,1,8,0:0:0:0:
178,324,158090,6,0,B|226:326|226:326|264:358,1,91.6666694641114,8|0,0:0|0:0,0:0:0:0:
321,191,158456,2,0,B|295:231|295:231|248:248,1,91.6666694641114,8|0,0:0|0:0,0:0:0:0:
365,381,158822,2,0,B|342:338|342:338|351:289,1,91.6666694641114,8|0,0:0|0:0,0:0:0:0:
400,197,159188,2,0,P|390:147|352:116,1,91.6666694641114,8|0,0:0|0:0,0:0:0:0:
217,89,159553,6,0,P|266:79|297:28,1,91.6666694641114,8|0,0:0|0:0,0:0:0:0:
120,6,159919,2,0,L|130:110,1,91.6666694641114,10|0,0:0|0:0,0:0:0:0:
180,221,160285,2,0,B|137:214|137:214|91:231,1,91.6666694641114,8|0,0:0|0:0,0:0:0:0:
91,230,160651,1,8,0:0:0:0:
232,347,161017,6,0,P|276:364|336:340,1,91.6666694641114,8|0,0:0|0:0,0:0:0:0:
284,190,161383,2,0,L|277:300,1,91.6666694641114,8|0,0:0|0:0,0:0:0:0:
407,381,161749,2,0,L|412:289,1,91.6666694641114,8|0,0:0|0:0,0:0:0:0:
412,289,162114,1,8,0:0:0:0:
419,125,162358,1,0,0:0:0:0:
419,125,162480,6,0,B|372:133|372:133|312:108,1,91.6666694641114,8|0,0:0|0:0,0:0:0:0:
218,5,162846,2,0,L|229:112,1,91.6666694641114,8|0,0:0|0:0,0:0:0:0:
150,166,163212,2,0,B|109:149|109:149|62:157,1,91.6666694641114,8|0,0:0|0:0,0:0:0:0:
52,287,163578,2,0,B|92:303|92:303|139:295,1,91.6666694641114,8|0,0:0|0:0,0:0:0:0:
322,252,163944,5,8,0:0:0:0:
238,372,164188,1,0,0:0:0:0:
238,372,164309,2,0,L|232:252,1,91.6666694641114,8|0,0:0|0:0,0:0:0:0:
381,194,164675,2,0,P|404:241|387:300,1,91.6666694641114,8|0,0:0|0:0,0:0:0:0:
399,278,165041,1,8,0:0:0:0:
226,177,165285,1,8,0:0:0:0:
226,177,165407,6,0,L|220:57,1,91.6666694641114,10|0,0:0|0:0,0:0:0:0:
335,20,165773,2,0,L|339:111,1,91.6666694641114,10|0,0:0|0:0,0:0:0:0:
143,91,166139,2,0,L|137:-29,1,91.6666694641114,10|0,0:0|0:0,0:0:0:0:
324,214,166505,2,0,L|328:305,1,91.6666694641114,10|0,0:0|0:0,0:0:0:0:
165,371,166870,6,0,P|207:346|268:356,1,91.6666694641114,12|0,0:0|0:0,0:0:0:0:
102,316,167236,2,0,P|60:291|-1:301,1,91.6666694641114,8|0,0:0|0:0,0:0:0:0:
175,173,167602,2,0,L|169:278,1,91.6666694641114,10|0,0:0|0:0,0:0:0:0:
169,264,167968,1,10,0:0:0:0:
108,84,168212,1,0,0:0:0:0:
108,84,168334,6,0,B|147:78|147:78|163:83|163:83|215:76,1,91.6666694641114,8|0,0:0|0:0,0:0:0:0:
328,137,168700,2,0,P|316:93|330:45,1,91.6666694641114,8|0,0:0|0:0,0:0:0:0:
416,170,169066,2,0,P|428:214|414:262,1,91.6666694641114,8|0,0:0|0:0,0:0:0:0:
416,257,169431,1,8,0:0:0:0:
233,277,169675,1,0,0:0:0:0:
233,277,169797,6,0,B|272:272|272:272|290:259|290:259|335:257,1,91.6666694641114,8|0,0:0|0:0,0:0:0:0:
180,343,170163,2,0,P|151:300|152:255,1,91.6666694641114,8|0,0:0|0:0,0:0:0:0:
179,110,170529,2,0,P|208:153|207:198,1,91.6666694641114,10|0,0:0|0:0,0:0:0:0:
33,185,170895,2,0,L|127:176,1,91.6666694641114,10|0,0:0|0:0,0:0:0:0:
168,25,171261,6,0,P|127:41|99:93,1,91.6666694641114,10|0,0:0|0:0,0:0:0:0:
252,159,171627,2,0,B|267:114|267:114|256:58,1,91.6666694641114,10|0,0:0|0:0,0:0:0:0:
212,245,171992,2,0,L|315:245,1,91.6666694641114,10|0,0:0|0:0,0:0:0:0:
303,245,172358,1,10,0:0:0:0:
471,156,172724,6,0,L|465:256,1,91.6666694641114,8|0,0:0|0:0,0:0:0:0:
425,84,173090,2,0,P|475:68|515:80,1,91.6666694641114,8|0,0:0|0:0,0:0:0:0:
386,157,173456,2,0,B|339:168|339:168|268:149,1,91.6666694641114,8|0,0:0|0:0,0:0:0:0:
297,156,173822,1,8,0:0:0:0:
182,36,174066,1,0,0:0:0:0:
182,36,174188,5,8,0:0:0:0:
351,42,174431,1,0,0:0:0:0:
351,42,174553,2,0,L|244:38,1,91.6666694641114,8|0,0:0|0:0,0:0:0:0:
95,128,174919,2,0,L|186:131,1,91.6666694641114,8|0,0:0|0:0,0:0:0:0:
186,131,175285,1,8,0:0:0:0:
296,266,175529,1,8,0:0:0:0:
296,266,175651,6,0,P|310:218|301:177,1,91.6666694641114,10|0,0:0|0:0,0:0:0:0:
225,215,176017,1,10,0:0:0:0:
290,355,176261,1,0,0:0:0:0:
290,355,176383,2,0,L|392:353,1,91.6666694641114,10|0,0:0|0:0,0:0:0:0:
365,266,176749,2,0,L|274:266,1,68.7500020980836,10|0,0:0|0:0,0:0:0:0:
435,214,177114,6,0,B|464:241|464:241|456:308,1,91.6666694641114,10|0,0:0|0:0,0:0:0:0:
296,162,177480,2,0,L|364:162,1,68.7500020980836,10|0,0:0|0:0,0:0:0:0:
477,97,177846,1,10,0:0:0:0:
296,35,178090,1,0,0:0:0:0:
296,35,178212,1,10,0:3:0:0:
166,195,178578,6,0,P|149:146|176:88,1,108.333328374227,12|0,0:0|0:0,0:0:0:0:
254,229,178944,2,0,B|284:263|284:263|276:358,1,108.333328374227,8|0,0:0|0:0,0:0:0:0:
385,384,179309,2,0,B|355:350|355:350|363:255,1,108.333328374227,8|0,0:0|0:0,0:0:0:0:
400,203,179675,2,0,P|458:189|505:222,1,108.333328374227,8|0,0:0|0:0,0:0:0:0:
392,94,180041,6,0,B|400:216,1,108.333328374227,8|0,0:0|0:0,0:0:0:0:
310,224,180407,2,0,B|302:115,1,108.333328374227,10|0,0:0|0:0,0:0:0:0:
370,288,180773,2,0,P|324:309|265:295,1,108.333328374227,8|0,0:0|0:0,0:0:0:0:
269,297,181139,1,8,0:0:0:0:
112,349,181383,1,0,0:0:0:0:
112,349,181505,6,0,P|96:297|111:242,1,108.333328374227,8|0,0:0|0:0,0:0:0:0:
208,130,181870,2,0,B|226:184|226:184|207:247,1,108.333328374227,8|0,0:0|0:0,0:0:0:0:
5,173,182236,2,0,L|122:161,1,108.333328374227,8|0,0:0|0:0,0:0:0:0:
301,133,182602,2,0,B|283:79|283:79|302:16,1,108.333328374227,8|0,0:0|0:0,0:0:0:0:
386,146,182968,6,0,P|364:190|305:218,1,108.333328374227,8|0,0:0|0:0,0:0:0:0:
418,384,183334,2,0,P|390:342|396:277,1,108.333328374227,10|0,0:0|0:0,0:0:0:0:
194,297,183700,2,0,P|243:294|296:331,1,108.333328374227,8|0,0:0|0:0,0:0:0:0:
291,324,184066,1,8,0:0:0:0:
129,211,184309,1,0,0:0:0:0:
129,211,184431,6,0,L|137:96,1,108.333328374227,8|0,0:0|0:0,0:0:0:0:
242,157,184797,2,0,L|249:48,1,108.333328374227,8|0,0:0|0:0,0:0:0:0:
353,115,185163,2,0,L|361:0,1,108.333328374227,8|0,0:0|0:0,0:0:0:0:
360,6,185529,1,8,0:0:0:0:
347,206,185773,1,0,0:0:0:0:
347,206,185895,6,0,P|401:198|442:150,1,108.333328374227,8|0,0:0|0:0,0:0:0:0:
346,205,186261,2,0,P|293:212|255:249,1,108.333328374227,10|0,0:0|0:0,0:0:0:0:
165,205,186627,2,0,P|217:212|255:249,1,108.333328374227,8|0,0:0|0:0,0:0:0:0:
165,206,186992,2,0,P|111:198|70:150,1,108.333328374227,8|0,0:0|0:0,0:0:0:0:
86,53,187358,6,0,L|74:165,1,108.333328374227,8|0,0:0|0:0,0:0:0:0:
11,284,187724,2,0,P|65:278|126:299,1,108.333328374227,8|0,0:0|0:0,0:0:0:0:
221,284,188090,2,0,P|167:278|106:299,1,108.333328374227,8|0,0:0|0:0,0:0:0:0:
115,293,188456,1,8,0:0:0:0:
278,53,188700,1,8,0:0:0:0:
278,53,188822,6,0,L|278:177,1,108.333328374227,10|0,0:0|0:0,0:0:0:0:
480,162,189188,2,0,L|356:162,1,108.333328374227,10|0,0:0|0:0,0:0:0:0:
373,363,189553,2,0,L|373:239,1,108.333328374227,10|0,0:0|0:0,0:0:0:0:
171,259,189919,2,0,L|295:259,1,108.333328374227,10|0,0:0|0:0,0:0:0:0:
137,183,190285,6,0,P|98:219|101:300,1,108.333328374227,8|0,0:0|0:0,0:0:0:0:
89,94,190651,2,0,P|128:130|125:211,1,108.333328374227,8|0,0:0|0:0,0:0:0:0:
9,129,191017,2,0,B|3:74|3:74|30:27,1,108.333328374227,8|0,0:0|0:0,0:0:0:0:
272,28,191383,2,0,L|159:41,1,108.333328374227,8|0,0:0|0:0,0:0:0:0:
314,103,191749,6,0,P|353:61|352:1,1,108.333328374227,8|0,0:0|0:0,0:0:0:0:
234,106,192114,2,0,L|245:223,1,108.333328374227,10|0,0:0|0:0,0:0:0:0:
369,297,192480,2,0,L|358:189,1,108.333328374227,8|0,0:0|0:0,0:0:0:0:
358,189,192846,1,8,0:0:0:0:
255,341,193090,1,0,0:0:0:0:
255,341,193212,6,0,B|197:330|197:330|142:361,1,108.333328374227,8|0,0:0|0:0,0:0:0:0:
38,383,193578,2,0,B|76:338|76:338|77:275,1,108.333328374227,8|0,0:0|0:0,0:0:0:0:
117,170,193944,2,0,B|136:225|136:225|190:257,1,108.333328374227,8|0,0:0|0:0,0:0:0:0:
178,250,194309,1,8,0:0:0:0:
207,64,194553,1,0,0:0:0:0:
207,64,194675,6,0,L|91:51,1,108.333328374227,10|0,0:0|0:0,0:0:0:0:
164,136,195041,2,0,L|271:148,1,108.333328374227,10|0,0:0|0:0,0:0:0:0:
347,234,195407,2,0,L|231:221,1,108.333328374227,10|0,0:0|0:0,0:0:0:0:
304,306,195773,2,0,L|411:318,1,108.333328374227,10|0,0:0|0:0,0:0:0:0:
220,294,196139,6,0,P|237:357|278:387,1,108.333328374227,8|0,0:0|0:0,0:0:0:0:
158,234,196505,2,0,B|132:225|132:225|40:253,1,108.333328374227,8|0,0:0|0:0,0:0:0:0:
0,136,196870,2,0,B|26:127|26:127|118:155,1,108.333328374227,8|0,0:0|0:0,0:0:0:0:
103,150,197236,1,8,0:0:0:0:
257,25,197480,1,0,0:0:0:0:
257,25,197602,6,0,L|245:141,1,108.333328374227,8|0,0:0|0:0,0:0:0:0:
384,267,197968,2,0,P|348:224|282:218,1,108.333328374227,10|0,0:0|0:0,0:0:0:0:
231,332,198334,2,0,P|267:375|333:381,1,108.333328374227,8|0,0:0|0:0,0:0:0:0:
307,300,198700,1,8,0:0:0:0:
153,369,198944,1,0,0:0:0:0:
153,369,199066,5,8,0:0:0:0:
152,158,199309,1,0,0:0:0:0:
152,158,199431,2,0,L|161:271,1,108.333328374227,8|0,0:0|0:0,0:0:0:0:
71,136,199797,2,0,P|103:88|163:73,1,108.333328374227,8|0,0:0|0:0,0:0:0:0:
149,72,200163,1,8,0:0:0:0:
291,189,200407,1,0,0:0:0:0:
291,189,200529,6,0,P|278:138|304:73,1,108.333328374227,8|0,0:0|0:0,0:0:0:0:
473,154,200895,2,0,P|486:205|460:270,1,108.333328374227,8|0,0:0|0:0,0:0:0:0:
322,321,201261,5,8,0:0:0:0:
391,203,201444,1,8,0:0:0:0:
431,384,201627,1,8,0:0:0:0:
431,384,201992,6,0,B|427:308|427:308|450:268,1,108.333328374227,12|0,0:0|0:0,0:0:0:0:
310,130,202358,2,0,B|314:206|314:206|291:246,1,108.333328374227,8|0,0:0|0:0,0:0:0:0:
92,168,202724,2,0,P|141:150|196:167,1,108.333328374227,10|0,0:0|0:0,0:0:0:0:
144,236,203090,1,10,0:0:0:0:
132,45,203334,1,0,0:0:0:0:
132,45,203456,6,0,P|198:34|235:58,1,108.333328374227,8|0,0:0|0:0,0:0:0:0:
372,126,203822,2,0,P|306:115|269:139,1,108.333328374227,8|0,0:0|0:0,0:0:0:0:
435,224,204188,2,0,B|468:205|468:205|472:111,1,108.333328374227,8|0,0:0|0:0,0:0:0:0:
331,196,204553,2,0,L|338:315,1,108.333328374227,8|0,0:0|0:0,0:0:0:0:
165,294,204919,6,0,P|199:254|262:248,1,108.333328374227,8|0,0:0|0:0,0:0:0:0:
86,320,205285,2,0,P|31:308|-1:267,1,108.333328374227,8|0,0:0|0:0,0:0:0:0:
73,128,205651,2,0,L|77:236,1,108.333328374227,10|0,0:0|0:0,0:0:0:0:
77,236,206017,1,10,0:0:0:0:
241,332,206261,1,0,0:0:0:0:
241,332,206383,6,0,B|247:252|247:252|217:215,1,108.333328374227,8|0,0:0|0:0,0:0:0:0:
157,123,206749,2,0,P|219:119|264:80,1,108.333328374227,8|0,0:0|0:0,0:0:0:0:
366,9,207114,2,0,L|349:145,1,108.333328374227,8|0,0:0|0:0,0:0:0:0:
352,116,207480,1,8,0:0:0:0:
468,295,207724,1,0,0:0:0:0:
468,295,207846,6,0,B|412:288|412:288|333:316,1,108.333328374227,8|0,0:0|0:0,0:0:0:0:
192,261,208212,2,0,B|248:268|248:268|327:240,1,108.333328374227,8|0,0:0|0:0,0:0:0:0:
116,124,208578,2,0,L|116:244,1,108.333328374227,10|0,0:0|0:0,0:0:0:0:
116,232,208944,1,10,0:0:0:0:
221,5,209188,1,0,0:0:0:0:
221,5,209309,6,0,P|244:71|228:116,1,108.333328374227,10|0,0:0|0:0,0:0:0:0:
220,206,209675,2,0,P|210:153|233:105,1,108.333328374227,10|0,0:0|0:0,0:0:0:0:
400,156,210041,2,0,B|349:174|349:174|281:163,1,108.333328374227,10|0,0:0|0:0,0:0:0:0:
295,165,210407,1,10,0:0:0:0:
486,94,210651,1,0,0:0:0:0:
486,94,210773,6,0,L|480:212,1,108.333328374227,8|0,0:0|0:0,0:0:0:0:
453,342,211139,2,0,P|420:295|354:290,1,108.333328374227,8|0,0:0|0:0,0:0:0:0:
227,299,211505,2,0,P|264:258|259:177,1,108.333328374227,10|0,0:0|0:0,0:0:0:0:
270,206,211870,1,10,0:0:0:0:
55,344,212114,1,0,0:0:0:0:
55,344,212236,6,0,L|169:358,1,108.333328374227,10|0,0:0|0:0,0:0:0:0:
118,264,212602,2,0,L|10:250,1,108.333328374227,10|0,0:0|0:0,0:0:0:0:
74,168,212968,2,0,L|181:181,1,108.333328374227,10|0,0:0|0:0,0:0:0:0:
181,181,213334,1,10,0:0:0:0:
267,0,213700,6,0,P|232:41|234:112,1,108.333328374227,8|0,0:0|0:0,0:0:0:0:
226,261,214066,2,0,P|261:220|259:149,1,108.333328374227,8|0,0:0|0:0,0:0:0:0:
311,79,214431,2,0,L|419:78,1,108.333328374227,10|0,0:0|0:0,0:0:0:0:
419,78,214797,1,10,0:0:0:0:
420,285,215041,1,0,0:0:0:0:
420,285,215163,6,0,B|410:229|410:229|429:168,1,108.333328374227,10|0,0:0|0:0,0:0:0:0:
329,273,215529,2,0,B|339:329|339:329|320:390,1,108.333328374227,10|0,0:0|0:0,0:0:0:0:
218,189,215895,2,0,P|270:206|332:172,1,108.333328374227,10|0,0:0|0:0,0:0:0:0:
318,187,216261,1,10,0:0:0:0:
292,31,216505,1,0,0:0:0:0:
292,31,216627,6,0,B|261:58|261:58|269:143,1,108.333328374227,8|0,0:0|0:0,0:0:0:0:
379,254,216992,2,0,B|410:227|410:227|402:142,1,108.333328374227,8|0,0:0|0:0,0:0:0:0:
290,281,217358,2,0,P|273:335|292:398,1,108.333328374227,10|0,0:0|0:0,0:0:0:0:
283,384,217724,1,10,0:0:0:0:
146,245,217968,1,0,0:0:0:0:
146,245,218090,6,0,B|88:240|88:240|42:267,1,108.333328374227,10|0,0:0|0:0,0:0:0:0:
111,163,218456,2,0,B|144:115|144:115|143:61,1,108.333328374227,10|0,0:0|0:0,0:0:0:0:
208,174,218822,2,0,B|232:226|232:226|279:253,1,108.333328374227,10|0,0:0|0:0,0:0:0:0:
276,251,219188,1,10,0:0:0:0:
238,81,219431,1,0,0:0:0:0:
238,81,219553,5,8,0:0:0:0:
457,179,219797,1,0,0:0:0:0:
457,179,219919,2,0,L|338:191,1,108.333328374227,8|0,0:0|0:0,0:0:0:0:
208,160,220285,2,8,B|201:218|201:218|221:267|221:267|215:339,1,162.499992561341
217,318,221017,5,10,0:0:0:0:
48,184,221200,1,0,0:0:0:0:
239,188,221383,1,10,0:0:0:0:
72,314,221566,1,0,0:0:0:0:
228,331,221749,5,8,0:0:0:0:
40,182,221932,1,0,0:0:0:0:
253,187,222115,1,8,0:0:0:0:
66,327,222298,1,0,0:0:0:0:
288,107,222480,6,0,P|335:150|335:217,1,108.333328374227,10|0,0:0|0:0,0:0:0:0:
167,198,222846,2,0,P|180:135|238:102,1,108.333328374227,10|0,0:0|0:0,0:0:0:0:
306,254,223212,2,0,P|245:273|187:239,1,108.333328374227,12|0,0:0|0:0,0:0:0:0:
253,187,223578,1,8,0:0:0:0:
392,356,223822,1,0,0:0:0:0:
392,356,223944,5,8,0:0:0:0:
408,211,224188,1,0,0:0:0:0:
408,211,224309,1,8,0:0:0:0:
253,187,224675,5,8,0:3:0:0:
237,332,224858,1,8,0:3:0:0:
320,269,225040,1,8,0:3:0:0:
197,128,225407,6,0,P|248:104|306:125,1,108.333328374227,14|0,0:0|0:0,0:0:0:0:
409,185,225773,2,0,L|398:45,1,108.333328374227,10|0,0:0|0:0,0:0:0:0:
504,21,226139,2,0,L|512:129,1,108.333328374227,10|0,0:0|0:0,0:0:0:0:
404,267,226505,2,0,P|359:254|329:192,1,108.333328374227,10|0,0:0|0:0,0:0:0:0:
494,220,226870,6,0,B|509:272|509:272|493:340,1,108.333328374227,10|0,0:0|0:0,0:0:0:0:
271,384,227236,2,0,B|256:332|256:332|272:264,1,108.333328374227,10|0,0:0|0:0,0:0:0:0:
345,329,227602,5,10,0:0:0:0:
167,276,227785,1,0,0:0:0:0:
350,198,227968,1,10,0:0:0:0:
174,384,228151,1,0,0:0:0:0:
144,194,228334,6,0,P|202:196|239:235,1,108.333328374227,10|0,0:0|0:0,0:0:0:0:
373,118,228700,2,0,P|315:120|278:159,1,108.333328374227,10|0,0:0|0:0,0:0:0:0:
442,174,229066,2,0,B|461:122|461:122|446:69,1,108.333328374227,10|0,0:0|0:0,0:0:0:0:
285,50,229431,2,0,B|266:102|266:102|281:155,1,108.333328374227,10|0,0:0|0:0,0:0:0:0:
332,370,229797,6,0,P|354:318|340:245,1,108.333328374227,10|0,0:0|0:0,0:0:0:0:
151,287,230163,2,0,P|203:309|276:295,1,108.333328374227,10|0,0:0|0:0,0:0:0:0:
236,111,230529,2,0,P|214:163|228:236,1,108.333328374227,10|0,0:0|0:0,0:0:0:0:
417,194,230895,2,0,P|365:172|292:186,1,108.333328374227,10|0,0:0|0:0,0:0:0:0:
117,203,231261,6,0,B|62:218|62:218|-11:196,1,108.333328374227,10|0,0:0|0:0,0:0:0:0:
15,71,231627,2,0,B|70:56|70:56|143:78,1,108.333328374227,10|0,0:0|0:0,0:0:0:0:
324,208,231992,2,0,L|196:201,1,108.333328374227,10|0,0:0|0:0,0:0:0:0:
219,75,232358,2,0,L|347:82,1,108.333328374227,10|0,0:0|0:0,0:0:0:0:
426,137,232724,6,0,B|412:83|412:83|430:29,1,108.333328374227,10|0,0:0|0:0,0:0:0:0:
454,221,233090,2,0,B|468:275|468:275|450:329,1,108.333328374227,10|0,0:0|0:0,0:0:0:0:
451,324,233456,5,10,0:0:0:0:
350,173,233639,1,0,0:0:0:0:
301,384,233822,1,10,0:0:0:0:
199,232,234005,1,0,0:0:0:0:
380,275,234188,6,0,L|373:418,1,108.333328374227,10|0,0:0|0:0,0:0:0:0:
265,176,234553,2,0,L|270:67,1,108.333328374227,10|0,0:0|0:0,0:0:0:0:
451,162,234919,2,0,P|403:183|343:168,1,108.333328374227,10|0,0:0|0:0,0:0:0:0:
337,35,235285,2,0,P|385:14|445:29,1,108.333328374227,10|0,0:0|0:0,0:0:0:0:
394,99,235651,5,8,0:0:0:0:
168,43,236017,1,4,0:0:0:0:
168,43,236383,2,0,L|175:171,1,108.333328374227,8|0,0:0|0:0,0:0:0:0:
179,232,236749,1,8,0:3:0:0:
4,203,237114,6,0,B|56:185|56:185|121:194,1,108.333328374227,14|0,0:0|0:0,0:0:0:0:
122,337,237480,2,0,B|70:355|70:355|5:346,1,108.333328374227,10|0,0:0|0:0,0:0:0:0:
189,283,237846,2,0,P|207:335|193:386,1,108.333328374227,10|0,0:0|0:0,0:0:0:0:
276,258,238212,2,0,P|258:206|272:155,1,108.333328374227,10|0,0:0|0:0,0:0:0:0:
452,266,238578,6,0,B|415:307|415:307|364:320,1,108.333328374227,10|0,0:0|0:0,0:0:0:0:
362,109,238944,2,0,P|416:119|453:157,1,108.333328374227,10|0,0:0|0:0,0:0:0:0:
366,212,239309,5,10,0:0:0:0:
304,44,239492,1,0,0:0:0:0:
183,165,239675,2,0,B|126:179|126:179|61:163,1,108.333328374227,10|0,0:0|0:0,0:0:0:0:
231,97,240041,6,0,P|267:147|259:199,1,108.333328374227,10|0,0:0|0:0,0:0:0:0:
437,262,240407,2,0,P|375:268|334:235,1,108.333328374227,10|0,0:0|0:0,0:0:0:0:
197,361,240773,2,0,P|222:304|271:285,1,108.333328374227,10|0,0:0|0:0,0:0:0:0:
402,190,241139,2,0,L|386:70,1,108.333328374227,10|0,0:0|0:0,0:0:0:0:
182,68,241505,6,0,L|196:175,1,108.333328374227,10|0,0:0|0:0,0:0:0:0:
387,198,241870,2,0,L|372:90,1,108.333328374227,10|0,0:0|0:0,0:0:0:0:
169,92,242236,2,0,L|183:199,1,108.333328374227,10|0,0:0|0:0,0:0:0:0:
374,222,242602,2,0,L|359:114,1,108.333328374227,10|0,0:0|0:0,0:0:0:0:
332,294,242968,6,0,P|391:305|437:278,1,108.333328374227,14|0,0:0|0:0,0:0:0:0:
222,305,243334,2,0,P|163:294|117:321,1,108.333328374227,10|0,0:0|0:0,0:0:0:0:
19,384,243700,2,0,B|29:325|29:325|4:244,1,108.333328374227,10|0,0:0|0:0,0:0:0:0:
40,79,244066,2,0,B|30:138|30:138|55:219,1,108.333328374227,10|0,0:0|0:0,0:0:0:0:
154,201,244431,6,0,P|168:149|155:92,1,108.333328374227,10|0,0:0|0:0,0:0:0:0:
259,124,244797,2,0,P|311:138|368:125,1,108.333328374227,10|0,0:0|0:0,0:0:0:0:
332,235,245163,2,0,P|318:287|331:344,1,108.333328374227,10|0,0:0|0:0,0:0:0:0:
227,312,245529,2,0,P|175:298|118:311,1,108.333328374227,10|0,0:0|0:0,0:0:0:0:
157,96,245895,6,0,P|167:149|154:201,1,108.333328374227,10|0,0:0|0:0,0:0:0:0:
363,127,246261,2,0,P|310:137|259:124,1,108.333328374227,10|0,0:0|0:0,0:0:0:0:
328,339,246627,2,0,P|318:286|332:235,1,108.333328374227,10|0,0:0|0:0,0:0:0:0:
122,308,246993,2,0,P|175:298|227:312,1,108.333328374227,10|0,0:0|0:0,0:0:0:0:
433,372,247358,5,4,0:0:0:0:
433,372,247724,2,0,L|416:272,1,81.2499962806703,0|8,0:0|0:3,0:0:0:0:
484,205,248090,2,0,L|471:125,2,81.2499962806703,0|0|8,0:0|0:0|0:3,0:0:0:0:
248,259,248822,6,0,P|233:216|248:157,1,91.6666694641114,0|0,0:0|0:0,0:0:0:0:
305,38,249188,2,0,P|319:80|312:125,1,91.6666694641114,2|0,0:0|0:0,0:0:0:0:
146,90,249553,2,0,B|190:78|190:78|257:94,1,91.6666694641114,8|0,0:0|0:0,0:0:0:0:
88,158,249919,2,0,B|44:170|44:170|-23:154,1,91.6666694641114,2|0,0:0|0:0,0:0:0:0:
190,171,250285,6,0,L|184:275,1,91.6666694641114,8|0,0:0|0:0,0:0:0:0:
64,334,250651,2,0,L|69:242,1,91.6666694641114,2|0,0:0|0:0,0:0:0:0:
204,196,251017,2,0,L|198:300,1,91.6666694641114,8|0,0:0|0:0,0:0:0:0:
78,359,251383,2,0,L|83:267,1,91.6666694641114,2|0,0:0|0:0,0:0:0:0:
249,350,251749,6,0,P|207:367|149:352,1,91.6666694641114,8|0,0:0|0:0,0:0:0:0:
320,289,252114,2,0,B|343:332|343:332|336:383,1,91.6666694641114,2|0,0:0|0:0,0:0:0:0:
261,227,252480,2,0,P|302:204|363:215,1,91.6666694641114,8|0,0:0|0:0,0:0:0:0:
320,289,252846,1,2,0:0:0:0:
392,96,253090,1,0,0:0:0:0:
400,127,253212,5,8,0:0:0:0:
308,34,253456,1,0,0:0:0:0:
331,11,253578,1,10,0:0:0:0:
299,133,253822,1,0,0:0:0:0:
268,124,253944,1,8,0:0:0:0:
477,45,254188,1,0,0:0:0:0:
508,54,254309,2,0,L|495:171,1,91.6666694641114,2|0,0:0|0:0,0:0:0:0:
383,207,254675,6,0,P|429:217|468:256,1,91.6666694641114,8|0,0:0|0:0,0:0:0:0:
311,348,255041,2,0,B|295:301|295:301|306:244,1,91.6666694641114,2|0,0:0|0:0,0:0:0:0:
236,190,255407,2,0,P|187:179|131:193,1,91.6666694641114,8|0,0:0|0:0,0:0:0:0:
337,87,255773,2,0,P|386:76|442:90,1,91.6666694641114,2|0,0:0|0:0,0:0:0:0:
248,95,256139,6,0,L|244:-4,1,91.6666694641114,8|0,0:0|0:0,0:0:0:0:
71,46,256505,2,0,L|74:137,1,91.6666694641114,2|0,0:0|0:0,0:0:0:0:
235,111,256870,2,0,L|231:12,1,91.6666694641114,8|0,0:0|0:0,0:0:0:0:
58,62,257236,2,0,L|61:153,1,91.6666694641114,2|0,0:0|0:0,0:0:0:0:
162,250,257602,6,0,P|116:239|60:264,1,91.6666694641114,8|0,0:0|0:0,0:0:0:0:
259,209,257968,2,0,P|291:174|297:113,1,91.6666694641114,2|0,0:0|0:0,0:0:0:0:
242,308,258334,2,0,P|255:353|305:389,1,91.6666694641114,8|0,0:0|0:0,0:0:0:0:
424,259,258700,2,0,B|378:249|378:249|316:269,1,91.6666694641114,2|0,0:0|0:0,0:0:0:0:
487,316,259066,6,0,P|507:278|487:205,1,91.6666694641114,8|0,0:0|0:0,0:0:0:0:
343,284,259431,2,0,P|365:320|439:339,1,91.6666694641114,2|0,0:0|0:0,0:0:0:0:
443,173,259797,2,0,P|400:174|346:228,1,91.6666694641114,8|0,0:0|0:0,0:0:0:0:
237,216,260163,2,0,L|121:203,1,91.6666694641114,2|0,0:0|0:0,0:0:0:0:
42,43,260529,6,0,B|70:74|70:74|61:161,1,108.333328374227,12|0,0:0|0:0,0:0:0:0:
63,140,260895,1,2,0:0:0:0:
123,302,261261,2,0,B|117:236|117:236|145:205,1,108.333328374227,8|0,0:0|0:0,0:0:0:0:
235,259,261627,2,0,L|248:367,1,108.333328374227,2|0,0:0|0:0,0:0:0:0:
225,158,261992,6,0,P|190:119|122:115,1,108.333328374227,8|0,0:0|0:0,0:0:0:0:
315,207,262358,2,0,P|366:196|403:139,1,108.333328374227,10|0,0:0|0:0,0:0:0:0:
235,259,262724,2,0,L|248:367,1,108.333328374227,8|0,0:0|0:0,0:0:0:0:
248,367,263090,1,2,0:0:0:0:
363,43,263456,6,0,P|308:37|265:78,1,108.333328374227,8|0,0:0|0:0,0:0:0:0:
269,68,263822,1,2,0:0:0:0:
476,219,264188,2,0,L|491:75,1,108.333328374227,8|0,0:0|0:0,0:0:0:0:
385,219,264553,2,0,L|393:328,1,108.333328374227,2|0,0:0|0:0,0:0:0:0:
221,214,264919,6,0,P|197:260|211:319,1,108.333328374227,8|0,0:0|0:0,0:0:0:0:
302,190,265285,2,0,P|273:146|215:129,1,108.333328374227,10|0,0:0|0:0,0:0:0:0:
393,328,265651,2,0,L|385:207,1,108.333328374227,8|0,0:0|0:0,0:0:0:0:
385,219,266017,1,2,0:0:0:0:
435,0,266383,6,0,B|466:30|466:30|460:111,1,108.333328374227,12|0,0:0|0:0,0:0:0:0:
352,122,266749,2,0,B|321:92|321:92|327:11,1,108.333328374227,0|0,0:0|0:0,0:0:0:0:
316,252,267114,2,0,P|272:278|205:265,1,108.333328374227,8|0,0:0|0:0,0:0:0:0:
133,178,267480,2,0,P|177:152|244:165,1,108.333328374227,0|0,0:0|0:0,0:0:0:0:
131,373,267846,6,0,L|118:262,1,108.333328374227,8|0,0:0|0:0,0:0:0:0:
219,50,268212,2,0,L|231:157,1,108.333328374227,8|0,0:0|0:0,0:0:0:0:
363,377,268578,2,0,L|350:266,1,108.333328374227,8|0,0:0|0:0,0:0:0:0:
495,111,268944,2,0,P|467:155|403:178,1,108.333328374227,8|0,0:0|0:0,0:0:0:0:
232,158,269309,5,0,0:0:0:0:
354,18,269553,1,0,0:0:0:0:
354,18,269675,2,0,L|344:154,1,108.333328374227,4|0,0:0|0:0,0:0:0:0:
339,207,270041,1,8,0:0:0:0:
195,67,270407,1,0,0:0:0:0:
151,245,270590,1,0,0:0:0:0:
90,138,270773,5,8,0:0:0:0:
287,177,270956,1,0,0:0:0:0:
259,357,271139,6,0,L|272:266,1,91.6666694641114,8|0,0:0|0:0,0:0:0:0:
173,154,271505,5,8,0:0:0:0:
310,81,271688,1,8,0:0:0:0:
173,154,271870,6,0,L|155:29,1,108.333328374227,8|0,0:0|0:0,0:0:0:0:
70,33,272236,5,0,0:0:0:0:
112,217,282480,6,0,P|84:174|128:213,1,162.499992561341,4|0,0:0|0:0,0:0:0:0:
9,194,283029,2,0,P|39:111|109:82,1,162.499992561341,4|0,0:0|0:0,0:0:0:0:
111,186,283578,1,4,0:0:0:0:
111,186,283944,6,0,B|132:242|132:242|113:301,1,108.333328374227,12|0,0:0|0:0,0:0:0:0:
222,384,284309,2,0,B|201:328|201:328|220:269,1,108.333328374227,8|0,0:0|0:0,0:0:0:0:
298,142,284675,2,0,P|314:199|297:249,1,108.333328374227,10|0,0:0|0:0,0:0:0:0:
215,189,285041,2,0,P|199:132|216:82,1,108.333328374227,10|0,0:0|0:0,0:0:0:0:
398,46,285407,6,0,B|346:64|346:64|270:53,1,108.333328374227,8|0,0:0|0:0,0:0:0:0:
484,26,285773,2,0,P|506:85|486:134,1,108.333328374227,8|0,0:0|0:0,0:0:0:0:
424,270,286139,2,0,P|402:211|422:162,1,108.333328374227,10|0,0:0|0:0,0:0:0:0:
322,175,286505,2,0,L|208:189,1,108.333328374227,10|0,0:0|0:0,0:0:0:0:
53,67,286870,6,0,P|107:86|137:151,1,108.333328374227,8|0,0:0|0:0,0:0:0:0:
214,188,287236,2,0,P|183:144|133:127,1,108.333328374227,8|0,0:0|0:0,0:0:0:0:
90,288,287602,2,0,B|146:304|146:304|212:271,1,108.333328374227,10|0,0:0|0:0,0:0:0:0:
291,288,287968,2,0,B|235:304|235:304|169:271,1,108.333328374227,10|0,0:0|0:0,0:0:0:0:
328,216,288334,6,0,P|369:257|365:320,1,108.333328374227,10|0,0:0|0:0,0:0:0:0:
486,162,288700,2,0,P|445:203|449:266,1,108.333328374227,10|0,0:0|0:0,0:0:0:0:
368,118,289066,2,0,L|473:77,1,108.333328374227,10|0,0:0|0:0,0:0:0:0:
328,43,289431,2,0,L|223:2,1,108.333328374227,10|0,0:0|0:0,0:0:0:0:
192,165,289797,6,0,P|247:160|285:111,1,108.333328374227,8|0,0:0|0:0,0:0:0:0:
92,130,290163,2,0,L|111:247,1,108.333328374227,8|0,0:0|0:0,0:0:0:0:
173,324,290529,2,0,B|122:312|122:312|67:346,1,108.333328374227,10|0,0:0|0:0,0:0:0:0:
74,341,290895,1,10,0:0:0:0:
265,363,291139,1,0,0:0:0:0:
265,363,291261,6,0,L|278:233,1,108.333328374227,8|0,0:0|0:0,0:0:0:0:
119,93,291627,2,0,L|108:200,1,108.333328374227,8|0,0:0|0:0,0:0:0:0:
292,137,291992,2,0,P|307:79|274:19,1,108.333328374227,12|0,0:0|0:0,0:0:0:0:
119,93,292358,2,0,B|171:106|171:106|252:84,1,108.333328374227,8|0,0:0|0:0,0:0:0:0:
395,7,292724,6,0,L|406:121,1,108.333328374227,8|0,0:0|0:0,0:0:0:0:
278,352,293090,2,0,L|267:244,1,108.333328374227,8|0,0:0|0:0,0:0:0:0:
244,19,293456,5,8,0:0:0:0:
379,86,293639,1,0,0:0:0:0:
227,140,293822,1,8,0:0:0:0:
362,207,294005,1,0,0:0:0:0:
198,246,294188,6,0,P|160:205|87:211,1,108.333328374227,8|0,0:0|0:0,0:0:0:0:
128,275,294553,1,8,0:0:0:0:
290,185,294736,1,0,0:0:0:0:
290,293,294919,6,0,L|290:185,1,108.333328374227
290,103,295285,1,8,0:3:0:0:
290,103,295651,6,0,P|342:125|370:176,1,108.333328374227,12|0,0:0|0:0,0:0:0:0:
341,286,296017,2,0,B|394:273|394:273|450:293,1,108.333328374227,8|0,0:0|0:0,0:0:0:0:
219,323,296383,2,0,B|166:336|166:336|110:316,1,108.333328374227,10|0,0:0|0:0,0:0:0:0:
115,317,296749,1,10,0:0:0:0:
120,101,296992,1,0,0:0:0:0:
120,101,297114,6,0,P|176:98|221:135,1,108.333328374227,8|0,0:0|0:0,0:0:0:0:
197,226,297480,2,0,P|141:229|96:192,1,108.333328374227,8|0,0:0|0:0,0:0:0:0:
285,179,297846,2,0,B|301:233|301:233|280:300,1,108.333328374227,8|0,0:0|0:0,0:0:0:0:
376,384,298212,2,0,B|360:330|360:330|381:263,1,108.333328374227,8|0,0:0|0:0,0:0:0:0:
446,144,298578,6,0,P|469:197|446:256,1,108.333328374227,8|0,0:0|0:0,0:0:0:0:
366,117,298944,2,0,P|400:70|462:60,1,108.333328374227,8|0,0:0|0:0,0:0:0:0:
380,203,299309,2,0,L|270:212,1,108.333328374227,10|0,0:0|0:0,0:0:0:0:
272,211,299675,1,10,0:0:0:0:
262,11,299919,1,0,0:0:0:0:
262,11,300041,6,0,B|283:67|283:67|260:140,1,108.333328374227,10|0,0:0|0:0,0:0:0:0:
160,126,300407,2,0,L|274:112,1,108.333328374227,10|0,0:0|0:0,0:0:0:0:
39,108,300773,2,0,B|18:164|18:164|41:237,1,108.333328374227,10|0,0:0|0:0,0:0:0:0:
141,223,301139,2,0,L|27:209,1,108.333328374227,10|0,0:0|0:0,0:0:0:0:
213,174,301505,6,0,P|226:231|199:288,1,108.333328374227,8|0,0:0|0:0,0:0:0:0:
308,381,301870,2,0,P|295:324|322:267,1,108.333328374227,8|0,0:0|0:0,0:0:0:0:
412,193,302236,2,0,B|433:245|433:245|417:302,1,108.333328374227,10|0,0:0|0:0,0:0:0:0:
418,295,302602,1,10,0:0:0:0:
321,103,302846,1,0,0:0:0:0:
321,103,302968,6,0,P|375:114|430:76,1,108.333328374227,8|0,0:0|0:0,0:0:0:0:
232,156,303334,2,0,P|178:167|123:129,1,108.333328374227,8|0,0:0|0:0,0:0:0:0:
327,214,303700,2,0,P|380:231|436:233,1,108.333328374227,8|0,0:0|0:0,0:0:0:0:
244,266,304066,2,0,P|195:292|140:305,1,108.333328374227,8|0,0:0|0:0,0:0:0:0:
20,267,304431,6,0,B|45:301|45:301|35:381,1,108.333328374227,8|0,0:0|0:0,0:0:0:0:
74,205,304797,2,0,B|49:171|49:171|59:91,1,108.333328374227,8|0,0:0|0:0,0:0:0:0:
154,174,305163,2,0,P|153:238|121:278,1,108.333328374227,10|0,0:0|0:0,0:0:0:0:
128,272,305529,1,10,0:0:0:0:
202,82,305773,1,0,0:0:0:0:
202,82,305895,6,0,B|258:97|258:97|320:87,1,108.333328374227,8|0,0:0|0:0,0:0:0:0:
422,47,306261,2,0,L|409:162,1,108.333328374227,8|0,0:0|0:0,0:0:0:0:
447,277,306627,2,0,P|388:276|349:309,1,108.333328374227,8|0,0:0|0:0,0:0:0:0:
223,221,306992,2,0,P|282:222|321:189,1,108.333328374227,8|0,0:0|0:0,0:0:0:0:
159,152,307358,6,0,B|131:180|131:180|135:271,1,108.333328374227,12|0,0:0|0:0,0:0:0:0:
12,327,307724,2,0,B|40:299|40:299|36:208,1,108.333328374227,8|0,0:0|0:0,0:0:0:0:
4,73,308090,2,0,P|53:92|115:62,1,108.333328374227,10|0,0:0|0:0,0:0:0:0:
103,74,308456,1,10,0:0:0:0:
223,221,308700,1,0,0:0:0:0:
223,221,308822,6,0,P|233:167|206:113,1,108.333328374227,8|0,0:0|0:0,0:0:0:0:
74,308,309188,2,0,B|127:322|127:322|192:301,1,108.333328374227,8|0,0:0|0:0,0:0:0:0:
299,283,309553,2,0,P|289:337|316:391,1,108.333328374227,8|0,0:0|0:0,0:0:0:0:
448,196,309919,2,0,B|395:182|395:182|330:203,1,108.333328374227,8|0,0:0|0:0,0:0:0:0:
227,167,310285,6,0,L|220:46,1,108.333328374227,8|0,0:0|0:0,0:0:0:0:
44,156,310651,2,0,B|98:180|98:180|176:159,1,108.333328374227,8|0,0:0|0:0,0:0:0:0:
306,50,311017,2,0,L|312:158,1,108.333328374227,10|0,0:0|0:0,0:0:0:0:
312,158,311383,1,10,0:0:0:0:
183,298,311627,1,0,0:0:0:0:
183,298,311749,6,0,P|245:310|274:358,1,108.333328374227,8|0,0:0|0:0,0:0:0:0:
418,246,312114,2,0,P|356:258|327:306,1,108.333328374227,8|0,0:0|0:0,0:0:0:0:
195,137,312480,2,0,P|238:184|252:237,1,108.333328374227,8|0,0:0|0:0,0:0:0:0:
374,58,312846,2,0,P|331:105|317:158,1,108.333328374227,8|0,0:0|0:0,0:0:0:0:
454,262,313212,6,0,B|413:244|413:244|327:257,1,108.333328374227,8|0,0:0|0:0,0:0:0:0:
155,225,313578,2,0,B|196:207|196:207|282:220,1,108.333328374227,8|0,0:0|0:0,0:0:0:0:
68,327,313944,2,0,B|76:269|76:269|62:233|62:233|73:157,1,162.499992561341,8|8,0:0|0:0,0:0:0:0:
159,88,314675,5,8,0:0:0:0:
342,163,314858,1,0,0:0:0:0:
175,266,315041,1,8,0:0:0:0:
248,79,315224,1,0,0:0:0:0:
346,255,315407,5,8,0:0:0:0:
165,177,315590,1,0,0:0:0:0:
334,73,315773,1,8,0:0:0:0:
260,264,315956,1,0,0:0:0:0:
68,133,316139,6,0,L|78:247,1,99.9999969482423,8|0,0:0|0:0,0:0:0:0:
260,264,316505,2,0,L|251:164,1,99.9999969482423,8|0,0:0|0:0,0:0:0:0:
187,0,316870,2,0,L|197:114,1,99.9999969482423,8|0,0:0|0:0,0:0:0:0:
169,191,317236,1,8,0:0:0:0:
82,47,317602,6,0,P|149:52|196:101,1,137.500004196167,8|8,0:0|0:0,0:0:0:0:
317,226,318334,2,0,P|249:232|203:282,1,137.500004196167,8|8,0:0|0:0,0:0:0:0:
72,234,319066,6,0,P|63:300|110:354,1,125,0|2,0:0|0:0,0:0:0:0:
204,281,319614,1,0,0:0:0:0:
204,281,319797,2,0,L|141:278,1,62.5,0|0,0:0|0:0,0:0:0:0:
97,118,320163,1,2,0:0:0:0:
97,118,320529,6,0,B|66:163|66:163|75:258,2,125,0|2|0,0:0|0:0|0:0,0:0:0:0:
97,118,321626,1,2,0:0:0:0:
214,57,321992,2,0,P|152:53|95:4,2,125,0|2|0,0:0|0:0|0:0,0:0:0:0:
348,30,323090,1,2,0:0:0:0:
297,119,323456,5,8,0:3:0:0:
297,119,323822,5,8,0:0:0:0:
490,177,324005,1,8,0:0:0:0:
272,370,324188,5,8,0:0:0:0:
332,202,324370,1,8,0:0:0:0:
495,367,324553,5,8,0:0:0:0:
347,329,324736,1,8,0:0:0:0:
393,148,324919,6,0,B|414:189|414:189|401:266,1,108.333328374227,12|0,0:0|0:0,0:0:0:0:
318,125,325285,2,0,P|361:74|410:68,1,108.333328374227,10|0,0:0|0:0,0:0:0:0:
332,202,325651,2,0,B|276:214|276:214|222:199,1,108.333328374227,8|0,0:0|0:0,0:0:0:0:
226,200,326017,1,10,0:0:0:0:
149,53,326261,1,0,0:0:0:0:
149,53,326383,6,0,P|201:70|260:52,1,108.333328374227,8|0,0:0|0:0,0:0:0:0:
61,16,326749,2,0,L|76:130,1,108.333328374227,10|0,0:0|0:0,0:0:0:0:
137,224,327114,2,0,B|81:212|81:212|29:233,1,108.333328374227,8|0,0:0|0:0,0:0:0:0:
39,349,327480,2,0,B|95:361|95:361|147:340,1,108.333328374227,10|0,0:0|0:0,0:0:0:0:
257,274,327846,6,0,L|243:391,1,108.333328374227,8|0,0:0|0:0,0:0:0:0:
226,200,328212,2,0,P|280:196|325:234,1,108.333328374227,10|0,0:0|0:0,0:0:0:0:
137,224,328578,2,0,B|126:171|126:171|143:112,1,108.333328374227,8|0,0:0|0:0,0:0:0:0:
141,118,328944,1,10,0:0:0:0:
339,20,329188,1,0,0:0:0:0:
339,20,329309,6,0,P|359:82|331:147,1,108.333328374227,8|0,0:0|0:0,0:0:0:0:
298,221,329675,2,0,B|352:205|352:205|419:220,1,108.333328374227,10|0,0:0|0:0,0:0:0:0:
281,304,330041,2,0,P|232:273|215:216,1,108.333328374227,12|0,0:0|0:0,0:0:0:0:
154,137,330407,2,0,B|99:128|99:128|39:147,1,108.333328374227,10|0,0:0|0:0,0:0:0:0:
258,139,330773,6,0,P|264:84|213:27,1,108.333328374227,12|0,0:0|0:0,0:0:0:0:
154,137,331139,2,0,B|207:152|207:152|270:137,1,108.333328374227,10|0,0:0|0:0,0:0:0:0:
72,207,331505,2,0,L|78:323,1,108.333328374227,8|0,0:0|0:0,0:0:0:0:
199,368,331870,2,0,L|193:259,1,108.333328374227,10|0,0:0|0:0,0:0:0:0:
293,192,332236,6,0,P|339:220|350:293,1,108.333328374227,8|0,0:0|0:0,0:0:0:0:
416,347,332602,2,0,P|370:319|359:246,1,108.333328374227,10|0,0:0|0:0,0:0:0:0:
512,249,332968,2,0,L|503:367,1,108.333328374227,8|0,0:0|0:0,0:0:0:0:
433,270,333334,2,0,L|441:161,1,108.333328374227,10|0,0:0|0:0,0:0:0:0:
371,56,333700,6,0,P|318:72|288:126,1,108.333328374227,8|0,0:0|0:0,0:0:0:0:
147,126,334066,2,0,P|200:142|230:196,1,108.333328374227,10|0,0:0|0:0,0:0:0:0:
374,199,334431,2,0,P|322:220|298:277,1,108.333328374227,8|0,0:0|0:0,0:0:0:0:
177,263,334797,2,0,P|221:295|232:356,1,108.333328374227,10|0,0:0|0:0,0:0:0:0:
81,311,335163,6,0,L|97:189,1,108.333328374227,8|0,0:0|0:0,0:0:0:0:
62,106,335529,2,0,L|184:122,1,108.333328374227,8|0,0:0|0:0,0:0:0:0:
271,93,335895,2,0,L|255:215,1,108.333328374227,8|0,0:0|0:0,0:0:0:0:
290,298,336261,2,0,L|168:282,1,108.333328374227,8|0,0:0|0:0,0:0:0:0:
76,261,336627,5,2,0:0:0:0:
76,261,336992,1,0,0:0:0:0:
68,172,337358,1,0,0:0:0:0:
68,172,337733,1,0,0:0:0:0:
211,227,338108,6,0,L|147:216,1,62.5
68,172,338858,1,0,0:0:0:0:
68,172,339233,1,0,0:0:0:0:
147,98,339608,6,0,P|148:64|139:36,1,62.5,2|0,0:0|0:0,0:0:0:0:
68,172,340339,2,0,P|67:206|75:233,1,62.5
218,342,341071,5,0,0:0:0:0:
265,227,341432,1,0,0:0:0:0:
344,323,341793,1,0,0:0:0:0:
391,208,342154,1,0,0:0:0:0:
265,227,342516,5,2,0:0:0:0:
265,227,342878,1,0,0:0:0:0:
391,208,343239,1,0,0:0:0:0:
391,208,343601,1,0,0:0:0:0:
265,227,343962,5,0,0:0:0:0:
265,227,344324,1,0,0:0:0:0:
307,114,344685,1,0,0:0:0:0:
307,114,345060,1,0,0:0:0:0:
123,125,345435,6,0,B|84:98|42:122|22:186|66:234|113:183|148:221|155:263,1,229.166666666667,2|0,0:0|0:0,0:0:0:0:
150,246,346889,6,0,B|140:222|155:173|219:198|238:135|193:87|144:83|120:126,1,229.166666666667,2|0,0:0|0:0,0:0:0:0:
121,122,348407,5,2,0:0:0:0:
256,192,348534,12,0,351445,0:0:0:0:
