osu file format v14

[General]
AudioFilename: audio.mp3
AudioLeadIn: 0
PreviewTime: 86462
Countdown: 1
SampleSet: None
StackLeniency: 0.7
Mode: 0
LetterboxInBreaks: 0
WidescreenStoryboard: 0

[Editor]
Bookmarks: 15654,43889,89992,93521,114698,142933
DistanceSpacing: 0.4
BeatDivisor: 4
GridSize: 32
TimelineZoom: 1.9

[Metadata]
Title:rararu
TitleUnicode:ららる
Artist:ai
ArtistUnicode:藍
Creator:acece
Version:Hard
Source:
Tags:
BeatmapID:1872451
BeatmapSetID:896204

[Difficulty]
HPDrainRate:5
CircleSize:4
OverallDifficulty:7
ApproachRate:8
SliderMultiplier:2.2
SliderTickRate:1

[Events]
//Background and Video events
0,0,"62423081_p0.png",0,0
//Break Periods
//Storyboard Layer 0 (Background)
//Storyboard Layer 1 (Fail)
//Storyboard Layer 2 (Pass)
//Storyboard Layer 3 (Foreground)
//Storyboard Sound Samples

[TimingPoints]
1757.06922401407,441.176470588235,4,2,1,55,1,0
44110,-133.333333333333,4,2,1,55,0,0
56462,-100,4,2,1,55,0,0
80065,-133.333333333333,4,2,1,55,0,0
80948,-100,4,2,1,55,0,0
81830,-133.333333333333,4,2,1,55,0,0
82712,-100,4,2,1,55,0,0

[Colours]
Combo1 : 128,128,255
Combo2 : 255,145,200
Combo3 : 255,255,89
Combo4 : 123,189,255

[HitObjects]
0,83,1757,6,0,P|-12:133|16:200,1,110
137,211,2198,6,0,P|149:161|121:94,1,110
0,83,2639,6,0,P|-12:133|16:200,1,110
137,211,3080,1,0,0:0:0:0:
281,243,3301,1,0,0:0:0:0:
410,147,3521,6,0,P|403:96|353:43,1,110
246,46,3962,6,0,P|252:96|302:149,1,110
189,164,4404,2,0,P|242:169|288:141,1,110
135,76,4845,2,0,P|56:83|16:151,1,165
83,213,5286,6,0,P|99:276|71:320,2,110
7,257,5948,1,0,0:0:0:0:
78,313,6168,2,0,P|132:305|165:263,2,110
83,213,6830,1,0,0:0:0:0:
253,306,7051,6,0,P|267:250|248:201,1,110
203,83,7492,2,0,P|151:108|127:155,1,110
250,203,7933,2,0,P|301:177|325:130,1,110
128,153,8374,5,0,0:0:0:0:
78,63,8595,1,0,0:0:0:0:
78,63,8705,1,0,0:0:0:0:
78,63,8815,2,0,P|88:116|127:153,1,110
203,83,9257,1,0,0:0:0:0:
127,153,9477,1,0,0:0:0:0:
254,175,9698,2,0,P|244:122|205:85,1,110
58,231,10139,1,0,0:0:0:0:
175,248,10360,1,0,0:0:0:0:
58,231,10580,6,0,P|55:284|85:329,1,110
281,274,11021,2,0,P|283:220|253:175,1,110
358,187,11462,2,0,P|306:168|252:174,1,110
175,248,11904,1,0,0:0:0:0:
319,358,12124,5,0,0:0:0:0:
319,358,12235,1,0,0:0:0:0:
319,358,12345,1,0,0:0:0:0:
357,189,12565,1,0,0:0:0:0:
357,189,12786,2,0,P|350:128|306:91,1,110
208,107,13227,1,0,0:0:0:0:
208,107,13448,1,0,0:0:0:0:
316,95,13668,2,0,P|353:135|357:189,1,110
286,272,14110,5,0,0:0:0:0:
126,167,14330,1,0,0:0:0:0:
180,252,14551,1,0,0:0:0:0:
301,97,14771,1,0,0:0:0:0:
301,97,14882,1,0,0:0:0:0:
301,97,14992,1,0,0:0:0:0:
149,59,15212,1,0,0:0:0:0:
149,59,15433,1,0,0:0:0:0:
0,147,15654,6,0,L|92:149,1,55
54,148,15874,2,0,P|7:227|114:264,2,220
54,148,16977,1,0,0:0:0:0:
96,58,17198,2,0,P|142:30|193:47,1,110
239,171,17639,6,0,P|286:92|179:55,1,220
239,171,18301,2,0,L|310:170,2,55
364,244,18742,1,0,0:0:0:0:
227,308,18962,1,0,0:0:0:0:
45,273,19183,6,0,L|115:272,1,55
100,273,19403,2,0,P|135:357|228:294,2,220
100,273,20507,1,0,0:0:0:0:
84,102,20727,2,0,P|65:144|127:144,1,110
236,108,21168,6,0,P|203:200|114:161,1,220
236,108,21830,2,0,L|310:108,2,55
251,286,22271,1,0,0:0:0:0:
354,253,22492,1,0,0:0:0:0:
470,344,22712,6,0,L|470:289,1,55
354,253,22933,2,0,P|365:342|240:373,2,220
179,243,24036,1,0,0:0:0:0:
179,243,24257,2,0,P|146:297|198:307,1,110
273,111,24698,2,0,P|175:140|178:242,1,220
273,111,25360,2,0,L|274:44,2,55
273,111,25801,1,0,0:0:0:0:
385,166,26021,1,0,0:0:0:0:
385,166,26242,6,0,L|385:91,1,55
385,166,26462,2,0,P|457:129|474:235,2,220
324,269,27565,1,0,0:0:0:0:
324,269,27786,2,0,P|338:302|276:295,1,110
148,213,28227,6,0,P|90:296|180:315,1,220
148,213,28889,2,0,L|92:213,2,55
385,166,29330,1,0,0:0:0:0:
292,46,29551,1,0,0:0:0:0:
109,25,29771,5,0,0:0:0:0:
109,25,29882,1,0,0:0:0:0:
109,24,29992,2,0,P|74:65|76:119,1,110
158,194,30433,2,0,P|220:187|262:138,1,110
292,46,30874,1,0,0:0:0:0:
292,46,31095,2,0,P|230:53|188:102,1,110
385,166,31536,1,0,0:0:0:0:
385,166,31757,6,0,P|420:125|418:71,1,110
254,156,32198,2,0,P|232:200|256:253,1,110
160,295,32639,2,0,P|195:344|278:344,1,110
440,249,33080,2,0,P|429:307|369:346,1,110
363,323,33411,1,0,0:0:0:0:
363,323,33521,1,0,0:0:0:0:
253,248,33742,5,0,0:0:0:0:
256,158,33962,2,0,P|307:173|337:218,1,110
243,343,34404,1,0,0:0:0:0:
243,343,34624,2,0,P|191:328|162:283,1,110
119,198,35065,1,0,0:0:0:0:
119,198,35286,6,0,P|77:233|66:286,1,110
253,248,35727,1,0,0:0:0:0:
174,124,35948,1,0,0:0:0:0:
174,124,36058,1,0,0:0:0:0:
174,124,36168,2,0,P|123:105|71:120,1,110
119,198,36610,1,0,0:0:0:0:
218,36,36830,5,0,0:0:0:0:
218,36,36940,1,0,0:0:0:0:
218,36,37051,2,0,P|270:25|324:50,1,110
373,147,37492,2,0,P|320:157|266:132,1,110
406,2,37933,1,0,0:0:0:0:
406,2,38154,2,0,P|439:52|424:123,1,110
454,217,38595,1,0,0:0:0:0:
454,217,38815,6,0,P|501:173|513:120,1,110
373,147,39257,2,0,P|326:191|314:244,1,110
333,256,39587,1,0,0:0:0:0:
333,256,39698,1,0,0:0:0:0:
427,340,39918,1,0,0:0:0:0:
302,370,40139,2,0,P|243:340|229:276,1,110
258,187,40470,5,0,0:0:0:0:
258,187,40580,2,0,P|317:217|331:281,1,110
140,336,41021,2,0,P|130:279|169:221,1,110
171,133,41462,1,0,0:0:0:0:
171,133,41683,2,0,P|116:135|74:168,1,110
271,210,42124,1,0,0:0:0:0:
270,210,42345,6,0,P|305:168|312:114,1,110
212,37,42786,2,0,P|177:78|170:132,1,110
312,114,43227,2,0,P|365:133|403:184,1,110
170,132,43668,1,0,0:0:0:0:
39,214,43889,5,0,0:0:0:0:
39,214,43999,1,0,0:0:0:0:
39,214,44110,2,0,P|34:271|122:332,1,165.000006294251
303,291,44992,2,0,P|327:258|327:218,2,82.5000031471254
190,208,45874,1,0,0:0:0:0:
186,195,46095,1,0,0:0:0:0:
183,181,46315,1,0,0:0:0:0:
181,170,46536,1,0,0:0:0:0:
273,106,46757,2,0,B|300:89|315:62|315:62|368:93|445:94,1,165.000006294251
512,201,47418,5,0,0:0:0:0:
512,201,47529,1,0,0:0:0:0:
512,201,47639,2,0,P|514:269|429:309,1,165.000006294251
230,262,48521,2,0,P|249:301|298:314,2,82.5000031471254
241,137,49183,1,0,0:0:0:0:
353,200,49404,1,0,0:0:0:0:
353,200,49624,1,0,0:0:0:0:
121,195,49845,1,0,0:0:0:0:
121,195,50065,1,0,0:0:0:0:
124,69,50286,2,0,P|162:16|269:9,1,165.000006294251
373,71,50948,5,0,0:0:0:0:
373,71,51058,1,0,0:0:0:0:
373,71,51168,2,0,P|334:123|227:130,1,165.000006294251
373,71,52051,2,0,P|416:99|425:141,2,82.5000031471254
240,136,52712,1,0,0:0:0:0:
295,271,52933,1,0,0:0:0:0:
295,271,53154,1,0,0:0:0:0:
167,187,53374,1,0,0:0:0:0:
167,187,53595,1,0,0:0:0:0:
156,277,53815,2,0,P|83:212|104:121,1,165.000006294251
329,72,54477,5,0,0:0:0:0:
329,72,54698,2,0,P|253:22|175:47,1,165.000006294251
240,136,55360,1,0,0:0:0:0:
349,187,55580,2,0,P|361:225|356:266,1,82.5000031471254
246,215,56021,2,0,P|233:176|238:135,1,82.5000031471254
425,117,56462,1,0,0:0:0:0:
246,215,56683,1,0,0:0:0:0:
76,206,56904,1,0,0:0:0:0:
240,136,57124,1,0,0:0:0:0:
357,267,57345,2,0,P|327:311|271:339,1,110
156,315,57786,5,0,0:0:0:0:
76,206,58007,1,0,0:0:0:0:
76,206,58117,1,0,0:0:0:0:
76,206,58227,2,0,P|93:155|140:114,1,110
340,63,58668,1,0,0:0:0:0:
474,147,58889,2,0,P|447:183|384:208,1,110
340,63,59330,1,0,0:0:0:0:
211,4,59551,2,0,P|196:57|210:118,1,110
291,265,59992,5,0,0:0:0:0:
139,177,60212,1,0,0:0:0:0:
294,140,60433,1,0,0:0:0:0:
125,288,60654,1,0,0:0:0:0:
125,288,60764,1,0,0:0:0:0:
125,288,60874,2,0,P|60:267|28:227,1,110
47,126,61315,2,0,P|112:147|144:187,1,110
47,126,61757,2,0,P|104:89|156:90,1,110
262,154,62198,1,0,0:0:0:0:
346,269,62419,2,0,P|297:293|243:294,1,110
262,154,62860,1,0,0:0:0:0:
300,31,63081,2,0,P|350:53|382:97,1,110
186,102,63521,5,0,0:0:0:0:
352,202,63742,1,0,0:0:0:0:
177,217,63962,1,0,0:0:0:0:
382,97,64183,1,0,0:0:0:0:
382,97,64293,1,0,0:0:0:0:
382,97,64404,2,0,P|434:112|471:152,1,110
441,257,64845,2,0,P|389:242|352:202,1,110
281,276,65286,2,0,P|244:209|258:162,1,110
351,0,65727,1,0,0:0:0:0:
351,0,65948,2,0,P|387:66|374:114,1,110
158,143,66389,1,0,0:0:0:0:
158,143,66610,2,0,P|181:75|240:47,1,110
375,192,67051,5,0,0:0:0:0:
210,54,67271,1,0,0:0:0:0:
381,97,67492,1,0,0:0:0:0:
158,143,67712,1,0,0:0:0:0:
158,143,67823,1,0,0:0:0:0:
158,143,67933,2,0,P|112:94|115:37,1,110
210,54,68374,1,0,0:0:0:0:
56,194,68595,5,0,0:0:0:0:
56,194,68705,1,0,0:0:0:0:
56,194,68815,2,0,P|40:245|60:295,1,110
332,273,69257,1,0,0:0:0:0:
205,308,69477,1,0,0:0:0:0:
283,168,69698,2,0,P|332:150|399:174,1,110
205,308,70139,2,0,P|200:241|230:203,1,110
386,164,70580,5,0,0:0:0:0:
223,208,70801,1,0,0:0:0:0:
313,58,71021,1,0,0:0:0:0:
223,208,71242,1,0,0:0:0:0:
223,208,71352,1,0,0:0:0:0:
223,208,71462,2,0,P|216:143|245:93,1,110
313,58,71904,2,0,P|250:24|173:52,1,110
161,39,72235,5,0,0:0:0:0:
161,39,72345,1,0,0:0:0:0:
77,224,72565,1,0,0:0:0:0:
241,127,72786,1,0,0:0:0:0:
53,115,73007,1,0,0:0:0:0:
198,239,73227,1,0,0:0:0:0:
53,115,73448,1,0,0:0:0:0:
241,127,73668,1,0,0:0:0:0:
77,224,73889,1,0,0:0:0:0:
290,229,74110,2,0,P|285:283|249:324,1,110
198,239,74551,1,0,0:0:0:0:
388,174,74771,1,0,0:0:0:0:
388,174,74882,1,0,0:0:0:0:
388,174,74992,1,0,0:0:0:0:
381,73,75212,1,0,0:0:0:0:
486,223,75433,2,0,P|446:268|397:287,1,110
296,130,75874,6,0,P|328:87|381:73,1,110
192,86,76315,1,0,0:0:0:0:
388,174,76536,1,0,0:0:0:0:
253,18,76757,5,0,0:3:0:0:
187,174,76977,1,0,0:0:0:0:
381,73,77198,5,0,0:3:0:0:
315,229,77418,5,0,0:3:0:0:
381,73,77639,2,0,P|431:91|460:136,1,110
315,229,78080,1,0,0:0:0:0:
366,350,78301,1,0,0:0:0:0:
366,350,78411,1,0,0:0:0:0:
366,350,78522,5,0,0:3:0:0:
420,233,78742,1,0,0:0:0:0:
199,269,78963,5,0,0:3:0:0:
262,339,79183,1,0,0:0:0:0:
191,176,79404,2,0,P|140:196|111:242,1,110
111,241,79735,1,0,0:0:0:0:
111,241,79845,1,0,0:0:0:0:
324,235,80065,2,0,L|270:236,2,41.2500015735627
437,274,80507,2,0,L|437:225,2,41.2500015735627
319,239,80948,6,0,L|319:184,1,55
189,68,81168,2,0,P|178:122|189:175,1,110
219,197,81499,1,0,0:0:0:0:
219,197,81610,1,0,0:0:0:0:
319,184,81830,2,0,L|385:184,2,41.2500015735627
380,69,82271,2,0,L|437:69,2,41.2500015735627
319,184,82712,6,0,L|382:184,1,55
457,326,82933,2,0,P|403:335|348:327,1,110
337,306,83265,1,0,0:0:0:0:
337,306,83374,1,0,0:0:0:0:
320,160,83595,1,0,0:0:0:0:
320,160,83705,1,0,0:0:0:0:
320,160,83815,1,0,0:0:0:0:
200,250,84036,1,0,0:0:0:0:
200,250,84146,1,0,0:0:0:0:
200,250,84256,1,0,0:0:0:0:
319,184,84477,5,0,0:0:0:0:
319,184,84587,1,0,0:0:0:0:
319,184,84698,2,0,P|358:116|345:68,1,110
273,13,85029,1,0,0:0:0:0:
237,22,85140,2,0,P|198:90|211:138,1,110
319,184,85470,1,0,0:3:0:0:
350,202,85581,2,0,P|411:170|468:180,1,110,0|0,0:3|0:3,0:3:0:0:
483,199,85912,1,0,0:0:0:0:
483,199,86021,1,0,0:0:0:0:
399,306,86242,5,0,0:0:0:0:
399,306,86352,1,0,0:0:0:0:
399,306,86462,1,0,0:0:0:0:
267,214,86683,1,0,0:0:0:0:
267,214,86904,2,0,P|242:164|258:107,1,110
371,18,87345,1,0,0:0:0:0:
362,150,87565,1,0,0:0:0:0:
286,35,87786,2,0,P|231:39|186:69,1,110
151,168,88227,5,0,0:0:0:0:
73,76,88447,1,0,0:0:0:0:
151,168,88668,2,0,P|181:122|185:68,1,110
159,52,88999,1,0,0:0:0:0:
159,52,89110,1,0,0:0:0:0:
34,181,89330,1,0,0:0:0:0:
34,181,89551,2,0,P|3:226|0:280,1,110
121,322,89992,5,0,0:0:0:0:
196,283,90212,1,0,0:0:0:0:
277,283,90433,1,0,0:0:0:0:
347,336,90654,1,0,0:0:0:0:
265,366,90874,5,0,0:0:0:0:
277,283,91095,1,0,0:0:0:0:
337,227,91315,1,0,0:0:0:0:
417,219,91536,1,0,0:0:0:0:
337,227,91757,6,0,P|290:198|231:215,1,110
68,236,92198,2,0,P|77:289|121:321,1,110
152,182,92529,1,0,0:0:0:0:
152,182,92639,2,0,P|188:131|241:119,1,110
374,140,93080,1,0,0:0:0:0:
374,140,93301,1,0,0:0:0:0:
