osu file format v14

[General]
AudioFilename: audio.mp3
AudioLeadIn: 0
PreviewTime: -1
Countdown: 1
SampleSet: Soft
StackLeniency: 0.7
Mode: 0
LetterboxInBreaks: 0
WidescreenStoryboard: 0

[Editor]
DistanceSpacing: 4
BeatDivisor: 8
GridSize: 16
TimelineZoom: 1

[Metadata]
Title:hymn
TitleUnicode:hymn
Artist:ahus
ArtistUnicode:ahus
Creator:Jeder
Version:ahus
Source:ahus
Tags:ahus meme gargamel fbi zul peja mariusz pudzianowski
BeatmapID:1139085
BeatmapSetID:537557

[Difficulty]
HPDrainRate:6
CircleSize:4
OverallDifficulty:7
ApproachRate:10
SliderMultiplier:1.4
SliderTickRate:1

[Events]
//Background and Video events
//Break Periods
2,15910,19385
//Storyboard Layer 0 (Background)
//Storyboard Layer 1 (Fail)
//Storyboard Layer 2 (Pass)
//Storyboard Layer 3 (Foreground)
//Storyboard Sound Samples

[TimingPoints]
7710,500,4,2,0,100,1,0
39710,-100,4,2,0,25,0,0
71460,62.5,4,2,0,100,1,0
71960,500,4,2,0,100,1,0
71960,-100,4,2,0,100,0,0
91460,31.25,4,2,0,100,1,0
91960,500,4,2,0,100,1,0
127778,-100,4,2,0,100,0,1
143574,-100,4,2,0,100,0,0

[HitObjects]
128,96,7210,5,0,0:0:0:0:
176,144,7335,1,0,0:0:0:0:
224,192,7461,1,0,0:0:0:0:
256,256,7585,1,0,0:0:0:0:
272,320,7710,1,0,0:0:0:0:
256,192,11710,5,0,0:0:0:0:
64,192,13710,5,0,0:0:0:0:
128,80,15209,5,0,0:0:0:0:
176,144,15335,1,0,0:0:0:0:
224,192,15460,1,0,0:0:0:0:
288,208,15585,1,0,0:0:0:0:
352,208,15710,1,0,0:0:0:0:
256,192,19835,5,0,0:0:0:0:
96,48,21710,1,0,0:0:0:0:
160,144,23710,6,0,L|240:176,1,70
256,80,24710,2,0,L|320:128,3,70
64,240,26460,5,0,0:0:0:0:
224,160,26960,1,0,0:0:0:0:
192,176,27210,1,0,0:0:0:0:
288,80,27460,1,0,0:0:0:0:
64,112,27710,1,0,0:0:0:0:
192,48,28210,1,0,0:0:0:0:
256,176,28710,1,0,0:0:0:0:
144,272,29210,1,0,0:0:0:0:
384,128,29710,1,0,0:0:0:0:
112,112,30210,1,0,0:0:0:0:
352,240,30710,1,0,0:0:0:0:
112,80,31210,1,0,0:0:0:0:
176,96,31335,1,0,0:0:0:0:
240,96,31460,1,0,0:0:0:0:
304,112,31585,1,0,0:0:0:0:
368,80,31710,1,0,0:0:0:0:
304,112,32710,6,0,L|240:144,3,70
128,96,34460,5,0,0:0:0:0:
272,64,34710,1,0,0:0:0:0:
224,192,34960,1,0,0:0:0:0:
368,224,35210,1,0,0:0:0:0:
240,288,35460,1,0,0:0:0:0:
432,80,35710,1,0,0:0:0:0:
320,160,36210,1,0,0:0:0:0:
48,144,36710,1,0,0:0:0:0:
320,192,37210,1,0,0:0:0:0:
80,336,37710,1,0,0:0:0:0:
272,144,38210,1,0,0:0:0:0:
16,16,38710,1,0,0:0:0:0:
128,272,39210,1,0,0:0:0:0:
192,240,39335,1,0,0:0:0:0:
240,192,39460,1,0,0:0:0:0:
256,128,39585,1,0,0:0:0:0:
240,64,39710,1,0,0:0:0:0:
384,96,39960,1,0,0:0:0:0:
336,144,40210,1,0,0:0:0:0:
208,192,40460,1,0,0:0:0:0:
80,160,40710,1,0,0:0:0:0:
112,304,40960,1,0,0:0:0:0:
256,288,41210,1,0,0:0:0:0:
320,256,41460,1,0,0:0:0:0:
400,144,41710,1,0,0:0:0:0:
288,64,41960,1,0,0:0:0:0:
160,96,42210,1,0,0:0:0:0:
80,208,42460,1,0,0:0:0:0:
224,240,42710,1,0,0:0:0:0:
320,144,42960,1,0,0:0:0:0:
192,96,43210,1,0,0:0:0:0:
80,176,43460,2,0,L|144:240,1,70
256,176,43960,1,0,0:0:0:0:
400,144,44210,1,0,0:0:0:0:
256,128,44460,1,0,0:0:0:0:
128,192,44710,1,0,0:0:0:0:
240,272,44960,1,0,0:0:0:0:
352,192,45210,1,0,0:0:0:0:
240,112,45460,2,0,P|208:160|192:144,1,70
160,288,45960,1,0,0:0:0:0:
96,160,46210,1,0,0:0:0:0:
240,144,46460,1,0,0:0:0:0:
384,128,46710,1,0,0:0:0:0:
496,224,46960,1,0,0:0:0:0:
352,224,47210,1,0,0:0:0:0:
224,208,47460,1,0,0:0:0:0:
96,144,47710,1,0,0:0:0:0:
240,128,47960,1,0,0:0:0:0:
384,144,48210,1,0,0:0:0:0:
304,256,48460,1,0,0:0:0:0:
320,112,48710,1,0,0:0:0:0:
192,80,48960,1,0,0:0:0:0:
64,144,49210,1,0,0:0:0:0:
160,256,49460,1,0,0:0:0:0:
288,208,49710,1,0,0:0:0:0:
176,128,49960,1,0,0:0:0:0:
304,96,50210,1,0,0:0:0:0:
432,64,50460,1,0,0:0:0:0:
352,176,50710,1,0,0:0:0:0:
208,208,50960,1,0,0:0:0:0:
96,128,51210,1,0,0:0:0:0:
96,272,51460,1,0,0:0:0:0:
240,256,51710,1,0,0:0:0:0:
352,176,51960,1,0,0:0:0:0:
256,80,52210,1,0,0:0:0:0:
112,112,52460,1,0,0:0:0:0:
240,192,52710,1,0,0:0:0:0:
368,256,52960,1,0,0:0:0:0:
496,320,53210,1,0,0:0:0:0:
480,176,53460,1,0,0:0:0:0:
352,144,53710,1,0,0:0:0:0:
256,192,53960,12,0,55210,0:0:0:0:
480,112,55460,5,0,0:0:0:0:
416,144,55585,1,0,0:0:0:0:
352,144,55710,1,0,0:0:0:0:
288,144,55835,1,0,0:0:0:0:
224,144,55960,1,0,0:0:0:0:
160,144,56085,1,0,0:0:0:0:
96,176,56210,1,0,0:0:0:0:
112,240,56335,1,0,0:0:0:0:
176,256,56460,1,0,0:0:0:0:
240,224,56585,1,0,0:0:0:0:
224,160,56710,1,0,0:0:0:0:
160,128,56835,1,0,0:0:0:0:
96,128,56960,1,0,0:0:0:0:
64,192,57085,1,0,0:0:0:0:
96,256,57210,1,0,0:0:0:0:
160,224,57335,2,0,L|208:192,4,35
464,112,57960,1,0,0:0:0:0:
496,176,58085,1,0,0:0:0:0:
464,240,58210,1,0,0:0:0:0:
400,272,58335,1,0,0:0:0:0:
336,256,58460,1,0,0:0:0:0:
272,240,58585,1,0,0:0:0:0:
208,256,58710,1,0,0:0:0:0:
144,272,58835,1,0,0:0:0:0:
80,256,58960,1,0,0:0:0:0:
48,192,59085,1,0,0:0:0:0:
64,128,59210,1,0,0:0:0:0:
128,96,59335,1,0,0:0:0:0:
192,96,59460,1,0,0:0:0:0:
256,96,59585,1,0,0:0:0:0:
320,96,59710,1,0,0:0:0:0:
384,112,59835,1,0,0:0:0:0:
448,144,59960,1,0,0:0:0:0:
416,208,60085,1,0,0:0:0:0:
352,240,60210,1,0,0:0:0:0:
288,208,60335,1,0,0:0:0:0:
288,144,60460,1,0,0:0:0:0:
336,96,60585,1,0,0:0:0:0:
320,128,60710,1,0,0:0:0:0:
464,48,60835,1,0,0:0:0:0:
496,112,60960,2,0,L|496:160,3,35
448,208,61460,1,0,0:0:0:0:
384,208,61585,1,0,0:0:0:0:
320,192,61710,1,0,0:0:0:0:
256,192,61835,1,0,0:0:0:0:
192,208,61960,1,0,0:0:0:0:
128,224,62085,2,0,L|64:240,3,35
32,192,62585,1,0,0:0:0:0:
32,128,62710,1,0,0:0:0:0:
80,80,62835,1,0,0:0:0:0:
144,80,62960,1,0,0:0:0:0:
208,80,63085,1,0,0:0:0:0:
256,128,63210,2,0,L|288:176,4,35
272,192,63835,1,0,0:0:0:0:
208,208,63960,1,0,0:0:0:0:
144,208,64085,1,0,0:0:0:0:
80,160,64210,1,0,0:0:0:0:
128,112,64335,1,0,0:0:0:0:
192,96,64460,1,0,0:0:0:0:
256,96,64585,1,0,0:0:0:0:
320,128,64710,1,0,0:0:0:0:
368,176,64835,1,0,0:0:0:0:
400,240,64960,1,0,0:0:0:0:
416,304,65085,1,0,0:0:0:0:
352,336,65210,1,0,0:0:0:0:
288,336,65335,1,0,0:0:0:0:
224,304,65460,1,0,0:0:0:0:
160,256,65585,1,0,0:0:0:0:
128,192,65710,1,0,0:0:0:0:
160,128,65835,1,0,0:0:0:0:
224,128,65960,1,0,0:0:0:0:
288,176,66085,1,0,0:0:0:0:
352,160,66210,1,0,0:0:0:0:
416,160,66335,1,0,0:0:0:0:
464,208,66460,1,0,0:0:0:0:
448,272,66585,1,0,0:0:0:0:
384,288,66710,1,0,0:0:0:0:
320,256,66835,1,0,0:0:0:0:
288,192,66960,1,0,0:0:0:0:
320,128,67085,1,0,0:0:0:0:
272,80,67210,1,0,0:0:0:0:
208,112,67335,1,0,0:0:0:0:
144,112,67460,1,0,0:0:0:0:
96,176,67585,1,0,0:0:0:0:
112,240,67710,1,0,0:0:0:0:
160,288,67835,1,0,0:0:0:0:
224,320,67960,1,0,0:0:0:0:
288,304,68085,1,0,0:0:0:0:
336,256,68210,1,0,0:0:0:0:
336,192,68335,1,0,0:0:0:0:
288,144,68460,1,0,0:0:0:0:
336,96,68585,1,0,0:0:0:0:
288,144,68710,1,0,0:0:0:0:
224,176,68835,1,0,0:0:0:0:
160,176,68960,1,0,0:0:0:0:
96,144,69085,1,0,0:0:0:0:
32,176,69210,1,0,0:0:0:0:
28,244,69335,2,0,P|24:280|28:280,5,35
48,320,70085,1,0,0:0:0:0:
112,304,70210,1,0,0:0:0:0:
176,272,70335,1,0,0:0:0:0:
224,224,70460,1,0,0:0:0:0:
272,160,70585,1,0,0:0:0:0:
304,96,70710,1,0,0:0:0:0:
352,48,70835,1,0,0:0:0:0:
416,80,70960,1,0,0:0:0:0:
448,144,71085,1,0,0:0:0:0:
432,208,71210,1,0,0:0:0:0:
368,240,71335,1,0,0:0:0:0:
304,224,71460,1,0,0:0:0:0:
240,80,71585,2,0,B|112:176|256:352|464:64|464:64|464:176,1,560
176,208,71960,1,0,0:0:0:0:
112,224,72085,1,0,0:0:0:0:
48,192,72210,1,0,0:0:0:0:
0,160,72335,1,0,0:0:0:0:
0,224,72460,1,0,0:0:0:0:
32,288,72585,1,0,0:0:0:0:
96,304,72710,1,0,0:0:0:0:
160,304,72835,1,0,0:0:0:0:
224,288,72960,1,0,0:0:0:0:
272,240,73085,1,0,0:0:0:0:
256,176,73210,1,0,0:0:0:0:
304,128,73335,1,0,0:0:0:0:
368,160,73460,1,0,0:0:0:0:
384,224,73585,1,0,0:0:0:0:
448,224,73710,1,0,0:0:0:0:
496,176,73835,1,0,0:0:0:0:
496,112,73960,1,0,0:0:0:0:
480,48,74085,1,0,0:0:0:0:
416,32,74210,1,0,0:0:0:0:
352,32,74335,1,0,0:0:0:0:
288,48,74460,1,0,0:0:0:0:
240,96,74585,1,0,0:0:0:0:
176,112,74710,1,0,0:0:0:0:
112,96,74835,1,0,0:0:0:0:
48,128,74960,1,0,0:0:0:0:
16,192,75085,1,0,0:0:0:0:
32,256,75210,1,0,0:0:0:0:
96,288,75335,1,0,0:0:0:0:
160,272,75460,1,0,0:0:0:0:
208,224,75585,1,0,0:0:0:0:
208,160,75710,1,0,0:0:0:0:
160,96,75835,1,0,0:0:0:0:
96,80,75960,1,0,0:0:0:0:
48,128,76085,1,0,0:0:0:0:
32,192,76210,1,0,0:0:0:0:
32,256,76335,1,0,0:0:0:0:
80,304,76460,1,0,0:0:0:0:
144,320,76585,1,0,0:0:0:0:
208,304,76710,1,0,0:0:0:0:
272,272,76835,1,0,0:0:0:0:
336,240,76960,1,0,0:0:0:0:
400,208,77085,1,0,0:0:0:0:
464,176,77210,1,0,0:0:0:0:
336,128,77460,1,0,0:0:0:0:
224,208,77585,1,0,0:0:0:0:
128,304,77710,1,0,0:0:0:0:
64,176,77835,1,0,0:0:0:0:
176,80,77960,1,0,0:0:0:0:
320,64,78085,1,0,0:0:0:0:
448,96,78210,1,0,0:0:0:0:
448,240,78335,1,0,0:0:0:0:
320,304,78460,1,0,0:0:0:0:
176,288,78585,1,0,0:0:0:0:
64,192,78710,1,0,0:0:0:0:
112,64,78835,1,0,0:0:0:0:
256,80,78960,1,0,0:0:0:0:
384,144,79085,1,0,0:0:0:0:
448,272,79210,1,0,0:0:0:0:
304,288,79335,1,0,0:0:0:0:
160,320,79460,1,0,0:0:0:0:
16,352,79585,1,0,0:0:0:0:
0,208,79710,1,0,0:0:0:0:
0,64,79835,1,0,0:0:0:0:
128,32,79960,1,0,0:0:0:0:
272,32,80085,1,0,0:0:0:0:
416,48,80210,1,0,0:0:0:0:
512,144,80335,1,0,0:0:0:0:
432,256,80460,1,0,0:0:0:0:
288,240,80585,1,0,0:0:0:0:
144,224,80710,1,0,0:0:0:0:
16,192,80835,1,0,0:0:0:0:
80,64,80960,1,0,0:0:0:0:
208,112,81085,1,0,0:0:0:0:
352,80,81210,1,0,0:0:0:0:
448,176,81335,1,0,0:0:0:0:
352,272,81460,1,0,0:0:0:0:
208,304,81585,1,0,0:0:0:0:
80,272,81710,1,0,0:0:0:0:
16,144,81835,1,0,0:0:0:0:
144,96,81960,1,0,0:0:0:0:
256,176,82085,1,0,0:0:0:0:
208,304,82210,1,0,0:0:0:0:
352,288,82335,1,0,0:0:0:0:
384,160,82460,1,0,0:0:0:0:
272,64,82585,1,0,0:0:0:0:
176,176,82710,1,0,0:0:0:0:
80,288,82835,1,0,0:0:0:0:
224,288,82960,1,0,0:0:0:0:
368,288,83085,1,0,0:0:0:0:
512,288,83210,1,0,0:0:0:0:
384,160,83335,1,0,0:0:0:0:
272,64,83460,1,0,0:0:0:0:
176,176,83585,1,0,0:0:0:0:
80,288,83710,1,0,0:0:0:0:
224,288,83835,1,0,0:0:0:0:
368,288,83960,1,0,0:0:0:0:
512,288,84085,1,0,0:0:0:0:
416,192,84210,1,0,0:0:0:0:
272,176,84335,1,0,0:0:0:0:
128,176,84460,1,0,0:0:0:0:
32,272,84585,1,0,0:0:0:0:
176,272,84710,1,0,0:0:0:0:
320,272,84835,1,0,0:0:0:0:
464,272,84960,1,0,0:0:0:0:
416,144,85085,1,0,0:0:0:0:
272,144,85210,1,0,0:0:0:0:
128,144,85335,1,0,0:0:0:0:
240,64,85460,1,0,0:0:0:0:
384,64,85585,1,0,0:0:0:0:
480,160,85710,1,0,0:0:0:0:
384,256,85835,1,0,0:0:0:0:
240,272,85960,1,0,0:0:0:0:
96,256,86085,1,0,0:0:0:0:
80,112,86210,1,0,0:0:0:0:
192,16,86335,1,0,0:0:0:0:
304,96,86460,1,0,0:0:0:0:
192,192,86585,1,0,0:0:0:0:
48,208,86710,1,0,0:0:0:0:
176,256,86835,1,0,0:0:0:0:
304,192,86960,1,0,0:0:0:0:
432,128,87085,1,0,0:0:0:0:
288,112,87210,1,0,0:0:0:0:
144,128,87335,1,0,0:0:0:0:
32,224,87460,1,0,0:0:0:0:
304,224,87710,2,0,P|272:272|256:272,1,70
266,272,88210,2,0,P|208:272|208:240,1,70
208,272,88710,2,0,P|176:224|192:208,1,70
176,223,89210,2,0,P|208:192|192:160,1,70
203,171,89710,2,0,L|171:155,6,35
400,224,90960,5,0,0:0:0:0:
192,176,91210,1,0,0:0:0:0:
288,320,91467,2,0,B|288:48|288:32|160:32|48:32|48:48|48:320|48:320|480:320|480:320|480:48|480:32|480:16|288:16|80:64|80:64|64:80|48:304|48:304|80:320|80:320|208:320,1,2170
96,128,92210,1,0,0:0:0:0:
400,128,92460,1,0,0:0:0:0:
384,272,92710,1,0,0:0:0:0:
368,128,92960,1,0,0:0:0:0:
240,288,93210,1,0,0:0:0:0:
128,112,93460,1,0,0:0:0:0:
304,224,93710,1,0,0:0:0:0:
128,352,93960,1,0,0:0:0:0:
304,256,94210,1,0,0:0:0:0:
144,112,94460,1,0,0:0:0:0:
352,112,94710,1,0,0:0:0:0:
384,176,94960,1,0,0:0:0:0:
400,208,95085,1,0,0:0:0:0:
368,224,95210,1,0,0:0:0:0:
224,64,95460,1,0,0:0:0:0:
272,272,95710,1,0,0:0:0:0:
64,272,95960,1,0,0:0:0:0:
256,208,96210,2,0,P|320:224|352:224,1,70
496,112,96710,2,0,L|432:144,1,70
240,64,97210,2,0,P|208:112|224:144,1,70
368,256,97710,2,0,P|368:304|336:304,1,70
176,192,98210,2,0,P|144:224|176:256,1,70
304,96,98710,2,0,P|288:144|304:160,1,70
480,64,99210,2,0,P|432:96|432:96,4,35,0|0|0|0|2,0:0|0:0|0:0|0:0|0:0,0:0:0:0:
272,64,99960,1,0,0:0:0:0:
336,272,100210,1,0,0:0:0:0:
128,304,100460,1,0,0:0:0:0:
192,112,100710,1,0,0:0:0:0:
128,320,100960,1,0,0:0:0:0:
192,128,101210,1,0,0:0:0:0:
128,320,101460,1,0,0:0:0:0:
336,272,101710,1,0,0:0:0:0:
160,160,101960,1,0,0:0:0:0:
368,128,102210,1,0,0:0:0:0:
464,320,102460,1,0,0:0:0:0:
432,112,102710,1,0,0:0:0:0:
288,208,102960,1,0,0:0:0:0:
208,272,103085,1,0,0:0:0:0:
176,176,103210,1,0,0:0:0:0:
384,144,103460,1,0,0:0:0:0:
320,272,103585,1,0,0:0:0:0:
240,160,103710,1,0,0:0:0:0:
208,304,103835,1,0,0:0:0:0:
160,176,103960,1,0,0:0:0:0:
272,256,104085,1,0,0:0:0:0:
384,160,104210,1,0,0:0:0:0:
256,208,104335,1,0,0:0:0:0:
176,96,104460,1,0,0:0:0:0:
304,32,104585,1,0,0:0:0:0:
448,192,104710,1,0,0:0:0:0:
352,288,104835,1,0,0:0:0:0:
352,144,104960,1,0,0:0:0:0:
240,224,105085,1,0,0:0:0:0:
272,80,105210,1,0,0:0:0:0:
400,144,105335,1,0,0:0:0:0:
160,288,105585,1,0,0:0:0:0:
96,64,105710,1,0,0:0:0:0:
208,160,105835,1,0,0:0:0:0:
304,64,105960,1,0,0:0:0:0:
432,128,106085,1,0,0:0:0:0:
384,256,106210,1,0,0:0:0:0:
288,160,106335,1,0,0:0:0:0:
208,272,106460,1,0,0:0:0:0:
240,144,106585,1,0,0:0:0:0:
336,48,106710,1,0,0:0:0:0:
224,144,106835,1,0,0:0:0:0:
112,64,106960,1,0,0:0:0:0:
224,144,107085,1,0,0:0:0:0:
208,288,107210,1,0,0:0:0:0:
272,304,107272,1,0,0:0:0:0:
336,304,107335,1,0,0:0:0:0:
160,80,107585,1,0,0:0:0:0:
432,96,107710,1,0,0:0:0:0:
416,240,107835,1,0,0:0:0:0:
288,192,107960,1,0,0:0:0:0:
160,256,108085,1,0,0:0:0:0:
304,272,108210,1,0,0:0:0:0:
208,176,108335,1,0,0:0:0:0:
336,240,108460,1,0,0:0:0:0:
208,304,108585,1,0,0:0:0:0:
144,176,108710,1,0,0:0:0:0:
272,224,108835,1,0,0:0:0:0:
336,96,108960,1,0,0:0:0:0:
448,192,109085,1,0,0:0:0:0:
352,304,109210,1,0,0:0:0:0:
432,192,109335,1,0,0:0:0:0:
304,144,109460,1,0,0:0:0:0:
384,256,109585,1,0,0:0:0:0:
256,208,109710,1,0,0:0:0:0:
144,112,109835,1,0,0:0:0:0:
272,64,109960,1,0,0:0:0:0:
368,160,110085,1,0,0:0:0:0:
288,272,110210,1,0,0:0:0:0:
176,192,110335,1,0,0:0:0:0:
320,208,110460,1,0,0:0:0:0:
400,96,110585,1,0,0:0:0:0:
464,224,110710,1,0,0:0:0:0:
416,96,110835,1,0,0:0:0:0:
400,240,110960,1,0,0:0:0:0:
288,160,111085,1,0,0:0:0:0:
336,288,111210,1,0,0:0:0:0:
208,240,111335,1,0,0:0:0:0:
256,112,111460,1,0,0:0:0:0:
384,64,111585,1,0,0:0:0:0:
432,112,111647,1,0,0:0:0:0:
480,160,111710,1,0,0:0:0:0:
