osu file format v14

[General]
AudioFilename: audio.mp3
AudioLeadIn: 0
PreviewTime: 92185
Countdown: 0
SampleSet: Normal
StackLeniency: 0.7
Mode: 3
LetterboxInBreaks: 0
SpecialStyle: 0
WidescreenStoryboard: 1

[Editor]
DistanceSpacing: 0.8
BeatDivisor: 12
GridSize: 32
TimelineZoom: 1.599999

[Metadata]
Title:Hold On Tight
TitleUnicode:Hold On Tight
Artist:aespa
ArtistUnicode:에스파
Creator:Slowpoke104
Version:Hard
Source:TETRIS
Tags:Коробейники korobeiniki テトリス A-type Type A theme remake tetris motion picture Original soundtrack Hip Tanaka Hirokazu 田中宏和 Hip Tanaka aespa karina giselle winter ningning 카리나 지젤 윈터 닝닝 video game videogame music vgm electronic pop kpop girlsgroup æ sm entertainment sm엔터테인먼트 ost chord chordjack dump vocal female apple original films english instrumental
BeatmapID:4182253
BeatmapSetID:2006713

[Difficulty]
HPDrainRate:7.5
CircleSize:4
OverallDifficulty:7.5
ApproachRate:5
SliderMultiplier:1.4
SliderTickRate:1

[Events]
//Background and Video events
0,0,"winter-aespa-girls-4k-wallpaper-uhdpaper.com-907@1@g.jpg",0,0
//Break Periods
//Storyboard Layer 0 (Background)
//Storyboard Layer 1 (Fail)
//Storyboard Layer 2 (Pass)
//Storyboard Layer 3 (Foreground)
//Storyboard Layer 4 (Overlay)
//Storyboard Sound Samples

[TimingPoints]
241,500,4,1,1,10,1,0
2241,489.795918367347,4,1,1,10,1,0
2241,-102.083333333333,4,1,1,10,0,0
4200,526.315789473684,4,1,1,10,1,0
4200,-95,4,1,1,10,0,0
4726,566.037735849057,4,1,1,10,1,8
4726,-88.3333333333333,4,1,1,10,0,8
5292,594.059405940594,4,1,1,10,1,8
5292,-84.1666666666667,4,1,1,10,0,8
5886,674.157303370787,4,1,1,10,1,8
5886,-74.1666666666666,4,1,1,10,0,8
6560,810.810810810811,4,1,1,10,1,0
6560,-61.6666666666667,4,1,1,10,0,0
7370,895.522388059701,4,1,1,10,1,8
7370,-55.8333333333334,4,1,1,10,0,8
8265,975.134080936129,4,1,1,10,1,8
8265,-51.275,4,1,1,10,0,8
10215,500,4,1,1,10,1,0
42215,-100,4,1,1,30,0,1
58215,-100,4,1,1,10,0,0
92215,-100,4,1,1,30,0,1
107215,-100,4,1,1,30,0,0
108215,-100,4,1,1,30,0,1
124215,-100,4,1,1,10,0,0
137715,571.428571428571,4,1,1,30,1,8
137715,-87.5000000000001,4,1,1,30,0,8
138286,612.244897959184,4,1,1,30,1,0
138286,-81.6666666666666,4,1,1,30,0,0

[HitObjects]
320,192,241,5,0,0:0:0:0:
320,192,491,1,0,0:0:0:0:
64,192,741,1,0,0:0:0:0:
192,192,991,1,0,0:0:0:0:
448,192,1241,1,0,0:0:0:0:
448,192,1491,1,0,0:0:0:0:
320,192,1741,1,0,0:0:0:0:
192,192,1991,1,0,0:0:0:0:
64,192,2241,1,0,0:0:0:0:
320,192,2322,1,0,0:0:0:0:
64,192,2485,1,0,0:0:0:0:
192,192,2730,1,0,0:0:0:0:
320,192,2975,1,0,0:0:0:0:
448,192,3220,1,0,0:0:0:0:
448,192,3465,1,0,0:0:0:0:
320,192,3710,1,0,0:0:0:0:
192,192,3955,1,0,0:0:0:0:
64,192,4200,1,0,0:0:0:0:
64,192,4463,1,0,0:0:0:0:
320,192,4726,1,0,0:0:0:0:
192,192,5009,1,0,0:0:0:0:
448,192,5292,1,0,0:0:0:0:
64,192,5589,1,0,0:0:0:0:
320,192,5886,1,0,0:0:0:0:
448,192,6223,1,0,0:0:0:0:
192,192,6560,1,0,0:0:0:0:
320,192,6965,1,0,0:0:0:0:
64,192,7370,1,0,0:0:0:0:
192,192,7817,1,0,0:0:0:0:
320,192,8265,1,0,0:0:0:0:
64,192,10215,1,0,0:0:0:0:
448,192,10215,1,0,0:0:0:0:
320,192,10340,1,0,0:0:0:0:
192,192,10465,1,0,0:0:0:0:
320,192,10590,1,0,0:0:0:0:
64,192,10715,1,0,0:0:0:0:
448,192,10715,1,0,0:0:0:0:
320,192,10965,1,0,0:0:0:0:
192,192,11090,1,0,0:0:0:0:
64,192,11215,1,0,0:0:0:0:
448,192,11215,1,0,0:0:0:0:
192,192,11465,1,0,0:0:0:0:
320,192,11590,1,0,0:0:0:0:
64,192,11715,1,0,0:0:0:0:
448,192,11715,1,0,0:0:0:0:
320,192,11965,1,0,0:0:0:0:
448,192,12090,1,0,0:0:0:0:
64,192,12215,1,0,0:0:0:0:
192,192,12215,1,0,0:0:0:0:
320,192,12340,1,0,0:0:0:0:
192,192,12465,1,0,0:0:0:0:
64,192,12590,1,0,0:0:0:0:
320,192,12715,1,0,0:0:0:0:
448,192,12715,1,0,0:0:0:0:
320,192,12965,1,0,0:0:0:0:
64,192,13090,1,0,0:0:0:0:
192,192,13215,1,0,0:0:0:0:
448,192,13215,1,0,0:0:0:0:
192,192,13465,1,0,0:0:0:0:
64,192,13590,1,0,0:0:0:0:
320,192,13715,1,0,0:0:0:0:
448,192,13715,1,0,0:0:0:0:
320,192,13965,1,0,0:0:0:0:
192,192,14090,1,0,0:0:0:0:
64,192,14215,1,0,0:0:0:0:
448,192,14215,1,0,0:0:0:0:
192,192,14340,1,0,0:0:0:0:
320,192,14465,1,0,0:0:0:0:
192,192,14590,1,0,0:0:0:0:
64,192,14715,1,0,0:0:0:0:
448,192,14715,1,0,0:0:0:0:
192,192,14965,1,0,0:0:0:0:
320,192,15090,1,0,0:0:0:0:
64,192,15215,1,0,0:0:0:0:
448,192,15215,1,0,0:0:0:0:
320,192,15465,1,0,0:0:0:0:
192,192,15590,1,0,0:0:0:0:
64,192,15715,1,0,0:0:0:0:
448,192,15715,1,0,0:0:0:0:
192,192,15965,1,0,0:0:0:0:
64,192,16090,1,0,0:0:0:0:
320,192,16215,1,0,0:0:0:0:
448,192,16215,1,0,0:0:0:0:
192,192,16340,1,0,0:0:0:0:
320,192,16465,1,0,0:0:0:0:
448,192,16590,1,0,0:0:0:0:
64,192,16715,1,0,0:0:0:0:
192,192,16715,1,0,0:0:0:0:
192,192,16965,1,0,0:0:0:0:
448,192,17090,1,0,0:0:0:0:
64,192,17215,1,0,0:0:0:0:
320,192,17215,1,0,0:0:0:0:
320,192,17465,1,0,0:0:0:0:
448,192,17590,1,0,0:0:0:0:
64,192,17715,1,0,0:0:0:0:
192,192,17715,1,0,0:0:0:0:
192,192,17965,1,0,0:0:0:0:
320,192,18090,1,0,0:0:0:0:
64,192,18215,1,0,0:0:0:0:
448,192,18215,1,0,0:0:0:0:
192,192,18340,1,0,0:0:0:0:
320,192,18465,1,0,0:0:0:0:
448,192,18590,1,0,0:0:0:0:
64,192,18715,1,0,0:0:0:0:
192,192,18715,1,0,0:0:0:0:
320,192,18965,1,0,0:0:0:0:
448,192,19090,1,0,0:0:0:0:
64,192,19215,1,0,0:0:0:0:
192,192,19215,1,0,0:0:0:0:
192,192,19465,1,0,0:0:0:0:
64,192,19590,1,0,0:0:0:0:
320,192,19715,1,0,0:0:0:0:
448,192,19715,1,0,0:0:0:0:
192,192,19840,1,0,0:0:0:0:
320,192,19965,1,0,0:0:0:0:
448,192,20090,1,0,0:0:0:0:
64,192,20215,1,0,0:0:0:0:
192,192,20215,1,0,0:0:0:0:
320,192,20340,1,0,0:0:0:0:
192,192,20465,1,0,0:0:0:0:
64,192,20590,1,0,0:0:0:0:
320,192,20715,1,0,0:0:0:0:
448,192,20715,1,0,0:0:0:0:
192,192,20965,1,0,0:0:0:0:
320,192,21090,1,0,0:0:0:0:
64,192,21215,1,0,0:0:0:0:
448,192,21215,1,0,0:0:0:0:
192,192,21465,1,0,0:0:0:0:
320,192,21465,1,0,0:0:0:0:
64,192,21715,1,0,0:0:0:0:
448,192,21715,1,0,0:0:0:0:
320,192,21965,1,0,0:0:0:0:
192,192,22090,1,0,0:0:0:0:
64,192,22215,1,0,0:0:0:0:
448,192,22215,1,0,0:0:0:0:
320,192,22340,1,0,0:0:0:0:
192,192,22465,1,0,0:0:0:0:
64,192,22590,1,0,0:0:0:0:
320,192,22715,1,0,0:0:0:0:
448,192,22715,1,0,0:0:0:0:
192,192,22965,1,0,0:0:0:0:
64,192,23090,1,0,0:0:0:0:
320,192,23215,1,0,0:0:0:0:
448,192,23215,1,0,0:0:0:0:
320,192,23465,1,0,0:0:0:0:
448,192,23590,1,0,0:0:0:0:
64,192,23715,1,0,0:0:0:0:
192,192,23715,1,0,0:0:0:0:
320,192,23840,1,0,0:0:0:0:
192,192,23965,1,0,0:0:0:0:
64,192,24090,1,0,0:0:0:0:
320,192,24215,1,0,0:0:0:0:
448,192,24215,1,0,0:0:0:0:
192,192,24340,1,0,0:0:0:0:
320,192,24465,1,0,0:0:0:0:
448,192,24590,1,0,0:0:0:0:
64,192,24715,1,0,0:0:0:0:
192,192,24715,1,0,0:0:0:0:
320,192,24840,1,0,0:0:0:0:
192,192,24965,1,0,0:0:0:0:
448,192,25090,1,0,0:0:0:0:
64,192,25215,1,0,0:0:0:0:
192,192,25340,1,0,0:0:0:0:
64,192,25465,1,0,0:0:0:0:
320,192,25715,1,0,0:0:0:0:
448,192,25840,1,0,0:0:0:0:
320,192,25965,1,0,0:0:0:0:
64,192,26215,1,0,0:0:0:0:
192,192,26215,1,0,0:0:0:0:
448,192,26340,1,0,0:0:0:0:
320,192,26465,1,0,0:0:0:0:
192,192,26590,1,0,0:0:0:0:
64,192,26715,1,0,0:0:0:0:
448,192,26715,1,0,0:0:0:0:
320,192,26840,1,0,0:0:0:0:
192,192,26965,1,0,0:0:0:0:
64,192,27090,1,0,0:0:0:0:
192,192,27215,1,0,0:0:0:0:
320,192,27215,1,0,0:0:0:0:
448,192,27340,1,0,0:0:0:0:
320,192,27465,1,0,0:0:0:0:
192,192,27590,1,0,0:0:0:0:
64,192,27715,1,0,0:0:0:0:
448,192,27715,1,0,0:0:0:0:
320,192,27840,1,0,0:0:0:0:
64,192,27965,1,0,0:0:0:0:
192,192,28090,1,0,0:0:0:0:
320,192,28215,1,0,0:0:0:0:
448,192,28215,1,0,0:0:0:0:
64,192,28340,1,0,0:0:0:0:
320,192,28465,1,0,0:0:0:0:
192,192,28590,1,0,0:0:0:0:
448,192,28715,1,0,0:0:0:0:
64,192,28715,1,0,0:0:0:0:
192,192,28840,1,0,0:0:0:0:
448,192,28965,1,0,0:0:0:0:
320,192,29090,1,0,0:0:0:0:
192,192,29215,1,0,0:0:0:0:
64,192,29215,1,0,0:0:0:0:
320,192,29340,1,0,0:0:0:0:
448,192,29465,1,0,0:0:0:0:
64,192,29590,1,0,0:0:0:0:
448,192,29715,1,0,0:0:0:0:
192,192,29715,1,0,0:0:0:0:
64,192,29840,1,0,0:0:0:0:
320,192,29965,1,0,0:0:0:0:
192,192,30090,1,0,0:0:0:0:
320,192,30215,1,0,0:0:0:0:
448,192,30215,1,0,0:0:0:0:
64,192,30340,1,0,0:0:0:0:
192,192,30465,1,0,0:0:0:0:
320,192,30590,1,0,0:0:0:0:
64,192,30715,1,0,0:0:0:0:
448,192,30715,1,0,0:0:0:0:
192,192,30840,1,0,0:0:0:0:
320,192,30965,1,0,0:0:0:0:
448,192,31090,1,0,0:0:0:0:
192,192,31215,1,0,0:0:0:0:
320,192,31215,1,0,0:0:0:0:
64,192,31340,1,0,0:0:0:0:
192,192,31465,1,0,0:0:0:0:
320,192,31590,1,0,0:0:0:0:
192,192,31715,1,0,0:0:0:0:
448,192,31715,1,0,0:0:0:0:
64,192,31840,1,0,0:0:0:0:
448,192,31965,1,0,0:0:0:0:
320,192,32090,1,0,0:0:0:0:
64,192,32215,1,0,0:0:0:0:
192,192,32215,1,0,0:0:0:0:
448,192,32340,1,0,0:0:0:0:
192,192,32465,1,0,0:0:0:0:
320,192,32590,1,0,0:0:0:0:
448,192,32715,1,0,0:0:0:0:
64,192,32715,1,0,0:0:0:0:
320,192,32840,1,0,0:0:0:0:
64,192,32965,1,0,0:0:0:0:
192,192,33090,1,0,0:0:0:0:
320,192,33215,1,0,0:0:0:0:
448,192,33215,1,0,0:0:0:0:
192,192,33340,1,0,0:0:0:0:
64,192,33465,1,0,0:0:0:0:
320,192,33590,1,0,0:0:0:0:
64,192,33715,1,0,0:0:0:0:
192,192,33715,1,0,0:0:0:0:
320,192,33840,1,0,0:0:0:0:
448,192,33965,1,0,0:0:0:0:
192,192,34090,1,0,0:0:0:0:
64,192,34215,1,0,0:0:0:0:
448,192,34215,1,0,0:0:0:0:
320,192,34340,1,0,0:0:0:0:
192,192,34465,1,0,0:0:0:0:
64,192,34590,1,0,0:0:0:0:
192,192,34715,1,0,0:0:0:0:
448,192,34715,1,0,0:0:0:0:
320,192,34840,1,0,0:0:0:0:
192,192,34965,1,0,0:0:0:0:
64,192,35090,1,0,0:0:0:0:
320,192,35215,1,0,0:0:0:0:
448,192,35215,1,0,0:0:0:0:
192,192,35340,1,0,0:0:0:0:
320,192,35465,1,0,0:0:0:0:
64,192,35590,1,0,0:0:0:0:
192,192,35715,1,0,0:0:0:0:
448,192,35715,1,0,0:0:0:0:
320,192,35840,1,0,0:0:0:0:
192,192,35965,1,0,0:0:0:0:
448,192,36090,1,0,0:0:0:0:
64,192,36215,1,0,0:0:0:0:
192,192,36215,1,0,0:0:0:0:
320,192,36340,1,0,0:0:0:0:
64,192,36465,1,0,0:0:0:0:
448,192,36590,1,0,0:0:0:0:
192,192,36715,1,0,0:0:0:0:
320,192,36715,1,0,0:0:0:0:
448,192,36840,1,0,0:0:0:0:
64,192,36965,1,0,0:0:0:0:
192,192,37090,1,0,0:0:0:0:
320,192,37215,1,0,0:0:0:0:
64,192,37215,1,0,0:0:0:0:
192,192,37340,1,0,0:0:0:0:
448,192,37465,1,0,0:0:0:0:
320,192,37590,1,0,0:0:0:0:
64,192,37715,1,0,0:0:0:0:
448,192,37715,1,0,0:0:0:0:
320,192,37840,1,0,0:0:0:0:
64,192,37965,1,0,0:0:0:0:
192,192,38090,1,0,0:0:0:0:
320,192,38215,1,0,0:0:0:0:
448,192,38215,1,0,0:0:0:0:
64,192,38340,1,0,0:0:0:0:
448,192,38465,1,0,0:0:0:0:
320,192,38590,1,0,0:0:0:0:
64,192,38715,1,0,0:0:0:0:
448,192,38715,1,0,0:0:0:0:
192,192,38840,1,0,0:0:0:0:
320,192,38965,1,0,0:0:0:0:
192,192,39090,1,0,0:0:0:0:
320,192,39215,1,0,0:0:0:0:
448,192,39215,1,0,0:0:0:0:
64,192,39340,1,0,0:0:0:0:
448,192,39465,1,0,0:0:0:0:
64,192,39590,1,0,0:0:0:0:
320,192,39715,1,0,0:0:0:0:
192,192,39715,1,0,0:0:0:0:
448,192,39840,1,0,0:0:0:0:
64,192,39965,1,0,0:0:0:0:
192,192,40090,1,0,0:0:0:0:
64,192,40215,1,0,0:0:0:0:
320,192,40340,1,0,0:0:0:0:
192,192,40465,1,0,0:0:0:0:
448,192,40590,1,0,0:0:0:0:
192,192,40715,1,0,0:0:0:0:
64,192,40840,1,0,0:0:0:0:
320,192,40965,1,0,0:0:0:0:
448,192,41090,1,0,0:0:0:0:
64,192,41215,1,0,0:0:0:0:
320,192,41465,1,0,0:0:0:0:
192,192,41715,1,0,0:0:0:0:
448,192,41965,1,0,0:0:0:0:
192,192,42215,1,0,0:0:0:0:
64,192,42215,1,0,0:0:0:0:
320,192,42340,1,0,0:0:0:0:
448,192,42465,1,0,0:0:0:0:
64,192,42465,1,0,0:0:0:0:
192,192,42590,1,0,0:0:0:0:
448,192,42715,1,0,0:0:0:0:
320,192,42715,1,0,0:0:0:0:
64,192,42715,1,0,0:0:0:0:
192,192,42840,1,0,0:0:0:0:
448,192,42965,1,0,0:0:0:0:
320,192,42965,1,0,0:0:0:0:
64,192,43090,1,0,0:0:0:0:
448,192,43215,1,0,0:0:0:0:
320,192,43215,1,0,0:0:0:0:
64,192,43340,1,0,0:0:0:0:
192,192,43465,1,0,0:0:0:0:
320,192,43590,1,0,0:0:0:0:
448,192,43715,1,0,0:0:0:0:
192,192,43715,1,0,0:0:0:0:
64,192,43715,1,0,0:0:0:0:
320,192,43840,1,0,0:0:0:0:
64,192,43965,1,0,0:0:0:0:
448,192,43965,1,0,0:0:0:0:
192,192,44090,1,0,0:0:0:0:
320,192,44215,1,0,0:0:0:0:
64,192,44215,1,0,0:0:0:0:
192,192,44340,1,0,0:0:0:0:
320,192,44465,1,0,0:0:0:0:
448,192,44465,1,0,0:0:0:0:
64,192,44590,1,0,0:0:0:0:
192,192,44715,1,0,0:0:0:0:
320,192,44715,1,0,0:0:0:0:
448,192,44715,1,0,0:0:0:0:
64,192,44840,1,0,0:0:0:0:
320,192,44965,1,0,0:0:0:0:
448,192,44965,1,0,0:0:0:0:
192,192,45090,1,0,0:0:0:0:
64,192,45215,1,0,0:0:0:0:
448,192,45215,1,0,0:0:0:0:
320,192,45340,1,0,0:0:0:0:
192,192,45465,1,0,0:0:0:0:
320,192,45590,1,0,0:0:0:0:
192,192,45715,1,0,0:0:0:0:
64,192,45715,1,0,0:0:0:0:
448,192,45715,1,0,0:0:0:0:
320,192,45840,1,0,0:0:0:0:
64,192,45965,1,0,0:0:0:0:
448,192,45965,1,0,0:0:0:0:
192,192,46090,1,0,0:0:0:0:
320,192,46215,1,0,0:0:0:0:
448,192,46215,1,0,0:0:0:0:
64,192,46340,1,0,0:0:0:0:
320,192,46465,1,0,0:0:0:0:
192,192,46465,1,0,0:0:0:0:
448,192,46590,1,0,0:0:0:0:
64,192,46715,1,0,0:0:0:0:
320,192,46715,1,0,0:0:0:0:
192,192,46715,1,0,0:0:0:0:
448,192,46840,1,0,0:0:0:0:
192,192,46965,1,0,0:0:0:0:
64,192,46965,1,0,0:0:0:0:
320,192,47090,1,0,0:0:0:0:
192,192,47215,1,0,0:0:0:0:
64,192,47215,1,0,0:0:0:0:
448,192,47340,1,0,0:0:0:0:
320,192,47465,1,0,0:0:0:0:
192,192,47590,1,0,0:0:0:0:
448,192,47715,1,0,0:0:0:0:
320,192,47715,1,0,0:0:0:0:
64,192,47715,1,0,0:0:0:0:
192,192,47840,1,0,0:0:0:0:
320,192,47965,1,0,0:0:0:0:
448,192,48090,1,0,0:0:0:0:
64,192,48215,1,0,0:0:0:0:
192,192,48215,1,0,0:0:0:0:
448,192,48340,1,0,0:0:0:0:
320,192,48465,1,0,0:0:0:0:
192,192,48590,1,0,0:0:0:0:
64,192,48715,1,0,0:0:0:0:
320,192,48715,1,0,0:0:0:0:
448,192,48715,1,0,0:0:0:0:
192,192,48840,1,0,0:0:0:0:
320,192,48965,1,0,0:0:0:0:
448,192,49090,1,0,0:0:0:0:
64,192,49215,1,0,0:0:0:0:
192,192,49215,1,0,0:0:0:0:
320,192,49340,1,0,0:0:0:0:
448,192,49465,1,0,0:0:0:0:
192,192,49590,1,0,0:0:0:0:
64,192,49715,1,0,0:0:0:0:
320,192,49715,1,0,0:0:0:0:
448,192,49715,1,0,0:0:0:0:
192,192,49840,1,0,0:0:0:0:
320,192,49965,1,0,0:0:0:0:
64,192,50090,1,0,0:0:0:0:
320,192,50215,1,0,0:0:0:0:
448,192,50215,1,0,0:0:0:0:
192,192,50340,1,0,0:0:0:0:
64,192,50465,1,0,0:0:0:0:
448,192,50465,1,0,0:0:0:0:
320,192,50590,1,0,0:0:0:0:
64,192,50715,1,0,0:0:0:0:
192,192,50715,1,0,0:0:0:0:
448,192,50715,1,0,0:0:0:0:
320,192,50840,1,0,0:0:0:0:
64,192,50965,1,0,0:0:0:0:
192,192,50965,1,0,0:0:0:0:
448,192,51090,1,0,0:0:0:0:
64,192,51215,1,0,0:0:0:0:
192,192,51215,1,0,0:0:0:0:
448,192,51340,1,0,0:0:0:0:
320,192,51465,1,0,0:0:0:0:
192,192,51590,1,0,0:0:0:0:
64,192,51715,1,0,0:0:0:0:
320,192,51715,1,0,0:0:0:0:
448,192,51715,1,0,0:0:0:0:
192,192,51840,1,0,0:0:0:0:
448,192,51965,1,0,0:0:0:0:
64,192,51965,1,0,0:0:0:0:
320,192,52090,1,0,0:0:0:0:
192,192,52215,1,0,0:0:0:0:
448,192,52215,1,0,0:0:0:0:
320,192,52340,1,0,0:0:0:0:
192,192,52465,1,0,0:0:0:0:
64,192,52465,1,0,0:0:0:0:
448,192,52590,1,0,0:0:0:0:
320,192,52715,1,0,0:0:0:0:
192,192,52715,1,0,0:0:0:0:
64,192,52715,1,0,0:0:0:0:
448,192,52840,1,0,0:0:0:0:
192,192,52965,1,0,0:0:0:0:
64,192,52965,1,0,0:0:0:0:
320,192,53090,1,0,0:0:0:0:
448,192,53215,1,0,0:0:0:0:
64,192,53215,1,0,0:0:0:0:
192,192,53340,1,0,0:0:0:0:
320,192,53465,1,0,0:0:0:0:
448,192,53590,1,0,0:0:0:0:
192,192,53715,1,0,0:0:0:0:
64,192,53715,1,0,0:0:0:0:
320,192,53715,1,0,0:0:0:0:
448,192,53840,1,0,0:0:0:0:
64,192,53965,1,0,0:0:0:0:
192,192,53965,1,0,0:0:0:0:
320,192,54090,1,0,0:0:0:0:
64,192,54215,1,0,0:0:0:0:
448,192,54215,1,0,0:0:0:0:
192,192,54340,1,0,0:0:0:0:
320,192,54465,1,0,0:0:0:0:
448,192,54465,1,0,0:0:0:0:
64,192,54590,1,0,0:0:0:0:
448,192,54715,1,0,0:0:0:0:
192,192,54715,1,0,0:0:0:0:
320,192,54715,1,0,0:0:0:0:
64,192,54840,1,0,0:0:0:0:
320,192,54965,1,0,0:0:0:0:
448,192,54965,1,0,0:0:0:0:
192,192,55090,1,0,0:0:0:0:
320,192,55215,1,0,0:0:0:0:
64,192,55215,1,0,0:0:0:0:
448,192,55340,1,0,0:0:0:0:
192,192,55465,1,0,0:0:0:0:
320,192,55590,1,0,0:0:0:0:
64,192,55715,1,0,0:0:0:0:
192,192,55715,1,0,0:0:0:0:
448,192,55715,1,0,0:0:0:0:
320,192,55840,1,0,0:0:0:0:
64,192,55965,1,0,0:0:0:0:
192,192,56090,1,0,0:0:0:0:
320,192,56215,1,0,0:0:0:0:
448,192,56215,1,0,0:0:0:0:
64,192,56340,1,0,0:0:0:0:
192,192,56465,1,0,0:0:0:0:
320,192,56590,1,0,0:0:0:0:
64,192,56715,1,0,0:0:0:0:
192,192,56715,1,0,0:0:0:0:
448,192,56715,1,0,0:0:0:0:
320,192,56840,1,0,0:0:0:0:
192,192,56965,1,0,0:0:0:0:
64,192,57090,1,0,0:0:0:0:
320,192,57215,1,0,0:0:0:0:
448,192,57215,1,0,0:0:0:0:
192,192,57340,1,0,0:0:0:0:
64,192,57465,1,0,0:0:0:0:
320,192,57590,1,0,0:0:0:0:
64,192,57715,1,0,0:0:0:0:
192,192,57715,1,0,0:0:0:0:
448,192,57715,1,0,0:0:0:0:
320,192,57840,1,0,0:0:0:0:
192,192,57965,1,0,0:0:0:0:
64,192,58090,1,0,0:0:0:0:
320,192,58215,1,0,0:0:0:0:
448,192,58215,1,0,0:0:0:0:
64,192,59965,1,0,0:0:0:0:
448,192,60215,1,0,0:0:0:0:
320,192,60340,1,0,0:0:0:0:
192,192,60465,1,0,0:0:0:0:
448,192,60590,1,0,0:0:0:0:
64,192,60798,1,0,0:0:0:0:
320,192,60965,1,0,0:0:0:0:
64,192,61465,1,0,0:0:0:0:
192,192,61715,1,0,0:0:0:0:
320,192,61965,1,0,0:0:0:0:
64,192,62215,1,0,0:0:0:0:
448,192,62215,1,0,0:0:0:0:
320,192,62965,1,0,0:0:0:0:
448,192,63048,1,0,0:0:0:0:
192,192,63215,1,0,0:0:0:0:
64,192,63298,1,0,0:0:0:0:
320,192,63465,1,0,0:0:0:0:
448,192,63548,1,0,0:0:0:0:
192,192,63715,1,0,0:0:0:0:
64,192,63798,1,0,0:0:0:0:
320,192,63965,1,0,0:0:0:0:
192,192,64048,1,0,0:0:0:0:
448,192,64215,1,0,0:0:0:0:
64,192,64340,1,0,0:0:0:0:
192,192,64465,1,0,0:0:0:0:
448,192,64590,1,0,0:0:0:0:
64,192,64881,1,0,0:0:0:0:
448,192,65006,1,0,0:0:0:0:
320,192,65131,1,0,0:0:0:0:
192,192,65256,1,0,0:0:0:0:
64,192,65506,1,0,0:0:0:0:
192,192,65756,1,0,0:0:0:0:
320,192,66006,1,0,0:0:0:0:
448,192,66256,1,0,0:0:0:0:
64,192,66256,1,0,0:0:0:0:
320,192,66965,1,0,0:0:0:0:
448,192,67048,1,0,0:0:0:0:
192,192,67215,1,0,0:0:0:0:
64,192,67298,1,0,0:0:0:0:
320,192,67465,1,0,0:0:0:0:
448,192,67548,1,0,0:0:0:0:
192,192,67715,1,0,0:0:0:0:
64,192,67798,1,0,0:0:0:0:
448,192,67965,1,0,0:0:0:0:
192,192,68048,1,0,0:0:0:0:
64,192,68215,1,0,0:0:0:0:
448,192,68215,1,0,0:0:0:0:
192,192,68340,1,0,0:0:0:0:
320,192,68465,1,0,0:0:0:0:
64,192,68631,1,0,0:0:0:0:
448,192,68840,1,0,0:0:0:0:
192,192,68965,1,0,0:0:0:0:
320,192,69090,1,0,0:0:0:0:
64,192,69215,1,0,0:0:0:0:
448,192,69215,1,0,0:0:0:0:
320,192,69340,1,0,0:0:0:0:
192,192,69465,1,0,0:0:0:0:
448,192,69631,1,0,0:0:0:0:
64,192,69840,1,0,0:0:0:0:
320,192,69965,1,0,0:0:0:0:
192,192,70090,1,0,0:0:0:0:
64,192,70215,1,0,0:0:0:0:
448,192,70215,1,0,0:0:0:0:
320,192,70340,1,0,0:0:0:0:
192,192,70465,1,0,0:0:0:0:
448,192,70631,1,0,0:0:0:0:
64,192,70840,1,0,0:0:0:0:
320,192,70965,1,0,0:0:0:0:
192,192,71090,1,0,0:0:0:0:
64,192,71215,1,0,0:0:0:0:
448,192,71215,1,0,0:0:0:0:
192,192,71340,1,0,0:0:0:0:
320,192,71465,1,0,0:0:0:0:
64,192,71631,1,0,0:0:0:0:
448,192,71840,1,0,0:0:0:0:
192,192,71965,1,0,0:0:0:0:
320,192,72090,1,0,0:0:0:0:
64,192,72215,1,0,0:0:0:0:
448,192,72215,1,0,0:0:0:0:
192,192,72340,1,0,0:0:0:0:
320,192,72465,1,0,0:0:0:0:
192,192,72590,1,0,0:0:0:0:
64,192,72715,1,0,0:0:0:0:
320,192,72965,1,0,0:0:0:0:
448,192,73090,1,0,0:0:0:0:
192,192,73215,1,0,0:0:0:0:
64,192,73465,1,0,0:0:0:0:
192,192,73715,1,0,0:0:0:0:
320,192,73840,1,0,0:0:0:0:
448,192,73965,1,0,0:0:0:0:
64,192,74215,1,0,0:0:0:0:
192,192,74715,1,0,0:0:0:0:
320,192,75215,1,0,0:0:0:0:
192,192,75465,1,0,0:0:0:0:
320,192,75590,1,0,0:0:0:0:
64,192,75715,1,0,0:0:0:0:
448,192,75840,1,0,0:0:0:0:
320,192,75965,1,0,0:0:0:0:
64,192,76215,1,0,0:0:0:0:
192,192,76215,1,0,0:0:0:0:
448,192,76340,1,0,0:0:0:0:
320,192,76465,1,0,0:0:0:0:
192,192,76590,1,0,0:0:0:0:
64,192,76715,1,0,0:0:0:0:
448,192,76715,1,0,0:0:0:0:
320,192,76840,1,0,0:0:0:0:
192,192,76965,1,0,0:0:0:0:
64,192,77090,1,0,0:0:0:0:
192,192,77215,1,0,0:0:0:0:
320,192,77215,1,0,0:0:0:0:
448,192,77340,1,0,0:0:0:0:
320,192,77465,1,0,0:0:0:0:
192,192,77590,1,0,0:0:0:0:
64,192,77715,1,0,0:0:0:0:
448,192,77715,1,0,0:0:0:0:
320,192,77840,1,0,0:0:0:0:
64,192,77965,1,0,0:0:0:0:
192,192,78090,1,0,0:0:0:0:
320,192,78215,1,0,0:0:0:0:
448,192,78215,1,0,0:0:0:0:
64,192,78340,1,0,0:0:0:0:
320,192,78465,1,0,0:0:0:0:
192,192,78590,1,0,0:0:0:0:
448,192,78715,1,0,0:0:0:0:
64,192,78715,1,0,0:0:0:0:
192,192,78840,1,0,0:0:0:0:
448,192,78965,1,0,0:0:0:0:
320,192,79090,1,0,0:0:0:0:
192,192,79215,1,0,0:0:0:0:
64,192,79215,1,0,0:0:0:0:
320,192,79340,1,0,0:0:0:0:
448,192,79465,1,0,0:0:0:0:
64,192,79590,1,0,0:0:0:0:
448,192,79715,1,0,0:0:0:0:
192,192,79715,1,0,0:0:0:0:
64,192,79840,1,0,0:0:0:0:
320,192,79965,1,0,0:0:0:0:
192,192,80090,1,0,0:0:0:0:
320,192,80215,1,0,0:0:0:0:
448,192,80215,1,0,0:0:0:0:
64,192,80340,1,0,0:0:0:0:
192,192,80465,1,0,0:0:0:0:
320,192,80590,1,0,0:0:0:0:
64,192,80715,1,0,0:0:0:0:
448,192,80715,1,0,0:0:0:0:
192,192,80840,1,0,0:0:0:0:
320,192,80965,1,0,0:0:0:0:
448,192,81090,1,0,0:0:0:0:
192,192,81215,1,0,0:0:0:0:
320,192,81215,1,0,0:0:0:0:
64,192,81340,1,0,0:0:0:0:
192,192,81465,1,0,0:0:0:0:
320,192,81590,1,0,0:0:0:0:
192,192,81715,1,0,0:0:0:0:
448,192,81715,1,0,0:0:0:0:
64,192,81840,1,0,0:0:0:0:
448,192,81965,1,0,0:0:0:0:
320,192,82090,1,0,0:0:0:0:
64,192,82215,1,0,0:0:0:0:
192,192,82215,1,0,0:0:0:0:
448,192,82340,1,0,0:0:0:0:
192,192,82465,1,0,0:0:0:0:
320,192,82590,1,0,0:0:0:0:
448,192,82715,1,0,0:0:0:0:
64,192,82715,1,0,0:0:0:0:
320,192,82840,1,0,0:0:0:0:
64,192,82965,1,0,0:0:0:0:
192,192,83090,1,0,0:0:0:0:
320,192,83215,1,0,0:0:0:0:
448,192,83215,1,0,0:0:0:0:
192,192,83340,1,0,0:0:0:0:
64,192,83465,1,0,0:0:0:0:
320,192,83590,1,0,0:0:0:0:
64,192,83715,1,0,0:0:0:0:
192,192,83715,1,0,0:0:0:0:
320,192,83840,1,0,0:0:0:0:
448,192,83965,1,0,0:0:0:0:
192,192,84090,1,0,0:0:0:0:
64,192,84215,1,0,0:0:0:0:
448,192,84215,1,0,0:0:0:0:
320,192,84340,1,0,0:0:0:0:
192,192,84465,1,0,0:0:0:0:
64,192,84590,1,0,0:0:0:0:
192,192,84715,1,0,0:0:0:0:
448,192,84715,1,0,0:0:0:0:
320,192,84840,1,0,0:0:0:0:
192,192,84965,1,0,0:0:0:0:
64,192,85090,1,0,0:0:0:0:
320,192,85215,1,0,0:0:0:0:
448,192,85215,1,0,0:0:0:0:
192,192,85340,1,0,0:0:0:0:
320,192,85465,1,0,0:0:0:0:
64,192,85590,1,0,0:0:0:0:
192,192,85715,1,0,0:0:0:0:
448,192,85715,1,0,0:0:0:0:
320,192,85840,1,0,0:0:0:0:
192,192,85965,1,0,0:0:0:0:
448,192,86090,1,0,0:0:0:0:
64,192,86215,1,0,0:0:0:0:
192,192,86215,1,0,0:0:0:0:
320,192,86340,1,0,0:0:0:0:
64,192,86465,1,0,0:0:0:0:
448,192,86590,1,0,0:0:0:0:
192,192,86715,1,0,0:0:0:0:
320,192,86715,1,0,0:0:0:0:
448,192,86840,1,0,0:0:0:0:
64,192,86965,1,0,0:0:0:0:
192,192,87090,1,0,0:0:0:0:
320,192,87215,1,0,0:0:0:0:
64,192,87215,1,0,0:0:0:0:
192,192,87340,1,0,0:0:0:0:
448,192,87465,1,0,0:0:0:0:
320,192,87590,1,0,0:0:0:0:
64,192,87715,1,0,0:0:0:0:
448,192,87715,1,0,0:0:0:0:
320,192,87840,1,0,0:0:0:0:
64,192,87965,1,0,0:0:0:0:
192,192,88090,1,0,0:0:0:0:
320,192,88215,1,0,0:0:0:0:
448,192,88215,1,0,0:0:0:0:
64,192,88340,1,0,0:0:0:0:
448,192,88465,1,0,0:0:0:0:
320,192,88590,1,0,0:0:0:0:
64,192,88715,1,0,0:0:0:0:
448,192,88715,1,0,0:0:0:0:
192,192,88840,1,0,0:0:0:0:
320,192,88965,1,0,0:0:0:0:
192,192,89090,1,0,0:0:0:0:
320,192,89215,1,0,0:0:0:0:
448,192,89215,1,0,0:0:0:0:
64,192,89340,1,0,0:0:0:0:
448,192,89465,1,0,0:0:0:0:
64,192,89590,1,0,0:0:0:0:
320,192,89715,1,0,0:0:0:0:
192,192,89715,1,0,0:0:0:0:
448,192,89840,1,0,0:0:0:0:
64,192,89965,1,0,0:0:0:0:
192,192,90090,1,0,0:0:0:0:
64,192,90215,1,0,0:0:0:0:
320,192,90340,1,0,0:0:0:0:
192,192,90465,1,0,0:0:0:0:
448,192,90590,1,0,0:0:0:0:
192,192,90715,1,0,0:0:0:0:
64,192,90840,1,0,0:0:0:0:
320,192,90965,1,0,0:0:0:0:
448,192,91090,1,0,0:0:0:0:
64,192,91215,1,0,0:0:0:0:
320,192,91465,1,0,0:0:0:0:
192,192,91715,1,0,0:0:0:0:
448,192,91965,1,0,0:0:0:0:
192,192,92215,1,0,0:0:0:0:
64,192,92215,1,0,0:0:0:0:
320,192,92340,1,0,0:0:0:0:
448,192,92465,1,0,0:0:0:0:
64,192,92465,1,0,0:0:0:0:
192,192,92590,1,0,0:0:0:0:
448,192,92715,1,0,0:0:0:0:
320,192,92715,1,0,0:0:0:0:
64,192,92715,1,0,0:0:0:0:
192,192,92840,1,0,0:0:0:0:
448,192,92965,1,0,0:0:0:0:
320,192,92965,1,0,0:0:0:0:
64,192,93090,1,0,0:0:0:0:
448,192,93215,1,0,0:0:0:0:
320,192,93215,1,0,0:0:0:0:
64,192,93340,1,0,0:0:0:0:
192,192,93465,1,0,0:0:0:0:
320,192,93590,1,0,0:0:0:0:
448,192,93715,1,0,0:0:0:0:
192,192,93715,1,0,0:0:0:0:
64,192,93715,1,0,0:0:0:0:
320,192,93840,1,0,0:0:0:0:
64,192,93965,1,0,0:0:0:0:
448,192,93965,1,0,0:0:0:0:
192,192,94090,1,0,0:0:0:0:
320,192,94215,1,0,0:0:0:0:
64,192,94215,1,0,0:0:0:0:
192,192,94340,1,0,0:0:0:0:
320,192,94465,1,0,0:0:0:0:
448,192,94465,1,0,0:0:0:0:
64,192,94590,1,0,0:0:0:0:
192,192,94715,1,0,0:0:0:0:
320,192,94715,1,0,0:0:0:0:
448,192,94715,1,0,0:0:0:0:
64,192,94840,1,0,0:0:0:0:
320,192,94965,1,0,0:0:0:0:
448,192,94965,1,0,0:0:0:0:
192,192,95090,1,0,0:0:0:0:
64,192,95215,1,0,0:0:0:0:
448,192,95215,1,0,0:0:0:0:
320,192,95340,1,0,0:0:0:0:
192,192,95465,1,0,0:0:0:0:
320,192,95590,1,0,0:0:0:0:
192,192,95715,1,0,0:0:0:0:
64,192,95715,1,0,0:0:0:0:
448,192,95715,1,0,0:0:0:0:
320,192,95840,1,0,0:0:0:0:
64,192,95965,1,0,0:0:0:0:
448,192,95965,1,0,0:0:0:0:
192,192,96090,1,0,0:0:0:0:
320,192,96215,1,0,0:0:0:0:
448,192,96215,1,0,0:0:0:0:
64,192,96340,1,0,0:0:0:0:
320,192,96465,1,0,0:0:0:0:
192,192,96465,1,0,0:0:0:0:
448,192,96590,1,0,0:0:0:0:
64,192,96715,1,0,0:0:0:0:
320,192,96715,1,0,0:0:0:0:
192,192,96715,1,0,0:0:0:0:
448,192,96840,1,0,0:0:0:0:
192,192,96965,1,0,0:0:0:0:
64,192,96965,1,0,0:0:0:0:
320,192,97090,1,0,0:0:0:0:
192,192,97215,1,0,0:0:0:0:
64,192,97215,1,0,0:0:0:0:
448,192,97340,1,0,0:0:0:0:
320,192,97465,1,0,0:0:0:0:
192,192,97590,1,0,0:0:0:0:
448,192,97715,1,0,0:0:0:0:
320,192,97715,1,0,0:0:0:0:
64,192,97715,1,0,0:0:0:0:
192,192,97840,1,0,0:0:0:0:
320,192,97965,1,0,0:0:0:0:
448,192,98090,1,0,0:0:0:0:
64,192,98215,1,0,0:0:0:0:
192,192,98215,1,0,0:0:0:0:
448,192,98340,1,0,0:0:0:0:
320,192,98465,1,0,0:0:0:0:
192,192,98590,1,0,0:0:0:0:
64,192,98715,1,0,0:0:0:0:
320,192,98715,1,0,0:0:0:0:
448,192,98715,1,0,0:0:0:0:
192,192,98840,1,0,0:0:0:0:
320,192,98965,1,0,0:0:0:0:
448,192,99090,1,0,0:0:0:0:
64,192,99215,1,0,0:0:0:0:
192,192,99215,1,0,0:0:0:0:
320,192,99340,1,0,0:0:0:0:
448,192,99465,1,0,0:0:0:0:
192,192,99590,1,0,0:0:0:0:
64,192,99715,1,0,0:0:0:0:
320,192,99715,1,0,0:0:0:0:
448,192,99715,1,0,0:0:0:0:
192,192,99840,1,0,0:0:0:0:
320,192,99965,1,0,0:0:0:0:
64,192,100090,1,0,0:0:0:0:
320,192,100215,1,0,0:0:0:0:
448,192,100215,1,0,0:0:0:0:
192,192,100340,1,0,0:0:0:0:
64,192,100465,1,0,0:0:0:0:
448,192,100465,1,0,0:0:0:0:
320,192,100590,1,0,0:0:0:0:
64,192,100715,1,0,0:0:0:0:
192,192,100715,1,0,0:0:0:0:
448,192,100715,1,0,0:0:0:0:
320,192,100840,1,0,0:0:0:0:
64,192,100965,1,0,0:0:0:0:
192,192,100965,1,0,0:0:0:0:
448,192,101090,1,0,0:0:0:0:
64,192,101215,1,0,0:0:0:0:
192,192,101215,1,0,0:0:0:0:
448,192,101340,1,0,0:0:0:0:
320,192,101465,1,0,0:0:0:0:
192,192,101590,1,0,0:0:0:0:
64,192,101715,1,0,0:0:0:0:
320,192,101715,1,0,0:0:0:0:
448,192,101715,1,0,0:0:0:0:
192,192,101840,1,0,0:0:0:0:
448,192,101965,1,0,0:0:0:0:
64,192,101965,1,0,0:0:0:0:
320,192,102090,1,0,0:0:0:0:
192,192,102215,1,0,0:0:0:0:
448,192,102215,1,0,0:0:0:0:
320,192,102340,1,0,0:0:0:0:
192,192,102465,1,0,0:0:0:0:
64,192,102465,1,0,0:0:0:0:
448,192,102590,1,0,0:0:0:0:
320,192,102715,1,0,0:0:0:0:
192,192,102715,1,0,0:0:0:0:
64,192,102715,1,0,0:0:0:0:
448,192,102840,1,0,0:0:0:0:
192,192,102965,1,0,0:0:0:0:
64,192,102965,1,0,0:0:0:0:
320,192,103090,1,0,0:0:0:0:
448,192,103215,1,0,0:0:0:0:
64,192,103215,1,0,0:0:0:0:
192,192,103340,1,0,0:0:0:0:
320,192,103465,1,0,0:0:0:0:
448,192,103590,1,0,0:0:0:0:
192,192,103715,1,0,0:0:0:0:
64,192,103715,1,0,0:0:0:0:
320,192,103715,1,0,0:0:0:0:
448,192,103840,1,0,0:0:0:0:
64,192,103965,1,0,0:0:0:0:
192,192,103965,1,0,0:0:0:0:
320,192,104090,1,0,0:0:0:0:
64,192,104215,1,0,0:0:0:0:
448,192,104215,1,0,0:0:0:0:
192,192,104340,1,0,0:0:0:0:
320,192,104465,1,0,0:0:0:0:
448,192,104465,1,0,0:0:0:0:
64,192,104590,1,0,0:0:0:0:
448,192,104715,1,0,0:0:0:0:
192,192,104715,1,0,0:0:0:0:
320,192,104715,1,0,0:0:0:0:
64,192,104840,1,0,0:0:0:0:
320,192,104965,1,0,0:0:0:0:
448,192,104965,1,0,0:0:0:0:
192,192,105090,1,0,0:0:0:0:
320,192,105215,1,0,0:0:0:0:
64,192,105215,1,0,0:0:0:0:
448,192,105340,1,0,0:0:0:0:
192,192,105465,1,0,0:0:0:0:
320,192,105590,1,0,0:0:0:0:
64,192,105715,1,0,0:0:0:0:
192,192,105715,1,0,0:0:0:0:
448,192,105715,1,0,0:0:0:0:
320,192,105840,1,0,0:0:0:0:
64,192,105965,1,0,0:0:0:0:
192,192,106090,1,0,0:0:0:0:
320,192,106215,1,0,0:0:0:0:
448,192,106215,1,0,0:0:0:0:
64,192,106340,1,0,0:0:0:0:
192,192,106465,1,0,0:0:0:0:
320,192,106590,1,0,0:0:0:0:
64,192,106715,1,0,0:0:0:0:
192,192,106715,1,0,0:0:0:0:
448,192,106715,1,0,0:0:0:0:
320,192,106840,1,0,0:0:0:0:
192,192,106965,1,0,0:0:0:0:
64,192,107090,1,0,0:0:0:0:
448,192,107215,1,0,0:0:0:0:
320,192,107340,1,0,0:0:0:0:
64,192,107465,1,0,0:0:0:0:
448,192,107465,1,0,0:0:0:0:
192,192,107590,1,0,0:0:0:0:
320,192,107715,1,0,0:0:0:0:
448,192,107715,1,0,0:0:0:0:
64,192,107840,1,0,0:0:0:0:
192,192,107840,1,0,0:0:0:0:
320,192,107965,1,0,0:0:0:0:
448,192,107965,1,0,0:0:0:0:
192,192,108090,1,0,0:0:0:0:
64,192,108090,1,0,0:0:0:0:
448,192,108215,1,0,0:0:0:0:
320,192,108215,1,0,0:0:0:0:
192,192,108340,1,0,0:0:0:0:
448,192,108465,1,0,0:0:0:0:
64,192,108465,1,0,0:0:0:0:
320,192,108590,1,0,0:0:0:0:
448,192,108715,1,0,0:0:0:0:
192,192,108715,1,0,0:0:0:0:
64,192,108715,1,0,0:0:0:0:
320,192,108840,1,0,0:0:0:0:
192,192,108965,1,0,0:0:0:0:
64,192,108965,1,0,0:0:0:0:
448,192,109090,1,0,0:0:0:0:
192,192,109215,1,0,0:0:0:0:
64,192,109215,1,0,0:0:0:0:
448,192,109340,1,0,0:0:0:0:
320,192,109465,1,0,0:0:0:0:
192,192,109590,1,0,0:0:0:0:
448,192,109715,1,0,0:0:0:0:
320,192,109715,1,0,0:0:0:0:
64,192,109715,1,0,0:0:0:0:
192,192,109840,1,0,0:0:0:0:
64,192,109965,1,0,0:0:0:0:
448,192,109965,1,0,0:0:0:0:
320,192,110090,1,0,0:0:0:0:
448,192,110215,1,0,0:0:0:0:
192,192,110215,1,0,0:0:0:0:
320,192,110340,1,0,0:0:0:0:
64,192,110465,1,0,0:0:0:0:
192,192,110465,1,0,0:0:0:0:
448,192,110590,1,0,0:0:0:0:
64,192,110715,1,0,0:0:0:0:
192,192,110715,1,0,0:0:0:0:
320,192,110715,1,0,0:0:0:0:
448,192,110840,1,0,0:0:0:0:
64,192,110965,1,0,0:0:0:0:
192,192,110965,1,0,0:0:0:0:
320,192,111090,1,0,0:0:0:0:
64,192,111215,1,0,0:0:0:0:
448,192,111215,1,0,0:0:0:0:
192,192,111340,1,0,0:0:0:0:
320,192,111465,1,0,0:0:0:0:
192,192,111590,1,0,0:0:0:0:
64,192,111715,1,0,0:0:0:0:
448,192,111715,1,0,0:0:0:0:
320,192,111715,1,0,0:0:0:0:
192,192,111840,1,0,0:0:0:0:
64,192,111965,1,0,0:0:0:0:
448,192,111965,1,0,0:0:0:0:
320,192,112090,1,0,0:0:0:0:
64,192,112215,1,0,0:0:0:0:
192,192,112215,1,0,0:0:0:0:
448,192,112340,1,0,0:0:0:0:
320,192,112465,1,0,0:0:0:0:
192,192,112465,1,0,0:0:0:0:
64,192,112590,1,0,0:0:0:0:
320,192,112715,1,0,0:0:0:0:
192,192,112715,1,0,0:0:0:0:
448,192,112715,1,0,0:0:0:0:
64,192,112840,1,0,0:0:0:0:
448,192,112965,1,0,0:0:0:0:
320,192,112965,1,0,0:0:0:0:
192,192,113090,1,0,0:0:0:0:
448,192,113215,1,0,0:0:0:0:
320,192,113215,1,0,0:0:0:0:
64,192,113340,1,0,0:0:0:0:
192,192,113465,1,0,0:0:0:0:
320,192,113590,1,0,0:0:0:0:
448,192,113715,1,0,0:0:0:0:
192,192,113715,1,0,0:0:0:0:
64,192,113715,1,0,0:0:0:0:
320,192,113840,1,0,0:0:0:0:
192,192,113965,1,0,0:0:0:0:
64,192,114090,1,0,0:0:0:0:
320,192,114215,1,0,0:0:0:0:
448,192,114215,1,0,0:0:0:0:
64,192,114340,1,0,0:0:0:0:
192,192,114465,1,0,0:0:0:0:
320,192,114590,1,0,0:0:0:0:
64,192,114715,1,0,0:0:0:0:
192,192,114715,1,0,0:0:0:0:
448,192,114715,1,0,0:0:0:0:
320,192,114840,1,0,0:0:0:0:
192,192,114965,1,0,0:0:0:0:
64,192,115090,1,0,0:0:0:0:
320,192,115215,1,0,0:0:0:0:
448,192,115215,1,0,0:0:0:0:
192,192,115340,1,0,0:0:0:0:
64,192,115465,1,0,0:0:0:0:
320,192,115590,1,0,0:0:0:0:
64,192,115715,1,0,0:0:0:0:
192,192,115715,1,0,0:0:0:0:
448,192,115715,1,0,0:0:0:0:
320,192,115840,1,0,0:0:0:0:
192,192,115965,1,0,0:0:0:0:
448,192,116090,1,0,0:0:0:0:
64,192,116215,1,0,0:0:0:0:
192,192,116215,1,0,0:0:0:0:
320,192,116340,1,0,0:0:0:0:
64,192,116465,1,0,0:0:0:0:
448,192,116465,1,0,0:0:0:0:
192,192,116590,1,0,0:0:0:0:
64,192,116715,1,0,0:0:0:0:
320,192,116715,1,0,0:0:0:0:
448,192,116715,1,0,0:0:0:0:
192,192,116840,1,0,0:0:0:0:
320,192,116965,1,0,0:0:0:0:
448,192,116965,1,0,0:0:0:0:
64,192,117090,1,0,0:0:0:0:
320,192,117215,1,0,0:0:0:0:
448,192,117215,1,0,0:0:0:0:
64,192,117340,1,0,0:0:0:0:
192,192,117465,1,0,0:0:0:0:
320,192,117590,1,0,0:0:0:0:
64,192,117715,1,0,0:0:0:0:
192,192,117715,1,0,0:0:0:0:
448,192,117715,1,0,0:0:0:0:
320,192,117840,1,0,0:0:0:0:
448,192,117965,1,0,0:0:0:0:
64,192,117965,1,0,0:0:0:0:
192,192,118090,1,0,0:0:0:0:
64,192,118215,1,0,0:0:0:0:
320,192,118215,1,0,0:0:0:0:
192,192,118340,1,0,0:0:0:0:
448,192,118465,1,0,0:0:0:0:
320,192,118465,1,0,0:0:0:0:
64,192,118590,1,0,0:0:0:0:
448,192,118715,1,0,0:0:0:0:
320,192,118715,1,0,0:0:0:0:
192,192,118715,1,0,0:0:0:0:
64,192,118840,1,0,0:0:0:0:
448,192,118965,1,0,0:0:0:0:
320,192,118965,1,0,0:0:0:0:
192,192,119090,1,0,0:0:0:0:
448,192,119215,1,0,0:0:0:0:
64,192,119215,1,0,0:0:0:0:
320,192,119340,1,0,0:0:0:0:
192,192,119465,1,0,0:0:0:0:
64,192,119590,1,0,0:0:0:0:
192,192,119715,1,0,0:0:0:0:
448,192,119715,1,0,0:0:0:0:
320,192,119715,1,0,0:0:0:0:
64,192,119840,1,0,0:0:0:0:
320,192,119965,1,0,0:0:0:0:
448,192,119965,1,0,0:0:0:0:
192,192,120090,1,0,0:0:0:0:
64,192,120215,1,0,0:0:0:0:
448,192,120215,1,0,0:0:0:0:
320,192,120340,1,0,0:0:0:0:
64,192,120465,1,0,0:0:0:0:
192,192,120465,1,0,0:0:0:0:
448,192,120590,1,0,0:0:0:0:
192,192,120715,1,0,0:0:0:0:
320,192,120715,1,0,0:0:0:0:
64,192,120715,1,0,0:0:0:0:
448,192,120840,1,0,0:0:0:0:
64,192,120965,1,0,0:0:0:0:
192,192,120965,1,0,0:0:0:0:
320,192,121090,1,0,0:0:0:0:
448,192,121215,1,0,0:0:0:0:
192,192,121215,1,0,0:0:0:0:
64,192,121340,1,0,0:0:0:0:
320,192,121465,1,0,0:0:0:0:
192,192,121590,1,0,0:0:0:0:
64,192,121715,1,0,0:0:0:0:
320,192,121715,1,0,0:0:0:0:
448,192,121715,1,0,0:0:0:0:
192,192,121840,1,0,0:0:0:0:
448,192,121965,1,0,0:0:0:0:
320,192,122090,1,0,0:0:0:0:
64,192,122215,1,0,0:0:0:0:
192,192,122215,1,0,0:0:0:0:
448,192,122340,1,0,0:0:0:0:
320,192,122465,1,0,0:0:0:0:
192,192,122590,1,0,0:0:0:0:
64,192,122715,1,0,0:0:0:0:
320,192,122715,1,0,0:0:0:0:
448,192,122715,1,0,0:0:0:0:
192,192,122840,1,0,0:0:0:0:
320,192,122965,1,0,0:0:0:0:
448,192,123090,1,0,0:0:0:0:
64,192,123215,1,0,0:0:0:0:
192,192,123215,1,0,0:0:0:0:
320,192,123340,1,0,0:0:0:0:
448,192,123465,1,0,0:0:0:0:
192,192,123590,1,0,0:0:0:0:
64,192,123715,1,0,0:0:0:0:
320,192,123715,1,0,0:0:0:0:
448,192,123715,1,0,0:0:0:0:
192,192,123840,1,0,0:0:0:0:
320,192,123965,1,0,0:0:0:0:
448,192,124090,1,0,0:0:0:0:
64,192,124215,1,0,0:0:0:0:
192,192,124215,1,0,0:0:0:0:
192,192,124715,1,0,0:0:0:0:
320,192,124965,1,0,0:0:0:0:
448,192,125215,1,0,0:0:0:0:
320,192,125715,1,0,0:0:0:0:
192,192,125965,1,0,0:0:0:0:
64,192,126215,1,0,0:0:0:0:
64,192,126715,1,0,0:0:0:0:
192,192,126965,1,0,0:0:0:0:
320,192,127215,1,0,0:0:0:0:
448,192,127715,1,0,0:0:0:0:
320,192,127965,1,0,0:0:0:0:
192,192,128215,1,0,0:0:0:0:
192,192,128715,1,0,0:0:0:0:
320,192,128965,1,0,0:0:0:0:
448,192,129215,1,0,0:0:0:0:
320,192,129715,1,0,0:0:0:0:
448,192,129965,1,0,0:0:0:0:
192,192,130215,1,0,0:0:0:0:
320,192,130465,1,0,0:0:0:0:
64,192,130715,1,0,0:0:0:0:
192,192,130965,1,0,0:0:0:0:
320,192,131215,1,0,0:0:0:0:
192,192,131465,1,0,0:0:0:0:
64,192,131840,1,0,0:0:0:0:
192,192,132215,1,0,0:0:0:0:
192,192,132715,1,0,0:0:0:0:
320,192,132965,1,0,0:0:0:0:
448,192,133215,1,0,0:0:0:0:
320,192,133715,1,0,0:0:0:0:
192,192,133965,1,0,0:0:0:0:
64,192,134215,1,0,0:0:0:0:
64,192,134715,1,0,0:0:0:0:
192,192,134965,1,0,0:0:0:0:
320,192,135215,1,0,0:0:0:0:
448,192,135715,1,0,0:0:0:0:
320,192,135965,1,0,0:0:0:0:
192,192,136215,1,0,0:0:0:0:
192,192,136715,1,0,0:0:0:0:
320,192,136965,1,0,0:0:0:0:
448,192,137215,1,0,0:0:0:0:
320,192,137715,1,0,0:0:0:0:
448,192,138000,1,0,0:0:0:0:
192,192,138286,1,0,0:0:0:0:
320,192,138592,1,0,0:0:0:0:
64,192,138974,1,0,0:0:0:0:
