osu file format v14

[General]
AudioFilename: audio.mp3
AudioLeadIn: 0
PreviewTime: 43530
Countdown: 0
SampleSet: Soft
StackLeniency: 0.4
Mode: 0
LetterboxInBreaks: 0
EpilepsyWarning: 1
WidescreenStoryboard: 1

[Editor]
Bookmarks: 85177
DistanceSpacing: 0.8
BeatDivisor: 4
GridSize: 32
TimelineZoom: 1

[Metadata]
Title:Ao
TitleUnicode:蒼
Artist:adieu
ArtistUnicode:adieu
Creator:arronchu1207
Version:Normal
Source:GRANBLUE FANTASY The Animation Season 2
Tags:グランブルーファンタジー anime japanese ending ed 上白石萌歌 Kamishiraishi Moka Jpop j-pop pop adieu1 いしわたり淳治 Junji Ishiwatari 澤部渡 スカート Wataru Sawabe Skirt
BeatmapID:4138615
BeatmapSetID:1988732

[Difficulty]
HPDrainRate:3
CircleSize:3.5
OverallDifficulty:4
ApproachRate:5.4
SliderMultiplier:1.1
SliderTickRate:1

[Events]
//Background and Video events
0,0,"bg.jpg",0,0
//Break Periods
2,85369,95324
//Storyboard Layer 0 (Background)
//Storyboard Layer 1 (Fail)
//Storyboard Layer 2 (Pass)
//Storyboard Layer 3 (Foreground)
//Storyboard Layer 4 (Overlay)
//Storyboard Sound Samples

[TimingPoints]
464,352.941176470588,4,2,1,70,1,0
11757,-111.111111111111,4,2,1,60,0,0
34346,-111.111111111111,4,2,1,70,0,0
44934,-100,4,2,1,70,0,0
45640,-100,4,2,1,80,0,1
73875,-100,4,2,1,70,0,0
85169,-111.111111111111,4,2,1,60,0,0
107758,-100,4,2,1,70,0,0
130346,-100,4,2,1,80,0,1
158581,-100,4,2,1,70,0,0
186816,-100,4,2,1,5,0,0

[Colours]
Combo1 : 148,129,197
Combo2 : 170,207,213
Combo3 : 106,166,107
Combo4 : 188,189,125

[HitObjects]
63,110,464,6,0,P|67:74|70:45,2,55,4|0|8,3:2|0:0|0:0,0:0:0:0:
135,169,1170,1,2,0:0:0:0:
135,169,1346,2,0,P|171:173|200:176,1,55,0|8,3:0|0:0,0:0:0:0:
228,152,1699,2,0,P|274:136|338:165,1,110,2|0,0:0|0:0,0:0:0:0:
359,188,2228,2,0,P|355:224|352:253,1,55,8|0,0:0|0:0,0:0:0:0:
377,279,2581,1,2,0:0:0:0:
320,346,2934,1,10,0:0:0:0:
238,316,3287,6,0,P|241:288|243:261,2,55,0|0|8,3:2|0:0|0:0,0:0:0:0:
163,361,3993,1,2,0:0:0:0:
163,361,4170,2,0,P|135:358|108:355,1,55,0|8,3:0|0:0,0:0:0:0:
78,323,4522,2,0,P|68:224|66:201,1,110,2|0,0:0|0:0,0:0:0:0:
63,169,5052,1,10,0:0:0:0:
122,104,5405,2,0,P|149:107|176:109,1,55,2|2,0:0|3:2,0:0:0:0:
210,145,5758,1,10,0:0:0:0:
210,145,5934,1,2,0:0:0:0:
290,105,6287,1,0,0:0:0:0:
290,105,6463,6,0,L|354:96,1,55,8|0,0:0|0:0,0:0:0:0:
376,66,6816,1,2,0:0:0:0:
376,66,6993,1,0,3:2:0:0:
460,94,7346,2,0,B|468:145|468:145|452:212,1,110,2|0,0:0|0:0,0:0:0:0:
442,244,7875,2,0,P|414:240|387:238,1,55,8|0,0:0|0:0,0:0:0:0:
352,264,8228,2,0,P|324:261|297:258,1,55,2|0,0:0|3:0,0:0:0:0:
265,227,8581,1,8,0:0:0:0:
307,148,8934,6,0,P|317:80|294:26,1,110,0|8,3:2|0:0,0:0:0:0:
265,36,9463,1,0,0:0:0:0:
265,36,9640,2,0,P|237:39|210:41,1,55,2|0,0:0|3:0,0:0:0:0:
163,115,10169,2,0,P|103:108|44:100,1,110,2|0,0:0|3:0,0:0:0:0:
16,124,10699,1,10,0:0:0:0:
56,201,11052,2,0,P|58:228|60:255,1,55,8|8,0:0|0:0,0:0:0:0:
93,285,11405,2,0,P|90:312|88:339,1,55,8|8,0:0|0:0,0:0:0:0:
116,374,11758,6,0,P|165:351|231:363,1,98.9999969787599,14|8,0:0|0:0,0:0:0:0:
278,297,12463,2,0,P|327:320|393:308,1,98.9999969787599,0|10,0:0|0:0,0:0:0:0:
406,290,12993,1,2,0:0:0:0:
406,290,13169,2,0,P|398:237|393:185,1,98.9999969787599,0|8,3:2|0:0,0:0:0:0:
447,120,13875,1,0,0:0:0:0:
389,52,14228,2,0,P|350:47|336:43,1,49.4999984893799,10|2,0:0|0:0,0:0:0:0:
302,68,14581,6,0,P|245:62|197:96,2,98.9999969787599,0|8|0,3:0|0:0|0:0,0:0:0:0:
318,155,15640,2,0,P|313:195|312:216,1,49.4999984893799,10|2,0:0|0:0,0:0:0:0:
283,237,15993,2,0,P|290:293|296:356,1,98.9999969787599,0|8,3:0|0:0,0:0:0:0:
215,377,16699,2,0,P|175:372|154:371,1,49.4999984893799,0|0,0:0|3:0,0:0:0:0:
122,380,17052,1,8,0:0:0:0:
41,341,17405,6,0,P|21:297|37:230,1,98.9999969787599,2|8,3:2|0:0,0:0:0:0:
95,190,18111,2,0,P|115:146|99:79,1,98.9999969787599,0|10,0:0|0:0,0:0:0:0:
85,58,18640,1,2,0:0:0:0:
85,58,18816,2,0,P|136:50|202:34,1,98.9999969787599,0|8,3:0|0:0,0:0:0:0:
248,99,19522,2,0,P|299:107|365:123,1,98.9999969787599,0|10,0:0|0:0,0:0:0:0:
376,157,20052,1,2,0:0:0:0:
376,157,20228,6,0,P|365:205|357:254,1,98.9999969787599,0|8,3:2|0:0,0:0:0:0:
401,331,20934,2,0,P|438:345|459:342,1,49.4999984893799,0|0,0:0|3:0,0:0:0:0:
490,333,21287,1,8,0:0:0:0:
502,244,21640,2,0,P|491:195|483:146,1,98.9999969787599,0|8,3:0|0:0,0:0:0:0:
492,102,22169,1,0,0:0:0:0:
492,102,22346,2,0,P|440:113|379:79,1,98.9999969787599,2|10,0:0|0:0,0:0:0:0:
329,39,23052,5,6,3:2:0:0:
271,107,23405,1,8,0:0:0:0:
271,107,23581,2,0,P|281:155|289:204,1,98.9999969787599,2|0,0:0|3:0,0:0:0:0:
321,236,24111,2,0,P|316:275|313:302,1,49.4999984893799,8|2,0:0|0:0,0:0:0:0:
335,324,24463,2,0,P|383:318|434:351,2,98.9999969787599,0|8|0,0:0|0:0|0:0,0:0:0:0:
256,366,25522,2,0,P|217:361|190:358,1,49.4999984893799,10|0,0:0|0:0,0:0:0:0:
174,328,25875,5,2,3:2:0:0:
174,328,26052,2,0,P|153:273|168:224,1,98.9999969787599,2|2,0:0|0:0,0:0:0:0:
222,170,26758,1,0,3:0:0:0:
185,88,27111,1,2,0:0:0:0:
105,127,27463,2,0,P|49:118|5:113,1,98.9999969787599,2|0,0:0|0:0,0:0:0:0:
20,28,28169,1,0,3:0:0:0:
20,28,28346,2,0,P|59:33|86:36,1,49.4999984893799,10|2,0:0|3:2,0:0:0:0:
113,30,28699,6,0,P|164:25|209:58,1,98.9999969787599,4|8,3:2|0:0,0:0:0:0:
239,131,29405,2,0,P|234:170|231:197,1,49.4999984893799,2|0,0:0|3:0,0:0:0:0:
249,221,29758,1,8,0:0:0:0:
317,277,30111,1,2,3:2:0:0:
404,264,30463,1,10,0:2:0:0:
447,186,30816,1,2,0:0:0:0:
407,106,31169,2,0,P|370:96|346:93,1,49.4999984893799,10|0,0:0|0:0,0:0:0:0:
327,63,31522,6,0,P|284:93|230:89,1,98.9999969787599,6|8,3:2|0:0,0:0:0:0:
205,71,32052,1,2,0:0:0:0:
205,71,32228,2,0,P|213:128|217:177,1,98.9999969787599,0|8,3:0|0:0,0:0:0:0:
165,242,32934,2,0,P|123:236|109:235,1,49.4999984893799,0|0,3:2|3:2,0:0:0:0:
73,249,33287,1,8,0:0:0:0:
10,185,33640,2,0,P|9:150|30:123,1,49.4999984893799,8|0,0:0|3:0,0:0:0:0:
17,93,33993,2,0,P|46:74|80:79,1,49.4999984893799,8|8,0:0|0:0,0:0:0:0:
103,59,34346,6,0,P|152:65|217:69,1,98.9999969787599,14|8,0:0|0:0,0:0:0:0:
271,132,35052,1,2,0:0:0:0:
271,132,35228,2,0,P|307:127|332:122,1,49.4999984893799,2|8,3:2|0:0,0:0:0:0:
366,115,35581,1,2,0:0:0:0:
366,115,35758,2,0,P|381:172|365:221,1,98.9999969787599,0|8,3:0|0:0,0:0:0:0:
291,250,36463,1,0,0:0:0:0:
248,328,36816,1,8,0:0:0:0:
326,370,37169,6,0,P|380:361|438:356,1,98.9999969787599,0|8,3:0|0:0,0:0:0:0:
501,312,37875,1,2,0:0:0:0:
501,312,38052,2,0,P|505:262|509:248,1,49.4999984893799,2|8,3:2|0:0,0:0:0:0:
491,220,38405,1,2,0:0:0:0:
491,220,38581,2,0,P|441:215|392:206,1,98.9999969787599,0|8,3:0|0:0,0:0:0:0:
328,144,39287,1,2,0:0:0:0:
367,63,39640,1,10,0:0:0:0:
289,18,39993,6,0,P|251:56|177:55,1,98.9999969787599,2|8,3:2|0:0,0:0:0:0:
169,53,40522,1,8,0:0:0:0:
169,53,40699,2,0,P|119:57|70:66,1,98.9999969787599,2|8,0:0|0:0,0:0:0:0:
23,141,41405,2,0,P|27:190|36:239,1,98.9999969787599,2|8,3:2|0:0,0:0:0:0:
70,267,41934,1,8,0:0:0:0:
70,267,42111,1,2,0:0:0:0:
147,223,42463,1,8,0:0:0:0:
191,300,42816,6,0,P|233:318|312:293,1,98.9999969787599,2|8,3:2|0:0,0:0:0:0:
349,249,43522,1,10,0:0:0:0:
429,88,44228,2,0,P|311:69|270:62,1,148.49999546814,10|0,0:0|0:0,0:0:0:0:
245,40,44934,2,0,P|257:103|238:148,1,110,6|0,3:2|0:0,0:0:0:0:
166,192,45640,6,0,P|131:188|107:183,1,55,6|0,3:2|3:0,0:0:0:0:
68,177,45993,2,0,P|59:236|46:311,1,110,8|0,0:0|3:0,0:0:0:0:
64,332,46522,1,0,0:0:0:0:
64,332,46699,2,0,P|99:328|123:323,1,55,8|2,0:0|0:0,0:0:0:0:
156,355,47052,1,2,3:2:0:0:
156,355,47228,2,0,P|209:362|272:372,1,110,2|2,3:2|0:0,0:0:0:0:
334,316,47934,2,0,P|330:281|325:257,1,55,2|8,3:2|0:0,0:0:0:0:
356,229,48287,1,2,3:2:0:0:
356,229,48463,6,0,P|404:240|474:206,1,110,0|8,3:2|0:0,0:0:0:0:
489,136,49169,2,0,P|493:101|498:77,1,55,0|0,0:0|3:0,0:0:0:0:
481,40,49522,1,10,0:0:0:0:
395,62,49875,2,0,P|367:56|340:54,1,55,2|0,3:2|3:0,0:0:0:0:
312,20,50228,2,0,P|284:25|257:27,1,55,8|0,0:0|0:0,0:0:0:0:
228,60,50581,2,0,P|237:129|241:171,1,110,2|8,0:0|0:0,0:0:0:0:
307,227,51287,5,6,3:2:0:0:
379,175,51640,1,10,0:0:0:0:
379,175,51816,2,0,P|409:171|444:167,1,55,2|0,0:0|0:0,0:0:0:0:
464,199,52169,2,0,P|467:226|470:253,1,55,2|8,3:2|0:0,0:0:0:0:
449,292,52522,1,2,0:0:0:0:
449,292,52699,2,0,P|394:313|333:288,1,110,0|8,3:0|0:0,0:0:0:0:
281,240,53405,1,2,0:0:0:0:
202,279,53758,1,10,0:0:0:0:
140,216,54111,6,0,P|136:186|132:151,1,55,2|0,3:2|3:0,0:0:0:0:
160,127,54463,1,10,0:0:0:0:
160,127,54640,2,0,P|190:123|225:119,1,55,2|0,0:0|0:0,0:0:0:0:
247,90,54993,1,2,0:0:0:0:
309,24,55346,1,2,0:0:0:0:
309,24,55522,2,0,P|358:20|420:58,1,110,0|12,3:0|0:0,0:0:0:0:
436,83,56052,1,0,0:0:0:0:
436,83,56228,2,0,P|431:124|430:156,1,55,8|8,3:0|0:0,0:0:0:0:
406,174,56581,2,0,P|411:215|412:247,1,55,8|8,0:0|0:0,0:0:0:0:
429,269,56934,6,0,P|371:260|312:304,1,110,6|8,3:2|0:0,0:0:0:0:
273,352,57640,2,0,P|215:342|150:335,1,110,0|8,0:0|0:0,0:0:0:0:
138,306,58169,1,2,0:0:0:0:
138,306,58346,2,0,P|134:278|131:251,1,55,2|2,3:2|3:2,0:0:0:0:
106,214,58699,1,8,0:0:0:0:
106,214,58875,2,0,P|112:157|120:85,1,110,2|2,0:0|3:2,0:0:0:0:
190,53,59581,1,2,3:2:0:0:
190,53,59758,6,0,P|215:62|242:62,1,55,0|0,3:2|3:0,0:0:0:0:
284,46,60111,1,8,0:0:0:0:
369,26,60463,2,0,P|403:27|423:36,1,55,0|0,0:0|3:0,0:0:0:0:
463,49,60816,2,0,P|479:78|481:100,1,55,10|0,0:0|0:0,0:0:0:0:
500,140,61169,2,0,P|492:204|484:262,1,110,2|8,3:2|0:0,0:0:0:0:
455,281,61699,1,0,0:0:0:0:
455,281,61875,2,0,P|399:297|352:279,1,110,2|8,0:0|0:0,0:0:0:0:
290,216,62581,5,6,3:2:0:0:
225,276,62934,1,10,0:0:0:0:
225,276,63111,2,0,P|184:280|162:283,1,55,2|0,0:0|0:0,0:0:0:0:
139,250,63463,2,0,P|135:209|132:187,1,55,2|8,3:2|0:0,0:0:0:0:
165,165,63816,1,2,0:0:0:0:
165,165,63993,2,0,P|173:107|180:45,1,110,0|8,3:0|0:0,0:0:0:0:
100,14,64699,1,2,0:0:0:0:
23,57,65052,1,10,0:0:0:0:
13,144,65405,6,0,P|16:171|18:198,1,55,2|0,3:2|3:0,0:0:0:0:
52,226,65758,1,8,0:0:0:0:
52,226,65934,2,0,P|48:253|46:280,1,55,2|0,0:0|0:0,0:0:0:0:
14,311,66287,1,2,3:2:0:0:
80,376,66640,1,2,0:0:0:0:
80,376,66816,2,0,P|135:364|212:356,1,110,0|12,3:0|0:0,0:0:0:0:
210,318,67346,1,0,0:0:0:0:
210,318,67522,2,0,P|238:323|267:327,1,55,8|8,0:0|3:2,0:0:0:0:
295,357,67875,2,0,P|323:352|352:348,1,55,8|8,0:0|0:0,0:0:0:0:
373,311,68228,6,0,P|367:251|361:192,1,110,6|8,3:2|0:0,0:0:0:0:
418,133,68934,2,0,P|429:71|406:22,1,110,0|10,0:0|0:0,0:0:0:0:
369,40,69463,1,2,0:0:0:0:
369,40,69640,2,0,P|314:34|259:28,1,110,0|8,3:0|0:0,0:0:0:0:
176,56,70346,1,0,0:0:0:0:
165,143,70699,2,0,P|195:157|225:161,1,55,10|0,0:0|0:0,0:0:0:0:
242,196,71052,6,0,B|254:247|254:247|237:316,1,110,2|8,3:2|0:0,0:0:0:0:
208,332,71581,1,0,0:0:0:0:
208,332,71758,2,0,P|151:319|95:315,1,110,2|8,3:2|0:0,0:0:0:0:
64,234,72463,2,0,P|23:239|2:243,2,55,2|0|12,3:2|3:0|0:0,0:0:0:0:
92,201,72993,1,8,0:0:0:0:
92,201,73169,2,0,P|97:160|101:139,1,55,10|8,0:0|0:0,0:0:0:0:
130,115,73522,2,0,P|171:120|192:124,1,55,8|8,0:0|0:0,0:0:0:0:
216,92,73875,6,0,P|272:86|328:83,1,110,6|8,3:2|0:0,0:0:0:0:
405,132,74581,1,2,0:0:0:0:
405,132,74758,2,0,P|398:173|395:199,1,55,0|8,3:0|0:0,0:0:0:0:
372,223,75111,2,0,P|428:213|482:242,1,110,2|0,0:0|0:0,0:0:0:0:
497,272,75640,2,0,P|504:313|507:339,1,55,8|0,0:0|0:0,0:0:0:0:
476,359,75993,1,2,0:0:0:0:
391,383,76346,1,8,0:0:0:0:
322,327,76699,6,0,P|291:321|251:316,1,55,2|0,3:2|0:0,0:0:0:0:
224,326,77052,1,8,0:0:0:0:
162,271,77405,1,2,0:0:0:0:
162,271,77581,2,0,P|170:231|172:209,1,55,0|8,3:2|0:0,0:0:0:0:
160,174,77934,2,0,P|212:187|275:155,1,110,2|0,0:0|0:0,0:0:0:0:
287,130,78463,1,10,0:0:0:0:
345,63,78816,1,2,0:0:0:0:
345,63,78993,2,0,P|351:23|351:4,2,55,2|10|2,3:2|0:0|0:0,0:0:0:0:
376,94,79522,6,0,P|418:76|490:81,1,110,0|8,3:2|0:0,0:0:0:0:
505,167,80228,1,2,0:0:0:0:
505,167,80405,2,0,P|497:220|495:238,1,55,0|8,3:2|0:0,0:0:0:0:
460,246,80758,2,0,P|398:235|343:228,1,110,2|0,0:0|0:0,0:0:0:0:
319,197,81287,1,8,0:0:0:0:
258,132,81640,1,2,0:0:0:0:
258,132,81816,2,0,P|257:101|248:73,2,55,0|8|0,3:2|0:0|0:0,0:0:0:0:
239,172,82346,6,0,P|208:173|180:182,1,55,0|0,3:0|0:0,0:0:0:0:
157,213,82699,2,0,P|103:193|43:211,1,110,8|2,0:0|0:0,0:0:0:0:
17,229,83228,2,0,P|23:255|27:282,1,55,0|8,0:0|0:0,0:0:0:0:
31,326,83581,1,2,0:0:0:0:
115,365,83934,1,0,3:2:0:0:
115,365,84111,1,10,0:0:0:0:
192,323,84463,2,0,P|225:328|256:337,1,55,8|8,0:0|0:0,0:0:0:0:
282,308,84816,2,0,P|315:303|346:294,1,55,8|8,3:2|3:2,0:0:0:0:
375,320,85169,5,6,3:2:0:0:
329,39,96463,5,2,3:2:0:0:
256,88,96816,1,0,0:0:0:0:
256,88,96992,2,0,P|208:78|159:70,1,98.9999969787599,2|0,0:0|3:0,0:0:0:0:
122,97,97522,2,0,P|110:134|114:163,1,49.4999984893799,10|2,0:0|0:0,0:0:0:0:
124,186,97874,2,0,P|76:180|25:213,2,98.9999969787599,0|8|0,0:0|0:0|0:0,0:0:0:0:
196,238,98933,2,0,P|235:233|262:230,1,49.4999984893799,10|0,0:0|0:0,0:0:0:0:
278,200,99286,5,2,3:2:0:0:
278,200,99463,2,0,P|299:145|284:96,1,98.9999969787599,2|2,0:0|0:0,0:0:0:0:
251,26,100169,1,2,3:2:0:0:
161,22,100522,1,2,0:0:0:0:
117,99,100874,2,0,P|61:90|17:85,1,98.9999969787599,2|0,0:0|0:0,0:0:0:0:
14,178,101580,1,0,3:0:0:0:
14,178,101757,2,0,P|53:183|80:186,1,49.4999984893799,10|2,0:0|3:2,0:0:0:0:
101,206,102110,6,0,P|126:247|120:295,1,98.9999969787599,4|8,3:2|0:0,0:0:0:0:
185,357,102816,2,0,P|224:352|251:349,1,49.4999984893799,2|0,0:0|3:0,0:0:0:0:
270,325,103169,1,8,0:0:0:0:
352,357,103522,1,2,3:2:0:0:
437,332,103874,1,10,0:2:0:0:
486,257,104227,1,2,0:0:0:0:
433,184,104580,2,0,P|437:159|444:136,1,49.4999984893799,10|0,0:0|0:0,0:0:0:0:
419,99,104933,6,0,P|376:129|322:125,1,98.9999969787599,6|8,3:2|0:0,0:0:0:0:
297,107,105463,1,2,0:0:0:0:
297,107,105639,2,0,P|292:57|289:30,1,49.4999984893799,0|0,3:0|3:0,0:0:0:0:
263,23,105993,1,8,0:0:0:0:
182,61,106345,2,0,P|176:103|175:117,1,49.4999984893799,0|0,3:2|3:2,0:0:0:0:
189,153,106698,1,8,0:0:0:0:
241,224,107051,1,8,0:0:0:0:
199,302,107404,1,8,0:0:0:0:
111,310,107758,6,0,P|53:298|26:251,1,110,6|8,3:2|0:0,0:0:0:0:
79,186,108463,2,0,P|75:143|73:125,1,55,0|0,3:0|3:0,0:0:0:0:
48,95,108816,1,10,0:0:0:0:
103,26,109169,2,0,B|153:46|153:46|216:35,1,110,0|10,3:0|0:0,0:0:0:0:
251,25,109699,1,0,0:0:0:0:
251,25,109875,2,0,P|279:27|306:44,1,55,0|0,3:0|3:0,0:0:0:0:
324,78,110228,1,10,0:0:0:0:
284,156,110581,6,0,P|274:216|270:270,1,110,0|8,3:0|0:0,0:0:0:0:
325,334,111287,2,0,P|358:338|383:344,1,55,0|0,3:0|3:0,0:0:0:0:
418,322,111640,1,10,0:0:0:0:
476,256,111993,2,0,P|495:201|469:149,1,110,0|10,3:0|0:0,0:0:0:0:
442,126,112522,1,0,0:0:0:0:
442,126,112699,2,0,P|405:131|386:133,1,55,0|0,3:0|3:0,0:0:0:0:
355,163,113052,2,0,P|318:158|299:156,1,55,10|0,0:0|0:0,0:0:0:0:
281,116,113405,6,0,P|226:82|165:99,1,110,2|8,3:2|0:0,0:0:0:0:
109,136,114111,2,0,P|67:143|45:145,1,55,0|0,3:0|3:0,0:0:0:0:
11,151,114463,1,8,0:0:0:0:
30,236,114816,2,0,P|45:293|21:357,1,110,2|8,3:2|0:0,0:0:0:0:
63,379,115346,1,0,0:0:0:0:
63,379,115522,2,0,P|124:364|141:366,1,55,2|0,3:2|3:0,0:0:0:0:
158,371,115875,1,8,0:0:0:0:
221,310,116228,6,0,P|282:325|299:323,1,55,0|0,3:0|3:0,0:0:0:0:
316,318,116581,1,14,0:0:0:0:
378,256,116934,2,0,P|380:224|369:197,1,55,0|0,3:0|3:0,0:0:0:0:
342,178,117287,1,0,0:0:0:0:
342,178,117463,2,0,P|277:187|218:194,1,110,10|0,0:0|3:0,0:0:0:0:
189,202,117993,1,8,0:0:0:0:
123,143,118346,2,0,P|127:109|138:88,1,55,8|0,0:0|3:0,0:0:0:0:
135,46,118699,2,0,P|166:32|190:31,1,55,8|0,0:0|3:0,0:0:0:0:
223,6,119052,6,0,P|268:37|332:31,1,110,6|8,3:2|0:0,0:0:0:0:
383,98,119758,2,0,P|374:140|373:161,1,55,2|0,3:2|3:0,0:0:0:0:
387,193,120111,1,8,0:0:0:0:
325,255,120463,2,0,P|270:253|226:284,1,110,0|8,3:0|0:0,0:0:0:0:
207,324,120993,1,0,0:0:0:0:
207,324,121169,2,0,P|180:318|152:314,1,55,2|0,3:2|3:0,0:0:0:0:
114,337,121522,1,8,0:0:0:0:
39,290,121875,6,0,P|17:237|32:175,1,110,2|8,3:2|0:0,0:0:0:0:
83,119,122581,2,0,P|78:81|74:62,1,55,0|0,3:0|3:0,0:0:0:0:
99,28,122934,2,0,P|137:23|156:19,1,55,8|0,0:0|0:0,0:0:0:0:
185,49,123287,2,0,P|239:54|294:62,1,110,0|8,3:0|0:0,0:0:0:0:
344,134,123993,2,0,P|352:181|343:210,1,55,0|0,3:0|3:0,0:0:0:0:
333,228,124346,1,8,0:0:0:0:
247,208,124699,6,0,P|185:201|133:235,1,110,6|8,3:2|0:0,0:0:0:0:
77,280,125405,2,0,P|69:327|78:356,1,55,0|0,3:0|3:0,0:0:0:0:
88,374,125758,1,8,0:0:0:0:
169,339,126111,2,0,P|217:348|287:356,1,110,6|8,3:2|0:0,0:0:0:0:
351,307,126816,2,0,P|385:302|408:297,1,55,0|0,3:0|3:0,0:0:0:0:
446,281,127169,1,8,0:0:0:0:
472,197,127522,6,0,P|467:163|462:140,1,55,0|0,3:0|3:0,0:0:0:0:
438,105,127875,2,0,P|391:132|337:127,1,110,14|0,0:0|3:0,0:0:0:0:
306,104,128405,1,0,3:0:0:0:
306,104,128581,1,14,0:0:0:0:
221,131,128934,2,0,P|164:127|108:171,1,110,8|8,0:0|0:0,0:0:0:0:
107,198,129463,1,0,3:2:0:0:
107,198,129640,2,0,P|115:242|115:274,1,55,8|0,0:0|3:2,0:0:0:0:
141,287,129993,2,0,P|185:279|217:279,1,55,8|8,0:0|0:0,0:0:0:0:
228,249,130346,6,0,P|279:232|332:246,1,110,6|8,3:2|0:0,0:0:0:0:
403,298,131052,2,0,P|430:292|457:290,1,55,0|0,3:0|0:0,0:0:0:0:
486,256,131405,2,0,P|482:221|477:197,1,55,8|2,0:0|0:0,0:0:0:0:
495,163,131758,1,2,3:2:0:0:
495,163,131934,2,0,P|442:170|379:180,1,110,2|2,3:2|0:0,0:0:0:0:
323,116,132640,2,0,P|319:81|314:57,1,55,2|8,3:2|0:0,0:0:0:0:
283,38,132993,1,2,0:0:0:0:
283,38,133169,6,0,P|231:46|166:58,1,110,0|8,3:2|0:0,0:0:0:0:
94,93,133875,2,0,P|90:128|85:152,1,55,0|0,0:0|3:0,0:0:0:0:
104,187,134228,1,10,0:0:0:0:
164,252,134581,2,0,P|192:258|219:260,1,55,2|0,3:2|3:0,0:0:0:0:
247,293,134934,2,0,P|275:288|302:286,1,55,8|0,0:0|0:0,0:0:0:0:
334,256,135287,2,0,P|343:325|347:367,1,110,2|8,0:0|0:0,0:0:0:0:
434,376,135993,5,2,3:2:0:0:
475,300,136346,1,8,0:0:0:0:
475,300,136522,2,0,P|471:270|467:235,1,55,2|0,0:0|0:0,0:0:0:0:
440,211,136875,2,0,P|437:184|434:157,1,55,2|8,0:0|0:0,0:0:0:0:
450,118,137228,1,2,0:0:0:0:
450,118,137405,2,0,P|395:139|334:114,1,110,0|8,3:2|0:0,0:0:0:0:
279,69,138111,2,0,P|224:48|163:73,1,110,2|10,0:0|0:0,0:0:0:0:
112,122,138817,6,0,P|115:149|118:176,1,55,2|0,3:2|3:0,0:0:0:0:
155,209,139169,1,10,0:0:0:0:
155,209,139346,2,0,P|185:205|220:201,1,55,2|0,0:0|0:0,0:0:0:0:
243,173,139699,1,2,0:0:0:0:
307,240,140052,1,2,0:0:0:0:
307,240,140228,2,0,P|311:289|273:351,1,110,0|8,3:0|0:0,0:0:0:0:
249,370,140758,1,2,0:0:0:0:
249,370,140934,2,0,P|208:365|176:364,1,55,8|8,0:0|0:0,0:0:0:0:
157,340,141287,2,0,P|116:345|84:346,1,55,8|8,0:0|0:0,0:0:0:0:
65,321,141640,6,0,P|58:264|49:211,1,110,6|8,3:2|0:0,0:0:0:0:
104,142,142346,2,0,P|156:166|227:159,1,110,0|8,0:0|0:0,0:0:0:0:
240,135,142875,1,2,0:0:0:0:
240,135,143052,2,0,P|236:107|233:80,1,55,2|2,3:2|3:2,0:0:0:0:
320,67,143581,2,0,P|326:121|331:176,1,110,2|2,0:0|3:2,0:0:0:0:
364,205,144111,2,0,P|359:255|357:270,1,55,8|2,0:0|0:0,0:0:0:0:
326,290,144464,6,0,P|287:322|218:320,1,110,0|8,3:2|0:0,0:0:0:0:
164,267,145169,2,0,P|130:268|110:277,1,55,0|0,0:0|3:0,0:0:0:0:
79,305,145522,1,10,0:0:0:0:
20,239,145875,2,0,P|28:175|36:117,1,110,2|8,3:2|0:0,0:0:0:0:
27,90,146405,1,0,0:0:0:0:
27,90,146581,2,0,P|61:95|92:100,1,55,0|8,3:2|0:0,0:0:0:0:
123,84,146934,1,0,3:0:0:0:
187,144,147287,5,6,3:2:0:0:
268,106,147640,1,10,0:0:0:0:
268,106,147817,2,0,P|264:65|261:43,1,55,2|0,0:0|0:0,0:0:0:0:
290,17,148169,2,0,P|331:13|353:10,1,55,2|8,3:2|0:0,0:0:0:0:
389,30,148522,2,0,P|403:87|374:150,1,110,2|0,3:2|3:0,0:0:0:0:
353,163,149052,1,8,0:0:0:0:
411,228,149405,2,0,P|413:255|416:282,1,55,8|8,0:0|0:0,0:0:0:0:
429,324,149758,1,8,0:0:0:0:
350,364,150111,6,0,P|323:367|296:369,1,55,2|0,3:2|3:0,0:0:0:0:
263,347,150464,1,10,0:0:0:0:
263,347,150640,2,0,P|236:343|209:341,1,55,2|0,0:0|0:0,0:0:0:0:
170,363,150993,1,2,3:2:0:0:
105,310,151346,1,2,3:2:0:0:
105,310,151522,2,0,P|86:257|100:201,1,110,0|8,3:0|0:0,0:0:0:0:
128,174,152052,1,10,0:0:0:0:
128,174,152228,2,0,P|166:168|201:162,1,55,8|0,0:2|0:0,0:0:0:0:
226,162,152581,1,0,3:2:0:0:
313,178,152934,6,0,B|328:230|328:230|311:294,1,110,6|8,3:2|0:0,0:0:0:0:
267,359,153640,2,0,P|215:340|162:352,1,110,0|10,0:0|0:0,0:0:0:0:
123,373,154169,1,2,0:0:0:0:
123,373,154346,2,0,P|117:318|113:259,1,110,0|8,3:0|0:0,0:0:0:0:
90,225,154875,1,8,0:0:0:0:
147,158,155228,1,0,0:0:0:0:
147,158,155405,2,0,P|191:164|209:167,1,55,10|0,0:0|0:0,0:0:0:0:
240,146,155758,6,0,B|227:198|227:198|240:253,1,110,2|12,3:2|0:0,0:0:0:0:
272,291,156287,1,0,0:0:0:0:
272,291,156464,2,0,P|212:298|159:308,1,110,2|12,3:2|0:0,0:0:0:0:
95,250,157169,2,0,P|54:245|33:241,2,55,10|8|8,0:0|0:0|0:0,0:0:0:0:
127,219,157699,1,0,3:0:0:0:
127,219,157875,2,0,P|132:178|136:157,1,55,10|8,0:0|0:0,0:0:0:0:
168,136,158228,2,0,P|163:95|159:74,1,55,0|0,3:0|3:0,0:0:0:0:
189,48,158581,6,0,P|235:34|296:66,1,110,6|8,3:2|0:0,0:0:0:0:
309,148,159287,1,2,0:0:0:0:
309,148,159464,2,0,P|302:189|299:215,1,55,0|8,3:0|0:0,0:0:0:0:
319,242,159817,2,0,P|370:250|429:261,1,110,2|0,0:0|0:0,0:0:0:0:
470,270,160346,2,0,P|473:242|478:215,1,55,8|0,0:0|0:0,0:0:0:0:
498,176,160699,1,2,0:0:0:0:
481,89,161052,1,8,0:0:0:0:
396,65,161405,6,0,P|359:82|323:75,1,55,2|0,3:2|0:0,0:0:0:0:
302,71,161758,1,8,0:0:0:0:
245,138,162111,1,2,0:0:0:0:
245,138,162287,2,0,P|253:178|255:200,1,55,0|8,3:0|0:0,0:0:0:0:
233,231,162640,2,0,B|177:243|177:243|124:223,1,110,2|0,0:0|0:0,0:0:0:0:
86,208,163169,1,10,0:0:0:0:
60,129,163522,1,2,0:0:0:0:
60,129,163699,2,0,P|20:135|1:135,2,55,2|10|2,3:2|0:0|0:0,0:0:0:0:
82,90,164228,6,0,P|124:61|196:77,1,110,0|8,3:2|0:0,0:0:0:0:
249,130,164934,1,2,0:0:0:0:
249,130,165111,2,0,P|241:183|239:201,1,55,0|8,3:0|0:0,0:0:0:0:
209,215,165464,2,0,P|220:277|227:332,1,110,2|0,0:0|0:0,0:0:0:0:
261,349,165993,1,8,0:0:0:0:
349,327,166346,1,2,0:0:0:0:
349,327,166522,2,0,P|380:326|408:317,2,55,0|8|0,3:0|0:0|0:0,0:0:0:0:
324,290,167052,6,0,P|323:262|316:236,1,55,2|0,3:2|0:0,0:0:0:0:
284,205,167405,2,0,P|268:147|282:91,1,110,8|2,0:0|0:0,0:0:0:0:
280,55,167934,2,0,P|253:62|226:62,1,55,0|8,3:0|0:0,0:0:0:0:
190,36,168287,1,2,0:0:0:0:
105,10,168640,1,0,3:0:0:0:
105,10,168817,1,14,0:0:0:0:
50,78,169169,2,0,P|56:104|60:131,1,55,8|8,0:0|0:0,0:0:0:0:
93,161,169522,2,0,P|86:187|82:214,1,55,8|8,0:0|0:0,0:0:0:0:
54,248,169875,6,0,P|66:321|71:370,1,110,6|8,3:2|0:0,0:0:0:0:
160,343,170581,1,2,0:0:0:0:
160,343,170758,2,0,P|198:350|226:357,1,55,0|8,3:0|0:0,0:0:0:0:
256,341,171111,2,0,P|286:282|278:230,1,110,2|0,0:0|0:0,0:0:0:0:
259,202,171640,1,10,0:0:0:0:
186,152,171993,2,0,P|144:158|125:161,1,55,2|0,0:0|3:0,0:0:0:0:
105,195,172346,2,0,P|63:189|44:186,1,55,8|0,0:0|0:0,0:0:0:0:
18,157,172699,6,0,B|4:102|4:102|20:45,1,110,0|8,3:2|0:0,0:0:0:0:
58,28,173228,1,0,0:0:0:0:
58,28,173405,2,0,P|95:32|119:35,1,55,2|0,0:0|3:0,0:0:0:0:
182,87,173934,2,0,P|225:114|303:106,1,110,2|0,0:0|0:0,0:0:0:0:
319,89,174463,1,8,0:0:0:0:
400,133,174816,1,2,0:0:0:0:
400,133,174993,2,0,P|403:105|409:78,2,55,2|10|2,3:2|0:0|0:0,0:0:0:0:
376,170,175522,6,0,P|383:224|392:280,1,110,2|8,3:2|0:0,0:0:0:0:
369,318,176052,1,0,0:0:0:0:
369,318,176228,2,0,P|341:321|314:327,1,55,2|0,0:0|3:0,0:0:0:0:
249,267,176758,1,2,0:0:0:0:
185,214,177111,1,0,0:0:0:0:
185,214,177287,2,0,P|142:223|123:225,1,55,8|0,0:0|0:0,0:0:0:0:
99,255,177640,2,0,P|56:246|37:244,1,55,2|0,0:0|3:0,0:0:0:0:
16,211,177993,1,8,0:0:0:0:
59,134,178346,6,0,P|49:97|52:69,1,55,2|0,3:2|3:2,0:0:0:0:
72,43,178699,2,0,P|109:33|137:36,1,55,14|0,0:0|0:0,0:0:0:0:
159,69,179052,1,0,3:0:0:0:
159,69,179228,2,0,P|191:76|218:67,1,55,0|14,3:0|0:0,0:0:0:0:
250,49,179581,2,0,P|242:112|233:176,1,110,0|0,0:0|3:0,0:0:0:0:
256,192,180111,1,14,0:0:0:0:
323,247,180463,2,0,P|361:244|387:237,1,55,8|0,0:0|3:0,0:0:0:0:
413,214,180816,1,0,3:0:0:0:
413,214,180993,1,14,0:0:0:0:
256,192,181169,12,0,186816,0:0:0:0:
