osu file format v14

[General]
AudioFilename: adaptor - LAISSEZ FAIRE.mp3
AudioLeadIn: 0
PreviewTime: 57692
Countdown: 0
SampleSet: Soft
StackLeniency: 0.4
Mode: 0
LetterboxInBreaks: 0
EpilepsyWarning: 1
WidescreenStoryboard: 1

[Editor]
Bookmarks: 92,9692,19292,38492,57692,76892,96092,115292,134492
DistanceSpacing: 0.7
BeatDivisor: 8
GridSize: 4
TimelineZoom: 1.7

[Metadata]
Title:LAISSEZ:FAIRE
TitleUnicode:LAISSEZ:FAIRE
Artist:adaptor
ArtistUnicode:adaptor
Creator:handsome
Version:Team Sample Text's Hard
Source:nanobeat
Tags:osu!International mapping contest o!imc #1 artcore pishifat asphyxia bonzi sample text spt
BeatmapID:1419708
BeatmapSetID:671457

[Difficulty]
HPDrainRate:4
CircleSize:3.8
OverallDifficulty:6
ApproachRate:7.8
SliderMultiplier:1.4
SliderTickRate:1

[Events]
//Background and Video events
0,0,"contest_background.jpg",0,0
//Break Periods
2,65092,66213
//Storyboard Layer 0 (Background)
//Storyboard Layer 1 (Fail)
//Storyboard Layer 2 (Pass)
//Storyboard Layer 3 (Foreground)
Sprite,Foreground,Centre,"bonzi.png",100,400 S,0,0,,0.5 P,0,0,145292,A F,0,4892,9692,0,1 F,0,9692,134492,1 F,0,134529,135692,1,0
//Storyboard Sound Samples

[TimingPoints]
92,300,4,2,3,30,1,0
92,-166.666666666667,4,2,3,30,0,0
9692,-166.666666666667,4,2,3,40,0,0
18092,-100,4,2,3,40,0,0
18692,-100,4,2,3,70,0,0
18767,-100,4,2,1,40,0,0
18842,-100,4,2,1,50,0,0
18992,-100,4,2,1,60,0,0
19142,-100,4,2,1,70,0,0
19292,-133.333333333333,4,2,0,50,0,0
19442,-133.333333333333,4,2,1,50,0,0
21692,-133.333333333333,4,2,3,50,0,0
24092,-133.333333333333,4,2,1,50,0,0
26192,-133.333333333333,4,2,3,50,0,0
28892,-133.333333333333,4,2,0,50,0,0
29043,-133.333333333333,4,2,1,50,0,0
31292,-133.333333333333,4,2,3,50,0,0
33692,-133.333333333333,4,2,1,50,0,0
36092,-133.333333333333,4,2,3,50,0,0
37292,-100,4,2,1,50,0,0
38492,-90.9090909090909,4,2,1,70,0,0
57692,-166.666666666667,4,2,0,40,0,0
57842,-166.666666666667,4,2,3,40,0,0
67292,-166.666666666667,4,2,0,40,0,0
67442,-166.666666666667,4,2,3,40,0,0
72092,-166.666666666667,4,2,3,50,0,0
75692,-100,4,2,3,60,0,0
76292,-100,4,2,3,70,0,0
76367,-100,4,2,1,40,0,0
76442,-100,4,2,1,50,0,0
76592,-100,4,2,1,60,0,0
76742,-100,4,2,1,70,0,0
76892,-133.333333333333,4,2,0,50,0,0
77042,-133.333333333333,4,2,3,40,0,0
86492,-133.333333333333,4,2,0,50,0,0
86642,-133.333333333333,4,2,3,40,0,0
93692,-100,4,2,3,45,0,0
93992,-100,4,2,3,50,0,0
94292,-100,4,2,3,55,0,0
94592,-100,4,2,3,60,0,0
94892,-100,4,2,3,70,0,0
95492,-100,4,2,0,50,0,0
96092,-90.9090909090909,4,2,0,70,0,0
96242,-90.9090909090909,4,2,1,70,0,0
98492,-90.9090909090909,4,2,0,70,0,0
98642,-90.9090909090909,4,2,1,70,0,0
100892,-90.9090909090909,4,2,0,70,0,0
101042,-90.9090909090909,4,2,1,70,0,0
103292,-90.9090909090909,4,2,0,70,0,0
103442,-90.9090909090909,4,2,1,70,0,0
105692,-90.9090909090909,4,2,0,70,0,0
105842,-90.9090909090909,4,2,1,70,0,0
108092,-90.9090909090909,4,2,0,70,0,0
108242,-90.9090909090909,4,2,1,70,0,0
110492,-90.9090909090909,4,2,0,70,0,0
110642,-90.9090909090909,4,2,1,70,0,0
112892,-90.9090909090909,4,2,0,70,0,0
113042,-90.9090909090909,4,2,1,70,0,0
114692,-90.9090909090909,4,2,3,70,0,0
114767,-90.9090909090909,4,2,1,40,0,0
114842,-90.9090909090909,4,2,1,50,0,0
114992,-90.9090909090909,4,2,1,60,0,0
115142,-90.9090909090909,4,2,1,70,0,0
115292,-80,4,2,0,90,0,1
115442,-80,4,2,1,80,0,1
115742,-80,4,2,1,100,0,1
115892,-80,4,2,1,80,0,1
116192,-80,4,2,1,100,0,1
116342,-80,4,2,1,80,0,1
116642,-80,4,2,1,100,0,1
116792,-80,4,2,1,80,0,1
117092,-80,4,2,1,100,0,1
117242,-80,4,2,1,80,0,1
117692,-80,4,2,0,90,0,1
117842,-80,4,2,1,80,0,1
118142,-80,4,2,1,100,0,1
118292,-80,4,2,1,80,0,1
118592,-80,4,2,1,100,0,1
118742,-80,4,2,1,80,0,1
119042,-80,4,2,1,100,0,1
119192,-80,4,2,1,80,0,1
120092,-80,4,2,0,90,0,1
120242,-80,4,2,1,80,0,1
120542,-80,4,2,1,100,0,1
120692,-80,4,2,1,80,0,1
120992,-80,4,2,1,100,0,1
121142,-80,4,2,1,80,0,1
121442,-80,4,2,1,100,0,1
121592,-80,4,2,1,80,0,1
121892,-80,4,2,1,100,0,1
122042,-80,4,2,1,80,0,1
122492,-80,4,2,0,90,0,1
122642,-80,4,2,1,80,0,1
124892,-80,4,2,0,90,0,1
125042,-80,4,2,1,80,0,1
125342,-80,4,2,1,100,0,1
125492,-80,4,2,1,80,0,1
125792,-80,4,2,1,100,0,1
125942,-80,4,2,1,80,0,1
126242,-80,4,2,1,100,0,1
126392,-80,4,2,1,80,0,1
126692,-80,4,2,1,100,0,1
126842,-80,4,2,1,80,0,1
127292,-80,4,2,0,90,0,1
127442,-80,4,2,1,80,0,1
127742,-80,4,2,1,100,0,1
127892,-80,4,2,1,80,0,1
128192,-80,4,2,1,100,0,1
128342,-80,4,2,1,80,0,1
128642,-80,4,2,1,100,0,1
128792,-80,4,2,1,80,0,1
129692,-80,4,2,1,90,0,0
130892,-80,4,2,1,90,0,1
131492,-80,4,2,1,90,0,0
132092,-80,4,2,1,90,0,1
132692,-80,4,2,1,90,0,0
133292,-80,4,2,1,90,0,1
133592,-80,4,2,1,90,0,0
133892,-80,4,2,1,90,0,1
134192,-80,4,2,1,90,0,0
134492,-144,4,2,1,90,0,1
134529,-144,4,2,2,50,0,0
135092,-144,4,2,1,40,0,0
135692,-144,4,2,2,30,0,0
136292,-144,4,2,1,20,0,0
136892,-144,4,2,1,10,0,0

[Colours]
Combo1 : 255,34,39
Combo2 : 142,171,247
Combo3 : 189,234,247
Combo4 : 251,225,138
Combo5 : 252,205,163
Combo6 : 249,134,208
Combo7 : 198,122,248
Combo8 : 255,201,13

[HitObjects]
153,79,92,6,0,P|99:63|35:103,2,125.999996154785,6|0|2,0:0|0:0|0:0,0:0:0:0:
105,148,1292,1,2,0:1:0:0:
105,148,1742,6,0,L|82:170,2,20.9999993591309,0|0|2,0:0|0:0|0:0,0:0:0:0:
161,210,2192,1,0,0:0:0:0:
100,268,2492,102,0,P|84:322|124:386,2,125.999996154785,2|2|2,0:0|0:0|0:0,0:0:0:0:
169,316,3692,1,2,0:1:0:0:
169,316,4892,5,6,0:0:0:0:
169,316,5342,102,0,L|191:338,2,20.9999993591309,0|0|2,0:0|0:0|0:0,0:0:0:0:
245,280,5792,1,2,0:0:0:0:
314,326,6092,6,0,L|408:334,1,83.9999974365235,2|0,0:0|0:0,0:0:0:0:
435,315,6542,2,0,P|377:295|368:233,1,125.999996154785,2|2,0:0|0:0,0:0:0:0:
432,184,7292,1,2,0:1:0:0:
432,184,7892,102,0,L|440:81,2,83.9999974365235,2|2|2,0:0|0:0|0:0,0:0:0:0:
432,184,9692,6,0,L|345:176,1,83.9999974365235,6|0,0:0|0:0,0:0:0:0:
285,226,10142,2,0,L|293:313,1,83.9999974365235,2|0,0:0|0:0,0:0:0:0:
347,372,10592,1,2,0:0:0:0:
346,371,10892,102,0,P|294:340|235:355,1,125.999996154785,2|0,0:1|0:0,0:0:0:0:
243,361,11417,1,0,0:0:0:0:
243,361,11492,2,0,P|200:385|153:373,1,83.9999974365235,2|0,0:0|0:0,0:0:0:0:
12,301,12092,6,0,L|99:309,1,83.9999974365235,2|0,0:0|0:0,0:0:0:0:
159,259,12542,2,0,L|151:172,1,83.9999974365235,2|0,0:0|0:0,0:0:0:0:
100,118,12992,1,2,0:0:0:0:
256,132,13292,101,2,0:1:0:0:
256,252,14492,5,0,1:0:0:0:
256,132,15692,101,0,1:0:0:0:
256,252,16892,5,0,1:0:0:0:
256,132,17492,101,0,1:0:0:0:
256,252,17792,1,0,1:0:0:0:
359,192,18092,86,0,L|398:195,3,35,0|0|0|0,3:0|3:0|3:0|3:0,0:0:0:0:
423,185,18392,2,0,L|448:215,3,35,0|0|0|0,3:0|3:0|3:0|3:0,0:0:0:0:
473,225,18692,6,0,L|469:264,3,35,4|0|0|0,3:2|3:0|3:0|3:0,0:0:0:0:
480,288,18992,2,0,L|449:313,3,35,0|0|0|0,3:0|3:0|3:0|3:0,0:0:0:0:
440,337,19292,38,0,L|312:326,1,105.000004005432,4|0,1:2|0:0,0:0:0:0:
260,296,19742,2,0,L|252:191,1,105.000004005432,2|0,0:0|0:0,0:0:0:0:
315,140,20192,2,0,L|419:148,2,105.000004005432,2|0|0,0:0|0:0|1:0,0:0:0:0:
261,82,20942,2,0,L|263:55,2,26.2500010013581,0|0|0,0:0|0:0|1:0,0:0:0:0:
199,131,21242,1,0,0:0:0:0:
64,91,21392,6,0,L|70:169,1,78.7500030040742,2|0,1:2|0:0,0:0:0:0:
55,182,21692,101,2,0:1:0:0:
55,182,22892,1,2,0:1:0:0:
55,182,23792,2,0,L|106:177,1,52.5000020027161,2|2,0:0|0:0,0:0:0:0:
171,130,24092,6,0,L|162:234,1,105.000004005432,6|0,1:2|0:0,0:0:0:0:
248,168,24542,2,0,L|240:273,1,105.000004005432,2|0,0:0|0:0,0:0:0:0:
324,216,24992,2,0,L|332:111,2,105.000004005432,2|0|0,0:0|0:0|1:0,0:0:0:0:
475,274,25742,101,0,0:0:0:0:
475,274,25817,1,0,0:0:0:0:
475,274,25892,2,0,L|347:286,1,105.000004005432,2|0,1:2|0:0,0:0:0:0:
324,216,26342,1,2,0:0:0:0:
359,363,26492,5,2,0:1:0:0:
359,363,27692,1,2,0:1:0:0:
359,363,28892,102,0,L|243:352,1,105.000004005432,4|0,1:0|0:0,0:0:0:0:
179,383,29342,2,0,L|169:278,1,105.000004005432,2|0,0:0|0:0,0:0:0:0:
160,196,29792,2,0,L|150:91,2,105.000004005432,2|0|0,0:0|0:0|1:0,0:0:0:0:
88,248,30542,2,0,L|51:252,2,26.2500010013581,0|0|0,0:0|0:0|1:0,0:0:0:0:
169,278,30842,1,0,0:0:0:0:
302,227,30992,6,0,L|293:314,1,78.7500030040742,2|0,1:2|0:0,0:0:0:0:
304,320,31292,101,2,0:1:0:0:
304,320,32492,1,2,0:1:0:0:
304,320,33392,2,0,L|230:326,1,52.5000020027161,2|2,0:0|0:0,0:0:0:0:
188,370,33692,6,0,L|197:265,1,105.000004005432,6|0,1:2|0:0,0:0:0:0:
114,329,34142,2,0,L|123:224,1,105.000004005432,2|0,0:0|0:0,0:0:0:0:
42,275,34592,2,0,L|32:379,2,105.000004005432,2|0|0,0:0|0:0|1:0,0:0:0:0:
123,224,35342,101,0,0:0:0:0:
123,224,35417,1,0,0:0:0:0:
123,224,35492,2,0,L|133:119,1,105.000004005432,2|2,0:0|0:0,0:0:0:0:
212,101,35942,1,0,0:0:0:0:
52,137,36092,5,2,0:1:0:0:
52,137,37292,38,0,L|58:208,2,70,8|0|8,0:3|3:0|0:3,0:0:0:0:
144,87,37742,6,0,L|148:36,2,35,0|0|8,3:0|3:0|0:3,0:0:0:0:
236,137,38042,2,0,L|240:187,5,35,0|0|0|0|0|0,0:0|0:0|0:0|0:0|0:0|0:0,0:0:0:0:
265,118,38492,70,0,L|272:30,1,77.0000023498536,6|2,3:0|0:3,0:0:0:0:
335,179,38792,1,10,0:3:0:0:
335,179,38942,2,0,P|348:218|336:258,1,77.0000023498536,2|0,0:3|0:0,0:0:0:0:
281,314,39242,2,0,P|349:273|427:293,2,154.000004699707,2|2|2,3:0|0:3|0:3,0:0:0:0:
201,284,39992,1,8,0:3:0:0:
134,336,40142,2,0,P|131:372|149:406,5,38.5000011749268,2|0|2|0|2|0,0:3|0:0|0:3|0:0|3:0|0:0,0:0:0:0:
121,315,40592,2,0,P|82:302|42:314,1,77.0000023498536,10|2,0:3|0:3,0:0:0:0:
201,284,40892,6,0,L|208:196,1,77.0000023498536,6|0,3:0|0:0,0:0:0:0:
155,149,41192,1,10,0:3:0:0:
155,149,41342,2,0,P|81:163|17:123,2,154.000004699707,2|0|2,0:3|3:0|0:3,0:0:0:0:
207,207,42092,1,0,3:0:0:0:
280,165,42242,2,0,P|293:204|281:244,1,77.0000023498536,2|8,0:3|0:3,0:0:0:0:
219,292,42542,2,0,P|199:293|181:289,2,38.5000011749268,2|0|2,0:3|0:0|0:3,0:0:0:0:
277,353,42842,2,0,P|295:348|314:350,5,38.5000011749268,2|0|10|0|2|0,3:0|0:0|0:3|0:0|0:0|0:0,0:0:0:0:
263,368,43292,102,0,P|323:326|484:356,2,231.000007049561,6|2|10,3:0|0:0|0:3,0:0:0:0:
219,292,44342,1,0,0:0:0:0:
142,329,44492,6,0,L|65:336,2,77.0000023498536,0|0|8,3:0|0:0|0:3,0:0:0:0:
219,292,44942,2,0,L|222:253,2,38.5000011749268,0|0|0,0:0|0:0|0:0,0:0:0:0:
263,368,45242,1,0,3:0:0:0:
344,336,45392,2,0,L|421:329,1,77.0000023498536,8|0,0:3|0:0,0:0:0:0:
420,329,45617,1,0,0:0:0:0:
420,329,45692,102,0,L|434:172,1,154.000004699707,6|10,3:0|0:3,0:0:0:0:
508,132,46142,2,0,L|354:146,1,154.000004699707,0|0,0:0|3:0,0:0:0:0:
308,72,46592,2,0,L|400:64,1,77.0000023498536,10|0,0:3|0:0,0:0:0:0:
280,180,46892,6,0,L|126:194,2,154.000004699707,6|8|6,3:0|0:3|0:3,0:0:0:0:
348,228,47642,1,2,3:0:0:0:
416,276,47792,2,0,L|492:269,1,77.0000023498536,14|2,0:3|0:0,0:0:0:0:
340,316,48092,102,0,L|244:324,1,77.0000023498536,6|2,3:0|0:3,0:0:0:0:
420,280,48392,1,10,0:3:0:0:
420,280,48542,2,0,P|433:319|421:359,1,77.0000023498536,2|0,0:3|0:0,0:0:0:0:
348,228,48842,2,0,P|335:189|347:149,1,77.0000023498536,2|8,3:0|0:3,0:0:0:0:
294,93,49142,2,0,P|362:134|440:114,2,154.000004699707,2|2|2,0:3|0:3|0:3,0:0:0:0:
214,123,49892,2,0,P|211:87|229:53,3,38.5000011749268,2|0|2|0,0:3|0:0|3:0|0:0,0:0:0:0:
220,64,50192,2,0,P|223:28|205:-6,3,38.5000011749268,10|0|0|0,0:3|0:0|0:0|0:0,0:0:0:0:
208,8,50492,6,0,L|124:0,1,77.0000023498536,6|0,3:0|0:0,0:0:0:0:
294,93,50792,1,10,0:3:0:0:
294,93,50942,2,0,P|333:106|373:94,1,77.0000023498536,2|0,0:0|0:0,0:0:0:0:
440,56,51242,2,0,P|479:43|519:55,1,77.0000023498536,2|8,3:0|0:3,0:0:0:0:
334,163,51542,102,0,P|340:125|366:97,1,77.0000023498536,2|0,0:3|3:0,0:0:0:0:
373,308,51842,2,0,P|343:283|332:247,1,77.0000023498536,2|8,0:3|0:3,0:0:0:0:
259,204,52142,2,0,P|222:196|187:209,1,77.0000023498536,2|0,0:3|0:0,0:0:0:0:
333,162,52442,2,0,P|359:134|366:97,1,77.0000023498536,2|8,3:0|0:3,0:0:0:0:
284,56,52742,5,2,0:3:0:0:
284,56,52817,1,0,0:0:0:0:
284,56,52892,2,0,L|289:123,4,38.5000011749268,2|0|2|0|14,3:0|0:0|0:3|0:0|0:3,0:0:0:0:
204,84,53342,2,0,L|209:151,4,38.5000011749268,2|0|2|0|6,0:3|0:0|0:3|0:0|3:0,0:0:0:0:
120,48,53792,102,0,L|125:115,10,38.5000011749268,10|0|2|0|6|0|0|0|10|0|2,0:3|0:0|0:3|0:0|3:0|0:0|0:0|0:0|0:3|0:0|0:3,0:0:0:0:
40,76,54692,2,0,L|45:143,7,38.5000011749268,2|0|2|0|10|0|2|0,0:3|0:0|3:0|0:0|0:3|0:0|0:3|0:0,0:0:0:0:
45,50,55292,6,0,P|5:113|19:187,1,154.000004699707,6|10,3:0|0:3,0:0:0:0:
81,246,55742,2,0,P|95:319|55:383,2,154.000004699707,2|2|0,0:3|3:0|0:0,0:0:0:0:
81,246,56417,1,0,3:0:0:0:
88,253,56492,6,0,L|175:260,1,77.0000023498536,8|0,0:3|3:0,0:0:0:0:
248,232,56792,2,0,L|335:239,1,77.0000023498536,8|0,0:3|3:0,0:0:0:0:
325,238,57017,1,0,3:0:0:0:
325,238,57092,2,0,L|332:325,1,77.0000023498536,8|0,0:3|3:0,0:0:0:0:
280,380,57392,1,8,0:3:0:0:
412,340,57542,6,0,L|450:343,2,38.5000011749268,0|0|4,3:0|3:0|1:0,0:0:0:0:
412,340,58142,5,2,0:0:0:0:
331,314,58292,1,8,0:0:0:0:
331,314,59042,5,0,3:0:0:0:
412,340,59192,2,0,L|404:256,1,83.9999974365235,0|8,3:0|0:0,0:0:0:0:
404,256,60092,102,0,L|273:244,1,125.999996154785,2|2,3:2|0:0,0:0:0:0:
212,296,60692,2,0,L|128:303,1,83.9999974365235,8|0,0:0|3:0,0:0:0:0:
128,303,61592,2,0,L|135:219,1,83.9999974365235,0|8,3:0|0:0,0:0:0:0:
135,219,62492,6,0,L|265:207,1,125.999996154785,2|2,3:2|0:0,0:0:0:0:
336,240,63092,1,8,0:0:0:0:
336,240,63842,101,2,3:2:0:0:
404,188,63992,2,0,L|411:100,1,83.9999974365235,0|10,0:0|0:0,0:0:0:0:
411,104,64892,1,0,0:0:0:0:
411,104,66992,5,2,0:0:0:0:
411,104,67292,102,0,L|280:115,1,125.999996154785,4|2,1:0|0:0,0:0:0:0:
219,64,67892,2,0,L|135:56,1,83.9999974365235,8|0,0:0|0:0,0:0:0:0:
135,56,68642,5,0,3:0:0:0:
72,112,68792,2,0,L|79:195,1,83.9999974365235,0|8,3:0|0:0,0:0:0:0:
79,195,69692,102,0,L|209:206,1,125.999996154785,2|2,3:2|0:0,0:0:0:0:
284,236,70292,2,0,L|277:153,1,83.9999974365235,8|0,0:0|3:0,0:0:0:0:
276,152,71192,1,0,0:0:0:0:
256,324,71492,1,8,0:0:0:0:
256,324,72092,5,0,3:0:0:0:
256,60,73292,101,0,3:0:0:0:
256,247,74492,5,0,3:0:0:0:
256,136,74942,1,0,3:0:0:0:
256,136,75092,101,8,0:0:0:0:
256,247,75392,1,0,3:0:0:0:
160,191,75692,86,0,L|121:194,3,35,0|0|0|0,3:0|3:0|3:0|3:0,0:0:0:0:
96,184,75992,2,0,L|71:214,3,35,0|0|0|0,3:0|3:0|3:0|3:0,0:0:0:0:
46,224,76292,6,0,L|50:263,3,35,4|0|0|0,3:2|3:0|3:0|3:0,0:0:0:0:
39,287,76592,2,0,L|70:312,3,35,0|0|0|0,3:0|3:0|3:0|3:0,0:0:0:0:
79,336,76892,38,0,L|191:326,1,105.000004005432,4|2,1:0|0:0,0:0:0:0:
260,360,77342,2,0,L|368:350,2,105.000004005432,2|2|2,0:0|0:0|0:0,0:0:0:0:
184,326,78092,1,2,0:1:0:0:
184,326,78992,2,0,L|110:332,1,52.5000020027161,2|2,0:0|0:0,0:0:0:0:
52,360,79292,6,0,L|62:248,1,105.000004005432,2|2,3:1|0:0,0:0:0:0:
28,179,79742,2,0,L|38:71,1,105.000004005432,2|2,0:0|0:0,0:0:0:0:
104,24,80192,1,0,0:0:0:0:
148,96,80342,102,0,L|253:86,3,105.000004005432,2|2|2|2,0:0|0:0|0:0|0:0,0:0:0:0:
320,36,81392,2,0,L|394:30,1,52.5000020027161,0|2,0:0|0:0,0:0:0:0:
436,88,81692,6,0,L|426:200,1,105.000004005432,2|2,3:1|0:0,0:0:0:0:
460,269,82142,2,0,L|450:377,2,105.000004005432,2|2|2,0:0|0:0|0:0,0:0:0:0:
427,192,82892,1,2,0:1:0:0:
256,192,84092,101,2,0:1:0:0:
85,192,85292,5,2,0:1:0:0:
85,192,86492,102,0,L|76:88,1,105.000004005432,4|2,1:0|0:0,0:0:0:0:
52,269,86942,2,0,L|62:377,2,105.000004005432,2|2|2,0:0|0:0|0:0,0:0:0:0:
85,192,87692,1,2,0:1:0:0:
85,192,88592,2,0,L|78:119,1,52.5000020027161,2|2,0:0|0:0,0:0:0:0:
120,68,88892,6,0,L|15:58,1,105.000004005432,2|2,3:1|0:0,0:0:0:0:
197,34,89342,2,0,L|305:44,1,105.000004005432,2|2,0:0|0:0,0:0:0:0:
359,105,89792,1,0,0:0:0:0:
435,69,89942,102,0,L|444:173,3,105.000004005432,2|2|2|2,0:1|3:2|0:0|0:0,0:0:0:0:
410,250,90992,2,0,L|417:325,1,52.5000020027161,2|2,0:0|0:0,0:0:0:0:
448,379,91292,6,0,L|344:370,1,105.000004005432,2|2,3:1|0:0,0:0:0:0:
259,362,91742,2,0,L|155:353,1,105.000004005432,2|2,0:0|0:0,0:0:0:0:
74,380,92192,1,0,0:0:0:0:
30,308,92342,102,0,L|18:180,3,105.000004005432,2|2|2|2,0:0|0:0|0:0|0:0,0:0:0:0:
97,169,93392,2,0,L|101:221,1,52.5000020027161,0|2,0:0|0:0,0:0:0:0:
29,120,93692,54,0,L|32:85,7,35,2|0|2|0|2|0|2|0,3:1|0:0|0:0|0:0|0:0|0:0|0:0|0:0,0:0:0:0:
44,105,94292,2,0,L|47:70,7,35,2|0|2|0|2|0|2|0,3:2|0:0|0:0|0:0|3:2|0:0|0:0|0:0,0:0:0:0:
59,90,94892,2,0,L|62:55,7,35,0|0|0|0|0|0|0|0,3:0|3:0|3:0|3:0|3:0|3:0|3:0|3:0,0:0:0:0:
74,75,95492,6,0,L|109:78,3,35,2|2|2|2,0:3|0:3|0:3|0:3,0:0:0:0:
134,70,95792,2,0,L|169:73,3,35,0|0|0|0,1:0|1:0|1:0|1:0,0:0:0:0:
199,90,96092,70,0,L|190:-5,1,77.0000023498536,4|0,1:0|0:0,0:0:0:0:
139,152,96392,1,10,0:3:0:0:
139,152,96542,2,0,P|126:191|138:231,1,77.0000023498536,2|0,0:3|0:0,0:0:0:0:
193,287,96842,2,0,P|125:246|47:266,2,154.000004699707,2|2|2,3:0|0:3|3:2,0:0:0:0:
273,257,97592,1,8,0:3:0:0:
340,309,97742,2,0,P|353:348|341:388,1,77.0000023498536,2|0,0:3|0:0,0:0:0:0:
320,191,98042,1,2,3:0:0:0:
320,191,98192,2,0,P|356:188|390:206,3,38.5000011749268,10|2|2|2,0:3|0:3|0:3|0:3,0:0:0:0:
372,204,98492,6,0,L|461:211,1,77.0000023498536,4|0,1:0|0:0,0:0:0:0:
277,261,98792,1,10,0:3:0:0:
277,261,98942,2,0,P|202:247|139:287,1,154.000004699707,2|2,0:3|3:0,0:0:0:0:
72,228,99392,1,8,0:3:0:0:
4,280,99542,2,0,P|-8:316|0:353,1,77.0000023498536,2|0,0:3|3:0,0:0:0:0:
76,232,99842,2,0,P|50:203|14:192,1,77.0000023498536,2|8,3:0|0:3,0:0:0:0:
73,319,100142,2,0,P|110:311|138:285,1,77.0000023498536,2|0,0:3|0:0,0:0:0:0:
208,240,100442,2,0,P|212:202|196:167,2,77.0000023498536,2|10|2,3:0|0:3|0:3,0:0:0:0:
250,313,100892,102,0,P|313:273|387:287,1,154.000004699707,4|10,1:0|0:3,0:0:0:0:
448,346,101342,2,0,P|408:282|422:208,1,154.000004699707,2|2,0:0|3:0,0:0:0:0:
487,153,101792,1,8,0:3:0:0:
436,88,101942,2,0,P|444:50|432:14,1,77.0000023498536,2|0,0:3|3:0,0:0:0:0:
312,184,102242,2,0,P|348:172|373:144,1,77.0000023498536,2|8,3:0|0:3,0:0:0:0:
166,124,102542,2,0,P|194:149|231:157,1,77.0000023498536,2|0,0:3|0:0,0:0:0:0:
243,311,102842,2,0,P|235:274|247:238,2,77.0000023498536,2|10|2,3:0|0:3|0:3,0:0:0:0:
184,372,103292,6,0,P|247:332|321:346,1,154.000004699707,4|10,1:0|0:3,0:0:0:0:
400,316,103742,2,0,P|431:336|448:370,1,77.0000023498536,2|0,0:3|0:0,0:0:0:0:
368,240,104042,2,0,P|355:203|363:166,1,77.0000023498536,2|8,3:0|0:3,0:0:0:0:
428,112,104342,2,0,P|440:75|432:38,1,77.0000023498536,2|0,0:3|3:0,0:0:0:0:
288,44,104642,2,0,P|281:81|293:117,1,77.0000023498536,2|8,3:0|0:3,0:0:0:0:
362,166,104942,2,0,P|299:126|225:141,1,154.000004699707,2|2,0:3|3:0,0:0:0:0:
140,160,105392,2,0,P|135:141|137:122,3,38.5000011749268,10|2|2|2,0:3|0:3|0:3|0:3,0:0:0:0:
148,100,105692,102,0,L|155:12,1,77.0000023498536,4|0,1:0|0:0,0:0:0:0:
224,141,105992,1,10,0:3:0:0:
224,141,106142,2,0,P|237:180|225:220,1,77.0000023498536,2|0,0:3|0:0,0:0:0:0:
170,276,106442,2,0,P|238:235|316:255,2,154.000004699707,2|2|2,3:0|0:3|3:0,0:0:0:0:
90,246,107192,1,8,0:3:0:0:
23,298,107342,2,0,P|10:333|18:370,1,77.0000023498536,2|0,0:3|0:0,0:0:0:0:
43,180,107642,1,2,3:0:0:0:
43,180,107792,2,0,P|46:144|28:110,3,38.5000011749268,10|2|2|2,0:3|0:3|0:3|0:3,0:0:0:0:
36,124,108092,6,0,L|28:36,1,77.0000023498536,4|0,1:0|0:0,0:0:0:0:
132,172,108392,1,10,0:3:0:0:
132,172,108542,2,0,P|205:157|269:197,2,154.000004699707,2|2|2,0:3|3:0|0:3,0:0:0:0:
94,250,109292,1,0,3:0:0:0:
152,312,109442,2,0,P|165:347|157:384,1,77.0000023498536,2|8,3:0|0:3,0:0:0:0:
33,290,109742,2,0,P|56:261|92:249,1,77.0000023498536,2|0,0:3|0:0,0:0:0:0:
204,182,110042,2,0,P|166:188|132:172,2,77.0000023498536,2|10|2,3:0|0:3|0:3,0:0:0:0:
40,120,110492,102,0,P|113:135|177:95,1,154.000004699707,4|10,1:0|0:3,0:0:0:0:
260,76,110942,2,0,P|271:39|265:2,1,77.0000023498536,2|0,0:3|0:0,0:0:0:0:
204,182,111242,2,0,P|197:219|208:256,1,77.0000023498536,2|8,3:0|0:3,0:0:0:0:
352,132,111542,2,0,P|314:137|282:159,1,77.0000023498536,6|0,0:3|3:0,0:0:0:0:
445,257,111842,2,0,P|428:222|397:198,1,77.0000023498536,6|8,3:0|0:3,0:0:0:0:
354,384,112142,2,0,P|381:357|394:321,1,77.0000023498536,6|0,0:3|0:0,0:0:0:0:
205,336,112442,2,0,P|238:354|277:355,1,77.0000023498536,2|8,3:0|0:3,0:0:0:0:
208,256,112742,5,2,0:3:0:0:
152,196,112892,2,0,B|76:176|80:224|0:200,1,154.000004699707,4|10,1:0|0:3,0:0:0:0:
40,128,113342,2,0,P|28:91|35:53,1,77.0000023498536,2|0,0:3|0:0,0:0:0:0:
120,268,113642,2,0,P|126:305|115:342,1,77.0000023498536,2|8,3:0|0:3,0:0:0:0:
228,163,113942,2,0,L|301:169,2,38.5000011749268,0|0|8,0:0|3:0|0:3,0:0:0:0:
152,196,114242,5,2,3:0:0:0:
152,196,114317,1,0,0:0:0:0:
152,196,114392,2,0,L|145:122,3,38.5000011749268,10|0|2|0,0:3|0:0|3:0|3:0,0:0:0:0:
160,131,114692,2,0,L|153:57,3,38.5000011749268,6|2|2|2,3:2|0:0|3:0|0:0,0:0:0:0:
168,66,114992,2,0,L|161:-8,3,38.5000011749268,10|2|2|2,0:3|0:0|3:0|0:0,0:0:0:0:
138,10,115292,86,0,L|225:17,2,87.5,4|2|8,1:0|0:3|0:3,0:0:0:0:
156,92,115742,2,0,L|243:99,2,87.5,6|2|0,0:3|0:3|3:0,0:0:0:0:
174,174,116192,2,0,L|261:181,2,87.5,14|2|0,0:3|0:3|3:0,0:0:0:0:
192,256,116642,2,0,L|279:263,2,87.5,6|10|0,3:0|0:3|0:0,0:0:0:0:
149,332,117092,2,0,L|62:325,1,87.5,6|2,0:3|3:0,0:0:0:0:
0,262,117392,1,8,0:3:0:0:
76,150,117542,5,2,0:3:0:0:
76,150,117617,1,2,0:3:0:0:
76,150,117692,2,0,L|84:238,1,87.5,4|2,1:0|0:3,0:0:0:0:
2,90,117992,1,8,0:3:0:0:
72,36,118142,2,0,L|247:51,1,175,6|0,0:3|3:0,0:0:0:0:
336,88,118592,1,14,0:3:0:0:
336,88,118742,2,0,L|326:-15,1,87.5,2|0,0:3|3:0,0:0:0:0:
264,140,119042,2,0,L|272:227,2,87.5,6|14|6,3:0|0:3|0:3,0:0:0:0:
340,288,119492,102,0,L|384:292,3,43.75,2|0|2|0,0:3|0:0|3:0|0:0,0:0:0:0:
416,296,119792,2,0,L|460:300,3,43.75,10|0|2|0,0:3|0:0|0:3|0:0,0:0:0:0:
480,328,120092,6,0,B|498:288|498:288|485:228,2,87.5,4|2|10,1:0|0:3|0:3,0:0:0:0:
318,347,120542,2,0,B|360:352|360:352|414:321,2,87.5,6|2|0,0:3|0:3|3:0,0:0:0:0:
249,199,120992,2,0,B|257:241|257:241|303:282,2,87.5,14|2|0,0:3|0:3|3:0,0:0:0:0:
368,87,121442,2,0,B|330:108|330:108|305:164,2,87.5,6|10|0,3:0|0:3|0:0,0:0:0:0:
511,166,121892,2,0,B|479:136|479:136|417:130,1,87.5,6|2,0:3|3:0,0:0:0:0:
384,200,122192,1,8,0:3:0:0:
312,148,122342,101,2,0:3:0:0:
312,148,122417,1,2,0:3:0:0:
312,148,122492,2,0,L|124:131,1,175,4|10,1:0|0:3,0:0:0:0:
108,48,122942,2,0,L|124:232,1,175,0|0,0:0|3:0,0:0:0:0:
48,264,123392,2,0,L|38:150,1,87.5,10|0,0:3|0:0,0:0:0:0:
184,288,123692,2,0,L|191:375,2,87.5,6|0|14,3:0|3:0|0:3,0:0:0:0:
123,222,124142,1,0,0:0:0:0:
204,184,124292,6,0,L|248:188,3,43.75,6|2|6|2,0:3|0:3|3:0|0:3,0:0:0:0:
280,192,124592,2,0,L|324:196,3,43.75,14|2|6|2,0:3|0:3|0:3|0:3,0:0:0:0:
356,160,124892,102,0,L|348:72,2,87.5,4|2|8,1:0|0:3|0:3,0:0:0:0:
272,116,125342,2,0,L|264:28,2,87.5,6|2|0,0:3|0:3|3:0,0:0:0:0:
196,156,125792,2,0,L|188:68,2,87.5,14|2|0,0:3|0:3|3:0,0:0:0:0:
112,112,126242,2,0,L|104:24,2,87.5,6|10|0,3:0|0:3|0:0,0:0:0:0:
36,156,126692,2,0,L|44:244,1,87.5,6|2,0:3|3:0,0:0:0:0:
124,276,126992,1,8,0:3:0:0:
88,356,127142,5,2,0:3:0:0:
88,356,127217,1,2,0:3:0:0:
88,356,127292,2,0,L|0:348,1,87.5,4|2,1:0|0:3,0:0:0:0:
204,320,127592,1,8,0:3:0:0:
204,320,127742,2,0,L|378:335,1,175,6|0,0:3|3:0,0:0:0:0:
400,252,128192,1,14,0:3:0:0:
480,288,128342,2,0,L|488:376,1,87.5,2|0,0:3|3:0,0:0:0:0:
404,256,128642,2,0,L|396:168,2,87.5,6|14|6,3:0|0:3|0:3,0:0:0:0:
488,92,129092,102,0,L|480:188,1,87.5,2|2,0:3|3:0,0:0:0:0:
356,92,129392,2,0,L|364:4,1,87.5,10|2,0:3|0:3,0:0:0:0:
396,168,129692,6,0,P|324:123|240:141,1,175,6|10,3:0|0:3,0:0:0:0:
168,192,130142,1,2,0:3:0:0:
168,192,130217,1,2,0:3:0:0:
168,192,130292,2,0,L|76:183,1,87.5,6|0,3:0|0:0,0:0:0:0:
7,135,130592,2,0,L|4:92,2,43.75,14|0|0,0:3|0:0|0:0,0:0:0:0:
80,183,130892,102,0,P|94:225|81:269,1,87.5,6|2,3:0|3:0,0:0:0:0:
20,324,131192,1,8,0:3:0:0:
92,380,131342,1,6,3:0:0:0:
92,380,131417,1,0,3:0:0:0:
92,380,131492,2,0,L|183:371,1,87.5,6|0,3:0|3:0,0:0:0:0:
195,283,131792,2,0,L|191:231,2,43.75,8|0|0,3:0|3:0|3:0,0:0:0:0:
276,316,132092,6,0,P|318:305|359:319,1,87.5,6|0,3:0|3:0,0:0:0:0:
420,380,132392,1,8,0:3:0:0:
496,340,132542,1,0,3:0:0:0:
496,340,132617,1,0,3:0:0:0:
496,340,132692,2,0,L|488:252,1,87.5,6|0,3:0|3:0,0:0:0:0:
418,199,132992,2,0,L|374:195,2,43.75,8|0|0,3:0|3:0|3:0,0:0:0:0:
490,150,133292,6,0,P|503:109|493:67,1,87.5,14|14,3:0|3:0,0:0:0:0:
438,2,133592,2,0,P|416:3|396:11,3,43.75,14|8|8|8,3:0|3:0|3:0|3:0,0:0:0:0:
377,35,133892,2,0,L|273:25,1,87.5,10|2,3:0|3:0,0:0:0:0:
232,88,134192,2,0,P|211:80|189:79,3,43.75,2|2|2|2,3:0|3:0|3:0|3:0,0:0:0:0:
256,106,134492,22,0,B|275:4|155:-77|19:-8|-20:156|100:252|125:124|264:248|161:393|58:407|-51:371|-64:253|-4:163|76:194,1,777.777777777778,4|0,1:0|0:0,0:0:0:0:
