osu file format v14

[General]
AudioFilename: adaptor - LAISSEZ FAIRE.mp3
AudioLeadIn: 0
PreviewTime: 57617
Countdown: 0
SampleSet: Soft
StackLeniency: 0.7
Mode: 0
LetterboxInBreaks: 0
EpilepsyWarning: 1
WidescreenStoryboard: 1

[Editor]
Bookmarks: 92,19292,28892,38492,48092,57692,67292,76892,86492,96092,105692,115292,124892,134492,139292
DistanceSpacing: 1.5
BeatDivisor: 4
GridSize: 4
TimelineZoom: 1

[Metadata]
Title:LAISSEZ:FAIRE
TitleUnicode:LAISSEZ: FAIRE
Artist:adaptor
ArtistUnicode:adaptor
Creator:Gero
Version:Nhawakversible's Extra
Source:nanobeat
Tags:osu!International Mapping Contest o!imc #1 Artcore Voli Nhawak Irreversible #SRV Sassy Ravioli Vortex
BeatmapID:1419606
BeatmapSetID:671405

[Difficulty]
HPDrainRate:6.2
CircleSize:4.7
OverallDifficulty:8.5
ApproachRate:9.3
SliderMultiplier:1.63
SliderTickRate:1

[Events]
//Background and Video events
0,0,"BG.jpg",0,0
//Break Periods
//Storyboard Layer 0 (Background)
//Storyboard Layer 1 (Fail)
//Storyboard Layer 2 (Pass)
//Storyboard Layer 3 (Foreground)
Sprite,Foreground,Centre,"Winners\Nhawak.png",320,240 M,0,-208,,440,398 S,0,-208,,0.6586666 F,0,-208,92,0,1 R,0,92,,-0.1493329 F,0,92,18692,1 F,0,18692,18992,1,0
Sprite,Foreground,Centre,"Winners\Irreversible.png",320,240 M,0,18992,,440,398 S,0,18992,,0.6586666 F,0,18992,19292,0,1 R,0,19292,,-0.1493329 F,0,19292,28292,1 F,0,28292,28592,1,0
Sprite,Foreground,Centre,"Winners\Nhawak.png",320,240 M,0,28592,,440,398 S,0,28592,,0.6586666 F,0,28592,28892,0,1 R,0,28892,,-0.1493329 F,0,28892,37892,1 F,0,37892,38192,1,0
Sprite,Foreground,Centre,"Winners\Irreversible.png",320,240 M,0,38192,,440,398 S,0,38192,,0.6586666 F,0,38192,38492,0,1 R,0,38492,,-0.1493329 F,0,38492,47492,1 F,0,47492,47792,1,0
Sprite,Foreground,Centre,"Winners\Nhawak.png",320,240 M,0,47792,,440,398 S,0,47792,,0.6586666 F,0,47792,48092,0,1 R,0,48092,,-0.1493329 F,0,48092,57092,1 F,0,57092,57392,1,0
Sprite,Foreground,Centre,"Winners\Irreversible.png",320,240 M,0,57392,,440,398 S,0,57392,,0.6586666 F,0,57392,57692,0,1 R,0,57692,,-0.1493329 F,0,57692,66692,1 F,0,66692,66992,1,0
Sprite,Foreground,Centre,"Winners\Nhawak.png",320,240 M,0,66992,,440,398 S,0,66992,,0.6586666 F,0,66992,67292,0,1 R,0,67292,,-0.1493329 F,0,67292,76292,1 F,0,76292,76592,1,0
Sprite,Foreground,Centre,"Winners\Irreversible.png",320,240 M,0,76592,,440,398 S,0,76592,,0.6586666 F,0,76592,76892,0,1 R,0,76892,,-0.1493329 F,0,76892,85892,1 F,0,85892,86192,1,0
Sprite,Foreground,Centre,"Winners\Nhawak.png",320,240 M,0,86192,,440,398 S,0,86192,,0.6586666 F,0,86192,86492,0,1 R,0,86492,,-0.1493329 F,0,86492,95492,1 F,0,95492,95792,1,0
Sprite,Foreground,Centre,"Winners\Irreversible.png",320,240 M,0,95792,,440,398 S,0,95792,,0.6586666 F,0,95792,96092,0,1 R,0,96092,,-0.1493329 F,0,96092,105092,1 F,0,105092,105392,1,0
Sprite,Foreground,Centre,"Winners\Nhawak.png",320,240 M,0,105392,,440,398 S,0,105392,,0.6586666 F,0,105392,105692,0,1 R,0,105692,,-0.1493329 F,0,105692,114692,1 F,0,114692,114992,1,0
Sprite,Foreground,Centre,"Winners\Irreversible.png",320,240 M,0,114992,,440,398 S,0,114992,,0.6586666 F,0,114992,115292,0,1 R,0,115292,,-0.1493329 F,0,115292,124292,1 F,0,124292,124592,1,0
Sprite,Foreground,Centre,"Winners\Nhawak.png",320,240 M,0,124592,,440,398 S,0,124592,,0.6586666 F,0,124592,124892,0,1 R,0,124892,,-0.1493329 F,0,124892,133892,1 F,0,133892,134192,1,0
Sprite,Foreground,Centre,"Winners\Gero.png",320,240 M,0,134192,,440,398 S,0,134192,,0.6586666 F,0,134192,134492,0,1 R,0,134492,,-0.1493329 F,0,134492,139292,1,0
Sprite,Foreground,Centre,"Winners\SRV.png",320,240 M,0,-208,,467,441 S,0,-208,,0.4560003 F,0,-208,92,0,1 R,0,92,,-0.1493329 F,0,92,134567,1,0.98
//Storyboard Sound Samples

[TimingPoints]
92,300,4,2,0,35,1,0
392,-100,4,2,0,5,0,0
542,-100,4,2,0,35,0,0
842,-100,4,2,0,5,0,0
917,-100,4,2,0,35,0,0
992,-100,4,2,0,35,0,0
1067,-100,4,2,0,5,0,0
1292,-100,4,2,0,35,0,0
2492,-125,4,2,0,35,0,0
4892,-100,4,2,0,35,0,0
8492,-500,4,2,0,35,0,0
8592,-500,4,2,0,5,0,0
9692,-100,4,2,0,45,0,0
14492,-100,4,2,0,60,0,0
19292,-133.333333333333,4,2,0,45,0,0
28292,-500,4,2,0,45,0,0
28892,-133.333333333333,4,2,0,45,0,0
34067,-133.333333333333,4,2,0,5,0,0
34142,-133.333333333333,4,2,0,45,0,0
34517,-133.333333333333,4,2,0,5,0,0
34592,-133.333333333333,4,2,0,45,0,0
34967,-133.333333333333,4,2,0,5,0,0
35042,-133.333333333333,4,2,0,45,0,0
37292,-133.333333333333,4,2,0,60,0,0
38492,-100,4,2,0,60,0,0
57692,-200,4,2,0,60,0,0
57842,-200,4,2,0,35,0,0
59792,-200,4,2,0,35,0,0
67292,-133.333333333333,4,2,0,45,0,0
72092,-100,4,2,0,60,0,0
76892,-125,4,2,0,60,0,0
77117,-125,4,2,0,5,0,0
77192,-125,4,2,0,45,0,0
77267,-125,4,2,0,5,0,0
77342,-125,4,2,0,45,0,0
77567,-125,4,2,0,5,0,0
77642,-125,4,2,0,45,0,0
77867,-125,4,2,0,5,0,0
77942,-200,4,2,0,45,0,0
78917,-200,4,2,0,5,0,0
78992,-125,4,2,0,45,0,0
79292,-125,4,2,0,45,0,0
79517,-125,4,2,0,5,0,0
79592,-125,4,2,0,45,0,0
86717,-125,4,2,0,5,0,0
86792,-125,4,2,0,45,0,0
86867,-125,4,2,0,5,0,0
86942,-125,4,2,0,45,0,0
87167,-125,4,2,0,5,0,0
87242,-125,4,2,0,45,0,0
87467,-125,4,2,0,5,0,0
87542,-200,4,2,0,45,0,0
88517,-200,4,2,0,5,0,0
88592,-125,4,2,0,45,0,0
89117,-125,4,2,0,5,0,0
89192,-125,4,2,0,45,0,0
91292,-125,4,2,0,60,0,0
96092,-100,4,2,0,60,0,0
108317,-100,4,2,0,5,0,0
108392,-100,4,2,0,60,0,0
115292,-100,4,2,0,80,0,1
124292,-100,4,2,0,80,0,0
124892,-100,4,2,0,80,0,1
134492,-257,4,2,0,100,0,0
134567,-257,4,2,0,5,0,0

[Colours]
Combo1 : 193,193,255
Combo2 : 252,214,245
Combo3 : 168,255,255

[HitObjects]
76,207,92,6,0,B|124:163|124:163|248:187,1,163,2|0,3:2|0:0,0:0:0:0:
364,156,542,2,0,B|316:200|316:200|219:181,1,163,2|0,3:2|0:0,0:0:0:0:
212,141,992,6,0,L|219:181,1,40.75,2|0,3:2|0:0,0:0:0:0:
198,61,1292,1,2,3:2:0:0:
227,220,1742,6,0,L|220:181,1,40.75,2|2,3:2|0:0,0:0:0:0:
198,60,1892,2,0,L|228:221,1,163,2|2,3:2|3:2,0:0:0:0:
415,244,2492,6,0,B|299:271|340:179|207:228,1,195.6,2|2,3:2|3:2,0:0:0:0:
136,287,3392,1,2,3:2:0:0:
228,221,3692,1,2,0:0:0:0:
228,221,4892,5,2,3:2:0:0:
228,221,5342,2,0,L|222:169,1,40.75,2|2,3:2|0:0,0:0:0:0:
204,28,5492,2,0,B|206:62|206:62|222:89|222:89|210:124|210:124|224:148|224:148|222:198,1,163,2|2,3:2|3:2,0:0:0:0:
170,295,6092,6,0,P|248:306|312:258,1,163,2|2,3:2|3:2,0:0:0:0:
153,209,6542,2,0,B|114:199|78:226|78:226|41:249|-18:243|-18:243|27:248|50:287,1,244.5,2|2,3:2|3:2,0:0:0:0:
104,127,7292,5,2,3:2:0:0:
170,295,7817,1,2,0:0:0:0:
170,295,7892,1,2,3:2:0:0:
104,127,8192,1,2,3:2:0:0:
285,151,8492,6,0,P|236:185|176:184,1,122.25,2|0,3:2|0:0,0:0:0:0:
104,127,9692,5,2,3:2:0:0:
171,101,9842,1,0,0:0:0:0:
238,75,9992,1,0,0:0:0:0:
111,210,10142,5,2,3:2:0:0:
177,184,10292,1,0,0:0:0:0:
245,158,10442,1,0,0:0:0:0:
118,293,10592,5,2,3:2:0:0:
185,267,10742,1,0,0:0:0:0:
252,241,10892,1,2,3:2:0:0:
125,376,11042,5,0,0:0:0:0:
192,350,11192,1,0,0:0:0:0:
259,324,11342,1,2,3:2:0:0:
259,324,11417,1,2,3:2:0:0:
259,324,11492,5,2,3:2:0:0:
118,293,11642,1,0,0:0:0:0:
252,241,11792,1,2,3:2:0:0:
111,210,11942,1,0,0:0:0:0:
111,210,12017,1,0,0:0:0:0:
111,210,12092,5,2,3:2:0:0:
118,293,12242,1,0,0:0:0:0:
125,376,12392,1,0,0:0:0:0:
178,184,12542,5,2,3:2:0:0:
185,267,12692,1,0,0:0:0:0:
192,350,12842,1,0,0:0:0:0:
245,158,12992,5,2,3:2:0:0:
252,241,13142,1,0,0:0:0:0:
259,324,13292,1,2,3:2:0:0:
312,132,13442,5,0,0:0:0:0:
319,215,13592,1,0,0:0:0:0:
326,298,13742,1,0,0:0:0:0:
185,267,13892,5,0,0:0:0:0:
319,215,14042,1,0,0:0:0:0:
179,185,14192,1,2,0:0:0:0:
181,225,14267,1,2,0:0:0:0:
184,266,14342,1,2,0:0:0:0:
187,306,14417,1,2,0:0:0:0:
190,347,14492,6,0,B|114:317|90:228|90:228|88:327|-2:392,1,326,4|2,3:0|3:2,0:0:0:0:
22,372,15392,1,0,3:0:0:0:
398,229,15692,6,0,B|356:220|343:188|343:188|315:208|279:192|279:192|258:248|188:242|188:242|227:253|247:304,1,326,4|2,3:0|3:2,0:0:0:0:
242,292,16592,5,0,3:0:0:0:
181,127,16892,1,4,3:0:0:0:
377,6,17492,1,0,3:0:0:0:
317,171,17792,1,0,3:0:0:0:
153,66,18092,5,8,3:0:0:0:
148,90,18167,1,8,3:0:0:0:
154,114,18242,1,8,3:0:0:0:
168,134,18317,1,8,3:0:0:0:
188,147,18392,1,8,3:0:0:0:
212,151,18467,1,8,3:0:0:0:
236,146,18542,1,8,3:0:0:0:
256,132,18617,1,8,3:0:0:0:
267,112,18692,5,0,3:0:0:0:
305,96,18767,1,0,3:0:0:0:
345,102,18842,1,0,3:0:0:0:
376,127,18917,1,0,3:0:0:0:
389,166,18992,1,4,3:0:0:0:
403,204,19067,1,4,3:0:0:0:
434,229,19142,1,4,3:0:0:0:
474,235,19217,1,4,3:0:0:0:
512,219,19292,6,0,L|504:135,2,61.1250023317338,6|0|0,3:2|3:0|3:0,0:0:0:0:
316,312,19742,2,0,P|375:310|421:349,1,122.250004663468,2|0,3:2|3:0,0:0:0:0:
196,312,20192,6,0,L|201:251,1,61.1250023317338,2|0,0:0|3:0,0:0:0:0:
201,251,20417,1,0,3:0:0:0:
201,251,20492,6,0,L|140:256,1,61.1250023317338,0|0,3:0|3:0,0:0:0:0:
40,192,20792,2,0,L|100:186,1,61.1250023317338,0|0,3:0|3:0,0:0:0:0:
172,108,21092,2,0,L|131:111,2,30.5625011658669,0|0|0,3:0|3:0|3:0,3:0:0:0:
281,252,21392,6,0,P|275:282|260:308,1,61.1250023317338,2|0,3:2|3:0,0:0:0:0:
260,307,21617,1,0,3:0:0:0:
259,308,21692,6,0,P|372:300|412:352,1,183.375006995201,2|0,3:2|3:0,0:0:0:0:
452,211,22292,1,0,3:0:0:0:
440,192,22367,1,0,3:0:0:0:
436,172,22442,1,0,3:0:0:0:
348,64,22592,2,0,P|368:48|364:76,1,61.1250023317338,0|0,3:0|3:0,0:0:0:0:
224,104,22892,6,0,B|136:136|136:80|44:113,1,183.375006995201,2|0,3:2|3:0,0:0:0:0:
68,275,23492,1,0,3:0:0:0:
88,241,23567,1,0,3:0:0:0:
96,204,23642,1,0,3:0:0:0:
256,280,23792,1,2,3:2:0:0:
256,280,23942,1,2,3:2:0:0:
372,152,24092,5,2,3:2:0:0:
464,224,24242,2,0,L|458:182,2,30.5625011658669,0|0|0,3:0|3:0|3:0,3:0:0:0:
376,156,24542,5,2,3:2:0:0:
464,76,24692,2,0,L|470:34,2,30.5625011658669,0|0|0,3:0|3:0|3:0,3:0:0:0:
376,155,24992,2,0,P|349:171|319:176,1,61.1250023317338,2|0,3:2|3:0,0:0:0:0:
255,136,25217,1,0,3:0:0:0:
255,136,25292,6,0,L|251:68,1,61.1250023317338,0|0,3:0|3:0,0:0:0:0:
172,176,25592,2,0,L|176:244,1,61.1250023317338,0|0,3:0|3:0,0:0:0:0:
48,106,25892,6,0,L|42:6,2,91.6875034976007,2|2|2,3:2|0:0|0:0,0:0:0:0:
172,176,26492,2,0,B|175:239|175:239|160:268,2,91.6875034976007,2|2|2,3:2|0:0|0:0,0:0:0:0:
256,136,27092,1,0,3:0:0:0:
254,123,27167,1,0,3:0:0:0:
252,112,27242,1,0,3:0:0:0:
309,59,27392,1,0,3:0:0:0:
387,57,27542,1,0,3:0:0:0:
446,107,27692,5,0,3:0:0:0:
436,244,27842,1,0,0:0:0:0:
446,107,27992,1,0,3:0:0:0:
436,244,28142,1,0,0:0:0:0:
320,212,28292,6,0,P|296:224|264:224,1,57.05,2|0,3:2|0:0,0:0:0:0:
266,224,28892,6,0,L|271:284,2,61.1250023317338,2|0|0,3:2|3:0|3:0,0:0:0:0:
148,219,29342,2,0,B|219:202|172:169|269:145,1,122.250004663468,2|0,3:2|3:0,0:0:0:0:
400,31,29792,6,0,L|405:91,1,61.1250023317338,2|0,3:2|3:0,0:0:0:0:
410,152,30017,1,0,3:0:0:0:
410,152,30092,2,0,L|405:92,1,61.1250023317338,0|0,3:0|3:0,0:0:0:0:
313,99,30392,5,0,3:0:0:0:
495,83,30542,1,0,3:0:0:0:
320,198,30692,1,0,3:0:0:0:
320,198,30767,1,0,3:0:0:0:
320,198,30842,1,0,3:0:0:0:
306,0,30992,5,2,3:2:0:0:
495,83,31142,1,0,3:0:0:0:
320,198,31292,6,0,B|286:201|265:181|265:181|238:198|206:189|206:189|194:220|147:233,1,183.375006995201,2|0,3:2|3:0,3:0:0:0:
225,107,31892,1,0,3:0:0:0:
225,107,31967,1,0,3:0:0:0:
225,107,32042,1,0,3:0:0:0:
97,285,32192,2,0,P|81:258|75:228,1,61.1250023317338,0|0,3:0|3:0,0:0:0:0:
107,56,32492,6,0,B|130:157|54:126|75:229,1,183.375006995201,2|0,3:2|3:0,0:0:0:0:
123,358,33092,1,0,3:0:0:0:
123,358,33167,1,0,3:0:0:0:
123,358,33242,1,0,3:0:0:0:
236,162,33392,5,2,3:2:0:0:
74,228,33542,1,2,3:2:0:0:
200,315,33692,6,0,B|248:271|248:271|361:283,1,152.812505829334,2|0,3:2|0:0,0:0:0:0:
470,245,34142,2,0,B|422:289|422:289|309:277,1,152.812505829334,2|0,3:2|0:0,0:0:0:0:
310,161,34592,2,0,B|331:195|362:203|362:203|322:241|338:294,1,152.812505829334,2|0,3:2|0:0,0:0:0:0:
339,355,35042,5,0,3:0:0:0:
339,355,35192,1,0,3:0:0:0:
174,291,35342,1,0,3:0:0:0:
180,277,35417,1,0,3:0:0:0:
186,263,35492,6,0,L|260:282,1,61.1250023317338,2|0,3:2|3:0,0:0:0:0:
398,339,35792,2,0,L|323:358,1,61.1250023317338,2|0,3:2|3:0,0:0:0:0:
329,203,36092,5,2,3:2:0:0:
188,153,36242,1,0,3:0:0:0:
357,126,36392,5,0,3:0:0:0:
185,81,36542,1,2,3:2:0:0:
385,49,36692,5,0,3:0:0:0:
182,9,36842,1,0,3:0:0:0:
188,153,36992,5,0,3:0:0:0:
385,49,37142,1,0,3:0:0:0:
329,203,37292,5,2,3:2:0:0:
356,197,37367,1,0,3:0:0:0:
385,199,37442,1,0,3:0:0:0:
411,209,37517,1,0,3:0:0:0:
434,226,37592,1,0,3:0:0:0:
429,198,37667,1,0,3:0:0:0:
431,169,37742,1,0,3:0:0:0:
441,143,37817,1,0,3:0:0:0:
458,120,37892,5,0,3:0:0:0:
265,261,38042,1,0,3:0:0:0:
248,238,38117,1,0,3:0:0:0:
239,211,38192,1,0,3:0:0:0:
239,182,38267,1,0,3:0:0:0:
249,155,38342,1,0,3:0:0:0:
72,284,38492,6,0,L|160:280,1,81.5,4|0,3:1|0:0,0:0:0:0:
256,348,38792,1,0,1:0:0:0:
396,228,38942,6,0,P|415:192|411:152,1,81.5,2|0,0:0|0:0,0:0:0:0:
256,36,39242,6,0,B|240:32|240:32|152:40,1,81.5,4|0,3:0|1:0,0:0:0:0:
315,229,39542,2,0,B|331:233|331:233|419:225,1,81.5,4|4,3:0|3:0,0:0:0:0:
256,28,39842,2,0,B|240:24|240:24|152:32,1,81.5,2|0,0:0|1:0,0:0:0:0:
84,280,40142,5,2,0:0:0:0:
73,281,40217,1,2,0:0:0:0:
64,274,40292,1,2,0:0:0:0:
64,264,40367,1,2,0:0:0:0:
73,257,40442,1,4,3:0:0:0:
84,260,40517,1,2,0:0:0:0:
86,271,40592,6,0,L|174:267,1,81.5,2|0,1:2|0:0,0:0:0:0:
320,308,40892,6,0,B|300:328|300:328|451:322,1,163,4|2,3:0|1:2,0:0:0:0:
343,150,41342,2,0,B|331:202|331:202|338:242|338:242|321:308,1,163,2|4,0:0|3:0,0:0:0:0:
432,128,41792,1,0,1:0:0:0:
293,43,41942,6,0,P|253:35|214:48,1,81.5,2|4,0:0|3:0,0:0:0:0:
80,128,42242,2,0,P|120:136|158:123,1,81.5,2|0,0:0|1:0,0:0:0:0:
179,282,42542,5,2,0:0:0:0:
174,266,42617,1,2,0:0:0:0:
170,250,42692,1,2,0:0:0:0:
166,234,42767,1,2,0:0:0:0:
162,218,42842,1,4,3:0:0:0:
164,202,42917,1,2,0:0:0:0:
167,186,42992,1,2,1:2:0:0:
167,170,43067,1,2,0:0:0:0:
164,154,43142,1,2,0:0:0:0:
160,139,43217,1,2,0:0:0:0:
157,123,43292,6,0,P|119:136|80:128,1,81.5,4|0,3:0|0:0,0:0:0:0:
215,47,43592,1,0,1:0:0:0:
160,139,43742,6,0,P|122:152|83:144,1,81.5,2|0,0:0|0:0,0:0:0:0:
218,63,44042,1,4,3:0:0:0:
340,172,44192,6,0,P|378:184|417:176,1,81.5,0|0,1:0|3:0,0:0:0:0:
433,170,44417,1,0,3:0:0:0:
445,162,44492,6,0,L|436:243,1,81.5,4|0,3:0|0:0,0:0:0:0:
256,312,44792,1,0,1:0:0:0:
368,352,44942,2,0,L|416:346,2,40.75,0|0|2,3:2|3:2|3:2,3:2:0:0:
256,312,45242,1,4,3:0:0:0:
104,347,45392,1,0,1:0:0:0:
64,140,45542,1,0,3:2:0:0:
64,140,45617,1,0,3:2:0:0:
64,140,45692,5,4,3:3:0:0:
196,108,45842,1,4,3:0:0:0:
158,239,45992,1,0,1:0:0:0:
93,77,46142,5,2,3:2:0:0:
228,92,46292,1,2,3:2:0:0:
147,202,46442,1,4,3:0:0:0:
142,28,46592,5,2,1:2:0:0:
264,89,46742,1,2,3:2:0:0:
150,165,46892,5,4,3:0:0:0:
285,297,47042,1,2,3:2:0:0:
147,202,47192,1,2,1:2:0:0:
319,281,47342,1,2,3:2:0:0:
158,239,47492,1,2,3:2:0:0:
345,253,47642,1,4,0:3:0:0:
179,268,47792,1,2,1:2:0:0:
360,220,47942,1,2,3:2:0:0:
264,89,48092,6,0,L|352:85,1,81.5,4|0,3:0|0:0,0:0:0:0:
435,161,48392,1,0,1:0:0:0:
279,13,48542,6,0,P|260:49|264:89,1,81.5,2|0,0:0|0:0,0:0:0:0:
360,220,48842,1,4,3:0:0:0:
510,102,48992,1,0,1:0:0:0:
263,88,49142,1,2,0:0:0:0:
423,295,49292,6,0,P|426:335|407:370,1,81.5,4|2,3:0|0:0,0:0:0:0:
360,220,49592,1,0,1:0:0:0:
138,223,49742,5,2,0:0:0:0:
159,207,49817,1,2,0:0:0:0:
182,200,49892,1,2,0:0:0:0:
206,200,49967,1,2,0:0:0:0:
229,207,50042,1,4,3:0:0:0:
249,221,50117,1,2,0:0:0:0:
270,235,50192,1,2,1:2:0:0:
292,242,50267,1,2,0:0:0:0:
317,242,50342,1,2,0:0:0:0:
340,234,50417,1,2,0:0:0:0:
360,220,50492,6,0,L|343:129,1,81.5,4|0,3:0|3:0,0:0:0:0:
377,298,50792,1,2,1:2:0:0:
272,110,50942,6,0,B|320:110|345:140|345:140|360:97|436:76,1,163,2|4,0:0|3:0,0:0:0:0:
270,23,51392,1,0,1:0:0:0:
270,199,51542,6,0,B|221:198|196:168|196:168|181:211|105:232,1,163,4|2,3:0|1:2,0:0:0:0:
217,290,51992,1,0,0:0:0:0:
182,89,52142,6,0,L|198:179,1,81.5,2|0,0:0|0:0,0:0:0:0:
57,17,52442,2,0,L|41:107,1,81.5,4|0,3:0|1:0,0:0:0:0:
266,32,52742,5,2,0:0:0:0:
286,28,52817,1,2,0:0:0:0:
305,24,52892,5,4,3:0:0:0:
299,64,52967,1,2,0:0:0:0:
293,104,53042,1,2,0:0:0:0:
288,145,53117,1,2,0:0:0:0:
282,185,53192,1,2,1:2:0:0:
116,285,53342,5,2,0:0:0:0:
145,256,53417,1,2,0:0:0:0:
183,242,53492,1,2,0:0:0:0:
223,245,53567,1,2,0:0:0:0:
259,264,53642,1,4,3:0:0:0:
402,243,53792,5,2,1:2:0:0:
373,272,53867,1,2,0:0:0:0:
335,286,53942,1,2,0:0:0:0:
295,283,54017,1,2,0:0:0:0:
259,264,54092,5,4,3:0:0:0:
223,245,54167,1,2,0:0:0:0:
183,242,54242,1,2,0:0:0:0:
145,256,54317,1,2,0:0:0:0:
116,285,54392,6,0,P|93:273|66:268,2,40.75,2|2|2,1:2|0:0|0:0,0:0:0:0:
165,75,54692,5,2,0:0:0:0:
157,103,54767,1,2,0:0:0:0:
151,130,54842,1,4,3:0:0:0:
143,158,54917,1,2,0:0:0:0:
136,185,54992,5,0,1:0:0:0:
123,174,55067,1,2,0:0:0:0:
106,163,55142,1,2,0:0:0:0:
88,154,55217,1,2,0:0:0:0:
71,143,55292,6,0,L|178:127,1,81.5,4|0,3:0|3:0,0:0:0:0:
0,100,55592,1,2,1:2:0:0:
306,148,55742,6,0,B|213:178|247:93|129:137,1,163,2|4,0:0|3:0,0:3:0:0:
274,230,56192,1,0,1:0:0:0:
338,66,56342,5,2,3:2:0:0:
365,72,56417,1,4,0:3:0:0:
393,78,56492,1,4,0:3:0:0:
151,129,56642,1,4,3:0:0:0:
242,312,56792,1,0,1:0:0:0:
361,160,56942,5,0,3:0:0:0:
333,154,57017,1,4,3:0:0:0:
306,148,57092,1,4,3:0:0:0:
69,113,57242,1,4,3:0:0:0:
274,230,57392,1,0,1:0:0:0:
220,26,57542,5,0,1:0:0:0:
224,54,57617,1,0,1:0:0:0:
229,82,57692,5,4,3:1:0:0:
96,192,57842,1,2,3:2:0:0:
69,113,58142,1,2,0:0:0:0:
274,230,58442,1,0,0:0:0:0:
247,309,58742,1,2,3:2:0:0:
21,227,59042,1,0,3:0:0:0:
96,192,59192,1,0,3:0:0:0:
204,40,59492,5,0,1:0:0:0:
388,79,59792,6,0,P|396:97|393:117,1,40.75,2|0,3:2|0:0,0:0:0:0:
456,192,60092,1,2,3:2:0:0:
336,288,60242,2,0,L|248:284,2,81.5,2|2|2,3:2|3:2|3:2,0:0:0:0:
56,192,61142,2,0,L|137:188,1,81.5,2|2,3:2|3:2,0:0:0:0:
456,192,61742,2,0,L|374:195,1,81.5,2|0,3:2|0:0,0:0:0:0:
256,192,62192,5,2,3:2:0:0:
256,192,62342,1,0,0:0:0:0:
172,304,62492,6,0,P|113:313|67:276,1,122.25,2|2,3:2|3:2,0:0:0:0:
172,80,63392,2,0,P|113:70|67:108,1,122.25,2|2,3:2|3:2,0:0:0:0:
387,164,64292,6,0,L|379:245,1,81.5,2|2,3:2|3:2,0:0:0:0:
379,245,64892,5,0,3:0:0:0:
243,325,65492,5,0,1:0:0:0:
125,221,65792,1,0,3:0:0:0:
187,76,66392,5,0,3:0:0:0:
344,91,66692,1,2,3:2:0:0:
344,91,66767,1,2,3:2:0:0:
344,91,66842,1,2,3:2:0:0:
344,91,66917,1,2,3:2:0:0:
344,91,66992,1,2,3:2:0:0:
296,160,67142,1,0,3:0:0:0:
392,22,67292,5,2,3:2:0:0:
392,22,67442,1,2,3:2:0:0:
437,221,67742,2,0,B|448:178|448:178|434:145|434:145|449:89,1,122.250004663468,2|0,0:0|0:0,0:0:0:0:
296,160,68342,1,2,3:2:0:0:
392,22,68642,5,0,3:0:0:0:
392,22,68792,1,0,3:0:0:0:
437,221,69092,1,0,1:0:0:0:
220,148,69392,1,2,3:2:0:0:
392,22,69692,5,2,3:2:0:0:
395,275,69992,2,0,L|334:270,1,61.1250023317338,0|2,3:0|3:2,0:0:0:0:
220,148,70292,5,0,1:0:0:0:
409,257,70592,2,0,L|348:252,1,61.1250023317338,0|2,3:2|3:2,0:0:0:0:
206,130,70892,2,0,L|267:125,1,61.1250023317338,0|2,3:0|3:2,0:0:0:0:
423,239,71192,2,0,L|362:234,1,61.1250023317338,0|2,3:0|3:2,0:0:0:0:
192,112,71492,5,0,1:0:0:0:
437,221,71792,2,0,L|376:216,1,61.1250023317338,2|0,3:2|0:0,0:0:0:0:
93,119,72092,6,0,B|113:211|207:201|207:201|186:257|233:295|233:295|203:324|223:390,1,326,4|0,3:0|1:0,0:3:0:0:
215,353,72992,1,2,3:2:0:0:
504,255,73292,102,0,B|409:290|359:231|359:231|350:232|350:232|291:162|172:214,1,326,4|0,3:0|1:0,0:0:0:0:
204,201,74192,1,2,3:2:0:0:
406,318,74492,6,0,B|439:221|439:221|378:155,1,163,4|0,3:0|3:0,0:0:0:0:
389,35,75092,2,0,B|356:132|356:132|417:198,1,163,0|0,1:0|3:0,0:0:0:0:
397,176,75692,5,0,3:0:0:0:
380,159,75767,1,0,3:0:0:0:
375,140,75842,1,0,3:0:0:0:
377,120,75917,1,0,3:0:0:0:
386,101,75992,1,0,3:0:0:0:
403,91,76067,1,0,3:0:0:0:
423,86,76142,1,0,3:0:0:0:
443,92,76217,1,0,3:0:0:0:
459,105,76292,5,4,3:0:0:0:
424,125,76367,1,4,3:0:0:0:
384,129,76442,1,4,3:0:0:0:
346,115,76517,1,4,3:0:0:0:
318,86,76592,1,4,3:0:0:0:
289,57,76667,1,4,3:0:0:0:
251,43,76742,1,4,3:0:0:0:
211,46,76817,1,4,3:0:0:0:
175,67,76892,6,0,P|132:87|84:82,1,97.8,4|0,3:1|0:0,0:0:0:0:
84,82,77192,2,0,L|80:136,1,32.6,2|0,3:2|0:0,0:0:0:0:
28,228,77342,6,0,P|75:222|119:243,1,97.8,2|0,3:2|0:0,0:0:0:0:
120,244,77642,2,0,L|232:240,1,97.8,2|0,3:2|0:0,0:0:0:0:
300,304,77942,6,0,B|334:278|385:282|402:286|397:338|453:346|500:329|504:269|453:248|423:282,1,264.875,2|0,3:2|0:0,0:0:0:0:
424,281,78992,6,0,L|429:233,1,32.6,2|0,3:2|0:0,0:0:0:0:
352,140,79142,2,0,L|347:188,1,32.6,2|0,3:2|3:2,0:0:0:0:
352,140,79292,6,0,L|281:142,1,65.2,2|0,3:2|0:0,0:0:0:0:
168,96,79592,1,2,3:2:0:0:
132,303,79742,1,2,3:2:0:0:
116,274,79817,1,0,3:0:0:0:
119,243,79892,1,0,3:0:0:0:
168,96,80042,2,0,P|184:125|179:158,1,65.2,2|0,3:2|0:0,0:0:0:0:
387,249,80342,6,0,L|459:245,1,65.2,2|0,3:2|0:0,0:0:0:0:
228,308,80642,2,0,L|300:312,1,65.2,2|0,3:2|0:0,0:0:0:0:
69,249,80942,1,2,3:2:0:0:
101,247,81017,1,0,3:2:0:0:
134,245,81092,5,0,3:2:0:0:
108,116,81242,1,2,3:2:0:0:
134,245,81392,5,0,3:0:0:0:
156,40,81542,1,2,3:2:0:0:
262,218,81692,6,0,P|322:246|387:244,1,130.4,2|2,3:2|3:2,0:0:0:0:
252,144,82142,1,2,3:2:0:0:
235,146,82217,1,0,3:0:0:0:
220,152,82292,1,0,3:0:0:0:
206,161,82367,1,0,3:0:0:0:
195,173,82442,1,2,3:2:0:0:
256,336,82592,1,0,0:0:0:0:
385,244,82742,6,0,P|379:179|346:124,1,130.4,2|0,3:2|3:0,0:0:0:0:
68,248,83192,2,0,L|144:244,1,65.2,0|0,3:0|3:0,0:0:0:0:
256,328,83492,5,0,3:0:0:0:
223,326,83567,1,0,3:0:0:0:
190,324,83642,1,0,3:0:0:0:
133,243,83792,1,0,3:0:0:0:
300,192,83942,1,0,3:0:0:0:
139,123,84092,6,0,L|135:55,1,65.2,2|0,3:2|3:0,0:0:0:0:
144,52,84392,2,0,L|148:118,1,65.2,0|2,3:0|3:2,0:0:0:0:
373,123,84692,5,0,3:0:0:0:
388,153,84767,1,0,3:0:0:0:
403,183,84842,1,0,3:0:0:0:
362,272,84992,1,0,3:2:0:0:
234,153,85142,1,0,3:0:0:0:
254,327,85292,6,0,L|197:365,1,65.2,2|0,3:2|3:0,0:0:0:0:
188,360,85592,2,0,L|242:324,1,65.2,0|0,3:0|3:0,0:0:0:0:
138,123,85892,5,2,3:2:0:0:
156,96,85967,1,0,3:0:0:0:
174,68,86042,1,0,3:0:0:0:
272,59,86192,1,0,3:0:0:0:
233,230,86342,1,0,3:0:0:0:
272,59,86492,6,0,L|369:67,1,97.8,2|0,3:2|0:0,0:0:0:0:
369,68,86792,2,0,L|402:72,1,32.6,2|0,3:2|0:0,0:0:0:0:
364,180,86942,6,0,P|349:225|362:272,1,97.8,2|0,3:2|0:0,0:0:0:0:
361,364,87242,2,0,P|375:318|362:271,1,97.8,2|0,3:2|0:0,0:0:0:0:
194,346,87542,6,0,B|195:320|181:292|181:292|228:330|277:312|277:312|302:369|361:364,1,264.875,2|0,3:2|0:0,0:0:0:0:
346,286,88592,6,0,P|343:271|344:255,1,32.6,2|0,3:2|0:0,0:0:0:0:
344,222,88742,2,0,P|347:238|345:255,1,32.6,2|0,3:2|0:0,0:0:0:0:
299,150,88892,6,0,P|345:140|391:156,1,97.8,2|0,3:2|0:0,0:0:0:0:
410,170,89192,1,2,3:2:0:0:
230,197,89342,6,0,B|151:173|151:173|105:189,1,130.4,2|2,3:2|3:2,0:0:0:0:
19,236,89792,1,0,0:0:0:0:
112,65,89942,6,0,B|129:111|129:111|106:189,1,130.4,2|2,3:2|3:2,3:0:0:0:
19,236,90392,1,0,3:0:0:0:
23,138,90542,5,2,3:2:0:0:
23,138,90842,1,2,3:2:0:0:
15,334,90992,1,2,3:2:0:0:
23,138,91142,1,2,3:2:0:0:
147,293,91292,6,0,B|159:316|204:321|204:321|83:300|109:374|0:328,1,260.8,4|0,3:0|3:0,0:0:0:0:
152,218,92042,1,2,3:2:0:0:
162,136,92192,2,0,P|146:166|150:212,1,65.2,0|2,3:0|3:2,0:0:0:0:
287,285,92492,6,0,B|311:282|337:307|337:307|287:325|252:292|252:292|201:329|147:293,1,260.8,4|0,3:0|3:0,0:0:0:0:
287,285,93242,1,2,3:2:0:0:
274,372,93392,2,0,L|285:293,1,65.2,0|2,3:0|3:2,0:0:0:0:
303,138,93692,5,4,3:0:0:0:
289,156,93767,1,2,0:0:0:0:
284,178,93842,1,2,3:2:0:0:
287,200,93917,1,2,0:0:0:0:
299,220,93992,1,2,3:2:0:0:
317,233,94067,1,2,0:0:0:0:
339,239,94142,1,2,3:2:0:0:
361,236,94217,1,2,0:0:0:0:
380,224,94292,5,6,3:0:0:0:
397,209,94367,1,2,0:0:0:0:
418,201,94442,1,2,3:2:0:0:
441,202,94517,1,2,0:0:0:0:
462,212,94592,1,2,3:2:0:0:
477,228,94667,1,2,0:0:0:0:
485,249,94742,1,2,3:2:0:0:
485,272,94817,1,2,3:2:0:0:
476,293,94892,5,2,3:2:0:0:
437,315,94967,1,2,3:2:0:0:
394,305,95042,1,2,3:2:0:0:
370,268,95117,1,2,3:2:0:0:
380,224,95192,1,4,3:0:0:0:
390,180,95267,1,4,3:0:0:0:
366,143,95342,1,4,3:0:0:0:
323,133,95417,1,4,3:0:0:0:
285,156,95492,5,0,1:0:0:0:
275,154,95567,1,0,1:0:0:0:
265,152,95642,1,0,1:0:0:0:
256,150,95717,1,0,1:0:0:0:
203,167,95792,5,0,3:0:0:0:
193,165,95867,1,0,3:0:0:0:
183,163,95942,1,0,3:0:0:0:
174,161,96017,1,0,3:0:0:0:
120,176,96092,6,0,L|112:80,1,81.5,4|0,3:0|0:0,0:0:0:0:
208,220,96392,1,2,1:2:0:0:
56,284,96542,1,2,3:2:0:0:
52,291,96617,1,0,3:0:0:0:
49,298,96692,1,0,3:0:0:0:
47,306,96767,1,0,3:0:0:0:
46,314,96842,1,4,3:0:0:0:
120,176,96992,1,0,1:0:0:0:
248,221,97142,2,0,L|200:219,1,40.75,2|0,3:2|3:0,0:0:0:0:
392,176,97292,5,4,3:0:0:0:
466,314,97442,1,4,3:0:0:0:
310,310,97592,1,0,1:0:0:0:
392,264,97742,1,2,3:2:0:0:
388,262,97817,1,0,3:0:0:0:
388,258,97892,1,0,3:0:0:0:
392,257,97967,1,0,3:0:0:0:
394,260,98042,1,4,3:0:0:0:
272,72,98192,5,2,1:2:0:0:
236,55,98267,1,2,3:2:0:0:
196,51,98342,1,2,3:2:0:0:
160,60,98417,1,2,3:2:0:0:
127,80,98492,5,4,3:0:0:0:
56,280,98642,1,4,3:0:0:0:
148,332,98792,6,0,L|193:326,2,40.75,2|0|2,1:2|3:0|3:2,0:0:0:0:
256,248,99092,1,0,3:0:0:0:
230,245,99167,1,0,3:0:0:0:
204,242,99242,1,4,3:0:0:0:
308,348,99392,2,0,L|353:342,2,40.75,0|0|2,1:0|3:0|3:2,0:0:0:0:
401,212,99692,5,4,3:0:0:0:
422,215,99767,1,0,3:0:0:0:
443,217,99842,1,4,3:0:0:0:
337,124,99992,1,0,3:0:0:0:
370,98,100067,1,0,3:0:0:0:
403,72,100142,1,2,3:2:0:0:
248,73,100292,1,0,3:0:0:0:
250,52,100367,1,0,3:0:0:0:
252,32,100442,1,4,3:0:0:0:
160,138,100592,5,2,1:2:0:0:
401,212,100742,1,2,3:2:0:0:
256,328,100892,5,4,3:3:0:0:
235,329,100967,1,0,3:2:0:0:
215,331,101042,1,0,3:2:0:0:
108,192,101192,2,0,P|88:156|88:144,1,40.75,2|0,1:2|0:0,0:0:0:0:
160,138,101342,5,2,3:2:0:0:
132,296,101492,1,0,3:0:0:0:
132,296,101567,1,0,3:0:0:0:
132,296,101642,1,4,3:0:0:0:
290,323,101792,2,0,L|343:321,2,40.75,0|0|2,1:0|3:0|3:2,0:0:0:0:
204,352,102092,5,4,3:0:0:0:
318,166,102242,1,4,3:0:0:0:
132,296,102392,1,0,1:0:0:0:
287,104,102542,1,2,3:2:0:0:
310,96,102617,1,0,3:0:0:0:
334,97,102692,1,0,3:0:0:0:
356,108,102767,1,0,3:0:0:0:
373,125,102842,1,4,3:0:0:0:
380,296,102992,2,0,L|432:300,2,40.75,2|0|2,1:2|0:0|0:0,0:0:0:0:
184,340,103292,6,0,P|144:360|84:348,1,81.5,4|0,3:0|3:0,0:0:0:0:
56,192,103592,1,2,1:2:0:0:
184,348,103742,6,0,P|144:368|84:356,1,81.5,2|0,3:2|3:0,0:0:0:0:
56,184,104042,2,0,P|96:164|156:176,1,81.5,4|0,3:0|1:0,0:0:0:0:
256,224,104342,1,2,0:0:0:0:
408,68,104492,5,4,3:0:0:0:
369,242,104642,1,4,3:0:0:0:
408,68,104792,1,0,1:0:0:0:
452,280,104942,2,0,P|394:333|317:323,1,163,2|4,3:2|3:0,0:0:0:0:
369,193,105392,5,2,1:2:0:0:
386,217,105467,1,2,3:2:0:0:
369,242,105542,1,2,3:2:0:0:
339,233,105617,1,2,3:2:0:0:
339,204,105692,5,4,3:0:0:0:
452,280,105842,1,0,3:0:0:0:
207,259,105992,6,0,P|247:265|276:292,1,81.5,2|2,1:2|3:2,0:0:0:0:
345,327,106217,1,0,3:0:0:0:
345,327,106292,2,0,P|305:320|276:292,1,81.5,0|4,3:0|3:0,0:0:0:0:
264,100,106592,2,0,L|255:213,1,81.5,0|2,1:0|3:2,0:0:0:0:
256,181,106817,1,0,3:2:0:0:
256,181,106892,5,4,3:0:0:0:
271,19,107042,1,4,3:0:0:0:
101,88,107192,2,0,L|182:94,1,81.5,0|2,1:0|3:2,0:0:0:0:
182,94,107417,1,0,3:0:0:0:
182,94,107492,2,0,L|168:38,1,40.75,0|0,3:0|3:0,0:0:0:0:
19,81,107642,1,4,3:0:0:0:
256,181,107792,5,2,1:2:0:0:
227,178,107867,1,2,3:2:0:0:
199,176,107942,1,2,3:2:0:0:
170,173,108017,1,2,3:2:0:0:
142,171,108092,6,0,L|160:318,1,122.25,4|0,3:0|0:0,0:0:0:0:
161,313,108392,1,2,1:2:0:0:
339,245,108542,5,2,3:2:0:0:
342,216,108617,1,0,3:0:0:0:
344,188,108692,1,0,3:0:0:0:
347,159,108767,1,0,3:0:0:0:
349,131,108842,1,4,3:0:0:0:
323,322,108992,2,0,L|404:315,1,81.5,0|2,1:0|3:2,0:0:0:0:
404,315,109217,1,0,3:0:0:0:
404,315,109292,5,4,3:0:0:0:
243,330,109442,1,4,3:0:0:0:
474,287,109592,2,0,P|482:327|467:364,1,81.5,0|2,1:0|3:2,0:0:0:0:
467,363,109817,1,0,3:0:0:0:
467,363,109892,1,0,3:0:0:0:
426,206,110042,5,4,3:0:0:0:
243,330,110192,1,2,1:2:0:0:
404,321,110342,1,2,3:2:0:0:
219,218,110492,6,0,B|171:174|171:174|47:198,1,163,4|2,3:0|1:2,0:0:0:0:
54,61,110942,2,0,B|62:104|105:119|105:119|75:144|74:193,1,163,2|4,3:2|3:0,0:0:0:0:
134,283,111392,1,0,1:0:0:0:
304,153,111542,1,2,3:2:0:0:
304,153,111617,1,0,3:2:0:0:
304,153,111692,6,0,L|224:137,1,81.5,4|4,3:0|3:0,0:0:0:0:
406,9,111992,2,0,L|422:89,1,81.5,0|2,1:0|3:2,0:0:0:0:
421,88,112217,1,0,3:0:0:0:
421,88,112292,1,0,3:0:0:0:
224,137,112442,1,4,3:0:0:0:
436,242,112592,2,0,P|446:200|435:161,1,81.5,0|2,1:0|3:2,0:0:0:0:
144,121,112892,5,4,3:0:0:0:
304,153,113042,1,4,3:0:0:0:
240,57,113192,1,2,1:2:0:0:
208,217,113342,1,2,3:2:0:0:
208,217,113417,1,0,3:2:0:0:
208,217,113492,5,0,3:2:0:0:
64,105,113642,1,4,3:0:0:0:
224,137,113792,1,0,1:0:0:0:
80,25,113942,5,2,3:2:0:0:
80,25,114017,1,4,3:0:0:0:
80,25,114092,1,4,3:0:0:0:
48,185,114242,2,0,L|35:243,1,40.75,4|2,3:0|3:2,0:0:0:0:
190,297,114392,5,2,1:2:0:0:
194,277,114467,1,2,0:0:0:0:
199,257,114542,1,4,3:0:0:0:
204,237,114617,1,4,3:0:0:0:
208,217,114692,5,2,1:2:0:0:
248,223,114767,1,2,0:0:0:0:
288,230,114842,1,4,3:0:0:0:
328,237,114917,1,2,0:0:0:0:
368,243,114992,6,0,L|380:188,2,40.75,2|2|2,1:2|0:0|1:2,0:0:0:0:
88,192,115292,5,4,3:1:0:0:
191,284,115442,1,2,0:0:0:0:
60,328,115592,1,2,1:2:0:0:
88,177,115742,5,2,0:0:0:0:
183,277,115892,1,2,0:0:0:0:
48,310,116042,1,4,3:0:0:0:
93,148,116192,5,2,1:2:0:0:
169,264,116342,1,2,0:0:0:0:
31,272,116492,1,4,3:0:0:0:
118,95,116642,5,4,3:0:0:0:
149,230,116792,1,2,1:2:0:0:
17,190,116942,1,2,0:0:0:0:
212,29,117092,5,2,0:0:0:0:
150,153,117242,1,4,3:0:0:0:
73,37,117392,1,2,1:2:0:0:
256,136,117542,1,2,3:2:0:0:
256,136,117617,1,2,3:2:0:0:
256,136,117692,6,0,L|348:132,1,81.5,4|2,3:0|0:0,0:0:0:0:
439,37,117992,1,2,1:2:0:0:
396,248,118142,6,0,L|304:244,2,81.5,2|2|4,0:0|0:0|3:0,0:0:0:0:
116,248,118592,2,0,L|208:244,2,81.5,2|2|4,1:2|0:0|3:0,0:0:0:0:
256,54,119042,5,4,3:0:0:0:
316,244,119192,1,2,1:2:0:0:
140,336,119342,1,2,0:0:0:0:
316,244,119492,6,0,P|332:280|332:296,1,40.75,2|2,0:0|0:0,0:0:0:0:
180,217,119642,2,0,P|141:213|127:205,1,40.75,4|2,3:0|0:0,0:0:0:0:
271,114,119792,2,0,P|294:82|308:74,1,40.75,2|2,1:2|0:0,0:0:0:0:
256,292,119942,1,2,3:2:0:0:
256,292,120017,1,0,3:2:0:0:
256,292,120092,5,4,3:0:0:0:
152,300,120242,1,2,0:2:0:0:
48,308,120392,1,0,1:0:0:0:
76,225,120542,5,2,0:0:0:0:
180,217,120692,1,2,0:0:0:0:
284,209,120842,1,4,3:0:0:0:
312,126,120992,5,2,1:2:0:0:
208,134,121142,1,2,0:0:0:0:
104,142,121292,1,4,3:0:0:0:
132,59,121442,5,4,3:0:0:0:
236,51,121592,1,2,1:2:0:0:
340,43,121742,1,2,3:2:0:0:
340,43,121817,1,2,3:2:0:0:
340,43,121892,5,2,3:2:0:0:
284,212,122042,1,4,3:0:0:0:
340,43,122192,1,0,1:0:0:0:
396,248,122342,5,2,3:2:0:0:
400,292,122417,1,2,3:2:0:0:
384,332,122492,5,4,3:0:0:0:
212,320,122642,1,2,3:2:0:0:
384,332,122792,1,2,1:2:0:0:
212,320,122942,1,2,3:2:0:0:
80,185,123092,6,0,L|88:97,1,81.5,2|4,3:2|3:0,0:0:0:0:
204,238,123392,2,0,L|211:319,1,81.5,0|2,1:0|3:2,0:0:0:0:
88,104,123692,5,4,3:0:0:0:
372,166,123842,1,4,3:0:0:0:
256,32,123992,1,2,1:2:0:0:
204,238,124142,1,2,3:2:0:0:
304,104,124292,5,2,3:2:0:0:
331,87,124367,1,2,3:2:0:0:
364,81,124442,1,4,3:0:0:0:
396,85,124517,1,2,3:2:0:0:
426,98,124592,1,2,1:2:0:0:
450,120,124667,1,2,3:2:0:0:
466,149,124742,1,2,3:2:0:0:
408,348,124892,5,4,3:0:0:0:
305,327,125042,1,2,0:0:0:0:
202,306,125192,1,2,1:2:0:0:
389,257,125342,5,2,0:0:0:0:
286,236,125492,1,2,0:0:0:0:
183,215,125642,1,4,3:0:0:0:
370,166,125792,5,2,1:2:0:0:
267,145,125942,1,2,0:0:0:0:
164,124,126092,1,4,3:0:0:0:
351,75,126242,5,4,3:0:0:0:
248,54,126392,1,2,1:2:0:0:
145,33,126542,1,2,0:0:0:0:
286,236,126692,5,2,0:0:0:0:
164,124,126842,1,4,3:0:0:0:
370,166,126992,1,2,1:2:0:0:
183,215,127142,1,2,3:2:0:0:
183,215,127217,1,2,3:2:0:0:
183,215,127292,6,0,P|142:214|109:236,2,81.5,4|2|2,3:0|0:0|1:2,0:0:0:0:
312,243,127742,2,0,P|332:279|367:297,2,81.5,2|2|4,0:0|0:0|3:0,0:0:0:0:
272,117,128192,2,0,P|293:82|291:42,2,81.5,2|2|4,1:2|0:0|3:0,0:0:0:0:
109,235,128642,5,4,3:0:0:0:
272,117,128792,1,2,1:2:0:0:
367,297,128942,1,2,0:0:0:0:
183,215,129092,5,2,0:0:0:0:
291,43,129242,1,4,3:0:0:0:
312,243,129392,1,2,1:2:0:0:
292,40,129542,1,2,0:0:0:0:
228,296,129692,5,4,3:0:0:0:
215,318,129767,1,2,3:2:0:0:
199,336,129842,1,4,3:0:0:0:
179,349,129917,1,2,3:2:0:0:
156,358,129992,1,4,3:0:0:0:
132,361,130067,1,2,3:2:0:0:
107,359,130142,1,2,3:2:0:0:
84,351,130217,1,2,3:2:0:0:
65,337,130292,6,0,L|24:340,3,40.75,2|2|2|2,1:2|3:2|3:2|3:2,0:0:0:0:
136,240,130592,2,0,L|177:243,3,40.75,2|2|2|4,1:2|3:2|3:2|3:0,0:0:0:0:
56,154,130892,5,4,3:0:0:0:
39,125,130967,1,0,3:0:0:0:
38,93,131042,1,4,3:0:0:0:
53,64,131117,1,0,3:0:0:0:
79,45,131192,1,0,1:0:0:0:
111,41,131267,1,0,3:0:0:0:
141,52,131342,1,4,3:0:0:0:
163,76,131417,1,4,3:0:0:0:
170,108,131492,5,4,3:0:0:0:
177,140,131567,1,0,3:0:0:0:
199,164,131642,1,4,3:0:0:0:
229,175,131717,1,0,3:0:0:0:
261,171,131792,1,0,1:0:0:0:
287,152,131867,1,4,3:0:0:0:
302,123,131942,1,4,3:0:0:0:
301,91,132017,1,4,3:0:0:0:
285,63,132092,6,0,L|266:9,1,40.75,4|0,3:0|3:0,0:0:0:0:
420,10,132242,2,0,L|407:49,1,40.75,4|0,3:0|3:0,0:0:0:0:
376,152,132392,5,0,1:0:0:0:
395,147,132467,1,0,3:0:0:0:
415,143,132542,1,4,3:0:0:0:
434,138,132617,1,4,3:0:0:0:
454,135,132692,5,4,3:0:0:0:
443,174,132767,1,0,3:0:0:0:
432,213,132842,1,4,3:0:0:0:
421,252,132917,1,0,3:0:0:0:
411,292,132992,6,0,L|398:342,3,40.75,0|4|4|4,1:0|3:0|3:0|3:0,0:0:0:0:
329,234,133292,5,4,3:0:0:0:
310,239,133367,1,0,3:0:0:0:
290,243,133442,1,4,3:0:0:0:
271,248,133517,1,0,3:0:0:0:
251,251,133592,5,0,1:0:0:0:
262,212,133667,1,4,3:0:0:0:
273,173,133742,1,4,3:0:0:0:
284,134,133817,1,4,3:0:0:0:
293,96,133892,5,0,1:0:0:0:
244,103,133967,1,0,3:0:0:0:
196,110,134042,1,4,3:0:0:0:
147,117,134117,1,0,3:0:0:0:
99,124,134192,6,0,L|106:60,1,40.75,4|4,1:0|3:0,0:0:0:0:
297,55,134342,2,0,L|293:96,1,40.75,4|4,3:0|3:0,0:0:0:0:
176,304,134492,6,0,B|92:316|40:260|8:192|56:68|160:60|272:108|256:224|256:224|240:340|352:388|456:380|504:256|472:188|420:132|338:143,1,1014.84674329502,4|0,1:2|0:2,0:2:0:0:
