osu file format v14

[General]
AudioFilename: adaptor - LAISSEZ FAIRE.mp3
AudioLeadIn: 0
PreviewTime: 57617
Countdown: 0
SampleSet: Soft
StackLeniency: 0.7
Mode: 0
LetterboxInBreaks: 0
EpilepsyWarning: 1
WidescreenStoryboard: 1

[Editor]
Bookmarks: 92,76892,91292,115292,139292
DistanceSpacing: 1.6
BeatDivisor: 4
GridSize: 4
TimelineZoom: 1

[Metadata]
Title:LAISSEZ:FAIRE
TitleUnicode:LAISSEZ: FAIRE
Artist:adaptor
ArtistUnicode:adaptor
Creator:Gero
Version:Geroliversible's Hard
Source:nanobeat
Tags:osu!International Mapping Contest o!imc #1 Artcore Voli Nhawak Irreversible #SRV Sassy Ravioli Vortex
BeatmapID:1419605
BeatmapSetID:671405

[Difficulty]
HPDrainRate:5.5
CircleSize:3.5
OverallDifficulty:6
ApproachRate:8
SliderMultiplier:1.6
SliderTickRate:1

[Events]
//Background and Video events
0,0,"BG.jpg",0,0
//Break Periods
2,77092,90542
//Storyboard Layer 0 (Background)
//Storyboard Layer 1 (Fail)
//Storyboard Layer 2 (Pass)
//Storyboard Layer 3 (Foreground)
Sprite,Foreground,Centre,"Winners\Gero.png",320,240 M,0,-208,,440,398 S,0,-208,,0.6586666 F,0,-208,92,0,1 R,0,92,,-0.1493329 F,0,92,76292,1,0.98 F,0,76292,76892,0.98,0
Sprite,Foreground,Centre,"Winners\Voli.png",320,240 M,0,90992,,440,398 S,0,90992,,0.6586666 F,0,90992,91292,0,1 R,0,91292,,-0.1493329 F,0,91292,114692,1,0.98 F,0,114692,114992,0.98,0
Sprite,Foreground,Centre,"Winners\Irreversible.png",320,240 M,0,114992,,440,398 S,0,114992,,0.6586666 F,0,114992,115292,0,1 R,0,115292,,-0.1493329 F,0,115292,133892,1 F,0,133892,134192,1,0
Sprite,Foreground,Centre,"Winners\Gero.png",320,240 M,0,134192,,440,398 S,0,134192,,0.6586666 F,0,134192,134492,0,1 R,0,134492,,-0.1493329 F,0,134492,139292,1,0
Sprite,Foreground,Centre,"Winners\SRV.png",320,240 M,0,-208,,467,441 S,0,-208,,0.4560003 F,0,-208,92,0,1 R,0,92,,-0.1493329 F,0,92,76292,1,0.98 F,0,76292,76892,0.98,0 F,0,90992,91292,0,1 F,0,91292,134492,1,0.9933333 F,0,134492,139292,0.9933333,0
//Storyboard Sound Samples

[TimingPoints]
92,300,4,2,1,35,1,0
92,-142.857142857143,4,2,1,35,0,0
3692,-200,4,2,1,35,0,0
4892,-142.857142857143,4,2,1,35,0,0
8492,-200,4,2,1,35,0,0
9692,-100,4,2,2,50,0,0
14492,-100,4,1,1,50,0,0
18092,-100,4,1,1,60,0,0
19292,-142.857142857143,4,2,1,70,0,0
37292,-142.857142857143,4,2,1,40,0,0
37892,-142.857142857143,4,2,1,70,0,0
38492,-100,4,2,1,80,0,0
56342,-100,4,2,1,60,0,0
57692,-200,4,2,2,45,0,0
75692,-100,4,2,1,80,0,0
76292,-100,4,2,1,70,0,0
93692,-100,4,2,1,50,0,0
94892,-100,4,2,1,35,0,0
96092,-100,4,2,1,80,0,0
113942,-100,4,2,1,50,0,0
115292,-100,4,2,1,80,0,1
124292,-100,4,2,1,80,0,0
124892,-100,4,2,1,80,0,1
129692,-100,4,2,1,70,0,1
132092,-100,4,2,1,50,0,1
133292,-100,4,2,1,40,0,1
134492,-200,4,2,1,100,0,0
134567,-200,4,2,0,5,0,0

[Colours]
Combo1 : 107,120,152
Combo2 : 95,146,222
Combo3 : 169,124,122
Combo4 : 173,95,216

[HitObjects]
151,192,92,6,0,P|99:210|47:192,1,111.999996582031,2|2,0:0|0:0,0:0:0:0:
99,132,542,2,0,B|115:116|151:98|187:116|203:132|203:132|256:132,1,167.999994873047,2|2,0:0|0:0,0:0:0:0:
413,192,1292,2,0,B|434:244|434:244|413:296,1,111.999996582031,2|0,0:0|0:0,0:0:0:0:
361,355,1742,1,2,0:0:0:0:
361,355,1817,1,2,0:0:0:0:
361,355,1892,2,0,B|413:334|413:334|465:355,1,111.999996582031,2|2,0:0|0:0,0:0:0:0:
308,244,2492,6,0,B|256:265|256:265|204:244,1,111.999996582031,2|0,0:0|0:0,0:0:0:0:
204,165,2942,2,0,B|244:148|256:103|256:103|268:148|308:165,1,167.999994873047,2|2,0:0|0:0,0:0:0:0:
440,80,3692,6,0,P|477:192|440:304,1,240,2|0,0:0|0:0,0:0:0:0:
308,244,4892,6,0,B|287:192|287:192|308:140,1,111.999996582031,2|0,0:0|0:0,0:0:0:0:
256,80,5342,1,2,0:0:0:0:
256,80,5417,1,2,0:0:0:0:
256,80,5492,1,2,0:0:0:0:
372,192,5792,1,2,0:0:0:0:
256,304,6092,6,0,B|220:304|220:304|180:304|154:336,1,111.999996582031,2|2,0:0|0:0,0:0:0:0:
112,272,6542,2,0,B|112:224|91:192|91:192|112:160|112:112,1,167.999994873047,2|2,0:0|0:0,0:0:0:0:
256,80,7292,6,0,B|292:80|292:80|332:80|357:47,1,111.999996582031,2|2,0:0|0:0,0:0:0:0:
400,112,7742,2,0,L|444:112,2,27.9999991455078,0|2|2,0:0|0:0|0:0,0:0:0:0:
256,192,8192,1,2,0:0:0:0:
112,112,8492,6,0,B|52:127|30:192|30:192|52:257|112:272,1,240,2|0,0:0|0:0,0:0:0:0:
112,272,9692,6,0,B|74:285|74:285|36:272,2,80,2|0|0,0:0|0:0|0:0,0:0:0:0:
186,192,10142,2,0,B|213:192|213:192|221:196|221:196|221:188|221:188|229:192|229:192|256:192,2,80,2|0|0,0:0|0:0|0:0,0:0:0:0:
112,112,10592,2,0,B|74:99|74:99|36:112,2,80,2|0|2,0:0|0:0|0:0,0:0:0:0:
176,32,11042,6,0,B|196:30|214:20|214:20|201:36|196:55,1,80
256,132,11342,1,2,0:0:0:0:
256,132,11417,1,2,0:0:0:0:
256,132,11492,1,2,0:0:0:0:
316,55,11642,2,0,B|311:36|298:20|298:20|316:30|336:32,1,80,0|2,0:0|0:0,0:0:0:0:
400,112,11942,1,0,0:0:0:0:
400,112,12017,1,0,0:0:0:0:
400,112,12092,6,0,B|438:99|438:99|476:112,2,80,2|0|0,0:0|0:0|0:0,0:0:0:0:
326,192,12542,2,0,B|299:192|299:192|291:196|291:196|291:188|291:188|283:192|283:192|256:192,2,80,2|0|0,0:0|0:0|0:0,0:0:0:0:
400,272,12992,2,0,B|438:285|438:285|476:272,2,80,2|0|2,0:0|0:0|0:0,0:0:0:0:
336,352,13442,6,0,B|316:353|298:363|298:363|311:347|316:328,1,80
256,252,13742,1,0,0:0:0:0:
195,328,13892,2,0,B|200:347|213:363|213:363|195:353|176:352,1,80
112,272,14192,2,0,L|88:240,3,40
45,262,14492,6,0,P|78:192|45:122,1,160,2|0,0:0|0:0,0:0:0:0:
112,54,14942,2,0,B|106:35|106:35|112:16,2,40,2|2|2,0:0|0:0|0:0,0:0:0:0:
180,122,15242,1,0,0:0:0:0:
248,54,15392,2,0,B|287:54|287:54|315:82,1,80,2|0,0:0|0:0,0:0:0:0:
383,15,15692,6,0,L|496:128,1,160,2|2,3:0|0:0,0:0:0:0:
424,192,16142,2,0,L|392:160,2,40,2|0|0,0:0|0:0|0:0,0:0:0:0:
496,255,16442,1,2,0:0:0:0:
423,318,16592,1,0,0:0:0:0:
350,255,16742,1,0,3:0:0:0:
350,255,16817,1,0,3:0:0:0:
350,255,16892,6,0,P|256:192|162:255,1,240,2|0,3:0|0:0,0:0:0:0:
89,318,17492,1,2,3:0:0:0:
89,318,17642,1,0,3:0:0:0:
16,255,17792,1,2,3:0:0:0:
16,255,17942,1,0,3:0:0:0:
89,192,18092,6,0,B|95:173|95:173|89:154,7,40,0|0|0|0|0|0|0|0,3:0|3:0|3:0|3:0|3:0|3:0|3:0|3:0,0:0:0:0:
132,124,18692,2,0,B|126:105|126:105|132:86,7,40,0|0|0|0|0|0|0|0,3:0|3:0|3:0|3:0|3:0|3:0|3:0|3:0,0:0:0:0:
175,56,19292,6,0,P|99:86|23:56,2,167.999994873047,4|2|2,3:0|0:0|0:0,0:0:0:0:
256,92,20342,1,0,0:0:0:0:
337,56,20492,2,0,B|363:46|363:46|389:56,1,55.9999982910157
504,119,20792,2,0,B|478:129|478:129|452:119,1,55.9999982910157
389,181,21092,2,0,L|362:171,2,27.9999991455078,2|0|0,0:0|0:0|0:0,0:0:0:0:
326,243,21392,2,0,L|273:223,1,55.9999982910157,2|0,0:0|0:0,0:0:0:0:
210,285,21692,6,0,B|164:268|164:268|156:269|156:269|147:270|147:270|103:254,1,111.999996582031,2|2,0:0|0:0,0:0:0:0:
29,203,22142,1,0,0:0:0:0:
29,203,22292,2,0,P|11:255|29:307,1,111.999996582031
103,254,22742,1,0,0:0:0:0:
177,203,22892,6,0,B|216:184|216:136|216:136|216:106,1,111.999996582031,2|2,0:0|0:0,0:0:0:0:
256,24,23342,1,0,0:0:0:0:
296,106,23492,2,0,B|296:136|296:136|296:184|335:203,1,111.999996582031,0|2,0:0|0:0,0:0:0:0:
408,254,23942,1,0,0:0:0:0:
483,203,24092,6,0,B|503:163|487:131|483:123|483:123|479:115|459:83|483:43,2,167.999994873047,2|2|2,0:0|0:0|0:0,0:0:0:0:
408,254,25142,1,0,0:0:0:0:
335,203,25292,2,0,L|295:242,1,55.9999982910157,2|0,0:0|0:0,0:0:0:0:
221,190,25592,1,0,0:0:0:0:
148,137,25742,1,0,0:0:0:0:
148,137,25892,6,0,P|96:119|44:137,1,111.999996582031,2|2,0:0|0:0,0:0:0:0:
69,223,26342,1,0,0:0:0:0:
69,223,26492,2,0,P|96:230|123:223,1,55.9999982910157,2|0,0:0|0:0,0:0:0:0:
195,276,26792,1,0,0:0:0:0:
123,329,26942,2,0,L|130:356,2,27.9999991455078,0|0|2,0:0|0:0|0:0,0:0:0:0:
195,276,27242,1,0,0:0:0:0:
281,302,27392,2,0,L|335:287,1,55.9999982910157
380,208,27692,6,0,B|406:173|385:130|385:130|372:103,1,111.999996582031,2|0,0:0|0:0,0:0:0:0:
434,36,28142,1,0,0:0:0:0:
434,36,28292,2,0,L|507:187,1,167.999994873047,2|0,0:0|0:0,0:0:0:0:
455,259,28892,6,0,B|440:299|399:318|399:318|354:314|326:281,2,167.999994873047,2|2|2,0:0|0:0|0:0,0:0:0:0:
380,208,29942,1,0,0:0:0:0:
380,208,30092,2,0,B|370:182|370:182|380:156,1,55.9999982910157
305,105,30392,2,0,B|315:79|315:79|305:53,1,55.9999982910157
220,79,30692,2,0,L|209:104,2,27.9999991455078,2|0|0,0:0|0:0|0:0,0:0:0:0:
135,53,30992,2,0,L|112:104,1,55.9999982910157,2|0,0:0|0:0,0:0:0:0:
27,130,31292,6,0,B|45:168|45:168|52:174|52:174|44:177|44:177|51:183|51:183|70:222,1,111.999996582031,2|2,0:0|0:0,0:0:0:0:
133,285,31742,1,0,0:0:0:0:
133,285,31892,2,0,B|133:249|162:227|187:227|187:227|212:227,1,111.999996582031,2|0,0:0|0:0,0:0:0:0:
260,152,32342,1,0,0:0:0:0:
300,227,32492,6,0,B|325:227|325:227|350:227|379:249|379:285,1,111.999996582031,2|2,0:0|0:0,0:0:0:0:
442,222,32942,1,0,0:0:0:0:
442,222,33092,2,0,B|461:183|461:183|468:177|468:177|460:174|460:174|467:168|467:168|485:130,1,111.999996582031,2|2,0:0|0:0,0:0:0:0:
400,104,33542,1,2,0:0:0:0:
316,77,33692,6,0,B|290:77|262:60|256:28|256:28|250:60|222:77|196:77,2,167.999994873047,2|2|2,0:0|0:0|0:0,0:0:0:0:
400,104,34742,1,0,0:0:0:0:
484,77,34892,2,0,P|493:51|484:25,1,55.9999982910157,2|0,0:0|0:0,0:0:0:0:
400,104,35192,2,0,P|391:130|400:156,1,55.9999982910157,2|0,0:0|0:0,0:0:0:0:
484,183,35492,2,0,L|501:161,2,27.9999991455078,2|0|0,0:0|0:0|0:0,0:0:0:0:
457,266,35792,2,0,L|421:309,1,55.9999982910157,2|0,0:0|0:0,0:0:0:0:
336,276,36092,6,0,B|292:288|256:263|256:263|220:288|176:276,1,167.999994873047,2|0,0:0|0:0,0:0:0:0:
204,192,36692,2,0,B|212:144|256:133|256:133|300:144|308:192,1,167.999994873047,2|0,0:0|0:0,0:0:0:0:
256,264,37292,6,0,L|256:320,2,55.9999982910157,8|8|8,1:0|1:0|1:0,0:0:0:0:
204,192,37742,1,8,1:0:0:0:
256,120,37892,2,0,L|256:80,7,27.9999991455078,2|2|2|2|2|2|2|2,0:0|0:0|0:0|0:0|0:0|0:0|0:0|0:0,0:0:0:0:
256,48,38492,6,0,B|336:48|336:48|392:104,1,160,4|8,3:0|1:0,0:0:0:0:
465,154,38942,2,0,P|476:192|465:230,1,80,2|0,0:0|0:0,0:0:0:0:
391,354,39242,2,0,P|380:316|391:278,1,80,2|8,3:0|1:0,0:0:0:0:
466,230,39542,2,0,B|391:258|391:258|316:230,1,160,2|2,0:0|0:0,0:0:0:0:
256,168,39992,1,8,1:0:0:0:
195,230,40142,5,2,0:0:0:0:
195,230,40217,1,2,0:0:0:0:
195,230,40292,2,0,L|157:216,3,40,2|2|0|2,0:0|0:0|3:0|0:0,0:0:0:0:
126,247,40592,2,0,L|88:233,3,40,8|0|2|2,1:0|0:0|0:0|0:0,0:0:0:0:
56,264,40892,6,0,P|86:192|56:120,1,160,2|8,0:0|1:0,0:0:0:0:
4,48,41342,2,0,B|16:88|56:105|56:105|96:88|108:48,1,160,2|2,0:0|3:0,0:0:0:0:
170,110,41792,1,8,1:0:0:0:
232,48,41942,2,0,L|345:161,1,160,2|2,0:0|0:0,0:0:0:0:
407,98,42392,1,8,1:0:0:0:
469,162,42542,5,2,0:0:0:0:
469,162,42617,1,2,0:0:0:0:
469,162,42692,2,0,L|441:190,3,40,2|2|0|2,0:0|0:0|3:0|0:0,0:0:0:0:
472,222,42992,2,0,L|444:250,3,40,8|0|2|2,1:0|0:0|0:0|0:0,0:0:0:0:
476,292,43292,6,0,B|392:376|392:376|270:376,2,240,2|2|8,3:0|0:0|1:0,0:0:0:0:
403,236,44342,1,0,0:0:0:0:
330,180,44492,2,0,B|299:154|299:154|299:114,1,80,2|0,3:0|0:0,0:0:0:0:
256,40,44792,1,8,1:0:0:0:
213,114,44942,6,0,B|213:154,2,40,2|2|0,0:0|0:0|0:0,0:0:0:0:
170,40,45242,1,0,3:0:0:0:
170,40,45392,1,8,1:0:0:0:
127,114,45542,1,2,0:0:0:0:
127,114,45617,1,2,0:0:0:0:
127,114,45692,6,0,B|86:114|86:114|62:144,1,80,0|2,3:0|0:0,0:0:0:0:
62,239,45992,2,0,B|86:270|86:270|127:270,1,80,8|2,1:0|0:0,0:0:0:0:
170,344,46292,1,2,0:0:0:0:
213,270,46442,1,0,3:0:0:0:
213,270,46592,2,0,L|282:309,1,80,8|2,1:0|0:0,0:0:0:0:
325,235,46892,6,0,L|394:274,1,80,0|2,3:0|0:0,0:0:0:0:
437,200,47192,1,8,1:0:0:0:
394,125,47342,2,0,B|386:85|346:65|346:65|306:85|298:125,1,160,2|2,0:0|3:0,0:0:0:0:
256,44,47792,1,8,1:0:0:0:
298,126,47942,1,2,0:0:0:0:
256,44,48092,6,0,B|220:44|220:44|164:44|140:92|140:122,1,160,2|8,3:0|1:0,0:0:0:0:
84,192,48542,2,0,B|112:220|106:265|106:265|151:259|180:288,1,160,2|2,0:0|3:0,0:0:0:0:
256,332,48992,1,8,1:0:0:0:
331,288,49142,2,0,B|360:259|405:265|405:265|399:220|428:192,1,160,2|2,0:0|0:0,0:0:0:0:
371,122,49592,1,8,1:0:0:0:
427,51,49742,5,2,0:0:0:0:
427,51,49817,1,2,0:0:0:0:
427,51,49892,2,0,L|393:29,3,40,2|2|0|2,0:0|0:0|3:0|0:0,0:0:0:0:
352,46,50192,2,0,L|318:24,3,40,8|0|2|2,1:0|0:0|0:0|0:0,0:0:0:0:
277,41,50492,6,0,B|205:41|205:41|197:37|197:37|189:33|189:33|118:33,1,160,2|8,3:0|1:0,0:0:0:0:
144,117,50942,2,0,B|172:192|172:192|144:267,1,160,2|2,0:0|3:0,0:0:0:0:
118,351,51392,1,8,1:0:0:0:
118,351,51542,2,0,B|189:351|189:351|197:347|197:347|205:343|205:343|277:343,1,160,2|2,0:0|0:0,0:0:0:0:
322,267,51992,1,8,1:0:0:0:
368,343,52142,2,0,B|424:306|424:306|428:298|428:298|433:305|433:305|437:297|437:297|493:261,1,160,2|2,0:0|3:0,0:0:0:0:
440,192,52592,1,8,1:0:0:0:
493,122,52742,5,2,0:0:0:0:
493,122,52817,1,2,0:0:0:0:
493,122,52892,2,0,L|459:100,15,40,2|2|0|2|8|0|2|2|0|0|2|2|8|0|2|0,3:0|0:0|0:0|0:0|1:0|0:0|0:0|0:0|0:0|0:0|3:0|0:0|1:0|0:0|0:0|0:0,0:0:0:0:
428,68,54092,2,0,L|394:46,15,40,2|2|0|0|8|0|2|2|0|0|2|0|8|0|2|0,3:0|0:0|0:0|0:0|1:0|0:0|0:0|0:0|0:0|0:0|3:0|0:0|1:0|0:0|0:0|0:0,0:0:0:0:
363,14,55292,6,0,B|363:55|363:55|363:121|303:150,1,160,0|8,3:0|1:0,0:0:0:0:
208,150,55742,2,0,B|149:121|149:55|149:55|149:14,2,160,0|0|0,0:0|3:0|0:0,0:0:0:0:
208,150,56417,1,0,3:0:0:0:
208,150,56492,5,8,1:0:0:0:
256,76,56642,1,8,1:0:0:0:
304,150,56792,1,8,1:0:0:0:
256,224,56942,2,0,L|256:268,2,40,8|0|8,1:0|1:0|1:0,0:0:0:0:
208,150,57242,1,8,1:0:0:0:
256,76,57392,2,0,L|256:28,2,40,8|0|8,1:0|1:0|1:0,0:0:0:0:
304,150,57692,5,6,3:0:0:0:
304,150,57842,2,0,B|340:167|340:167|376:150,1,80,2|2,0:0|0:0,0:0:0:0:
504,192,58442,2,0,L|323:279,1,200,2|0,0:0|3:0,0:0:0:0:
220,192,59492,1,8,0:0:0:0:
323,105,59792,1,2,0:0:0:0:
154,154,60092,5,2,3:0:0:0:
154,154,60242,2,0,P|143:192|154:230,1,80,2|2,0:0|0:0,0:0:0:0:
256,320,60842,1,2,0:0:0:0:
358,230,61142,2,0,P|369:192|358:154,1,80,2|2,0:0|0:0,0:0:0:0:
312,28,61742,2,0,B|256:50|256:50|200:28,1,120,2|2,0:0|0:0,0:0:0:0:
154,154,62492,6,0,B|137:181|109:192|109:192|137:203|154:230,1,120,2|2,3:0|0:0,0:0:0:0:
358,230,63392,2,0,B|375:203|403:192|403:192|375:181|358:154,2,120,2|2|10,0:0|3:0|0:0,0:0:0:0:
228,192,64592,1,2,0:0:0:0:
98,230,64892,6,0,B|56:230|32:192|32:192|56:154|98:154,1,160,0|8,3:0|0:0,0:0:0:0:
228,192,65792,2,0,L|388:192,1,160,0|0,3:0|3:0,0:0:0:0:
484,289,66692,1,8,0:0:0:0:
388,192,66992,1,2,0:0:0:0:
484,95,67292,5,6,3:2:0:0:
484,95,67442,2,0,B|444:95|444:95|415:67,1,80,2|2,0:0|0:0,0:0:0:0:
308,148,68042,2,0,P|237:192|308:236,1,200,2|0,0:0|3:0,0:0:0:0:
436,192,69092,1,8,0:0:0:0:
308,148,69392,1,0,0:0:0:0:
180,192,69692,5,2,3:0:0:0:
180,192,69842,1,2,0:0:0:0:
308,237,70142,2,0,P|339:260|358:295,1,80,2|2,0:0|0:0,0:0:0:0:
308,148,70742,2,0,P|339:124|358:89,1,80,2|2,0:0|0:0,0:0:0:0:
488,136,71342,2,0,P|507:192|488:248,1,120,2|2,0:0|0:0,0:0:0:0:
363,192,72092,6,0,B|316:192|316:192|308:188|308:188|308:196|308:196|300:192|300:192|253:192,2,120,2|2|2,3:0|0:0|0:0,0:0:0:0:
488,248,73292,1,2,3:0:0:0:
488,248,73442,2,0,B|488:216|506:192|506:192|488:168|488:136,1,120,2|8,0:0|0:0,0:0:0:0:
363,192,74192,1,2,0:0:0:0:
238,136,74492,6,0,B|204:148|204:148|204:236|204:236|238:248,1,160,4|12,3:0|3:2,0:0:0:0:
363,192,75392,1,2,0:0:0:0:
238,136,75692,6,0,L|201:120,7,40,0|0|0|0|0|0|0|0,3:0|3:0|3:0|3:0|3:0|3:0|3:0|3:0,0:0:0:0:
170,89,76292,2,0,L|133:73,7,40,2|2|2|2|2|2|2|2,1:0|1:0|1:0|1:0|1:0|1:0|1:0|1:0,0:0:0:0:
102,42,76892,5,4,1:0:0:0:
468,148,91292,6,0,P|396:118|324:148,1,160,2|2,3:0|0:0,0:0:0:0:
324,236,91742,2,0,P|396:266|468:236,1,160,2|2,0:0|0:0,0:0:0:0:
256,296,92342,2,0,L|98:268,1,160,2|2,0:0|0:0,0:0:0:0:
98,115,92942,2,0,L|256:88,1,160,2|2,0:0|0:0,0:0:0:0:
396,192,93542,1,2,0:0:0:0:
324,236,93692,6,0,L|284:229,7,40,2|2|2|2|2|2|2|2,3:0|0:0|0:0|0:0|0:0|0:0|0:0|0:0,0:0:0:0:
256,264,94292,2,0,L|216:257,7,40,2|2|2|2|2|2|2|2,3:0|0:0|0:0|0:0|0:0|0:0|0:0|0:0,0:0:0:0:
185,288,94892,6,0,P|166:294|147:288,3,40,8|8|8|8,1:0|1:0|1:0|1:0,0:0:0:0:
116,257,95192,2,0,P|97:251|78:257,3,40,8|8|8|8,1:0|1:0|1:0|1:0,0:0:0:0:
47,225,95492,6,0,L|33:187,3,40,8|8|8|8,1:0|1:0|1:0|1:0,0:0:0:0:
64,155,95792,2,0,L|51:117,3,40,8|8|8|8,1:0|1:0|1:0|1:0,0:0:0:0:
51,72,96092,6,0,B|164:60|164:60|204:36,1,160,4|10,3:0|1:0,0:0:0:0:
308,36,96542,2,0,B|348:60|348:60|461:72,1,160,2|2,0:0|3:0,0:0:0:0:
500,152,96992,1,8,1:0:0:0:
460,232,97142,2,0,P|447:269|460:306,1,80,2|0,0:0|3:0,0:0:0:0:
379,348,97442,2,0,P|343:364|304:362,1,80,2|8,3:0|1:0,0:0:0:0:
207,362,97742,2,0,P|168:364|132:348,1,80,2|0,0:0|0:0,0:0:0:0:
51,306,98042,1,2,3:0:0:0:
128,257,98192,5,10,1:0:0:0:
128,257,98267,1,2,0:0:0:0:
128,257,98342,2,0,L|162:236,2,40,2|0|2,0:0|0:0|3:0,0:0:0:0:
51,78,98792,1,10,1:0:0:0:
128,127,98942,2,0,L|207:138,1,80,2|0,0:0|0:0,0:0:0:0:
305,138,99242,2,0,L|384:127,1,80,2|8,3:0|1:0,0:0:0:0:
384,257,99542,2,0,L|305:246,1,80,2|0,0:0|3:0,0:0:0:0:
207,246,99842,2,0,L|128:257,1,80,2|8,3:0|1:0,0:0:0:0:
256,320,100142,1,2,0:0:0:0:
207,138,100442,5,2,3:0:0:0:
256,64,100592,1,10,1:0:0:0:
305,138,100742,1,2,0:0:0:0:
207,138,100892,6,0,B|167:121|151:83|151:83|151:42|182:12,1,160,2|10,3:0|1:0,0:0:0:0:
329,12,101342,2,0,B|360:42|360:83|360:83|344:121|305:138,1,160,2|2,0:0|3:0,0:0:0:0:
256,212,101792,1,8,1:0:0:0:
207,286,101942,2,0,L|127:274,1,80,2|0,0:0|3:0,0:0:0:0:
127,185,102242,2,0,L|47:173,1,80,2|8,3:0|1:0,0:0:0:0:
47,85,102542,1,2,0:0:0:0:
220,26,102842,6,0,B|256:43|256:43|292:26,2,80,2|10|2,3:0|1:0|0:0,0:0:0:0:
182,106,103292,2,0,B|256:136|256:136|330:106,1,160,2|10,3:0|1:0,0:0:0:0:
410,68,103742,2,0,P|421:106|410:144,1,80,2|0,0:0|0:0,0:0:0:0:
410,240,104042,2,0,P|421:278|410:316,1,80,2|8,3:0|1:0,0:0:0:0:
330,278,104342,2,0,B|256:248|256:248|182:278,1,160,2|2,0:0|3:0,0:0:0:0:
101,317,104792,1,8,1:0:0:0:
28,267,104942,6,0,L|16:182,2,80,2|0|2,0:0|0:0|3:0,0:0:0:0:
108,232,105392,2,0,L|102:192,2,40,10|2|2,1:0|0:0|0:0,0:0:0:0:
192,206,105692,6,0,B|216:161|216:161|206:52,1,160,4|10,3:0|1:0,0:0:0:0:
305,52,106142,2,0,B|296:161|296:161|320:206,1,160,2|2,0:0|3:0,0:0:0:0:
372,277,106592,1,8,1:0:0:0:
367,361,106742,2,0,P|329:351|302:322,1,80,2|0,0:0|3:0,0:0:0:0:
208,322,107042,2,0,P|182:350|143:360,1,80,2|8,3:0|1:0,0:0:0:0:
140,277,107342,1,2,0:0:0:0:
256,144,107642,1,2,3:0:0:0:
256,56,107792,2,0,L|256:16,2,40,10|2|2,1:0|0:0|0:0,0:0:0:0:
256,144,108092,6,0,B|334:172|334:116|412:144,1,160,2|10,3:0|1:0,0:0:0:0:
412,240,108542,2,0,B|334:268|334:212|256:240,1,160,2|2,0:0|3:0,0:0:0:0:
187,296,108992,1,8,1:0:0:0:
118,238,109142,2,0,P|101:203|100:163,1,80,2|0,0:0|3:0,0:0:0:0:
84,75,109442,2,0,P|123:78|158:96,1,80,2|8,3:0|1:0,0:0:0:0:
240,126,109742,2,0,P|218:159|184:179,1,80,2|0,0:0|0:0,0:0:0:0:
118,238,110042,6,0,L|29:225,2,80,2|10|2,3:0|1:0|0:0,0:0:0:0:
187,296,110492,2,0,B|304:288|304:288|342:268,1,160,2|10,3:0|1:0,0:0:0:0:
335,180,110942,2,0,B|373:160|373:160|490:152,1,160,2|2,0:0|3:0,0:0:0:0:
177,180,111542,2,0,B|138:160|138:160|21:152,1,160,2|2,0:0|3:0,0:0:0:0:
256,16,112142,2,0,L|256:176,1,160,2|2,0:0|3:0,0:0:0:0:
424,140,112742,5,2,0:0:0:0:
429,229,112892,2,0,B|428:260|388:296|352:296|352:296|302:296,1,160,2|10,3:0|1:0,0:0:0:0:
209,296,113342,2,0,B|160:296|160:296|124:296|84:260|83:229,1,160,2|2,0:0|3:0,0:0:0:0:
88,140,113792,1,8,1:0:0:0:
191,147,113942,6,0,L|170:112,2,40,10|8|8,1:0|1:0|1:0,0:0:0:0:
216,48,114242,2,0,L|216:8,2,40,10|2|10,1:0|1:0|1:0,0:0:0:0:
296,48,114542,2,0,L|296:8,2,40,10|10|10,1:0|1:0|1:0,0:0:0:0:
321,147,114842,2,0,L|341:112,2,40,10|10|10,1:0|1:0|1:0,0:0:0:0:
256,204,115142,1,10,1:0:0:0:
191,147,115292,6,0,P|155:132|116:136,2,80,4|2|8,3:0|0:0|1:0,0:0:0:0:
191,236,115742,2,0,P|165:265|156:304,2,80,2|2|2,0:0|0:0|3:0,0:0:0:0:
275,263,116192,2,0,P|295:297|329:317,2,80,8|2|0,1:0|0:0|3:0,0:0:0:0:
326,191,116642,2,0,P|364:181|393:154,2,80,0|8|2,3:0|1:0|0:0,0:0:0:0:
275,120,117092,2,0,P|277:81|262:45,2,80,2|0|8,0:0|3:0|1:0,0:0:0:0:
192,148,117542,1,2,0:0:0:0:
192,148,117617,1,2,0:0:0:0:
192,148,117692,6,0,B|165:148|165:148|157:152|157:152|157:144|157:144|149:148|149:148|122:148,2,80,0|2|8,3:0|0:0|1:0,0:0:0:0:
192,236,118142,2,0,B|165:236|165:236|157:232|157:232|157:240|157:240|149:236|149:236|122:236,2,80,2|2|0,0:0|0:0|3:0,0:0:0:0:
320,148,118592,2,0,B|347:148|347:148|355:152|355:152|355:144|355:144|363:148|363:148|390:148,2,80,8|2|0,1:0|0:0|3:0,0:0:0:0:
320,236,119042,2,0,B|347:236|347:236|355:232|355:232|355:240|355:240|363:236|363:236|390:236,2,80,0|8|2,3:0|1:0|0:0,0:0:0:0:
256,296,119492,6,0,L|256:348,6,40,2|2|0|2|8|0|2,0:0|0:0|3:0|0:0|1:0|0:0|0:0,0:0:0:0:
191,236,120092,6,0,P|155:252|116:249,2,80,0|2|8,3:0|0:0|1:0,0:0:0:0:
320,236,120542,2,0,P|356:252|395:249,2,80,2|2|0,0:0|0:0|3:0,0:0:0:0:
191,147,120992,2,0,P|155:131|116:134,2,80,8|2|0,1:0|0:0|3:0,0:0:0:0:
256,88,121442,2,0,L|256:8,2,80,0|8|2,0:0|1:0|0:0,0:0:0:0:
320,147,121892,2,0,P|356:131|395:134,2,80,2|0|8,0:0|3:0|1:0,0:0:0:0:
256,296,122342,1,2,0:0:0:0:
256,304,122417,1,2,0:0:0:0:
256,312,122492,6,0,L|160:320,1,80,0|2,1:0|0:0,0:0:0:0:
117,249,122792,2,0,L|213:241,1,80,8|2,1:0|0:0,0:0:0:0:
256,312,123092,2,0,L|352:320,1,80,2|0,0:0|1:0,0:0:0:0:
395,249,123392,2,0,L|299:241,1,80,8|0,1:0|0:0,0:0:0:0:
256,176,123692,5,0,3:0:0:0:
304,100,123842,1,0,3:0:0:0:
256,24,123992,1,8,1:0:0:0:
208,100,124142,1,2,0:0:0:0:
256,176,124292,6,0,L|256:220,6,40,2|2|0|2|8|0|2,0:0|0:0|3:0|0:0|1:0|0:0|0:0,0:0:0:0:
208,100,124892,6,0,B|183:91|183:91|132:107,2,80,4|2|8,3:0|0:0|1:0,0:0:0:0:
184,184,125342,2,0,B|167:204|167:204|167:257,2,80,2|2|0,0:0|0:0|3:0,0:0:0:0:
256,232,125792,2,0,B|270:253|270:253|322:269,2,80,8|2|0,1:0|0:0|3:0,0:0:0:0:
324,178,126242,2,0,B|349:170|349:170|380:126,2,80,0|8|2,3:0|1:0|0:0,0:0:0:0:
294,96,126692,2,0,B|294:69|294:69|262:26,2,80,2|0|8,0:0|3:0|1:0,0:0:0:0:
208,100,127142,1,2,0:0:0:0:
208,100,127217,1,2,0:0:0:0:
208,100,127292,6,0,B|187:100|171:89|171:89|155:100|131:100,2,80,0|2|8,3:0|0:0|1:0,0:0:0:0:
294,96,127742,2,0,B|314:96|330:85|330:85|346:96|370:96,2,80,2|2|0,0:0|0:0|3:0,0:0:0:0:
294,184,128192,2,0,B|314:183|330:194|330:194|346:183|370:183,2,80,8|2|0,1:0|0:0|3:0,0:0:0:0:
208,188,128642,2,0,B|187:187|171:198|171:198|155:187|131:187,2,80,0|8|2,3:0|1:0|0:0,0:0:0:0:
256,260,129092,5,2,0:0:0:0:
256,348,129242,1,0,3:0:0:0:
256,260,129392,1,8,1:0:0:0:
256,348,129542,1,2,0:0:0:0:
332,304,129692,6,0,L|372:304,6,40,0|2|0|2|8|0|2,3:0|0:0|3:0|0:0|1:0|0:0|0:0,0:0:0:0:
180,304,130292,2,0,L|140:304,6,40,8|2|0|2|8|0|2,1:0|0:0|0:0|0:0|1:0|0:0|0:0,0:0:0:0:
300,230,130892,6,0,P|318:195|313:156,1,80,2|0,3:0|3:0,0:0:0:0:
198,156,131192,2,0,P|193:195|211:230,1,80,2|0,0:0|3:0,0:0:0:0:
314,156,131492,2,0,L|394:152,1,80,10|0,1:0|3:0,0:0:0:0:
198,156,131792,2,0,L|118:152,1,80,10|0,1:0|3:0,0:0:0:0:
256,84,132092,6,0,L|256:44,6,40,2|2|2|2|10|2|2,3:0|3:0|3:0|3:0|1:0|3:0|3:0,0:0:0:0:
256,172,132692,2,0,L|256:212,6,40,2|2|2|2|10|2|2,3:0|3:0|3:0|3:0|1:0|3:0|3:0,0:0:0:0:
332,123,133292,6,0,P|370:112|408:123,1,80,8|8,1:0|1:0,0:0:0:0:
409,261,133592,2,0,P|371:272|333:261,1,80,8|8,1:0|1:0,0:0:0:0:
180,261,133892,2,0,P|142:272|104:261,1,80,8|8,1:0|1:0,0:0:0:0:
103,123,134192,2,0,P|141:112|179:123,1,80,8|8,1:0|1:0,0:0:0:0:
256,52,134492,6,0,B|380:8|380:8|504:52|504:52|408:52|408:52|344:52|332:123|332:123|385:91|456:120|493:192|456:264|385:293|332:261|332:261|344:332|408:332|408:332|504:332|504:332|380:376|380:376|256:332,1,1280,4|0,1:0|0:0,0:0:0:0:
