osu file format v14

[General]
AudioFilename: adaptor - LAISSEZ FAIRE.mp3
AudioLeadIn: 0
PreviewTime: 57692
Countdown: 1
SampleSet: Soft
StackLeniency: 0.7
Mode: 0
LetterboxInBreaks: 0
WidescreenStoryboard: 1

[Editor]
Bookmarks: 19292,38492,57692,76892,96092,115292,124892,134492
DistanceSpacing: 0.7
BeatDivisor: 4
GridSize: 4
TimelineZoom: 2.1

[Metadata]
Title:LAISSEZ FAIRE
TitleUnicode:LAISSEZ: FAIRE
Artist:adaptor
ArtistUnicode:adaptor
Creator:Karen
Version:Extra
Source:
Tags:Crystal Skystar yf_bmp osu!International mapping contest o!imc #1 artcore
BeatmapID:1419806
BeatmapSetID:671516

[Difficulty]
HPDrainRate:7
CircleSize:4
OverallDifficulty:8
ApproachRate:9.3
SliderMultiplier:1.8
SliderTickRate:1

[Events]
//Background and Video events
0,0,"contest_background.jpg",0,0
//Break Periods
//Storyboard Layer 0 (Background)
//Storyboard Layer 1 (Fail)
//Storyboard Layer 2 (Pass)
//Storyboard Layer 3 (Foreground)
//Storyboard Sound Samples

[TimingPoints]
92,300,4,2,0,60,1,0
92,-200,4,2,0,60,0,0
9692,-133.333333333333,4,2,0,60,0,0
14492,-133.333333333333,4,2,3,60,0,0
14642,-133.333333333333,4,2,0,60,0,0
15392,-62.5,4,2,0,60,0,0
15692,-113.636363636364,4,2,3,60,0,0
15842,-113.636363636364,4,2,0,60,0,0
16592,-55.5555555555556,4,2,0,60,0,0
16892,-100,4,2,3,60,0,0
17042,-100,4,2,0,60,0,0
17492,-100,4,2,3,60,0,0
17642,-100,4,2,0,60,0,0
17792,-50,4,2,3,60,0,0
18092,-100,4,2,3,60,0,0
19292,-100,4,3,0,70,0,0
37292,-100,4,2,0,50,0,0
37442,-83.3333333333333,4,2,0,50,0,0
37592,-71.4285714285714,4,2,0,50,0,0
37742,-62.5,4,2,0,50,0,0
37892,-100,4,2,0,50,0,0
38492,-71.4285714285714,4,2,0,70,0,0
38792,-71.4285714285714,4,2,1,70,0,0
57692,-133.333333333333,4,2,0,70,0,0
68042,-166.666666666667,4,2,0,70,0,0
68492,-133.333333333333,4,2,0,70,0,0
71792,-66.6666666666667,4,2,0,70,0,0
72092,-133.333333333333,4,2,0,70,0,0
72992,-62.5,4,2,0,70,0,0
73292,-113.636363636364,4,2,0,70,0,0
74192,-55.5555555555556,4,2,0,70,0,0
74492,-100,4,2,0,70,0,0
75392,-50,4,2,0,70,0,0
75692,-100,4,2,0,70,0,0
76892,-100,4,3,0,70,0,0
78092,-100,4,2,2,70,0,0
78167,-100,4,3,0,70,0,0
79292,-100,4,2,2,70,0,0
79367,-100,4,3,0,70,0,0
80492,-100,4,2,2,70,0,0
80567,-100,4,3,0,70,0,0
81692,-100,4,2,2,70,0,0
81767,-100,4,3,0,70,0,0
82892,-100,4,2,2,70,0,0
82967,-100,4,3,0,70,0,0
83492,-100,4,3,0,65,0,0
84092,-100,4,2,2,60,0,0
84167,-100,4,3,0,60,0,0
84692,-100,4,3,0,55,0,0
85292,-100,4,2,2,50,0,0
85367,-100,4,3,0,50,0,0
85892,-100,4,3,0,45,0,0
86492,-100,4,3,0,70,0,0
87692,-100,4,2,2,70,0,0
87767,-100,4,3,0,70,0,0
88892,-100,4,2,2,70,0,0
88967,-100,4,3,0,70,0,0
90092,-100,4,2,2,70,0,0
90167,-100,4,3,0,70,0,0
90992,-66.6666666666667,4,3,0,70,0,0
91292,-100,4,3,3,70,0,0
91367,-100,4,3,0,70,0,0
92192,-62.5,4,3,0,70,0,0
92492,-100,4,3,3,70,0,0
92567,-100,4,3,0,70,0,0
93392,-55.5555555555556,4,3,0,70,0,0
93692,-100,4,3,3,70,0,0
93767,-100,4,2,0,70,0,0
94292,-100,4,2,1,70,0,0
94367,-100,4,2,0,70,0,0
94592,-100,4,2,1,70,0,0
94667,-100,4,2,0,70,0,0
94892,-66.6666666666667,4,2,1,70,0,0
95192,-83.3333333333333,4,2,1,70,0,0
95492,-50,4,2,0,50,0,0
96092,-71.4285714285714,4,2,0,70,0,1
96392,-71.4285714285714,4,2,1,70,0,1
96542,-71.4285714285714,4,3,0,70,0,1
96842,-71.4285714285714,4,2,1,70,0,1
97742,-71.4285714285714,4,2,0,70,0,1
98192,-71.4285714285714,4,2,1,70,0,1
98267,-71.4285714285714,4,2,0,70,0,1
98492,-71.4285714285714,4,2,1,70,0,1
98942,-71.4285714285714,4,2,0,70,0,1
99242,-71.4285714285714,4,2,1,70,0,1
100142,-71.4285714285714,4,2,0,70,0,1
100442,-71.4285714285714,4,2,1,70,0,1
100592,-100,4,2,1,70,0,1
100667,-100,4,3,0,70,0,1
100892,-71.4285714285714,4,2,0,70,0,1
101192,-71.4285714285714,4,2,1,70,0,1
101342,-71.4285714285714,4,2,0,70,0,1
101642,-71.4285714285714,4,2,1,70,0,1
102542,-71.4285714285714,4,2,0,70,0,1
102842,-71.4285714285714,4,2,1,70,0,1
105392,-100,4,2,1,70,0,1
105467,-100,4,2,0,70,0,1
105692,-71.4285714285714,4,2,0,70,0,1
105992,-71.4285714285714,4,2,1,70,0,1
106142,-71.4285714285714,4,2,0,70,0,1
106442,-71.4285714285714,4,2,1,70,0,1
107042,-71.4285714285714,4,2,0,70,0,1
107117,-71.4285714285714,4,2,1,70,0,1
107342,-100,4,2,0,70,0,1
107642,-100,4,2,1,70,0,1
107717,-100,4,2,0,70,0,1
107792,-100,4,2,1,70,0,1
107867,-100,4,2,0,70,0,1
108092,-71.4285714285714,4,2,1,70,0,1
108542,-71.4285714285714,4,2,0,70,0,1
108842,-71.4285714285714,4,2,1,70,0,1
109442,-71.4285714285714,4,2,0,70,0,1
109517,-71.4285714285714,4,2,1,70,0,1
109742,-71.4285714285714,4,2,0,70,0,1
110042,-71.4285714285714,4,2,1,70,0,1
110117,-71.4285714285714,4,2,0,70,0,1
110192,-100,4,2,1,70,0,1
110267,-100,4,2,0,70,0,1
110492,-71.4285714285714,4,2,0,70,0,1
110792,-71.4285714285714,4,2,1,70,0,1
110942,-71.4285714285714,4,2,0,70,0,1
111242,-71.4285714285714,4,2,1,70,0,1
111842,-71.4285714285714,4,2,0,70,0,1
111917,-71.4285714285714,4,2,1,70,0,1
112142,-71.4285714285714,4,2,0,70,0,1
112442,-71.4285714285714,4,2,1,70,0,1
112517,-71.4285714285714,4,2,0,70,0,1
112592,-71.4285714285714,4,2,1,70,0,1
112892,-58.8235294117647,4,2,1,70,0,1
113342,-71.4285714285714,4,2,0,70,0,1
113642,-71.4285714285714,4,2,1,70,0,1
114242,-100,4,2,0,70,0,1
115292,-100,4,2,0,70,0,0
115367,-100,4,2,1,70,0,0
131492,-90.9090909090909,4,2,0,70,0,0
131792,-133.333333333333,4,2,0,70,0,0
132092,-100,4,2,0,70,0,0
132392,-83.3333333333333,4,2,0,70,0,0
132692,-71.4285714285714,4,2,0,70,0,0
132992,-133.333333333333,4,2,0,70,0,0
133142,-100,4,2,0,70,0,0
133292,-83.3333333333333,4,2,0,70,0,0
133442,-71.4285714285714,4,2,0,70,0,0
133592,-66.6666666666667,4,2,0,70,0,0
134192,-50,4,2,0,70,0,0
134567,-100,4,2,0,5,0,0

[Colours]
Combo1 : 151,47,255
Combo2 : 255,128,128
Combo3 : 128,128,255
Combo4 : 255,0,0

[HitObjects]
145,185,92,6,0,P|229:172|267:200,1,135,4|2,0:0|0:0,0:0:0:0:
368,309,917,1,2,0:0:0:0:
368,309,992,2,0,L|470:303,1,90,2|2,0:0|0:0,0:0:0:0:
368,77,1742,1,2,0:0:0:0:
368,77,1817,1,0,0:0:0:0:
368,77,1892,2,0,P|354:114|367:181,1,90,2|2,0:0|0:0,0:0:0:0:
295,241,2492,6,0,P|229:218|159:240,1,135,2|2,0:0|0:0,0:0:0:0:
45,347,3317,1,2,0:0:0:0:
45,347,3392,2,0,L|143:340,1,90,2|2,0:0|0:0,0:0:0:0:
262,127,4892,6,0,L|254:278,1,135,2|2,0:0|0:0,0:0:0:0:
263,275,5417,1,0,0:0:0:0:
272,287,5492,2,0,P|310:297|369:283,1,90,2|2,0:0|0:0,0:0:0:0:
458,204,6092,2,0,L|356:198,1,90,2|0,0:0|0:0,0:0:0:0:
368,198,6542,1,2,0:0:0:0:
168,104,6992,1,2,0:0:0:0:
168,104,7292,6,0,B|133:132|133:132|137:240,1,135,2|0,0:0|0:0,0:0:0:0:
145,235,7817,1,0,0:0:0:0:
153,248,7892,2,0,P|107:235|60:248,1,90,2|2,0:0|0:0,0:0:0:0:
110,357,8492,1,2,0:0:0:0:
313,311,9692,6,0,P|328:268|308:181,1,135.000005149842,4|0,0:0|0:0,0:0:0:0:
371,116,10142,2,0,P|331:93|294:96,1,67.5000025749208,2|0,0:0|0:0,0:0:0:0:
233,237,10442,1,0,0:0:0:0:
131,137,10592,6,0,P|195:156|246:132,1,101.250003862381,2|0,0:0|0:0,0:0:0:0:
230,125,10892,2,0,L|225:40,1,67.5000025749208,2|0,0:0|0:0,0:0:0:0:
380,0,11192,1,0,0:0:0:0:
445,113,11342,1,2,0:0:0:0:
441,122,11417,1,0,0:0:0:0:
436,130,11492,2,0,L|361:122,1,67.5000025749208,2|0,0:0|0:0,0:0:0:0:
298,292,11792,1,2,0:0:0:0:
237,214,11942,1,0,0:0:0:0:
245,208,12017,1,0,0:0:0:0:
254,205,12092,6,0,P|304:197|375:248,1,135.000005149842,2|0,0:0|0:0,0:0:0:0:
241,368,12542,2,0,L|96:364,1,135.000005149842,2|0,0:0|0:0,0:0:0:0:
97,358,12917,1,0,0:0:0:0:
89,351,12992,2,0,P|108:308|90:217,1,135.000005149842,2|2,0:0|0:0,0:0:0:0:
21,51,13442,5,0,0:0:0:0:
126,135,13592,1,0,0:0:0:0:
232,115,13742,1,0,0:0:0:0:
273,45,13892,1,0,0:0:0:0:
264,21,14042,1,0,0:0:0:0:
432,120,14192,5,0,0:0:0:0:
428,156,14267,1,0,0:0:0:0:
424,192,14342,1,0,0:0:0:0:
420,228,14417,1,0,0:0:0:0:
413,264,14492,6,0,L|328:248,1,67.5000025749208,2|0,3:0|0:0,0:0:0:0:
256,136,14792,1,0,0:0:0:0:
99,264,14942,1,2,0:0:0:0:
99,264,15017,1,0,0:0:0:0:
99,264,15092,2,0,L|184:248,1,67.5000025749208,2|0,0:0|0:0,0:0:0:0:
288,327,15392,6,0,B|257:278|256:224|256:224|257:278|226:324,1,216,2|0,0:0|0:0,0:0:0:0:
206,339,15692,6,0,P|162:346|121:334,1,79.2000024169922,2|0,3:0|0:0,0:0:0:0:
256,136,15992,1,0,0:0:0:0:
306,339,16142,2,0,P|350:346|391:334,1,79.2000024169922,2|0,0:0|0:0,0:0:0:0:
256,136,16442,1,0,0:0:0:0:
226,323,16592,6,0,B|295:279|255:223|255:223|215:271|287:324,1,242.999992584229,2|0,0:0|0:0,0:0:0:0:
308,318,16892,6,0,L|407:278,1,90,2|0,3:0|0:0,0:0:0:0:
256,136,17192,1,0,0:0:0:0:
256,224,17342,1,0,0:0:0:0:
204,318,17492,2,0,L|105:278,1,90,2|0,3:2|0:0,0:0:0:0:
288,324,17792,6,0,B|185:268|249:259|257:227|257:227|265:259|331:275|226:323,1,270,0|0,3:0|0:0,0:0:0:0:
211,294,18092,5,0,3:0:0:0:
186,273,18167,1,0,3:0:0:0:
155,264,18242,1,0,3:0:0:0:
123,268,18317,1,0,3:0:0:0:
99,289,18392,1,0,3:0:0:0:
68,297,18467,1,0,3:0:0:0:
37,289,18542,1,0,3:0:0:0:
17,264,18617,1,0,3:0:0:0:
20,219,18692,5,0,3:0:0:0:
55,191,18767,1,0,3:0:0:0:
98,200,18842,1,0,3:0:0:0:
115,241,18917,1,0,3:0:0:0:
93,295,18992,5,0,3:0:0:0:
119,346,19067,1,0,3:0:0:0:
175,361,19142,1,0,3:0:0:0:
228,337,19217,1,0,3:0:0:0:
250,283,19292,6,0,P|229:205|265:143,1,135,4|0,2:0|2:0,0:0:0:0:
272,145,19592,1,0,3:0:0:0:
409,241,19742,1,2,3:2:0:0:
451,161,19892,1,0,3:0:0:0:
451,161,19967,1,0,0:0:0:0:
451,161,20042,2,0,L|518:168,2,45,0|0|2,0:0|0:0|3:2,0:0:0:0:
319,222,20342,1,0,0:0:0:0:
349,306,20492,5,0,3:0:0:0:
294,377,20642,1,0,3:0:0:0:
294,377,20792,1,0,3:0:0:0:
221,323,20942,1,0,3:0:0:0:
236,280,21017,1,0,3:0:0:0:
224,236,21092,1,0,3:0:0:0:
210,278,21167,1,0,3:0:0:0:
221,323,21242,1,0,3:0:0:0:
127,380,21392,6,0,L|30:371,1,90,2|0,3:2|0:0,0:0:0:0:
0,122,21692,2,0,L|97:113,1,90,2|0,3:2|0:0,0:0:0:0:
143,188,21992,1,0,3:0:0:0:
213,131,22142,1,0,3:0:0:0:
213,131,22217,1,0,3:0:0:0:
213,131,22292,1,0,3:0:0:0:
295,165,22442,1,0,3:0:0:0:
430,136,22592,1,0,0:0:0:0:
430,136,22742,1,0,0:0:0:0:
339,256,22892,6,0,L|239:244,1,90,2|0,0:2|0:0,0:0:0:0:
176,297,23192,1,0,0:0:0:0:
103,244,23342,1,0,0:0:0:0:
62,223,23417,1,0,0:0:0:0:
18,234,23492,1,0,0:0:0:0:
55,258,23567,1,0,0:0:0:0:
103,244,23642,1,0,0:0:0:0:
198,135,23792,1,0,0:2:0:0:
326,201,23942,1,2,0:2:0:0:
233,357,24092,6,0,P|189:342|132:350,1,90,2|0,0:2|0:0,0:0:0:0:
131,356,24317,1,0,0:0:0:0:
118,369,24392,1,0,0:0:0:0:
103,244,24542,2,0,P|147:259|204:251,1,90,2|0,0:2|0:0,0:0:0:0:
203,243,24767,1,0,0:0:0:0:
215,230,24842,1,0,0:0:0:0:
340,295,24992,2,0,L|339:393,1,90,2|0,0:2|0:0,0:0:0:0:
468,346,25292,5,0,0:0:0:0:
458,256,25442,1,0,0:0:0:0:
447,166,25592,1,0,0:0:0:0:
435,76,25742,1,0,0:0:0:0:
400,64,25817,1,0,0:0:0:0:
400,28,25892,1,2,0:2:0:0:
435,17,25967,1,0,0:0:0:0:
456,46,26042,1,0,0:0:0:0:
355,146,26192,5,0,0:0:0:0:
265,142,26342,1,0,0:0:0:0:
168,31,26492,5,2,0:2:0:0:
178,121,26642,1,0,0:0:0:0:
189,211,26792,1,0,0:0:0:0:
201,301,26942,1,0,0:0:0:0:
236,313,27017,1,0,0:0:0:0:
236,349,27092,1,0,0:0:0:0:
201,360,27167,1,0,0:0:0:0:
180,331,27242,1,0,0:0:0:0:
281,231,27392,5,0,0:0:0:0:
371,235,27542,1,0,0:0:0:0:
192,228,27692,5,0,0:0:0:0:
388,237,27842,1,0,0:0:0:0:
170,226,27992,1,0,0:0:0:0:
278,138,28142,1,0,0:0:0:0:
280,182,28217,1,0,0:0:0:0:
281,231,28292,1,0,0:0:0:0:
281,276,28367,1,0,0:0:0:0:
281,321,28442,1,0,0:0:0:0:
194,344,28592,5,0,0:0:0:0:
364,348,28742,1,0,0:0:0:0:
191,248,28892,6,0,P|135:238|57:294,1,135,4|0,0:2|2:0,0:0:0:0:
71,294,29192,1,0,0:0:0:0:
15,120,29342,1,2,0:2:0:0:
88,68,29492,1,0,0:0:0:0:
88,68,29567,1,0,0:0:0:0:
88,68,29642,2,0,L|84:15,2,45,0|0|2,0:0|0:0|0:2,0:0:0:0:
149,133,29942,1,0,0:0:0:0:
238,141,30092,5,0,0:0:0:0:
313,92,30242,1,0,0:0:0:0:
313,92,30392,1,0,0:0:0:0:
363,166,30542,1,0,0:0:0:0:
363,211,30617,1,0,0:0:0:0:
363,255,30692,1,0,0:0:0:0:
324,232,30767,1,0,0:0:0:0:
283,211,30842,1,0,0:0:0:0:
185,369,30992,6,0,P|240:364|279:384,1,90,2|0,0:2|0:0,0:0:0:0:
452,356,31292,2,0,P|397:361|358:341,1,90,2|0,0:2|0:0,0:0:0:0:
328,267,31592,1,0,0:0:0:0:
369,188,31742,1,0,0:0:0:0:
369,188,31817,1,0,0:0:0:0:
369,188,31892,1,0,0:0:0:0:
325,109,32042,1,0,0:0:0:0:
384,12,32192,1,0,0:0:0:0:
384,12,32342,1,0,0:0:0:0:
233,63,32492,6,0,P|240:109|239:165,1,90,2|0,0:2|0:0,0:0:0:0:
206,236,32792,1,0,0:0:0:0:
116,233,32942,1,0,0:0:0:0:
72,220,33017,1,0,0:0:0:0:
28,206,33092,1,0,0:0:0:0:
38,249,33167,1,0,0:0:0:0:
46,293,33242,1,0,0:0:0:0:
172,361,33392,1,0,0:0:0:0:
303,303,33542,1,2,0:2:0:0:
263,164,33692,6,0,P|256:110|270:73,1,90,2|0,0:2|0:0,0:0:0:0:
278,62,33917,1,0,0:0:0:0:
289,47,33992,1,0,0:0:0:0:
359,182,34142,2,0,P|392:138|428:122,1,90,2|0,0:2|0:0,0:0:0:0:
440,120,34367,1,0,0:0:0:0:
460,116,34442,1,0,0:0:0:0:
399,274,34592,2,0,P|453:267|490:281,1,90,2|0,0:2|0:0,0:0:0:0:
362,371,34892,5,0,0:0:0:0:
272,366,35042,1,0,0:0:0:0:
245,280,35192,1,0,0:0:0:0:
300,208,35342,1,0,0:0:0:0:
300,208,35417,1,0,0:0:0:0:
300,208,35492,2,0,P|307:154|300:116,1,90,2|0,0:2|0:0,0:0:0:0:
136,117,35792,2,0,P|179:150|215:163,1,90,2|0,0:2|0:0,0:0:0:0:
299,23,36092,6,0,P|248:43|219:69,1,90,2|0,0:2|0:0,0:0:0:0:
148,218,36392,1,0,0:0:0:0:
188,298,36542,1,0,0:0:0:0:
223,270,36617,1,0,0:0:0:0:
267,263,36692,1,0,0:0:0:0:
308,279,36767,1,0,0:0:0:0:
340,310,36842,1,0,0:0:0:0:
418,354,36992,5,0,0:0:0:0:
499,314,37142,1,0,0:0:0:0:
390,68,37292,6,0,L|390:118,1,45,2|0,0:2|2:0,0:0:0:0:
474,145,37442,6,0,L|440:199,1,53.9999983520508,0|0,0:0|2:0,0:0:0:0:
485,278,37592,6,0,L|419:311,1,62.9999980773926,0|0,0:0|2:0,0:0:0:0:
391,383,37742,6,0,L|320:376,1,72,0|0,1:0|1:0,0:0:0:0:
227,233,37892,1,2,3:0:0:0:
229,241,37967,1,2,3:0:0:0:
229,250,38042,1,2,3:0:0:0:
230,258,38117,1,2,3:0:0:0:
262,295,38192,5,4,3:0:0:0:
311,290,38267,1,4,3:0:0:0:
346,254,38342,1,4,3:0:0:0:
338,205,38417,1,4,3:0:0:0:
308,167,38492,6,0,L|115:174,1,188.999994232178,4|0,1:0|0:0,0:0:0:0:
102,155,38792,1,10,1:0:0:0:
172,44,38942,1,2,2:2:0:0:
215,18,39017,1,0,2:0:0:0:
261,37,39092,1,0,2:0:0:0:
267,87,39167,1,0,2:0:0:0:
232,123,39242,1,2,3:0:0:0:
23,71,39392,6,0,P|69:152|70:246,1,188.999994232178,8|0,1:0|0:0,0:0:0:0:
49,268,39692,5,0,1:2:0:0:
174,365,39842,1,2,1:2:0:0:
318,292,39992,1,12,1:0:0:0:
184,160,40142,1,2,0:0:0:0:
194,152,40217,1,2,0:0:0:0:
184,202,40292,1,2,0:0:0:0:
194,194,40367,1,2,0:0:0:0:
186,242,40442,1,2,3:0:0:0:
331,98,40592,1,8,1:0:0:0:
272,372,40742,1,2,0:2:0:0:
419,200,40892,6,0,P|349:184|281:206,1,125.999996154785,2|0,3:0|0:0,0:0:0:0:
384,357,41192,1,8,1:0:0:0:
186,242,41342,1,2,2:2:0:0:
207,196,41417,1,0,2:0:0:0:
192,147,41492,1,0,2:0:0:0:
177,98,41567,1,0,2:0:0:0:
197,52,41642,1,0,3:0:0:0:
97,192,41792,6,0,L|105:327,1,125.999996154785,8|0,1:0|0:0,0:0:0:0:
55,97,42092,1,0,3:0:0:0:
15,365,42242,1,0,3:0:0:0:
192,147,42392,1,8,1:0:0:0:
0,257,42542,5,2,0:0:0:0:
25,255,42617,1,2,0:0:0:0:
50,253,42692,1,2,0:0:0:0:
82,272,42767,1,2,0:0:0:0:
107,270,42842,1,2,3:0:0:0:
132,268,42917,1,2,0:0:0:0:
195,226,42992,5,8,1:0:0:0:
270,221,43067,1,0,0:0:0:0:
336,257,43142,1,2,0:0:0:0:
363,327,43217,1,2,0:0:0:0:
303,373,43292,6,0,P|295:282|321:178,1,188.999994232178,2|0,3:0|0:0,0:0:0:0:
338,172,43592,1,8,1:0:0:0:
489,28,43742,1,2,0:0:0:0:
500,76,43817,1,0,0:0:0:0:
466,113,43892,1,0,0:0:0:0:
415,108,43967,1,0,0:0:0:0:
393,62,44042,1,0,3:0:0:0:
408,243,44192,1,10,1:0:0:0:
300,85,44342,6,0,P|231:85|164:77,1,125.999996154785,2|0,0:0|1:0,0:0:0:0:
46,133,44642,1,6,1:2:0:0:
255,0,44792,1,8,1:0:0:0:
134,218,44942,1,2,2:2:0:0:
131,192,45017,1,2,2:0:0:0:
134,167,45092,1,2,0:0:0:0:
91,43,45242,5,0,3:0:0:0:
227,162,45392,1,8,1:0:0:0:
95,302,45542,1,2,0:0:0:0:
60,285,45617,1,2,0:0:0:0:
47,249,45692,1,0,3:0:0:0:
192,45,45842,1,0,0:0:0:0:
134,218,45992,1,8,1:0:0:0:
91,43,46142,1,2,0:2:0:0:
49,156,46292,5,2,0:0:0:0:
140,128,46442,1,0,3:0:0:0:
209,268,46592,1,8,1:0:0:0:
303,268,46742,1,2,0:0:0:0:
165,354,46892,6,0,P|108:381|47:367,1,125.999996154785,0|0,3:0|0:0,0:0:0:0:
347,354,47192,2,0,P|403:381|464:367,1,125.999996154785,8|2,1:0|0:0,0:0:0:0:
252,129,47492,1,2,0:0:0:0:
256,352,47642,1,0,3:0:0:0:
290,209,47792,1,8,1:0:0:0:
227,271,47942,1,0,0:0:0:0:
352,368,48092,6,0,L|152:367,1,188.999994232178,2|0,3:0|0:0,0:0:0:0:
142,352,48392,1,8,1:0:0:0:
146,126,48542,1,2,0:0:0:0:
162,173,48617,1,0,0:0:0:0:
142,219,48692,1,0,0:0:0:0:
91,222,48767,1,0,0:0:0:0:
56,185,48842,1,2,3:0:0:0:
60,357,48992,6,0,P|124:320|243:364,1,188.999994232178,8|0,1:0|0:0,0:0:0:0:
241,363,49292,5,0,3:2:0:0:
381,346,49442,1,6,3:2:0:0:
235,179,49592,1,8,1:0:0:0:
358,266,49742,1,6,2:2:0:0:
358,266,49817,1,2,2:0:0:0:
358,266,49892,2,0,P|390:250|429:209,1,62.9999980773926,2|2,0:0|0:0,0:0:0:0:
212,267,50042,2,0,P|180:251|141:210,1,62.9999980773926,0|2,3:0|0:0,0:0:0:0:
208,88,50192,5,8,1:0:0:0:
274,51,50267,1,2,0:0:0:0:
332,99,50342,1,2,1:0:0:0:
398,62,50417,1,0,0:0:0:0:
457,108,50492,6,0,P|483:180|449:290,1,188.999994232178,2|0,3:0|0:0,0:0:0:0:
432,302,50792,1,8,1:0:0:0:
304,213,50942,5,2,0:0:0:0:
262,184,51017,1,0,0:0:0:0:
216,204,51092,1,0,0:0:0:0:
173,176,51167,1,0,0:0:0:0:
127,197,51242,1,2,3:0:0:0:
43,327,51392,6,0,B|49:255|49:255|27:212|27:212|43:117,1,188.999994232178,8|0,1:0|0:0,0:0:0:0:
54,126,51692,1,0,3:0:0:0:
165,282,51842,1,2,3:2:0:0:
240,93,51992,1,8,1:0:0:0:
62,237,52142,1,2,0:0:0:0:
62,237,52217,1,0,0:0:0:0:
62,237,52292,2,0,L|-2:226,2,62.9999980773926,0|0|2,0:0|0:0|3:0,0:0:0:0:
143,63,52592,1,8,1:0:0:0:
296,221,52742,5,2,0:0:0:0:
300,245,52817,1,2,0:0:0:0:
333,274,52892,1,2,3:0:0:0:
370,250,52967,1,0,0:0:0:0:
413,246,53042,1,2,0:0:0:0:
448,272,53117,1,0,0:0:0:0:
460,314,53192,2,0,L|470:251,1,62.9999980773926,10|0,1:0|0:0,0:0:0:0:
389,143,53342,5,2,0:0:0:0:
371,102,53417,1,2,0:0:0:0:
381,59,53492,1,2,0:0:0:0:
418,35,53567,1,0,0:0:0:0:
460,44,53642,1,0,3:0:0:0:
370,250,53792,6,0,P|336:259|294:249,1,62.9999980773926,8|2,1:0|0:0,0:0:0:0:
288,345,53942,2,0,P|254:335|222:306,1,62.9999980773926,2|2,0:0|0:0,0:0:0:0:
251,179,54092,1,2,3:0:0:0:
273,126,54167,1,0,0:0:0:0:
244,76,54242,1,0,0:0:0:0:
187,69,54317,1,0,0:0:0:0:
142,103,54392,2,0,L|150:179,1,62.9999980773926,8|2,1:0|0:0,0:0:0:0:
110,272,54542,1,2,0:0:0:0:
93,260,54617,1,0,0:0:0:0:
78,247,54692,6,0,P|55:238|1:243,1,62.9999980773926,2|2,0:0|0:0,0:0:0:0:
171,364,54842,2,0,P|202:365|231:354,1,62.9999980773926,2|0,3:0|0:0,0:0:0:0:
282,219,54992,1,8,1:0:0:0:
300,217,55067,1,2,0:0:0:0:
318,220,55142,1,0,0:0:0:0:
334,229,55217,1,0,0:0:0:0:
362,275,55292,6,0,L|359:128,1,125.999996154785,2|0,3:0|0:0,0:0:0:0:
430,350,55592,1,8,1:0:0:0:
508,180,55742,1,2,0:0:0:0:
508,180,55817,1,0,0:0:0:0:
508,180,55892,2,0,P|476:185|446:192,1,62.9999980773926
282,219,56042,2,0,P|250:213|220:206,1,62.9999980773926,2|0,3:0|0:0,0:0:0:0:
363,0,56192,6,0,L|363:141,1,125.999996154785,8|2,1:0|0:0,0:0:0:0:
219,111,56417,1,0,3:0:0:0:
246,88,56492,2,0,P|252:53|247:4,1,62.9999980773926,0|0,3:0|0:0,0:0:0:0:
462,28,56642,2,0,P|461:59|467:90,1,62.9999980773926,0|0,3:0|0:0,0:0:0:0:
374,245,56792,5,8,1:0:0:0:
126,132,56942,1,0,3:0:0:0:
95,123,57017,1,0,3:0:0:0:
66,137,57092,1,8,1:0:0:0:
176,44,57242,1,0,3:0:0:0:
238,211,57392,1,8,1:0:0:0:
304,139,57542,1,0,1:0:0:0:
333,125,57617,1,0,1:0:0:0:
365,139,57692,5,4,1:2:0:0:
392,312,57842,2,0,P|373:334|368:380,1,67.5000025749208,2|0,0:0|0:0,0:0:0:0:
349,251,58142,2,0,P|329:225|324:192,1,67.5000025749208,2|8,0:0|0:0,0:0:0:0:
244,368,58442,2,0,P|268:292|232:204,1,168.750006437302,2|0,0:0|0:0,0:0:0:0:
248,196,58892,6,0,P|253:162|273:136,1,67.5000025749208,2|0,0:0|1:0,0:0:0:0:
344,120,59192,1,0,1:0:0:0:
288,20,59342,1,0,0:0:0:0:
296,40,59417,1,0,0:0:0:0:
296,60,59492,5,8,0:0:0:0:
188,128,59642,1,0,0:0:0:0:
92,104,59792,1,0,0:0:0:0:
52,40,59942,1,0,0:0:0:0:
52,24,60092,5,2,1:2:0:0:
156,60,60242,2,0,P|175:38|180:-8,1,67.5000025749208,2|0,0:0|0:0,0:0:0:0:
188,128,60542,2,0,P|208:154|213:187,1,67.5000025749208,2|8,0:0|0:0,0:0:0:0:
24,107,60842,2,0,L|92:104,1,67.5000025749208,2|0,0:0|1:0,0:0:0:0:
288,188,61142,6,0,P|283:221|263:247,1,67.5000025749208,2|0,0:0|0:0,0:0:0:0:
272,112,61442,2,0,L|339:108,1,67.5000025749208,2|0,0:0|1:0,0:0:0:0:
416,104,61742,1,2,0:0:0:0:
478,228,61892,6,0,P|388:185|288:188,1,202.500007724762,8|0,0:0|0:0,0:0:0:0:
212,187,62492,6,0,L|132:182,1,67.5000025749208,2|0,1:2|0:0,0:0:0:0:
72,176,62792,1,0,0:0:0:0:
184,264,62942,2,0,P|151:257|119:268,1,67.5000025749208,2|8,0:0|0:0,0:0:0:0:
60,312,63242,1,0,0:0:0:0:
204,344,63392,2,0,P|170:339|104:375,1,101.250003862381,2|0,0:0|0:0,0:0:0:0:
100,384,63692,5,0,0:0:0:0:
260,288,63842,1,0,1:0:0:0:
260,288,63992,2,0,L|268:208,1,67.5000025749208,0|0,1:0|0:0,0:0:0:0:
204,344,64292,1,10,0:0:0:0:
324,368,64442,2,0,P|347:369|404:356,2,67.5000025749208
312,360,64817,1,0,0:0:0:0:
304,348,64892,5,0,1:0:0:0:
352,276,65042,1,0,0:0:0:0:
364,140,65192,5,0,0:0:0:0:
292,152,65342,1,0,0:0:0:0:
240,268,65492,5,8,0:0:0:0:
272,268,65642,1,0,0:0:0:0:
220,152,65792,5,0,1:0:0:0:
148,140,65942,1,0,0:0:0:0:
160,276,66092,5,2,0:0:0:0:
208,348,66242,1,0,0:0:0:0:
220,152,66392,5,0,1:0:0:0:
148,140,66542,1,0,0:0:0:0:
88,240,66692,5,8,0:0:0:0:
84,276,66767,1,0,0:0:0:0:
80,312,66842,1,0,0:0:0:0:
76,348,66917,1,0,0:0:0:0:
72,384,66992,1,2,0:0:0:0:
88,240,67142,1,0,0:0:0:0:
4,140,67292,5,4,1:0:0:0:
120,72,67442,2,0,P|128:40|124:0,1,67.5000025749208,2|0,0:0|0:0,0:0:0:0:
148,140,67742,2,0,L|232:124,1,67.5000025749208,2|8,0:0|0:0,0:0:0:0:
4,140,68042,2,0,P|72:164|140:152,1,134.999995880127,2|0,0:0|0:0,0:0:0:0:
148,140,68492,6,0,P|153:174|173:200,1,67.5000025749208,2|0,0:0|1:0,0:0:0:0:
240,244,68792,1,0,1:0:0:0:
176,320,68942,1,0,0:0:0:0:
168,300,69017,1,0,0:0:0:0:
168,280,69092,5,8,0:0:0:0:
248,164,69242,1,0,0:0:0:0:
332,228,69392,1,0,0:0:0:0:
296,300,69542,1,0,0:0:0:0:
168,280,69692,5,2,1:2:0:0:
276,376,69842,2,0,P|309:379|339:366,1,67.5000025749208,2|0,0:0|0:0,0:0:0:0:
200,352,70142,2,0,L|120:360,1,67.5000025749208,2|8,0:0|0:0,0:0:0:0:
296,300,70442,2,0,L|384:288,1,67.5000025749208,2|0,0:0|1:0,0:0:0:0:
168,280,70742,6,0,P|134:275|108:255,1,67.5000025749208,2|0,0:0|0:0,0:0:0:0:
320,224,71042,2,0,P|346:203|359:172,1,67.5000025749208,2|0,0:0|1:0,0:0:0:0:
168,204,71342,2,0,P|151:175|150:141,2,67.5000025749208,2|8|0,0:0|0:0|0:0,0:0:0:0:
284,156,71792,6,0,B|260:128|256:60|256:60|252:128|228:156,1,202.500007724762,2|0,0:0|0:0,0:0:0:0:
212,164,72092,6,0,P|179:161|151:143,1,67.5000025749208,0|0,1:0|0:0,0:0:0:0:
292,0,72392,1,0,0:0:0:0:
362,143,72542,2,0,P|334:161|300:164,1,67.5000025749208,2|8,0:0|0:0,0:0:0:0:
220,0,72842,1,0,0:0:0:0:
228,156,72992,6,0,B|208:100|255:59|255:59|304:100|284:156,1,216,2|0,0:0|0:0,0:0:0:0:
292,176,73292,6,0,P|328:188|380:180,1,79.2000024169922,0|2,1:0|1:2,0:0:0:0:
320,24,73592,1,0,1:0:0:0:
192,24,73742,1,0,0:0:0:0:
221,175,73892,2,0,P|184:187|145:184,1,79.2000024169922,8|0,0:0|0:0,0:0:0:0:
284,156,74192,6,0,B|304:128|304:100|304:100|288:72|256:64|256:64|224:72|208:100|208:100|208:128|228:154,1,242.999992584229,2|0,0:0|0:0,0:0:0:0:
221,175,74492,6,0,P|217:223|193:263,1,90,0|0,1:0|0:0,0:0:0:0:
132,112,74792,1,2,0:0:0:0:
380,112,74942,1,8,1:2:0:0:
292,176,75092,2,0,P|295:220|317:259,1,90,0|0,1:0|0:0,0:0:0:0:
228,154,75392,6,0,B|208:128|208:100|208:100|240:92|255:46|255:46|272:92|304:100|304:100|304:128|284:156,1,270,0|0,1:0|0:0,0:0:0:0:
221,175,75692,5,0,1:0:0:0:
196,192,75767,1,0,1:0:0:0:
164,196,75842,1,0,1:0:0:0:
132,192,75917,1,0,1:0:0:0:
104,176,75992,1,0,1:0:0:0:
72,180,76067,1,0,1:0:0:0:
44,196,76142,2,0,P|28:219|24:240,1,45,0|0,1:0|1:0,0:0:0:0:
40,360,76292,5,8,1:2:0:0:
82,368,76367,1,0,1:0:0:0:
125,359,76442,1,0,1:0:0:0:
162,335,76517,1,0,1:0:0:0:
207,303,76592,5,0,1:0:0:0:
259,293,76667,1,0,1:0:0:0:
311,303,76742,1,0,1:0:0:0:
355,335,76817,1,0,1:0:0:0:
381,384,76892,6,0,P|424:386|488:316,1,135,4|0,1:2|2:0,0:0:0:0:
488,300,77192,1,2,0:2:0:0:
452,216,77342,1,2,3:2:0:0:
400,292,77492,1,0,0:0:0:0:
400,292,77567,1,0,0:0:0:0:
400,292,77642,2,0,L|336:280,2,45
452,216,77942,1,2,0:2:0:0:
457,58,78092,6,0,L|368:72,1,90,2|0,0:2|0:0,0:0:0:0:
380,160,78392,1,0,0:0:0:0:
296,128,78542,1,0,0:0:0:0:
256,144,78617,1,0,0:0:0:0:
256,188,78692,1,0,0:0:0:0:
256,144,78767,1,0,0:0:0:0:
216,128,78842,1,0,0:0:0:0:
132,160,78992,1,2,0:2:0:0:
256,52,79142,1,0,0:0:0:0:
132,0,79292,6,0,P|89:-2|25:68,1,135,2|0,0:2|2:0,0:0:0:0:
24,84,79592,1,2,0:2:0:0:
60,168,79742,1,2,3:2:0:0:
112,92,79892,1,0,0:0:0:0:
112,92,79967,1,0,0:0:0:0:
112,92,80042,2,0,L|176:104,2,45,2|0|0,0:2|0:2|0:0,0:0:0:0:
144,324,80342,6,0,L|55:338,1,90,2|2,0:2|0:0,0:0:0:0:
132,240,80642,2,0,L|43:254,1,90,2|0,0:2|0:0,0:0:0:0:
216,256,80942,1,0,0:0:0:0:
256,240,81017,1,0,0:0:0:0:
256,196,81092,1,0,0:0:0:0:
256,240,81167,1,0,0:0:0:0:
296,256,81242,1,2,0:2:0:0:
380,240,81392,1,0,0:0:0:0:
468,224,81542,2,0,L|512:216,1,45
412,176,81692,6,0,P|384:132|400:40,1,135,2|0,0:2|2:0,0:0:0:0:
408,32,81992,1,2,0:2:0:0:
320,32,82142,1,0,0:0:0:0:
468,104,82292,1,0,0:0:0:0:
468,104,82367,1,0,0:0:0:0:
468,104,82442,2,0,L|520:96,2,45
412,176,82742,1,2,0:2:0:0:
320,32,82892,5,2,0:0:0:0:
256,96,83042,1,0,0:0:0:0:
192,32,83192,1,0,0:0:0:0:
256,96,83342,5,0,0:0:0:0:
268,140,83417,1,0,0:0:0:0:
256,184,83492,1,0,0:0:0:0:
244,228,83567,1,0,0:0:0:0:
256,272,83642,1,0,0:0:0:0:
212,348,83792,1,0,0:0:0:0:
300,348,83942,1,0,0:0:0:0:
176,272,84092,5,2,0:2:0:0:
256,259,84242,1,0,0:0:0:0:
336,272,84392,1,0,0:0:0:0:
256,259,84542,5,0,0:0:0:0:
248,228,84617,1,0,0:0:0:0:
256,197,84692,1,0,0:0:0:0:
265,166,84767,1,0,0:0:0:0:
256,136,84842,1,0,0:0:0:0:
300,60,84992,1,0,0:0:0:0:
212,60,85142,1,0,0:0:0:0:
328,128,85292,5,2,0:2:0:0:
256,141,85442,1,0,0:0:0:0:
184,128,85592,1,0,0:0:0:0:
256,141,85742,5,0,0:0:0:0:
262,165,85817,1,0,0:0:0:0:
256,188,85892,1,0,0:0:0:0:
250,211,85967,1,0,0:0:0:0:
256,233,86042,1,0,0:0:0:0:
216,300,86192,1,0,0:0:0:0:
296,300,86342,1,0,0:0:0:0:
131,384,86492,6,0,P|88:386|24:316,1,135,6|0,0:2|2:0,0:0:0:0:
24,300,86792,1,2,0:2:0:0:
60,216,86942,1,2,3:2:0:0:
112,292,87092,1,0,0:0:0:0:
112,292,87167,1,0,0:0:0:0:
112,292,87242,2,0,L|176:280,2,45,2|0|0,0:2|0:0|0:0,0:0:0:0:
131,384,87542,1,2,0:2:0:0:
296,368,87692,6,0,L|385:382,1,90,2|0,0:2|0:0,0:0:0:0:
448,320,87992,1,0,0:0:0:0:
424,232,88142,1,0,0:0:0:0:
440,192,88217,1,0,0:0:0:0:
484,192,88292,1,0,0:0:0:0:
440,192,88367,1,0,0:0:0:0:
424,152,88442,1,0,0:2:0:0:
448,64,88592,5,2,0:2:0:0:
484,192,88742,1,2,0:2:0:0:
348,192,88892,6,0,B|312:172|284:196|284:196|256:220|220:204,1,135,2|0,0:2|2:0,0:0:0:0:
200,192,89192,1,2,0:2:0:0:
240,112,89342,1,2,3:2:0:0:
196,32,89492,1,0,0:0:0:0:
196,32,89567,1,0,0:0:0:0:
196,32,89642,2,0,L|132:44,2,45,2|0|0,0:2|0:2|0:0,0:0:0:0:
222,205,89942,6,0,P|221:249|206:292,1,90,2|2,0:2|0:0,0:0:0:0:
152,128,90242,2,0,L|240:112,1,90,2|0,0:2|0:0,0:0:0:0:
28,152,90542,1,0,0:0:0:0:
44,192,90617,1,0,0:0:0:0:
88,192,90692,1,0,0:0:0:0:
44,192,90767,1,0,0:0:0:0:
28,232,90842,1,2,0:2:0:0:
100,340,90992,6,0,P|185:391|284:381,1,202.500007724762,0|0,0:0|2:0,0:0:0:0:
344,336,91292,6,0,L|448:344,1,90,2|0,1:1|0:0,0:0:0:0:
264,200,91592,1,2,0:2:0:0:
376,260,91742,1,2,0:2:0:0:
259,293,91892,1,0,0:0:0:0:
259,293,91967,1,0,0:0:0:0:
259,293,92042,2,0,P|277:280|304:272,1,45,2|0,0:2|0:0,0:0:0:0:
456,248,92192,6,0,P|364:303|258:292,1,216,0|0,0:0|2:0,0:0:0:0:
188,264,92492,6,0,L|84:272,1,90,2|0,1:0|0:0,0:0:0:0:
264,200,92792,1,2,0:2:0:0:
121,130,92942,1,2,0:2:0:0:
256,104,93092,1,0,0:0:0:0:
256,104,93167,1,0,0:0:0:0:
256,104,93242,2,0,P|237:91|211:83,1,45,2|0,0:2|0:0,0:0:0:0:
36,79,93392,6,0,P|141:134|255:103,1,242.999992584229,0|0,0:0|2:0,0:0:0:0:
320,28,93692,5,2,1:0:0:0:
336,56,93767,1,0,0:0:0:0:
364,72,93842,1,0,0:0:0:0:
396,76,93917,1,0,0:0:0:0:
424,64,93992,1,0,0:0:0:0:
456,68,94067,1,0,0:0:0:0:
484,84,94142,1,0,0:0:0:0:
500,112,94217,1,0,0:2:0:0:
500,144,94292,5,0,3:0:0:0:
480,180,94367,1,2,0:0:0:0:
440,196,94442,1,2,0:0:0:0:
392,184,94517,1,2,0:0:0:0:
356,144,94592,1,2,3:0:0:0:
304,116,94667,1,0,0:0:0:0:
240,116,94742,1,2,0:0:0:0:
184,156,94817,1,2,0:0:0:0:
160,224,94892,6,0,P|164:260|192:304,1,67.5000025749208,2|2,3:2|3:2,0:0:0:0:
334,287,95042,2,0,P|348:257|352:224,1,67.5000025749208,2|0,3:2|3:0,0:0:0:0:
164,364,95192,6,0,P|188:364|224:352,1,53.9999983520508,0|0,3:0|3:0,0:0:0:0:
295,355,95342,2,0,P|321:363|348:364,1,53.9999983520508,0|0,3:0|3:0,0:0:0:0:
492,296,95492,5,0,1:0:0:0:
436,260,95567,1,0,1:0:0:0:
400,316,95642,1,0,1:0:0:0:
456,352,95717,1,0,1:0:0:0:
465,276,95792,5,0,1:0:0:0:
416,286,95867,1,0,1:0:0:0:
426,335,95942,1,0,1:0:0:0:
475,325,96017,1,0,1:0:0:0:
436,260,96092,6,0,B|392:228|348:260|348:260|304:292|260:264,1,188.999994232178,4|0,1:1|0:0,0:0:0:0:
228,200,96392,1,8,1:0:0:0:
216,64,96542,1,2,3:2:0:0:
172,84,96617,1,0,3:0:0:0:
124,84,96692,1,0,3:0:0:0:
80,64,96767,1,0,3:0:0:0:
48,28,96842,1,2,3:0:0:0:
216,64,96992,2,0,P|280:108|397:59,1,188.999994232178,8|0,1:0|0:0,0:0:0:0:
420,16,97292,5,0,1:2:0:0:
300,192,97442,1,2,1:2:0:0:
512,208,97592,1,8,1:0:0:0:
381,79,97742,1,2,3:2:0:0:
381,79,97817,1,0,3:0:0:0:
381,79,97892,2,0,P|356:56|348:8,2,62.9999980773926,0|0|2,3:2|3:0|3:2,0:0:0:0:
216,64,98192,5,12,1:0:0:0:
240,128,98267,1,2,0:0:0:0:
212,192,98342,1,2,0:0:0:0:
148,220,98417,1,2,0:0:0:0:
80,200,98492,6,0,B|120:188|148:220|148:220|164:260|208:276|241:258,1,188.999994232178,2|0,3:2|0:0,0:0:0:0:
288,316,98792,1,8,1:0:0:0:
480,212,98942,1,2,3:2:0:0:
436,192,99017,1,0,3:0:0:0:
388,192,99092,1,0,3:0:0:0:
344,212,99167,1,0,3:0:0:0:
312,248,99242,1,0,3:0:0:0:
92,288,99392,6,0,L|64:100,1,188.999994232178,8|0,1:0|0:0,0:0:0:0:
52,28,99692,1,0,1:0:0:0:
0,240,99842,1,0,1:0:0:0:
208,180,99992,1,8,1:0:0:0:
64,101,100142,1,2,3:2:0:0:
64,101,100217,1,0,3:0:0:0:
64,101,100292,2,0,P|95:87|119:45,2,62.9999980773926,0|0|0,3:0|3:0|3:0,0:0:0:0:
92,288,100592,6,0,L|104:360,1,45,12|0,1:0|3:0,0:0:0:0:
184,364,100742,2,0,L|256:352,1,45,2|0,3:2|3:0,0:0:0:0:
392,324,100892,6,0,B|380:124,1,188.999994232178,4|0,1:0|0:0,0:0:0:0:
424,72,101192,1,8,1:0:0:0:
300,200,101342,1,2,3:2:0:0:
256,220,101417,1,0,3:0:0:0:
208,220,101492,1,0,3:0:0:0:
164,200,101567,1,0,3:0:0:0:
132,164,101642,1,0,3:0:0:0:
112,76,101792,1,8,1:0:0:0:
148,288,101942,6,0,L|12:280,1,125.999996154785,2|0,0:0|1:0,0:0:0:0:
52,144,102242,1,6,1:2:0:0:
208,220,102392,1,8,1:0:0:0:
124,372,102542,1,2,3:2:0:0:
124,372,102617,1,0,3:0:0:0:
124,372,102692,2,0,L|48:368,2,62.9999980773926,0|0|0,3:0|0:2|3:0,0:0:0:0:
22,280,102992,5,8,1:0:0:0:
236,308,103142,1,2,0:0:0:0:
448,332,103292,6,0,B|436:216|436:216|412:184|372:196,1,188.999994232178,2|0,3:2|0:0,0:0:0:0:
312,240,103592,1,8,1:0:0:0:
448,332,103742,5,2,0:2:0:0:
504,184,103892,1,2,2:2:0:0:
371,196,104042,1,0,3:2:0:0:
356,72,104192,1,8,1:0:0:0:
268,100,104342,1,2,0:0:0:0:
240,32,104492,5,0,1:0:0:0:
462,40,104642,2,0,P|418:28|354:76,1,125.999996154785,4|8,1:2|1:0,0:0:0:0:
148,186,104942,2,0,P|191:174|320:258,1,188.999994232178,2|0,0:2|0:0,0:0:0:0:
336,308,105242,1,0,1:0:0:0:
148,352,105392,6,0,P|129:330|124:304,1,45,8|0,1:0|3:0,0:0:0:0:
124,223,105542,2,0,P|131:202|147:185,1,45,2|0,2:2|3:0,0:0:0:0:
64,0,105692,6,0,P|89:89|52:173,1,188.999994232178,4|0,1:0|0:0,0:0:0:0:
0,228,105992,1,12,1:0:0:0:
147,185,106142,1,2,3:2:0:0:
191,205,106217,1,0,3:0:0:0:
239,205,106292,1,0,3:0:0:0:
283,185,106367,1,0,3:0:0:0:
315,149,106442,1,2,3:2:0:0:
512,252,106592,2,0,P|423:273|350:218,1,188.999994232178,8|0,1:0|0:0,0:0:0:0:
315,149,106892,5,0,1:2:0:0:
496,64,107042,1,4,1:2:0:0:
424,0,107192,1,8,1:0:0:0:
350,218,107342,1,6,3:2:0:0:
350,218,107417,1,0,3:0:0:0:
350,218,107492,2,0,P|339:247|315:267,1,45,0|0,3:2|3:0,0:0:0:0:
372,96,107642,2,0,P|396:115|407:144,1,45,2|0,3:2|3:0,0:0:0:0:
304,32,107792,5,8,1:0:0:0:
248,75,107867,1,2,0:0:0:0:
239,145,107942,1,2,0:0:0:0:
281,201,108017,1,2,0:0:0:0:
350,218,108092,6,0,L|488:204,1,125.999996154785,2|0,1:2|3:0,0:0:0:0:
244,268,108392,1,8,1:0:0:0:
36,168,108542,1,2,3:2:0:0:
80,148,108617,1,0,3:0:0:0:
128,148,108692,1,0,3:0:0:0:
172,168,108767,1,0,3:0:0:0:
204,204,108842,1,2,3:0:0:0:
392,308,108992,6,0,B|339:284|304:321|304:321|268:357|216:340,1,188.999994232178,8|0,1:0|2:0,0:0:0:0:
172,280,109292,1,0,3:0:0:0:
360,384,109442,1,4,3:2:0:0:
392,308,109592,1,8,1:0:0:0:
144,348,109742,1,4,3:2:0:0:
144,348,109817,1,0,3:0:0:0:
144,348,109892,2,0,P|113:362|89:404,1,62.9999980773926,0|0,3:0|3:0,0:0:0:0:
120,228,110042,2,0,P|97:202|49:192,1,62.9999980773926,2|0,3:2|3:0,0:0:0:0:
244,268,110192,6,0,L|256:196,1,45,12|0,1:0|3:0,0:0:0:0:
264,128,110342,2,0,L|192:116,1,45,2|0,2:2|3:0,0:0:0:0:
16,88,110492,6,0,B|132:76|132:76|164:52|152:12,1,188.999994232178,4|0,1:0|0:0,0:0:0:0:
80,8,110792,1,8,1:0:0:0:
219,120,110942,1,2,3:2:0:0:
261,143,111017,1,0,3:0:0:0:
308,147,111092,1,0,3:0:0:0:
354,131,111167,1,0,3:0:0:0:
389,98,111242,1,2,3:2:0:0:
420,12,111392,1,8,1:0:0:0:
364,212,111542,6,0,L|500:204,1,125.999996154785,2|0,0:0|3:0,0:0:0:0:
476,80,111842,1,6,1:2:0:0:
308,147,111992,1,8,1:0:0:0:
380,288,112142,1,6,3:2:0:0:
380,288,112217,1,0,3:0:0:0:
380,288,112292,2,0,P|384:320|368:368,1,62.9999980773926,0|0,3:0|0:2,0:0:0:0:
435,233,112442,2,0,P|460:213|510:203,1,62.9999980773926,2|0,1:2|0:2,0:0:0:0:
364,212,112592,5,8,1:0:0:0:
288,384,112742,1,2,0:0:0:0:
112,316,112892,6,0,P|133:218|156:308,1,229.500004377365,2|0,3:2|0:0,0:0:0:0:
180,352,113192,1,8,1:0:0:0:
0,256,113342,5,2,3:2:0:0:
8,212,113417,1,0,3:2:0:0:
16,168,113492,1,0,3:2:0:0:
24,124,113567,1,0,3:2:0:0:
32,80,113642,1,2,3:2:0:0:
167,0,113792,2,0,P|159:64|207:200,1,188.999994232178,8|0,1:0|1:0,0:0:0:0:
243,240,114092,5,0,0:0:0:0:
411,360,114242,2,0,L|367:353,1,45,0|2,1:0|0:2,0:0:0:0:
194,339,114392,5,0,1:0:0:0:
230,347,114467,1,0,1:0:0:0:
266,339,114542,1,0,1:0:0:0:
298,319,114617,1,0,1:0:0:0:
322,283,114692,5,0,1:0:0:0:
290,291,114767,1,0,1:0:0:0:
258,283,114842,1,0,1:0:0:0:
234,267,114917,1,0,1:0:0:0:
202,223,114992,5,0,1:0:0:0:
245,232,115067,1,0,1:0:0:0:
288,223,115142,1,0,1:0:0:0:
326,199,115217,1,0,1:0:0:0:
365,126,115292,5,4,1:2:0:0:
388,249,115442,1,2,0:0:0:0:
411,372,115592,1,8,1:0:0:0:
459,146,115742,5,2,0:0:0:0:
388,249,115892,1,2,0:0:0:0:
317,352,116042,1,0,3:0:0:0:
512,227,116192,5,8,1:0:0:0:
388,249,116342,1,2,0:0:0:0:
265,272,116492,1,0,3:0:0:0:
492,322,116642,5,0,3:0:0:0:
388,249,116792,1,8,1:0:0:0:
285,179,116942,1,2,0:0:0:0:
411,372,117092,5,2,0:0:0:0:
459,146,117242,1,0,3:0:0:0:
265,272,117392,1,8,1:0:0:0:
388,249,117542,1,2,0:0:0:0:
388,249,117617,1,2,0:0:0:0:
388,249,117692,6,0,L|510:243,1,90,0|2,3:0|0:0,0:0:0:0:
285,179,117992,1,8,1:0:0:0:
168,172,118142,6,0,L|112:280,1,90,2|2,0:0|0:0,0:0:0:0:
299,173,118442,1,0,3:0:0:0:
351,75,118592,6,0,L|284:-27,1,90,8|2,1:0|0:0,0:0:0:0:
301,189,118892,1,0,3:0:0:0:
244,82,119042,5,0,3:0:0:0:
394,163,119192,1,8,1:0:0:0:
450,1,119342,1,2,0:0:0:0:
290,198,119492,5,2,0:0:0:0:
281,180,119567,1,2,0:0:0:0:
286,238,119642,1,2,3:0:0:0:
277,220,119717,1,2,0:0:0:0:
281,278,119792,2,0,P|228:288|175:271,1,90,8|2,1:0|0:0,0:0:0:0:
33,121,120092,5,0,3:0:0:0:
136,48,120242,1,2,0:0:0:0:
249,102,120392,1,8,1:0:0:0:
65,247,120542,5,2,0:0:0:0:
117,132,120692,1,2,0:0:0:0:
242,122,120842,1,0,3:0:0:0:
155,338,120992,5,8,1:0:0:0:
142,212,121142,1,2,0:0:0:0:
245,141,121292,1,0,3:0:0:0:
281,368,121442,5,0,3:0:0:0:
206,265,121592,1,8,1:0:0:0:
260,152,121742,1,2,0:0:0:0:
425,373,121892,5,2,0:0:0:0:
403,139,122042,1,0,3:0:0:0:
206,265,122192,1,8,1:0:0:0:
339,268,122342,1,2,0:0:0:0:
339,268,122417,1,2,0:0:0:0:
339,268,122492,6,0,P|388:256|448:271,1,90,0|2,3:0|0:0,0:0:0:0:
269,360,122792,1,8,1:0:0:0:
105,251,122942,6,0,P|56:263|-4:248,1,90,2|2,0:0|0:0,0:0:0:0:
175,159,123242,1,0,3:0:0:0:
376,165,123392,2,0,L|372:63,1,90,8|2,1:0|0:0,0:0:0:0:
167,56,123692,5,2,3:0:0:0:
223,240,123842,1,0,3:0:0:0:
281,0,123992,1,8,1:0:0:0:
233,258,124142,1,2,0:0:0:0:
372,75,124292,5,2,0:0:0:0:
352,93,124367,1,2,0:0:0:0:
349,119,124442,1,0,3:0:0:0:
358,144,124517,1,0,0:0:0:0:
397,164,124592,5,8,1:0:0:0:
423,200,124667,1,2,0:0:0:0:
413,243,124742,1,2,0:0:0:0:
380,274,124817,1,2,0:0:0:0:
332,268,124892,5,4,3:0:0:0:
251,154,125042,1,2,0:0:0:0:
195,282,125192,1,8,1:0:0:0:
341,344,125342,5,2,0:0:0:0:
398,219,125492,1,2,0:0:0:0:
260,234,125642,1,0,3:0:0:0:
468,252,125792,5,8,1:0:0:0:
388,140,125942,1,2,2:0:0:0:
332,268,126092,1,0,3:0:0:0:
453,94,126242,5,0,3:0:0:0:
316,107,126392,1,8,1:0:0:0:
398,219,126542,1,2,0:0:0:0:
308,30,126692,5,2,0:0:0:0:
251,154,126842,1,0,3:0:0:0:
388,140,126992,1,8,1:0:0:0:
177,123,127142,1,2,0:0:0:0:
177,123,127217,1,2,0:0:0:0:
177,123,127292,5,0,3:0:0:0:
260,234,127442,1,2,0:0:0:0:
316,107,127592,1,8,1:0:0:0:
167,46,127742,5,2,0:0:0:0:
110,171,127892,1,2,0:0:0:0:
251,154,128042,1,0,3:0:0:0:
40,138,128192,5,8,1:0:0:0:
120,250,128342,1,2,2:0:0:0:
177,123,128492,1,0,3:0:0:0:
56,296,128642,5,0,3:0:0:0:
192,284,128792,1,8,1:0:0:0:
110,171,128942,1,2,0:0:0:0:
200,360,129092,5,2,0:0:0:0:
260,234,129242,1,0,3:0:0:0:
120,250,129392,1,8,1:0:0:0:
332,271,129542,1,2,0:0:0:0:
251,154,129692,5,2,3:2:0:0:
289,168,129767,1,0,0:0:0:0:
329,160,129842,1,0,3:0:0:0:
357,132,129917,1,0,0:0:0:0:
357,92,129992,5,10,1:0:0:0:
395,106,130067,1,0,0:0:0:0:
435,98,130142,1,2,0:0:0:0:
463,70,130217,1,2,0:0:0:0:
469,28,130292,6,0,L|396:12,2,45,2|0|0,3:2|0:0|0:0,0:0:0:0:
348,16,130517,1,2,0:0:0:0:
284,60,130592,6,0,L|211:76,2,45,10|0|0,1:0|0:0|0:0,0:0:0:0:
200,4,130817,1,0,1:0:0:0:
161,68,130892,5,2,1:2:0:0:
124,132,130967,2,0,L|148:192,1,45
39,209,131117,5,2,0:2:0:0:
113,209,131192,2,0,L|152:158,1,45,8|0,1:0|0:0,0:0:0:0:
222,244,131342,5,2,1:2:0:0:
185,180,131417,2,0,L|121:170,1,45,0|0,1:0|1:0,0:0:0:0:
43,77,131642,2,0,L|104:66,1,49.5000015106202,2|2,1:2|1:2,0:0:0:0:
248,108,131792,6,0,P|252:124|256:144,1,33.7500012874604,0|0,1:0|1:0,0:0:0:0:
256,180,131942,2,0,P|259:163|263:147,1,33.7500012874604,0|0,1:0|1:0,0:0:0:0:
352,140,132092,6,0,P|324:140|300:132,1,45,0|2,1:0|0:0,0:0:0:0:
172,160,132242,2,0,P|193:154|216:155,1,45,2|0,1:2|0:0,0:0:0:0:
268,28,132392,6,0,P|258:59|256:88,1,53.9999983520508,0|0,1:0|0:0,0:0:0:0:
264,272,132542,2,0,P|260:245|252:219,1,53.9999983520508,0|0,1:0|0:0,0:0:0:0:
408,144,132692,6,0,P|376:144|346:152,1,62.9999980773926,0|2,1:0|0:0,0:0:0:0:
112,144,132842,2,0,P|142:151|174:152,1,62.9999980773926,0|2,1:0|0:0,0:0:0:0:
248,108,132992,6,0,P|252:124|256:144,1,33.7500012874604,0|0,1:0|1:0,0:0:0:0:
253,190,133142,6,0,P|257:168|262:147,1,45,2|2,1:2|1:2,0:0:0:0:
268,28,133292,6,0,P|258:59|256:88,1,53.9999983520508,0|0,1:0|0:0,0:0:0:0:
265,280,133442,6,0,P|261:249|252:219,1,62.9999980773926,0|0,1:0|0:0,0:0:0:0:
420,172,133592,6,0,P|387:162|353:162,1,67.5000025749208,0|2,1:0|1:2,0:0:0:0:
104,176,133742,2,0,P|137:177|169:168,1,67.5000025749208,2|2,1:2|1:2,0:0:0:0:
260,24,133892,5,0,1:0:0:0:
284,92,133967,1,2,0:0:0:0:
244,156,134042,1,2,0:0:0:0:
272,224,134117,1,2,0:0:0:0:
256,296,134192,6,0,P|224:316|160:288,1,90,0|0,1:0|1:0,1:0:0:0:
256,296,134342,2,0,P|288:316|352:288,1,90,0|0,1:0|1:0,0:0:0:0:
256,384,134492,5,4,1:0:0:0:
256,192,134567,12,0,139292,0:0:0:0:
