osu file format v14

[General]
AudioFilename: audio.mp3
AudioLeadIn: 0
PreviewTime: 38492
Countdown: 0
SampleSet: Soft
StackLeniency: 0.7
Mode: 0
LetterboxInBreaks: 0
WidescreenStoryboard: 1

[Editor]
DistanceSpacing: 0.6
BeatDivisor: 4
GridSize: 4
TimelineZoom: 1

[Metadata]
Title:LAISSEZ FAIRE
TitleUnicode:LAISSEZ: FAIRE
Artist:adaptor
ArtistUnicode:adaptor
Creator:[ -Scarlet- ]
Version:SolarFox x Rumia- Collab Insane
Source:
Tags:nanobeat 株式会社ナノコネクト様 収録楽曲
BeatmapID:1427051
BeatmapSetID:674425

[Difficulty]
HPDrainRate:6
CircleSize:3.9
OverallDifficulty:8
ApproachRate:9
SliderMultiplier:1.76
SliderTickRate:1

[Events]
//Background and Video events
0,0,"gril.jpg",0,0
//Break Periods
//Storyboard Layer 0 (Background)
//Storyboard Layer 1 (Fail)
//Storyboard Layer 2 (Pass)
//Storyboard Layer 3 (Foreground)
//Storyboard Sound Samples

[TimingPoints]
92,300,4,2,1,70,1,0
9692,-166.666666666667,4,2,1,30,0,0
17492,-100,4,2,1,35,0,0
18092,-100,4,2,1,45,0,0
19292,-100,4,2,1,50,0,0
38492,-100,4,2,1,55,0,0
57692,-142.857142857143,4,2,1,45,0,0
58142,-142.857142857143,4,2,1,40,0,0
71792,-99.9999999999999,4,2,1,50,0,0
72092,-125,4,2,1,55,0,0
72392,-125,4,2,1,40,0,0
72992,-99.9999999999999,4,2,1,50,0,0
73292,-125,4,2,1,55,0,0
73442,-125,4,2,1,40,0,0
74192,-100,4,2,1,50,0,0
74492,-125,4,2,1,55,0,0
76892,-125,4,2,1,50,0,0
86492,-100,4,2,1,70,0,0
94892,-83.3333333333333,4,2,1,70,0,0
96392,-83.3333333333333,4,2,1,60,0,0
96542,-100,4,2,1,60,0,0
115292,-83.3333333333333,4,1,1,70,0,1
134492,-100,4,1,1,70,0,0

[Colours]
Combo1 : 255,0,128
Combo2 : 0,128,255
Combo3 : 192,192,192

[HitObjects]
167,290,9692,6,0,L|281:284,1,105.599996777344,4|2,0:0|0:0,0:0:0:0:
434,167,10142,2,0,P|382:211|365:282,1,131.99999597168
366,292,10592,1,2,0:0:0:0:
312,128,10892,6,0,P|280:171|265:222,1,105.599996777344,0|2,0:0|0:0,0:0:0:0:
275,312,11342,1,0,0:0:0:0:
282,314,11417,1,0,0:0:0:0:
289,317,11492,1,0,0:0:0:0:
156,352,11792,1,2,0:0:0:0:
67,281,11942,1,0,0:0:0:0:
60,275,12017,1,0,0:0:0:0:
54,269,12092,6,0,L|123:255,1,52.7999983886719
173,199,12392,1,2,0:0:0:0:
171,73,12542,6,0,L|148:139,1,52.7999983886719
172,211,12842,1,0,0:0:0:0:
307,272,12992,6,0,L|260:219,1,52.7999983886719,2|0,0:0|0:0,0:0:0:0:
186,203,13292,1,0,0:0:0:0:
311,360,13442,5,0,0:0:0:0:
385,314,13592,1,2,0:0:0:0:
307,272,13742,1,0,0:0:0:0:
227,312,13892,5,0,0:0:0:0:
384,232,14042,1,0,0:0:0:0:
210,307,14192,1,2,0:0:0:0:
192,302,14267,1,0,0:0:0:0:
174,297,14342,1,0,0:0:0:0:
155,293,14417,1,0,0:0:0:0:
124,303,14492,6,0,P|112:262|112:228,1,52.7999983886719,0|0,1:0|0:0,0:0:0:0:
109,163,14792,1,2,0:0:0:0:
199,209,14942,1,0,0:0:0:0:
208,192,15017,1,0,0:0:0:0:
221,179,15092,2,0,P|284:193|340:179,1,105.599996777344,0|2,0:0|0:0,0:0:0:0:
391,157,15542,1,0,0:0:0:0:
367,335,15692,6,0,P|371:268|391:217,1,105.599996777344,0|2,1:0|0:0,0:0:0:0:
281,279,16142,6,0,P|317:317|362:344,1,105.599996777344
454,321,16592,1,2,0:0:0:0:
393,195,16742,1,0,0:0:0:0:
276,265,16892,6,0,P|228:259|151:265,1,105.599996777344,2|0,1:0|0:0,0:0:0:0:
83,284,17342,1,0,0:0:0:0:
66,100,17492,5,2,1:0:0:0:
97,190,17792,5,2,1:0:0:0:
83,284,18092,6,0,P|69:300|52:327,7,44,0|0|0|0|0|0|0|0,1:0|1:0|1:0|1:0|1:0|1:0|1:0|1:0,1:0:0:0:
220,272,18692,6,0,P|234:288|251:315,7,44,0|0|0|0|0|0|0|0,1:0|1:0|1:0|1:0|1:0|1:0|1:0|1:0,1:0:0:0:
267,137,19292,6,0,P|354:101|420:148,1,176,4|2,0:0|0:0,0:0:0:0:
460,206,19742,2,0,L|444:342,1,132,8|0,0:0|0:0,0:0:0:0:
441,358,20042,1,0,0:0:0:0:
163,244,20192,2,0,B|221:230|221:230|264:246|328:237,1,132,2|0,0:0|0:0,0:0:0:0:
325,238,20492,5,8,0:0:0:0:
220,337,20642,2,0,L|115:348,2,88
325,238,21092,2,0,P|332:184|324:142,1,88,2|0,0:0|0:0,0:0:0:0:
179,52,21392,2,0,P|172:106|180:148,1,88,2|0,0:0|0:0,0:0:0:0:
210,222,21692,6,0,B|153:238|112:210|112:210|59:205|11:238,2,176,8|0|2,0:0|0:0|0:0,0:0:0:0:
301,166,22442,1,0,0:0:0:0:
321,265,22592,2,0,P|307:316|276:361,1,88
221,199,22892,6,0,P|279:181|318:148,1,88,8|0,0:0|0:0,0:0:0:0:
166,112,23192,2,0,P|207:67|224:19,1,88,2|0,0:0|0:0,0:0:0:0:
71,86,23492,1,2,0:0:0:0:
159,280,23792,1,0,0:0:0:0:
88,335,23942,1,0,0:0:0:0:
174,194,24092,6,0,L|158:289,1,88,8|0,0:0|0:0,0:0:0:0:
88,335,24392,1,2,0:0:0:0:
271,220,24542,2,0,L|255:315,1,88,0|2,0:0|0:0,0:0:0:0:
185,361,24842,1,0,0:0:0:0:
337,313,24992,2,0,L|455:326,1,88
491,231,25292,5,8,0:0:0:0:
349,202,25442,1,0,0:0:0:0:
349,202,25592,1,2,0:0:0:0:
450,120,25742,1,0,0:0:0:0:
450,120,25817,1,0,0:0:0:0:
450,120,25892,2,0,P|368:108|328:54,1,132,2|0,0:0|0:0,0:0:0:0:
333,64,26192,2,0,P|276:48|225:54,1,88
111,169,26492,6,0,P|78:113|131:20,1,176,8|2,0:0|0:0,0:0:0:0:
205,147,26942,1,0,0:0:0:0:
154,245,27092,2,0,P|108:253|47:236,1,88,2|0,0:0|0:0,0:0:0:0:
154,245,27392,2,0,P|200:237|261:254,1,88
356,345,27692,5,8,0:0:0:0:
421,268,27842,1,0,0:0:0:0:
308,194,27992,1,2,0:0:0:0:
437,171,28142,1,0,0:0:0:0:
437,171,28217,1,0,0:0:0:0:
437,171,28292,2,0,P|473:160|496:149,1,44,2|0,0:0|0:0,0:0:0:0:
388,97,28442,2,0,P|413:69|428:48,1,44
313,42,28592,1,0,0:0:0:0:
313,42,28742,1,0,0:0:0:0:
188,168,28892,6,0,P|106:172|82:94,1,176,4|2,0:0|0:0,0:0:0:0:
182,60,29342,2,0,L|313:41,1,132
336,36,29642,1,0,0:0:0:0:
448,152,29792,2,0,B|412:152|378:134|378:134|316:144,1,132,2|0,0:0|0:0,0:0:0:0:
292,148,30092,5,8,0:0:0:0:
440,68,30242,1,0,0:0:0:0:
440,68,30392,1,2,0:0:0:0:
440,68,30542,1,0,0:0:0:0:
488,168,30692,2,0,P|493:211|486:254,1,88,2|0,0:0|0:0,0:0:0:0:
348,252,30992,2,0,P|304:244|261:250,1,88
248,256,31217,1,0,0:0:0:0:
236,264,31292,6,0,P|140:276|96:216,1,176,8|2,0:0|0:0,0:0:0:0:
148,108,31742,1,0,0:0:0:0:
148,108,31892,2,0,L|54:117,1,88,2|0,0:0|0:0,0:0:0:0:
235,263,32192,2,0,L|251:177,1,88
311,60,32492,6,0,L|368:128,1,88,8|0,0:0|0:0,0:0:0:0:
430,220,32792,2,0,L|348:252,1,88,2|0,0:0|0:0,0:0:0:0:
148,108,33092,1,2,0:0:0:0:
148,108,33242,1,0,0:0:0:0:
251,177,33392,1,0,0:0:0:0:
311,60,33542,1,0,0:0:0:0:
124,104,33692,6,0,L|36:92,1,88,8|0,0:0|0:0,0:0:0:0:
4,88,33992,1,2,0:0:0:0:
156,208,34142,2,0,L|68:196,1,88,0|2,0:0|0:0,0:0:0:0:
36,192,34442,1,0,0:0:0:0:
68,336,34592,2,0,L|155:326,1,88
264,320,34892,5,8,0:0:0:0:
156,208,35042,1,0,0:0:0:0:
156,208,35192,1,2,0:0:0:0:
328,176,35342,1,0,0:0:0:0:
328,176,35417,1,0,0:0:0:0:
327,175,35491,2,0,P|391:172|438:127,1,132,2|0,0:0|0:0,0:0:0:0:
444,116,35792,2,0,L|452:60,2,44
424,268,36092,6,0,L|292:252,1,132,8|0,0:0|0:0,0:0:0:0:
280,256,36392,1,2,0:0:0:0:
216,152,36542,1,0,0:0:0:0:
104,104,36692,2,0,P|96:147|104:190,1,88,2|0,0:0|0:0,0:0:0:0:
105,276,36992,2,0,P|112:232|104:189,1,88
40,336,37292,5,8,0:0:0:0:
188,304,37442,1,0,0:0:0:0:
16,248,37592,1,2,0:0:0:0:
216,152,37742,1,0,0:0:0:0:
216,152,37817,1,0,0:0:0:0:
216,152,37892,6,0,L|204:196,1,44,2|0,0:0|0:0,0:0:0:0:
296,152,38042,2,0,L|308:196,1,44
332,288,38192,1,2,0:0:0:0:
340,308,38267,1,0,0:0:0:0:
348,328,38342,1,0,0:0:0:0:
356,348,38417,1,0,0:0:0:0:
364,368,38492,5,4,0:0:0:0:
496,60,38792,1,8,0:1:0:0:
416,136,38942,2,0,P|356:158|303:123,1,132,0|0,1:0|0:0,0:0:0:0:
296,108,39242,1,0,1:0:0:0:
120,48,39392,2,0,P|132:96|136:136,1,88,8|0,0:1|0:0,0:0:0:0:
56,272,39692,6,0,P|44:229|40:185,1,88,0|0,1:0|0:0,0:0:0:0:
68,288,39992,2,0,P|36:318|1:344,1,88,8|0,0:1|0:0,0:0:0:0:
76,264,40292,2,0,P|118:275|158:293,1,88,0|0,0:0|1:0,0:0:0:0:
280,364,40592,2,0,L|412:340,1,132,8|0,0:1|0:0,0:0:0:0:
432,336,40892,6,0,P|448:292|451:250,1,88,0|0,1:0|0:0,0:0:0:0:
476,160,41192,1,8,0:1:0:0:
316,128,41343,2,0,P|343:161|379:187,1,88
316,128,41642,2,0,L|228:131,1,88,0|8,1:0|0:1,0:0:0:0:
207,268,41941,1,0,0:0:0:0:
207,268,42092,6,0,L|120:272,1,88,0|0,1:0|0:0,0:0:0:0:
48,320,42392,1,8,0:1:0:0:
48,320,42542,2,0,P|36:280|48:228,1,88
112,100,42842,1,0,1:0:0:0:
112,100,42992,2,0,P|124:140|112:192,1,88,8|0,0:1|0:0,0:0:0:0:
188,52,43292,6,0,L|275:48,1,88,0|0,1:0|0:0,0:0:0:0:
400,100,43592,1,8,0:1:0:0:
400,100,43742,2,0,P|388:140|400:192,1,88
464,320,44042,1,0,1:0:0:0:
464,320,44192,2,0,P|476:280|464:228,1,88,8|0,0:1|0:0,0:0:0:0:
305,268,44492,6,0,L|392:272,1,88,0|0,1:0|0:0,0:0:0:0:
247,208,44792,2,0,P|164:212|123:139,1,176,8|0,0:1|0:0,0:0:0:0:
123,139,45242,1,0,1:0:0:0:
342,105,45392,2,0,L|328:192,1,88,8|0,0:1|0:0,0:0:0:0:
188,324,45692,6,0,L|173:237,1,88,0|0,1:0|0:0,0:0:0:0:
328,192,45992,1,8,0:1:0:0:
204,140,46142,1,0,0:0:0:0:
342,105,46292,2,0,P|382:97|438:89,2,88,0|0|8,0:0|1:0|0:1,0:0:0:0:
308,256,46742,1,0,0:0:0:0:
204,140,46892,6,0,P|160:140|116:136,1,88,0|0,1:0|0:0,0:0:0:0:
64,60,47192,1,8,0:1:0:0:
152,52,47342,1,0,0:0:0:0:
80,224,47492,1,0,0:0:0:0:
28,144,47642,1,0,1:0:0:0:
168,216,47792,1,8,0:1:0:0:
28,144,47942,1,0,0:0:0:0:
128,300,48092,6,0,P|194:302|241:284,1,88,0|0,1:0|0:0,0:0:0:0:
291,251,48392,1,8,0:1:0:0:
188,85,48542,2,0,L|180:182,1,88
291,251,48842,1,0,1:0:0:0:
388,175,48992,2,0,L|380:87,1,88,8|0,0:1|0:0,0:0:0:0:
120,242,49292,6,0,B|186:224|186:224|316:257,1,176,0|8,1:0|0:1,0:0:0:0:
164,343,49742,1,0,0:0:0:0:
142,348,49817,1,0,0:0:0:0:
120,347,49892,1,0,0:0:0:0:
98,344,49967,1,0,0:0:0:0:
77,337,50042,1,0,1:0:0:0:
59,324,50117,1,0,0:0:0:0:
42,309,50192,1,8,0:1:0:0:
30,290,50267,1,0,0:0:0:0:
23,268,50342,2,0,P|24:242|30:217,1,44
107,116,50492,6,0,P|55:98|14:98,2,88,0|0|8,1:0|0:0|0:1,0:0:0:0:
219,215,50942,2,0,P|272:215|340:184,1,88
397,39,51242,2,0,P|370:84|363:159,1,88,0|8,1:0|0:1,0:0:0:0:
454,276,51542,6,0,P|427:230|366:186,2,88,0|0|0,0:0|1:0|0:0,0:0:0:0:
271,328,51992,1,8,0:1:0:0:
271,328,52142,2,0,B|264:277|264:277|284:219,1,88
300,73,52442,2,0,B|311:107|311:107|304:158,1,88,0|8,1:0|0:1,0:0:0:0:
210,193,52742,5,0,0:0:0:0:
188,199,52817,1,0,0:0:0:0:
166,201,52892,2,0,P|138:184|123:166,3,44,0|0|0|0,1:0|0:0|0:0|0:0,0:0:0:0:
29,142,53192,1,8,0:1:0:0:
111,72,53342,1,0,0:0:0:0:
131,78,53417,1,0,0:0:0:0:
153,78,53492,2,0,P|181:62|200:44,2,44,0|0|0,0:0|0:0|1:0,0:0:0:0:
272,57,53792,5,8,0:1:0:0:
292,51,53867,1,0,0:0:0:0:
313,51,53942,1,0,0:0:0:0:
334,52,54017,1,0,0:0:0:0:
354,59,54092,2,0,L|370:158,1,88,0|0,1:0|0:0,0:0:0:0:
436,208,54317,1,0,0:0:0:0:
433,229,54392,2,0,L|426:301,2,44,8|0|0,0:1|0:0|0:0,0:0:0:0:
354,325,54692,5,0,0:0:0:0:
333,316,54767,1,0,0:0:0:0:
311,314,54842,1,0,1:0:0:0:
289,315,54917,1,0,0:0:0:0:
267,321,54992,2,0,P|243:344|226:362,1,44,8|0,0:1|0:0,0:0:0:0:
159,317,55142,2,0,P|137:325|92:329,1,44
30,237,55292,6,0,L|150:223,2,88,0|0|8,1:0|0:0|0:1,0:0:0:0:
97,138,55742,2,0,P|178:160|210:239,1,176,0|0,0:0|1:0,0:0:0:0:
159,317,56192,1,8,0:1:0:0:
268,336,56342,1,0,1:0:0:0:
268,336,56417,1,0,1:0:0:0:
268,336,56492,6,0,L|368:322,1,88,8|0,1:0|0:0,0:0:0:0:
463,273,56792,1,8,0:1:0:0:
362,220,56942,1,0,1:0:0:0:
362,220,57017,1,0,1:0:0:0:
362,220,57092,1,8,1:0:0:0:
259,240,57242,1,0,1:0:0:0:
175,169,57392,1,8,0:1:0:0:
208,68,57542,2,0,L|266:63,1,44,0|0,1:0|1:0,0:0:0:0:
339,55,57692,5,4,0:0:0:0:
339,55,58142,5,0,0:0:0:0:
412,108,58292,2,0,B|396:168|428:172|412:232,1,123.199996240234,10|0,0:0|0:0,0:0:0:0:
288,236,58742,5,2,0:0:0:0:
408,308,58892,2,0,P|379:297|353:280,1,61.5999981201172,2|0,0:0|1:0,0:0:0:0:
288,236,59192,2,0,P|311:216|339:203,1,61.5999981201172,0|0,1:0|0:0,0:0:0:0:
284,316,59492,2,0,L|220:316,1,61.5999981201172,8|0,0:0|0:0,0:0:0:0:
136,316,59792,2,0,L|75:316,1,61.5999981201172,2|0,0:0|0:0,0:0:0:0:
32,228,60092,6,0,P|90:214|126:165,1,123.199996240234,0|0,1:0|0:0,0:0:0:0:
64,84,60542,1,2,0:0:0:0:
64,84,60691,2,0,L|46:143,1,61.5999981201172,10|0,0:0|0:0,0:0:0:0:
144,88,60992,2,0,L|161:28,1,61.5999981201172,0|2,1:0|0:0,0:0:0:0:
200,140,61292,6,0,L|259:154,1,61.5999981201172,2|0,0:0|0:0,0:0:0:0:
344,88,61592,2,0,L|284:73,1,61.5999981201172,0|0,1:0|0:0,0:0:0:0:
420,52,61892,1,8,0:0:0:0:
420,52,62192,1,0,0:0:0:0:
412,136,62342,1,2,0:0:0:0:
344,88,62492,6,0,P|287:65|224:68,1,123.199996240234,0|0,1:0|0:0,0:0:0:0:
152,100,62942,1,2,0:0:0:0:
216,148,63092,2,0,L|192:272,1,123.199996240234,8|0,0:0|0:0,0:0:0:0:
284,256,63542,2,0,L|296:196,1,61.5999981201172,0|2,0:0|0:0,0:0:0:0:
244,80,63842,5,0,1:0:0:0:
244,80,63992,2,0,L|289:120,1,61.5999981201172,0|0,1:0|0:0,0:0:0:0:
416,132,64292,2,0,L|358:151,1,61.5999981201172,8|0,0:0|0:0,0:0:0:0:
444,220,64592,2,0,L|502:239,1,61.5999981201172,2|0,0:0|0:0,0:0:0:0:
392,292,64892,6,0,P|331:284|269:289,2,123.199996240234,0|2|8,1:0|0:0|0:0,0:0:0:0:
456,352,65642,1,0,0:0:0:0:
480,268,65792,2,0,L|491:145,1,123.199996240234,2|0,1:0|0:0,0:0:0:0:
420,44,66242,5,0,0:0:0:0:
420,44,66392,2,0,P|389:48|360:59,1,61.5999981201172,2|0,1:0|0:0,0:0:0:0:
288,104,66692,2,0,L|276:140,4,30.7999990600586,8|0|0|0|2,0:0|0:0|0:0|0:0|0:0,0:0:0:0:
248,40,67142,1,0,0:0:0:0:
128,8,67292,6,0,L|144:136,1,123.199996240234,4|0,1:0|0:0,0:0:0:0:
368,316,67892,2,0,L|383:193,1,123.199996240234,8|0,0:0|0:0,0:0:0:0:
285,228,68342,2,0,L|224:235,1,61.5999981201172,2|0,0:0|0:0,0:0:0:0:
120,296,68642,5,0,1:0:0:0:
120,296,68792,2,0,P|109:267|106:236,1,61.5999981201172,0|0,1:0|0:0,0:0:0:0:
152,128,69092,2,0,P|162:156|165:187,1,61.5999981201172,10|0,0:0|0:0,0:0:0:0:
248,144,69392,2,0,L|309:137,1,61.5999981201172,2|0,0:0|0:0,0:0:0:0:
344,52,69692,6,0,L|221:40,1,123.199996240234,0|0,1:0|0:0,0:0:0:0:
136,88,70142,1,0,0:0:0:0:
136,88,70292,2,0,L|132:149,1,61.5999981201172,10|0,0:0|0:0,0:0:0:0:
244,205,70592,2,0,L|247:143,1,61.5999981201172,0|0,1:0|0:0,0:0:0:0:
156,240,70892,6,0,P|128:232|88:232,1,61.5999981201172,2|0,0:0|0:0,0:0:0:0:
228,292,71192,1,0,1:0:0:0:
228,292,71492,2,0,L|296:280,1,61.5999981201172,10|0,0:0|0:0,0:0:0:0:
456,224,71792,2,0,L|368:212,1,88,2|0,0:0|0:0,0:0:0:0:
208,188,72092,5,0,1:0:0:0:
208,188,72392,1,0,0:0:0:0:
208,188,72542,1,0,0:0:0:0:
296,128,72692,2,0,P|304:92|308:48,1,70.4,10|0,0:0|0:0,0:0:0:0:
208,96,72992,2,0,L|121:80,1,88,2|0,0:0|0:0,0:0:0:0:
307,58,73292,6,0,L|380:40,2,70.4,0|0|0,1:0|0:0|0:0,0:0:0:0:
208,96,73742,1,0,0:0:0:0:
208,96,73892,2,0,L|190:169,1,70.4,10|0,0:0|0:0,0:0:0:0:
288,208,74192,2,0,L|308:296,1,88,2|0,0:0|0:0,0:0:0:0:
433,311,74492,6,0,P|373:276|307:293,1,140.8,0|0,1:0|0:0,0:0:0:0:
244,340,74942,1,0,1:0:0:0:
208,336,75092,1,8,1:2:0:0:
172,332,75242,1,0,1:0:0:0:
136,329,75392,1,0,1:0:0:0:
100,327,75542,1,0,1:0:0:0:
64,325,75692,6,0,L|48:293,7,35.2,0|0|0|0|0|0|0|0,1:0|1:0|1:0|1:0|1:0|1:0|1:0|1:0,1:0:0:0:
136,228,76292,2,0,L|152:196,7,35.2,8|0|0|0|0|0|0|0,1:2|1:0|1:0|1:0|1:0|1:0|1:0|1:0,1:0:0:0:
52,104,76892,6,0,P|140:104|196:64,1,140.8,4|8,0:0|0:0,0:0:0:0:
284,44,77342,2,0,L|284:116,1,70.4,2|0,0:0|0:0,0:0:0:0:
449,217,77642,2,0,L|449:146,1,70.4,2|0,0:0|0:0,0:0:0:0:
367,124,77942,1,0,0:0:0:0:
306,206,78092,6,0,P|218:210|162:178,1,140.8,10|0,0:0|0:0,0:0:0:0:
28,136,78542,1,0,0:0:0:0:
28,136,78617,1,0,0:0:0:0:
28,136,78692,2,0,L|104:124,1,70.4,2|0,0:0|0:0,0:0:0:0:
92,256,78992,2,0,L|22:245,1,70.4,2|0,0:0|0:0,0:0:0:0:
160,340,79292,6,0,B|180:280|180:280|176:188,1,140.8,8|0,0:0|0:0,0:0:0:0:
260,128,79742,2,0,L|268:224,1,70.4,2|0,0:0|0:0,0:0:0:0:
368,296,80042,2,0,L|444:288,1,70.4,2|0,0:0|0:0,0:0:0:0:
492,192,80342,1,0,0:0:0:0:
344,200,80492,5,8,0:0:0:0:
180,36,80642,2,0,P|168:76|168:112,1,70.4,2|0,0:0|0:0,0:0:0:0:
120,232,80942,2,0,P|160:222|191:204,1,70.4,2|0,0:0|0:0,0:0:0:0:
312,196,81242,2,0,P|283:165|252:147,1,70.4,2|0,0:0|0:0,0:0:0:0:
256,308,81542,1,0,0:0:0:0:
256,308,81692,6,0,L|336:300,1,70.4,10|0,0:0|0:0,0:0:0:0:
472,216,81992,1,0,0:0:0:0:
472,216,82142,2,0,L|388:204,1,70.4,2|0,0:0|0:0,0:0:0:0:
296,108,82442,2,0,L|304:28,1,70.4,2|0,0:0|0:0,0:0:0:0:
200,132,82742,1,0,0:0:0:0:
64,131,82892,6,0,P|144:115|212:139,1,140.8,10|0,0:0|0:0,0:0:0:0:
268,224,83342,1,0,0:0:0:0:
268,224,83492,2,0,L|260:304,1,70.4,2|0,0:0|0:0,0:0:0:0:
128,240,83792,2,0,L|136:320,1,70.4,2|0,0:0|0:0,0:0:0:0:
248,368,84092,5,8,0:0:0:0:
362,342,84242,1,0,0:0:0:0:
476,320,84392,1,0,0:0:0:0:
421,183,84542,1,0,0:0:0:0:
421,183,84692,2,0,P|414:218|414:254,1,70.4,2|0,0:0|0:0,0:0:0:0:
349,107,84992,1,0,0:0:0:0:
505,164,85142,1,0,0:0:0:0:
334,204,85292,6,0,P|290:212|244:200,1,70.4,10|0,0:0|0:0,0:0:0:0:
349,107,85592,1,0,0:0:0:0:
190,132,85742,1,0,0:0:0:0:
190,132,85892,2,0,P|155:124|120:127,1,70.4,2|0,0:0|0:0,0:0:0:0:
122,304,86192,2,0,P|156:307|191:299,1,70.4,2|0,0:0|0:0,0:0:0:0:
252,210,86492,6,0,L|34:200,1,176,4|0,0:0|0:0,0:0:0:0:
234,115,86942,2,0,P|326:134|361:214,1,176,2|0,0:0|0:0,0:0:0:0:
344,312,87392,1,0,0:0:0:0:
462,251,87542,1,0,0:0:0:0:
344,312,87692,6,0,P|288:320|241:318,2,88,10|0|0,0:0|0:0|0:0,0:0:0:0:
425,149,88142,1,0,0:0:0:0:
425,149,88292,2,0,P|468:149|512:156,1,88,2|0,0:0|0:0,0:0:0:0:
337,218,88592,1,0,0:0:0:0:
235,120,88742,1,0,0:0:0:0:
344,42,88892,6,0,L|336:220,1,176,10|0,0:0|0:0,0:0:0:0:
242,295,89342,2,0,L|234:119,1,176,2|0,0:0|0:0,0:0:0:0:
231,35,89792,1,0,0:0:0:0:
133,158,89942,1,0,0:0:0:0:
133,158,90092,6,0,L|17:153,2,88,10|0|0,0:0|0:0|0:0,0:0:0:0:
246,218,90542,2,0,P|259:168|205:57,1,176,2|0,0:0|0:0,0:0:0:0:
46,154,90992,2,0,L|35:245,1,88,2|0,0:0|0:0,0:0:0:0:
112,333,91292,6,0,P|196:328|290:334,1,176,10|0,1:2|0:0,0:0:0:0:
386,310,91742,2,0,P|385:252|383:209,1,88,2|0,0:0|0:0,0:0:0:0:
484,162,92042,2,0,P|485:220|487:263,1,88,2|0,0:0|0:0,0:0:0:0:
197,262,92342,2,0,P|196:204|194:161,1,88,2|8,0:0|1:2,0:0:0:0:
295,114,92642,2,0,P|296:172|298:215,1,88,2|0,0:0|0:0,0:0:0:0:
4,224,92942,2,0,P|3:166|1:123,1,88,2|0,0:0|0:0,0:0:0:0:
102,76,93242,2,0,P|103:134|105:177,1,88,2|0,0:0|0:0,0:0:0:0:
201,304,93542,1,2,0:0:0:0:
318,74,93692,6,0,L|323:129,1,44,8|0,1:2|0:0,0:0:0:0:
320,205,93842,1,0,0:0:0:0:
295,198,93917,1,0,0:0:0:0:
269,198,93992,1,2,0:0:0:0:
244,204,94067,1,0,0:0:0:0:
221,217,94142,1,0,0:0:0:0:
202,235,94217,1,0,0:0:0:0:
193,260,94292,2,0,L|204:321,3,44,2|0|0|0,1:0|0:0|0:0|0:0,0:0:0:0:
300,311,94592,2,0,L|287:366,3,44,2|0|0|0,1:0|0:0|0:0|0:0,0:0:0:0:
432,227,94892,6,0,L|441:136,1,52.7999983886719,0|0,1:0|0:0,1:0:0:0:
355,117,95042,2,0,L|364:26,1,52.7999983886719,0|0,1:0|0:0,1:0:0:0:
256,178,95192,2,0,L|247:269,1,52.7999983886719,0|0,1:0|0:0,1:0:0:0:
160,102,95342,2,0,L|151:193,1,52.7999983886719,0|0,1:0|0:0,1:0:0:0:
70,202,95492,5,0,1:0:0:0:
72,223,95567,1,0,1:0:0:0:
72,244,95642,1,0,1:0:0:0:
73,266,95717,1,0,1:0:0:0:
39,292,95792,5,0,1:0:0:0:
43,307,95867,1,0,1:0:0:0:
48,323,95942,1,0,1:0:0:0:
53,338,96017,1,0,1:0:0:0:
36,368,96092,6,0,B|111:357|111:357|151:313|151:313|227:301,1,211.199993554688,4|8,0:0|0:1,0:0:0:0:
344,353,96542,6,0,P|305:281|226:301,1,176,2|0,0:0|1:0,0:0:0:0:
184,196,96992,2,0,L|96:185,1,88,8|0,0:1|0:0,0:0:0:0:
8,112,97292,5,0,0:1:0:0:
8,112,97442,1,2,0:1:0:0:
156,103,97592,2,0,P|232:64|318:79,1,176,8|0,0:1|0:0,0:0:0:0:
403,142,98042,1,2,1:0:0:0:
500,96,98192,2,0,P|507:139|508:183,1,88,8|0,0:1|0:0,0:0:0:0:
418,305,98492,6,0,P|382:227|403:143,1,176,0|8,1:0|0:1,0:0:0:0:
280,192,98942,2,0,P|240:180|184:172,1,88,2|0,0:0|0:0,0:0:0:0:
340,80,99242,1,0,1:0:0:0:
340,80,99392,2,0,P|311:49|266:14,1,88,8|0,0:1|0:0,0:0:0:0:
156,52,99692,5,0,1:0:0:0:
156,52,99842,1,2,1:0:0:0:
194,172,99992,2,0,B|160:250|231:265|194:349,1,176,8|0,0:1|0:0,0:0:0:0:
119,299,100442,2,0,L|27:288,2,88,0|8|2,1:0|0:1|0:0,0:0:0:0:
274,211,100892,6,0,P|362:195|462:204,1,176,0|8,1:0|0:1,0:0:0:0:
436,88,101342,2,0,P|396:84|348:72,1,88,2|0,0:0|0:0,0:0:0:0:
236,84,101642,1,0,1:0:0:0:
236,84,101792,2,0,P|205:115|180:151,1,88,8|0,0:1|0:0,0:0:0:0:
168,272,102092,5,0,1:0:0:0:
168,272,102242,1,0,1:0:0:0:
304,316,102392,2,0,P|328:232|268:172,1,176,8|0,0:1|0:0,0:0:0:0:
180,151,102842,1,2,1:0:0:0:
356,116,102992,2,0,L|448:100,1,88,8|0,0:1|0:0,0:0:0:0:
224,52,103292,6,0,L|132:36,1,88,0|0,1:0|0:0,0:0:0:0:
48,132,103592,1,8,0:1:0:0:
48,132,103742,2,0,L|63:218,1,88,2|0,0:0|0:0,0:0:0:0:
195,237,104042,1,0,1:0:0:0:
195,237,104192,2,0,L|179:150,1,88,8|2,0:1|0:0,0:0:0:0:
76,296,104492,5,0,1:0:0:0:
76,296,104642,1,0,1:0:0:0:
188,368,104792,1,8,0:1:0:0:
188,368,104942,2,0,P|276:376|332:312,1,176,2|0,0:0|1:0,0:0:0:0:
414,199,105392,1,8,0:1:0:0:
380,182,105467,1,0,0:0:0:0:
344,177,105542,1,0,0:0:0:0:
309,180,105617,1,0,0:0:0:0:
276,195,105692,6,0,P|235:202|187:184,1,88,4|0,1:0|1:0,0:0:0:0:
180,52,105992,1,8,0:1:0:0:
278,87,106142,2,0,B|395:111|359:67|461:84,1,176,2|0,0:0|1:0,0:0:0:0:
492,188,106592,2,0,L|476:276,1,88,8|0,0:1|0:0,0:0:0:0:
368,340,106892,5,0,1:0:0:0:
368,340,107042,1,2,1:0:0:0:
252,296,107192,2,0,L|165:311,2,88,8|0|0,0:1|0:0|0:0,0:0:0:0:
368,224,107642,1,0,1:0:0:0:
244,184,107792,1,8,0:1:0:0:
208,176,107867,1,0,0:0:0:0:
172,172,107942,1,2,0:0:0:0:
136,168,108017,1,0,0:0:0:0:
100,164,108092,6,0,P|104:64|168:64,1,176,0|8,1:0|0:1,0:0:0:0:
284,108,108542,2,0,L|336:32,1,88,2|0,0:0|0:0,0:0:0:0:
292,224,108842,1,0,1:0:0:0:
292,224,108992,2,0,L|331:307,1,88,8|0,0:1|0:0,0:0:0:0:
188,172,109292,5,0,1:0:0:0:
188,172,109442,1,2,1:0:0:0:
352,164,109592,2,0,L|440:160,2,88,8|0|0,0:1|0:0|0:0,0:0:0:0:
216,256,110042,1,2,1:0:0:0:
216,256,110192,1,8,0:1:0:0:
152,80,110342,1,0,0:0:0:0:
152,80,110492,6,0,B|236:52|236:52|316:86,1,176,0|8,1:0|0:1,0:0:0:0:
459,74,110942,2,0,L|439:162,1,88,2|0,0:0|0:0,0:0:0:0:
496,320,111242,2,0,L|429:258,1,88,0|8,1:0|0:1,0:0:0:0:
268,232,111542,2,0,L|352:205,1,88,0|0,0:0|1:0,0:0:0:0:
184,168,111842,6,0,L|99:141,1,88,2|8,1:0|0:1,0:0:0:0:
16,324,112142,2,0,P|84:271|170:276,1,176,0|0,0:0|1:0,0:0:0:0:
256,360,112592,1,8,0:1:0:0:
256,360,112742,1,2,0:0:0:0:
356,292,112892,6,0,L|379:207,1,88,0|0,1:0|0:0,0:0:0:0:
328,84,113192,1,8,0:1:0:0:
328,84,113342,2,0,L|243:60,1,88
64,179,113642,1,2,1:0:0:0:
190,223,113792,1,8,0:1:0:0:
161,98,113942,6,0,L|142:59,2,44,0|0|8,1:0|1:0|1:0,1:0:0:0:
190,223,114242,1,2,0:0:0:0:
190,223,114392,1,8,0:1:0:0:
64,179,114542,1,0,1:0:0:0:
64,179,114617,1,0,1:0:0:0:
64,179,114692,2,0,L|124:165,1,44,8|0,0:1|0:0,0:0:0:0:
206,110,114842,2,0,L|250:101,1,44,0|0,1:0|0:0,0:0:0:0:
309,195,114992,2,0,L|353:204,1,44,0|0,1:0|0:0,0:0:0:0:
441,153,115142,2,0,L|486:162,1,44,0|0,1:0|0:0,0:0:0:0:
505,307,115292,6,0,L|380:295,1,105.599996777344,4|0,0:0|0:0,0:0:0:0:
436,384,115592,1,10,0:0:0:0:
203,205,115742,2,0,L|328:193,1,105.599996777344,0|0,0:0|0:0,0:0:0:0:
266,282,116042,1,2,0:0:0:0:
512,114,116192,2,0,L|387:102,1,105.599996777344,8|0,0:0|0:0,0:0:0:0:
443,191,116492,5,2,0:0:0:0:
310,37,116642,1,0,0:0:0:0:
245,129,116792,2,0,L|214:23,1,105.599996777344,8|0,0:0|0:0,0:0:0:0:
339,165,117092,2,0,P|305:214|246:234,1,105.599996777344,2|0,0:0|0:0,0:0:0:0:
126,168,117392,1,8,0:0:0:0:
48,245,117542,1,0,0:0:0:0:
44,254,117617,1,0,0:0:0:0:
40,263,117692,6,0,L|64:379,1,105.599996777344,2|0,0:0|0:0,0:0:0:0:
155,306,117992,1,8,0:0:0:0:
261,378,118142,2,0,L|282:274,1,105.599996777344,2|0,0:0|0:0,0:0:0:0:
155,306,118442,1,0,0:0:0:0:
361,208,118592,2,0,L|385:319,1,105.599996777344,8|0,0:0|0:0,0:0:0:0:
265,175,118892,5,2,0:0:0:0:
419,131,119042,1,0,0:0:0:0:
281,70,119192,2,0,L|259:210,1,105.599996777344,8|0,0:0|0:0,0:0:0:0:
155,306,119492,2,0,L|103:318,1,52.7999983886719,2|0,0:0|0:0,0:0:0:0:
118,186,119642,2,0,L|169:198,1,52.7999983886719
319,228,119792,1,8,0:0:0:0:
334,231,119867,1,0,0:0:0:0:
349,232,119942,1,0,0:0:0:0:
364,231,120017,1,0,0:0:0:0:
379,227,120092,6,0,P|407:176|420:119,1,105.599996777344,2|0,0:0|0:0,0:0:0:0:
364,39,120392,1,10,0:0:0:0:
310,149,120542,2,0,P|279:99|236:59,1,105.599996777344
152,83,120842,1,2,0:0:0:0:
86,241,120992,2,0,P|135:210|175:167,1,105.599996777344,8|0,0:0|0:0,0:0:0:0:
152,83,121292,5,2,0:0:0:0:
223,257,121442,1,0,0:0:0:0:
310,149,121592,1,8,0:0:0:0:
420,274,121742,1,0,0:0:0:0:
420,274,121817,1,0,0:0:0:0:
420,274,121892,6,0,L|315:267,1,105.599996777344
217,162,122192,2,0,P|227:97|269:63,1,105.599996777344,8|0,0:0|0:0,0:0:0:0:
396,49,122417,1,0,0:0:0:0:
396,49,122492,6,0,L|389:156,1,105.599996777344,2|0,0:0|0:0,0:0:0:0:
223,257,122792,2,0,L|118:250,1,105.599996777344,8|0,0:0|0:0,0:0:0:0:
23,209,123092,1,0,0:0:0:0:
16,110,123242,1,0,0:0:0:0:
99,46,123392,1,8,0:0:0:0:
117,249,123542,1,0,0:0:0:0:
16,110,123692,5,2,0:0:0:0:
23,209,123842,1,0,0:0:0:0:
117,249,123992,2,0,L|238:266,1,105.599996777344,8|0,0:0|0:0,0:0:0:0:
315,222,124292,1,2,0:0:0:0:
325,203,124367,1,0,0:0:0:0:
325,181,124442,1,0,0:0:0:0:
320,160,124517,1,0,0:0:0:0:
310,141,124592,2,0,L|223:152,1,52.7999983886719,8|0,0:0|0:0,0:0:0:0:
197,121,124742,2,0,L|249:115,1,52.7999983886719,2|0,0:0|0:0,0:0:0:0:
315,52,124892,5,4,0:0:0:0:
419,69,125042,2,0,L|315:52,1,105.599996777344,0|8,0:0|0:0,0:0:0:0:
197,121,125342,1,2,0:0:0:0:
93,138,125492,2,0,L|197:121,1,105.599996777344
315,190,125792,1,10,0:0:0:0:
419,207,125942,2,0,L|315:190,1,105.599996777344
197,259,126242,5,2,0:0:0:0:
93,276,126392,2,0,L|197:259,1,105.599996777344,8|0,0:0|0:0,0:0:0:0:
305,334,126692,1,2,0:0:0:0:
405,365,126842,2,0,L|279:325,1,105.599996777344,0|8,0:0|0:0,0:0:0:0:
449,287,127142,1,0,0:0:0:0:
449,287,127217,1,0,0:0:0:0:
449,287,127292,5,2,0:0:0:0:
494,206,127442,2,0,P|507:155|513:102,1,105.599996777344,0|8,0:0|0:0,0:0:0:0:
392,199,127742,1,2,0:0:0:0:
344,110,127892,2,0,P|306:73|263:41,1,105.599996777344
290,203,128192,1,10,0:0:0:0:
188,200,128342,2,0,P|137:214|88:235,1,105.599996777344
54,335,128642,5,2,0:0:0:0:
157,313,128792,1,8,0:0:0:0:
249,364,128942,1,0,0:0:0:0:
247,258,129092,1,2,0:0:0:0:
157,313,129242,1,0,0:0:0:0:
249,364,129392,1,8,0:0:0:0:
156,204,129542,1,2,0:0:0:0:
323,300,129692,5,4,0:0:0:0:
349,299,129767,1,0,0:0:0:0:
374,293,129842,1,0,0:0:0:0:
396,279,129917,1,0,0:0:0:0:
410,257,129992,2,0,L|416:200,3,52.7999983886719,8|0|0|0,0:0|0:0|0:0|0:0,0:0:0:0:
393,190,130292,2,0,L|384:133,3,52.7999983886719
360,128,130592,2,0,L|336:75,3,52.7999983886719,8|0|0|0,0:0|0:0|0:0|0:0,0:0:0:0:
244,35,130892,5,2,0:0:0:0:
235,59,130967,1,0,0:0:0:0:
232,85,131042,1,0,0:0:0:0:
236,111,131117,1,0,0:0:0:0:
243,136,131192,2,0,L|194:157,3,52.7999983886719,8|0|0|0,0:0|0:0|0:0|0:0,0:0:0:0:
201,287,131492,2,0,L|206:234,3,52.7999983886719
86,174,131792,2,0,L|128:204,3,52.7999983886719,8|0|0|0,0:0|0:0|0:0|0:0,0:0:0:0:
201,287,132092,5,2,0:0:0:0:
225,295,132167,1,0,0:0:0:0:
251,296,132242,1,0,0:0:0:0:
275,287,132317,1,0,0:0:0:0:
297,273,132392,2,0,L|365:288,3,52.7999983886719,8|0|0|0,0:0|0:0|0:0|0:0,0:0:0:0:
423,209,132692,2,0,L|371:197,3,52.7999983886719,2|0|0|0,0:0|0:0|0:0|0:0,0:0:0:0:
439,116,132992,2,0,L|490:127,3,52.7999983886719,10|0|0|0,0:0|0:0|0:0|0:0,0:0:0:0:
367,46,133292,6,0,L|315:57,3,52.7999983886719,10|0|0|0,0:0|0:0|0:0|0:0,0:0:0:0:
229,34,133592,2,0,L|190:69,3,52.7999983886719,10|0|0|0,0:0|0:0|0:0|0:0,0:0:0:0:
100,68,133892,2,2,L|84:118,3,52.7999983886719,10|2|2|2,0:0|0:0|0:0|0:0,0:0:0:0:
166,156,134192,2,2,L|181:206,1,52.7999983886719,10|2,0:0|0:0,0:0:0:0:
89,232,134342,2,2,L|73:282,1,52.7999983886719,10|2,0:0|0:0,0:0:0:0:
160,360,134492,5,6,0:0:0:0:
