osu file format v14

[General]
AudioFilename: audio.mp3
AudioLeadIn: 0
PreviewTime: 38492
Countdown: 0
SampleSet: Soft
StackLeniency: 0.2
Mode: 0
LetterboxInBreaks: 0
WidescreenStoryboard: 0

[Editor]
DistanceSpacing: 1
BeatDivisor: 4
GridSize: 4
TimelineZoom: 2.7

[Metadata]
Title:LAISSEZ FAIRE
TitleUnicode:LAISSEZ: FAIRE
Artist:adaptor
ArtistUnicode:adaptor
Creator:[ -Scarlet- ]
Version:Expert
Source:
Tags:nanobeat 株式会社ナノコネクト様 収録楽曲
BeatmapID:1427049
BeatmapSetID:674425

[Difficulty]
HPDrainRate:5
CircleSize:5
OverallDifficulty:9
ApproachRate:9.6
SliderMultiplier:1.92
SliderTickRate:1

[Events]
//Background and Video events
0,0,"gril.jpg",0,0
//Break Periods
//Storyboard Layer 0 (Background)
//Storyboard Layer 1 (Fail)
//Storyboard Layer 2 (Pass)
//Storyboard Layer 3 (Foreground)
//Storyboard Sound Samples

[TimingPoints]
92,300,4,2,1,30,1,0
92,-166.666666666667,4,2,1,30,0,0
5267,-166.666666666667,4,2,1,30,0,0
5342,-166.666666666667,4,2,1,30,0,0
8642,-166.666666666667,4,2,1,30,0,0
8942,-166.666666666667,4,2,1,30,0,0
9092,-166.666666666667,4,2,1,30,0,0
9392,-166.666666666667,4,2,1,30,0,0
9692,-125,4,2,1,30,0,0
17492,-125,4,2,1,35,0,0
18092,-125,4,2,1,45,0,0
19292,-125,4,2,1,50,0,0
38492,-100,4,2,1,55,0,0
44492,-166.666666666667,4,2,1,55,0,0
48092,-100,4,2,1,55,0,0
54842,-117.647058823529,4,2,1,55,0,0
54992,-142.857142857143,4,2,1,55,0,0
55142,-181.818181818182,4,2,1,55,0,0
55292,-100,4,2,1,55,0,0
56792,-55.5555555555556,4,2,1,55,0,0
57692,-125,4,2,1,45,0,0
58142,-125,4,2,1,40,0,0
71792,-125,4,2,1,50,0,0
72092,-125,4,2,1,55,0,0
72392,-125,4,2,1,40,0,0
72992,-125,4,2,1,50,0,0
73292,-125,4,2,1,55,0,0
73442,-125,4,2,1,40,0,0
74192,-125,4,2,1,50,0,0
74492,-125,4,2,1,55,0,0
76892,-166.666666666667,4,2,1,50,0,0
82742,-333,4,2,1,50,0,0
83792,-199.879951980792,4,2,1,50,0,0
84017,-199.879951980792,4,2,1,5,0,0
84092,-166.583291645823,4,2,1,50,0,0
85892,-142.857142857143,4,2,1,50,0,0
86417,-142.857142857143,4,2,1,5,0,0
86492,-166.666666666667,4,2,1,70,0,0
91292,-125,4,2,1,70,0,0
95042,-142.857142857143,4,2,1,70,0,0
95192,-166.666666666667,4,2,1,70,0,0
95342,-200,4,2,1,70,0,0
95492,-66.6666666666667,4,2,1,70,0,0
96092,-83.3333333333333,4,2,1,70,0,0
96392,-83.3333333333333,4,2,1,60,0,0
114392,-55.5555555555556,4,2,1,60,0,0
115292,-83.3333333333333,4,1,1,70,0,0
129692,-100,4,1,1,70,0,0
139292,-100,4,1,1,30,0,0

[Colours]
Combo1 : 255,0,128
Combo2 : 0,128,255
Combo3 : 192,192,192

[HitObjects]
248,180,92,6,0,B|312:132|344:216|416:164,1,172.799994726563,4|0,0:0|0:0,0:0:0:0:
396,36,917,1,0,0:0:0:0:
400,24,992,6,0,P|356:64|380:124,1,115.199996484375,2|0,0:0|0:0,0:0:0:0:
292,236,1742,1,0,0:0:0:0:
296,248,1817,1,0,0:0:0:0:
300,260,1892,1,0,0:0:0:0:
376,340,2192,1,0,0:0:0:0:
470,285,2492,6,0,L|300:260,1,172.799994726563,2|0,0:0|0:0,0:0:0:0:
184,340,3317,1,0,0:0:0:0:
180,348,3392,6,0,P|232:360|276:312,1,115.199996484375,2|0,0:0|0:0,0:0:0:0:
256,168,4142,1,0,0:0:0:0:
216,292,4592,1,0,0:0:0:0:
133,198,4892,6,0,P|187:155|256:168,1,143.999995605469,2|0,0:0|0:0,0:0:0:0:
304,232,5342,1,0,0:0:0:0:
296,228,5417,1,0,0:0:0:0:
288,224,5492,2,0,L|416:200,1,115.199996484375,2|0,0:0|0:0,0:0:0:0:
401,202,6092,1,0,0:0:0:0:
401,202,6392,5,2,0:0:0:0:
440,136,6542,2,0,B|456:128|472:100|472:100|512:136|508:180|465:221,1,172.799994726563,0|0,0:0|0:0,0:0:0:0:
236,84,7292,6,0,B|303:38|335:110|402:74,1,172.799994726563,2|0,0:0|0:0,0:0:0:0:
466,30,7817,1,0,0:0:0:0:
474,38,7892,6,0,P|482:74|470:106,1,57.5999982421876,2|0,0:0|0:0,0:0:0:0:
366,202,8192,2,0,P|358:166|370:134,1,57.5999982421876,2|0,0:0|0:0,0:0:0:0:
494,158,8492,6,0,L|426:174,1,57.5999982421876,2|0,0:0|0:0,0:0:0:0:
388,232,8942,6,0,L|332:246,1,57.5999982421876,0|0,0:0|0:0,0:0:0:0:
284,308,9392,6,0,L|227:321,1,57.5999982421876,0|0,0:0|0:0,0:0:0:0:
164,364,9692,6,0,P|148:324|164:276,1,76.8,4|0,0:0|0:0,0:0:0:0:
154,291,9992,1,2,0:0:0:0:
220,152,10142,2,0,P|236:192|220:240,1,76.8,0|0,0:0|0:0,0:0:0:0:
229,224,10442,1,0,0:0:0:0:
56,168,10592,5,2,0:0:0:0:
124,108,10742,1,0,0:0:0:0:
156,196,10892,1,0,0:0:0:0:
52,100,11042,5,0,0:0:0:0:
188,132,11192,1,2,0:0:0:0:
92,232,11342,1,0,0:0:0:0:
92,232,11417,1,0,0:0:0:0:
92,232,11492,5,0,0:0:0:0:
104,304,11642,1,0,0:0:0:0:
168,268,11792,1,2,0:0:0:0:
20,216,11942,1,0,0:0:0:0:
24,204,12017,1,0,0:0:0:0:
28,192,12092,6,0,P|64:160|108:160,1,76.8,0|0,0:0|0:0,0:0:0:0:
156,196,12392,1,2,0:0:0:0:
284,112,12542,6,0,P|248:80|204:80,1,76.8,0|0,0:0|0:0,0:0:0:0:
156,116,12842,1,0,0:0:0:0:
220,224,12992,5,2,0:0:0:0:
284,112,13142,1,0,0:0:0:0:
156,116,13292,1,0,0:0:0:0:
308,188,13442,5,0,0:0:0:0:
220,52,13592,1,2,0:0:0:0:
144,196,13742,1,0,0:0:0:0:
284,112,13892,5,0,0:0:0:0:
148,40,14042,1,0,0:0:0:0:
36,148,14192,1,2,0:0:0:0:
32,168,14267,1,0,0:0:0:0:
28,188,14342,1,0,0:0:0:0:
24,208,14417,1,0,0:0:0:0:
20,228,14492,5,0,1:0:0:0:
104,316,14642,1,0,0:0:0:0:
200,240,14792,1,2,0:0:0:0:
192,328,14942,6,0,L|188:376,2,38.4,0|0|0,0:0|0:0|0:0,0:0:0:0:
200,240,15242,1,0,0:0:0:0:
284,328,15392,5,2,0:0:0:0:
200,240,15542,1,0,0:0:0:0:
104,316,15692,1,0,1:0:0:0:
268,192,15842,5,0,0:0:0:0:
276,260,15992,1,2,0:0:0:0:
284,328,16142,1,0,0:0:0:0:
280,336,16217,1,0,0:0:0:0:
276,344,16292,5,0,0:0:0:0:
368,240,16442,1,0,0:0:0:0:
436,360,16592,1,2,0:0:0:0:
276,260,16742,1,0,0:0:0:0:
272,228,16817,1,0,0:0:0:0:
284,200,16892,5,2,1:0:0:0:
368,120,17042,1,0,0:0:0:0:
472,172,17192,1,0,0:0:0:0:
388,252,17342,1,0,0:0:0:0:
276,40,17492,6,0,L|264:96,1,38.4,2|0,1:0|0:0,0:0:0:0:
252,148,17642,1,0,0:0:0:0:
80,192,17792,2,0,L|92:136,1,38.4,2|0,1:0|0:0,0:0:0:0:
104,84,17942,1,0,0:0:0:0:
328,184,18092,5,0,1:0:0:0:
308,216,18167,1,0,1:0:0:0:
272,232,18242,1,0,1:0:0:0:
232,232,18317,1,0,1:0:0:0:
196,216,18392,1,0,1:0:0:0:
180,180,18467,1,0,1:0:0:0:
180,140,18542,1,0,1:0:0:0:
196,104,18617,1,0,1:0:0:0:
192,60,18692,5,0,1:0:0:0:
172,24,18767,1,0,1:0:0:0:
136,4,18842,1,0,1:0:0:0:
92,0,18917,1,0,1:0:0:0:
52,12,18992,1,0,1:0:0:0:
24,44,19067,1,0,1:0:0:0:
20,88,19142,1,0,1:0:0:0:
36,128,19217,1,0,1:0:0:0:
72,156,19292,6,0,L|168:140,1,76.8,4|0,0:0|0:0,0:0:0:0:
124,224,19592,1,2,0:0:0:0:
272,248,19742,6,0,L|176:232,1,76.8,8|0,0:0|0:0,0:0:0:0:
220,316,20042,1,0,0:0:0:0:
80,348,20192,6,0,L|64:252,1,76.8,2|0,0:0|0:0,0:0:0:0:
67,272,20417,1,0,0:0:0:0:
67,272,20492,1,8,0:0:0:0:
124,224,20642,1,0,0:0:0:0:
196,235,20792,1,0,0:0:0:0:
214,354,20942,1,0,0:0:0:0:
214,354,21017,1,0,0:0:0:0:
214,354,21092,6,0,L|219:315,1,38.4,2|0,0:0|0:0,0:0:0:0:
268,264,21242,2,0,L|278:202,1,38.4,0|0,0:0|0:0,0:0:0:0:
336,172,21392,2,0,P|280:140|220:172,1,115.2,2|0,0:0|0:0,0:0:0:0:
228,160,21692,6,0,P|232:112|208:80,1,76.8,8|0,0:0|0:0,0:0:0:0:
144,32,21992,2,0,L|40:48,1,76.8,0|0,0:0|0:0,0:0:0:0:
68,43,22217,1,0,0:0:0:0:
68,43,22292,1,2,0:0:0:0:
156,136,22442,1,0,0:0:0:0:
228,24,22592,1,0,0:0:0:0:
356,64,22742,1,0,0:0:0:0:
356,64,22817,1,0,0:0:0:0:
356,64,22892,6,0,L|400:80,1,38.4,8|0,0:0|0:0,0:0:0:0:
408,84,23042,1,0,0:0:0:0:
308,12,23192,2,0,P|284:52|296:104,1,76.8,2|0,0:0|0:0,0:0:0:0:
328,136,23417,1,0,0:0:0:0:
336,144,23492,6,0,L|348:236,1,76.8,2|0,0:0|0:0,0:0:0:0:
460,256,23792,1,0,0:0:0:0:
364,344,23942,1,0,0:0:0:0:
252,280,24092,6,0,B|200:264|200:264|152:272|152:272|80:252,1,153.6,8|2,0:0|0:0,0:0:0:0:
180,368,24542,1,0,0:0:0:0:
180,368,24617,1,0,0:0:0:0:
180,368,24692,6,0,P|196:344|192:320,1,38.4,2|0,0:0|0:0,0:0:0:0:
252,280,24842,2,0,P|246:251|226:237,1,38.4,0|0,0:0|0:0,0:0:0:0:
208,172,24992,2,0,L|108:188,1,76.8,0|0,0:0|0:0,0:0:0:0:
132,184,25217,1,0,0:0:0:0:
132,184,25292,5,8,0:0:0:0:
84,124,25442,1,0,0:0:0:0:
116,52,25592,1,2,0:0:0:0:
232,136,25742,6,0,L|224:188,2,38.4,0|0|2,0:0|0:0|0:0,0:0:0:0:
200,44,26042,1,0,0:0:0:0:
168,108,26192,2,0,P|228:112|296:80,1,115.2,0|0,0:0|0:0,0:0:0:0:
288,80,26492,6,0,P|312:112|364:120,1,76.8,8|0,0:0|0:0,0:0:0:0:
428,116,26792,2,0,P|463:104|485:73,1,76.8,2|0,0:0|0:0,0:0:0:0:
485,73,27017,1,0,0:0:0:0:
485,73,27092,1,2,0:0:0:0:
428,20,27242,1,0,0:0:0:0:
352,48,27392,1,0,0:0:0:0:
280,152,27542,6,0,L|292:240,1,76.8,0|8,0:0|0:0,0:0:0:0:
304,320,27842,2,0,L|356:308,1,38.4,0|0,0:0|0:0,0:0:0:0:
364,304,27992,1,2,0:0:0:0:
248,372,28142,1,0,0:0:0:0:
232,348,28217,1,0,0:0:0:0:
232,320,28292,5,2,0:0:0:0:
290,228,28442,1,0,0:0:0:0:
396,220,28592,1,0,0:0:0:0:
472,296,28742,1,0,0:0:0:0:
378,372,28892,6,0,L|398:197,1,153.6,4|2,0:0|0:0,0:0:0:0:
472,52,29342,1,0,0:0:0:0:
472,52,29417,1,0,0:0:0:0:
472,52,29492,6,0,P|492:80|496:100,1,38.4,0|0,0:0|0:0,0:0:0:0:
464,148,29642,2,0,P|458:181|447:198,1,38.4,0|0,0:0|0:0,0:0:0:0:
395,219,29792,2,0,L|287:199,1,76.8,2|0,0:0|0:0,0:0:0:0:
319,205,30017,1,0,0:0:0:0:
319,205,30092,5,8,0:0:0:0:
260,256,30242,1,0,0:0:0:0:
276,332,30392,1,2,0:0:0:0:
392,280,30542,6,0,L|444:276,2,38.4,0|0|2,0:0|0:0|0:0,0:0:0:0:
268,219,30842,1,0,0:0:0:0:
276,332,30992,2,0,B|268:284|268:284|276:264|276:264|264:196,1,115.2,0|0,0:0|0:0,0:0:0:0:
260,212,31292,6,0,L|160:228,1,76.8,8|0,0:0|0:0,0:0:0:0:
88,268,31592,2,0,P|60:316|72:356,1,76.8,2|0,0:0|0:0,0:0:0:0:
61,334,31817,1,0,0:0:0:0:
61,334,31892,1,2,0:0:0:0:
172,300,32042,1,0,0:0:0:0:
124,196,32192,1,0,0:0:0:0:
249,135,32342,6,0,L|261:223,1,76.8,0|8,0:0|0:0,0:0:0:0:
272,324,32642,2,0,L|216:340,1,38.4,0|0,0:0|0:0,0:0:0:0:
216,340,32792,1,2,0:0:0:0:
344,356,32942,1,0,0:0:0:0:
352,332,33017,1,0,0:0:0:0:
348,304,33092,1,2,0:0:0:0:
200,224,33242,5,0,0:0:0:0:
272,324,33392,1,0,0:0:0:0:
384,276,33542,1,0,0:0:0:0:
238,152,33692,6,0,P|190:144|142:168,1,76.8,8|0,0:0|0:0,0:0:0:0:
36,168,33992,1,2,0:0:0:0:
44,292,34142,1,0,0:0:0:0:
44,292,34217,1,0,0:0:0:0:
44,292,34292,2,0,P|92:300|140:276,1,76.8,2|0,0:0|0:0,0:0:0:0:
173,228,34592,2,0,L|163:152,1,76.8,0|0,0:0|0:0,0:0:0:0:
88,24,34892,5,8,0:0:0:0:
40,84,35042,1,0,0:0:0:0:
76,152,35192,1,2,0:0:0:0:
192,44,35342,6,0,L|184:-4,2,38.4,0|0|2,0:0|0:0|0:0,0:0:0:0:
192,148,35642,1,0,0:0:0:0:
136,92,35792,2,0,P|220:76|264:112,1,115.2,0|0,0:0|0:0,0:0:0:0:
248,96,36092,6,0,L|340:76,1,76.8,8|0,0:0|0:0,0:0:0:0:
408,60,36392,1,2,0:0:0:0:
364,160,36542,1,0,0:0:0:0:
340,172,36617,1,0,0:0:0:0:
312,172,36692,5,2,0:0:0:0:
323,79,36842,1,0,0:0:0:0:
364,160,36992,1,0,0:0:0:0:
323,79,37142,1,0,0:0:0:0:
236,188,37292,6,0,P|224:160|228:136,1,38.4,8|0,0:0|0:0,0:0:0:0:
156,156,37442,2,0,P|159:125|175:106,1,38.4,0|0,0:0|0:0,0:0:0:0:
172,16,37592,6,0,P|160:44|164:68,1,38.4,2|0,0:0|0:0,0:0:0:0:
92,48,37742,2,0,P|95:78|111:97,1,38.4,0|0,0:0|0:0,0:0:0:0:
232,84,37892,2,0,P|239:66|239:47,1,38.4,2|0,0:0|0:0,0:0:0:0:
162,119,38042,5,0,0:0:0:0:
158,131,38117,1,0,0:0:0:0:
154,143,38192,1,2,0:0:0:0:
150,155,38267,1,0,0:0:0:0:
146,167,38342,1,0,0:0:0:0:
142,179,38417,1,0,0:0:0:0:
138,191,38492,6,0,B|154:247|154:247|142:275|142:275|166:343,1,144,4|0,0:0|0:0,0:0:0:0:
172,368,38792,1,8,0:1:0:0:
32,240,38942,1,0,1:0:0:0:
32,240,39017,1,0,0:0:0:0:
32,240,39092,2,0,L|96:228,1,48,0|0,0:0|0:0,0:0:0:0:
219,274,39242,1,0,1:0:0:0:
160,328,39392,6,0,B|256:300|256:300|216:272,1,144,8|0,0:1|0:0,0:0:0:0:
160,232,39692,6,0,P|196:204|260:216,1,96,0|0,1:0|0:0,0:0:0:0:
388,128,39992,2,0,P|352:156|288:144,1,96,8|0,0:1|0:0,0:0:0:0:
296,136,40217,1,0,0:0:0:0:
256,136,40292,5,0,0:0:0:0:
256,116,40367,1,0,0:0:0:0:
224,96,40442,5,0,1:0:0:0:
232,80,40517,1,0,0:0:0:0:
208,52,40592,5,8,0:1:0:0:
224,44,40667,1,0,0:0:0:0:
216,8,40742,6,0,P|240:0|276:8,1,48,0|0,0:0|0:0,0:0:0:0:
320,156,40892,6,0,B|280:176|280:176|320:48,1,144,0|0,1:0|0:0,0:0:0:0:
320,44,41192,1,8,0:1:0:0:
392,136,41342,1,0,0:0:0:0:
392,136,41417,1,0,0:0:0:0:
392,136,41492,2,0,P|396:172|368:208,1,48,0|0,0:0|0:0,0:0:0:0:
320,248,41642,1,0,1:0:0:0:
187,201,41792,6,0,B|243:173|243:173|271:177|271:177|320:156,1,144,8|0,0:1|0:0,0:0:0:0:
351,85,42092,6,0,P|304:79|264:104,1,96,0|0,1:0|0:0,0:0:0:0:
248,252,42392,1,8,0:1:0:0:
104,260,42542,1,0,0:0:0:0:
80,276,42617,1,0,0:0:0:0:
72,304,42692,1,0,0:0:0:0:
84,332,42767,1,0,0:0:0:0:
108,348,42842,5,0,1:0:0:0:
132,304,42917,1,0,0:0:0:0:
104,260,42992,1,8,0:1:0:0:
72,224,43067,1,0,0:0:0:0:
76,176,43142,1,0,0:0:0:0:
112,144,43217,1,0,0:0:0:0:
160,136,43292,6,0,B|208:136|208:136|268:180,1,96,0|0,1:0|0:0,0:0:0:0:
246,164,43592,1,8,0:1:0:0:
320,312,43742,2,0,B|296:270|296:270|304:196,1,96,0|0,0:0|0:0,0:0:0:0:
302,223,44042,1,0,1:0:0:0:
396,88,44192,2,0,B|372:129|372:129|303:159,1,96,8|0,0:1|0:0,0:0:0:0:
128,168,44492,5,0,1:0:0:0:
52,80,44642,1,0,0:0:0:0:
116,32,44792,1,8,0:1:0:0:
192,60,44942,2,0,L|180:100,1,28.7999991210938,0|0,0:0|0:0,0:0:0:0:
128,168,45092,5,0,0:0:0:0:
204,256,45242,1,0,1:0:0:0:
140,304,45392,1,8,0:1:0:0:
64,276,45542,2,0,L|76:236,1,28.7999991210938,0|0,0:0|0:0,0:0:0:0:
128,168,45692,5,0,1:0:0:0:
180,108,45842,1,0,0:0:0:0:
260,100,45992,1,8,0:1:0:0:
324,148,46142,1,0,0:0:0:0:
232,200,46292,5,0,0:0:0:0:
208,32,46442,1,0,1:0:0:0:
128,168,46592,1,8,0:1:0:0:
324,148,46742,1,0,0:0:0:0:
388,300,46892,5,0,1:0:0:0:
448,232,47042,1,0,0:0:0:0:
404,152,47192,1,8,0:1:0:0:
344,224,47342,1,0,0:0:0:0:
384,316,47492,5,0,0:0:0:0:
324,216,47642,1,0,1:0:0:0:
408,136,47792,1,8,0:1:0:0:
464,236,47942,1,0,0:0:0:0:
284,276,48092,6,0,B|232:268|232:268|188:284|188:284|132:276,1,144,0|0,1:0|0:0,0:0:0:0:
100,272,48392,1,8,0:1:0:0:
248,384,48542,1,0,0:0:0:0:
248,384,48617,1,0,0:0:0:0:
248,384,48692,2,0,L|240:328,1,48,0|0,0:0|0:0,0:0:0:0:
180,212,48842,1,0,1:0:0:0:
356,272,48992,6,0,B|260:240|260:240|292:288,1,144,8|0,0:1|0:0,0:0:0:0:
400,340,49292,6,0,P|432:300|428:248,1,96,0|0,1:0|0:0,0:0:0:0:
320,184,49592,1,8,0:1:0:0:
360,60,49742,1,0,0:0:0:0:
388,88,49817,1,0,0:0:0:0:
424,100,49892,1,0,0:0:0:0:
460,92,49967,1,0,0:0:0:0:
492,68,50042,5,0,1:0:0:0:
456,36,50117,1,0,0:0:0:0:
408,44,50192,1,8,0:1:0:0:
388,88,50267,1,0,0:0:0:0:
348,116,50342,1,0,0:0:0:0:
300,112,50417,1,0,0:0:0:0:
268,80,50492,6,0,L|152:96,1,96,0|0,1:0|0:0,0:0:0:0:
76,248,50792,2,0,P|60:216|64:188,1,48,8|0,0:1|0:0,0:0:0:0:
28,124,50942,6,0,P|68:112|104:172,1,96,0|0,0:0|0:0,0:0:0:0:
140,324,51242,2,0,P|144:272|176:224,1,96,0|8,1:0|0:1,0:0:0:0:
384,352,51542,5,0,0:0:0:0:
228,304,51692,1,0,1:0:0:0:
300,372,51842,5,0,0:0:0:0:
400,252,51992,1,8,0:1:0:0:
320,140,52142,5,0,0:0:0:0:
464,320,52292,1,0,0:0:0:0:
512,192,52442,5,0,1:0:0:0:
288,272,52592,1,8,0:1:0:0:
264,77,52742,5,0,0:0:0:0:
248,42,52817,1,0,0:0:0:0:
210,34,52892,1,0,1:0:0:0:
180,58,52967,1,0,0:0:0:0:
180,96,53042,1,0,0:0:0:0:
210,120,53117,1,0,0:0:0:0:
248,112,53192,1,8,0:1:0:0:
24,204,53342,5,0,0:0:0:0:
38,158,53417,1,0,0:0:0:0:
86,157,53492,1,0,0:0:0:0:
101,202,53567,1,0,0:0:0:0:
63,231,53642,1,0,1:0:0:0:
244,320,53792,5,8,0:1:0:0:
230,274,53867,1,0,0:0:0:0:
182,273,53942,1,0,0:0:0:0:
167,318,54017,1,0,0:0:0:0:
205,347,54092,5,0,1:0:0:0:
220,336,54167,1,0,0:0:0:0:
240,332,54242,1,0,0:0:0:0:
260,336,54317,1,0,0:0:0:0:
280,360,54392,5,8,0:1:0:0:
300,328,54467,1,0,0:0:0:0:
336,316,54542,1,0,0:0:0:0:
376,320,54617,1,0,0:0:0:0:
416,340,54692,6,0,L|408:292,1,48,0|0,0:0|0:0,0:0:0:0:
504,284,54842,6,0,L|512:328,1,40.8000007781983,0|0,1:0|0:0,0:0:0:0:
420,332,54992,6,0,L|412:288,1,33.5999989746094,8|0,0:1|0:0,0:0:0:0:
500,292,55142,6,0,L|508:332,1,26.4000008056641,0|0,0:0|0:0,0:0:0:0:
448,208,55292,6,0,B|376:180|368:240|297:195,1,144,0|0,1:0|0:0,0:0:0:0:
268,184,55592,1,8,0:1:0:0:
320,64,55742,6,0,P|356:112|332:152,1,96,0|0,0:0|0:0,0:0:0:0:
439,351,56042,2,0,P|403:303|427:263,1,96,0|8,1:0|0:1,0:0:0:0:
268,184,56342,1,0,1:0:0:0:
268,184,56417,1,0,1:0:0:0:
268,184,56492,6,0,L|208:192,1,48,8|0,1:0|0:0,0:0:0:0:
88,208,56642,2,0,L|40:214,1,48,0|0,0:0|0:0,0:0:0:0:
176,304,56792,6,0,B|132:344|132:344|168:200,1,172.799994726563,8|0,0:1|1:0,0:0:0:0:
180,116,57017,1,0,1:0:0:0:
176,48,57092,6,0,P|124:8|156:80,1,172.799994726563,8|0,1:0|1:0,0:0:0:0:
268,184,57317,1,0,0:0:0:0:
336,176,57392,6,0,L|512:160,1,172.799994726563,8|0,0:1|1:0,0:0:0:0:
456,48,57617,1,0,1:0:0:0:
456,40,57692,6,0,P|424:64|436:108,1,76.8,4|0,0:0|0:0,0:0:0:0:
500,96,57992,1,0,0:0:0:0:
500,96,58142,1,0,0:0:0:0:
372,144,58292,5,10,0:0:0:0:
304,176,58442,1,0,0:0:0:0:
244,128,58592,2,0,P|196:108|156:120,1,76.8,0|2,0:0|0:0,0:0:0:0:
108,296,58892,5,2,0:0:0:0:
72,240,59042,1,0,1:0:0:0:
116,184,59192,2,0,L|204:192,1,76.8,0|0,1:0|0:0,0:0:0:0:
192,190,59417,1,0,0:0:0:0:
192,190,59492,5,8,0:0:0:0:
260,252,59642,1,0,0:0:0:0:
332,204,59792,1,2,0:0:0:0:
304,132,59942,1,0,0:0:0:0:
236,128,60092,5,0,1:0:0:0:
332,204,60242,1,0,0:0:0:0:
456,164,60392,1,0,0:0:0:0:
352,84,60542,1,2,0:0:0:0:
208,120,60692,5,10,0:0:0:0:
356,60,60842,1,0,0:0:0:0:
476,168,60992,1,0,1:0:0:0:
328,228,61142,1,2,0:0:0:0:
232,360,61292,5,2,0:0:0:0:
224,244,61442,1,0,0:0:0:0:
40,324,61592,1,0,1:0:0:0:
108,220,61742,1,0,0:0:0:0:
224,244,61892,5,8,0:0:0:0:
220,168,62042,1,0,0:0:0:0:
108,220,62192,1,0,0:0:0:0:
144,152,62342,1,2,0:0:0:0:
92,96,62492,5,0,1:0:0:0:
216,156,62642,1,0,0:0:0:0:
224,16,62792,1,0,0:0:0:0:
88,108,62942,5,0,0:0:0:0:
216,156,63092,1,8,0:0:0:0:
212,16,63242,1,0,0:0:0:0:
84,119,63392,5,0,1:0:0:0:
216,156,63542,1,0,0:0:0:0:
200,17,63692,1,0,0:0:0:0:
81,131,63842,5,0,1:0:0:0:
216,156,63992,1,0,1:0:0:0:
187,19,64142,1,0,0:0:0:0:
79,143,64292,5,8,0:0:0:0:
216,156,64442,1,0,0:0:0:0:
175,22,64592,1,0,0:0:0:0:
156,100,64742,1,0,0:0:0:0:
364,56,64892,5,0,1:0:0:0:
284,24,65042,1,0,0:0:0:0:
232,88,65192,1,2,0:0:0:0:
276,160,65342,1,0,0:0:0:0:
356,140,65492,1,8,0:0:0:0:
304,92,65642,1,0,0:0:0:0:
304,92,65792,5,2,1:0:0:0:
236,156,65942,1,0,0:0:0:0:
268,244,66092,1,0,0:0:0:0:
360,260,66242,1,0,0:0:0:0:
420,192,66392,1,2,1:0:0:0:
396,104,66542,1,0,0:0:0:0:
236,156,66692,5,8,0:0:0:0:
200,164,66767,1,0,0:0:0:0:
164,156,66842,1,0,0:0:0:0:
128,172,66917,1,0,0:0:0:0:
88,168,66992,1,2,0:0:0:0:
144,36,67142,1,0,0:0:0:0:
268,84,67292,5,4,1:0:0:0:
236,156,67442,1,0,0:0:0:0:
248,240,67592,1,0,0:0:0:0:
312,308,67742,1,0,0:0:0:0:
412,324,67892,5,8,0:0:0:0:
352,244,68042,1,0,0:0:0:0:
432,188,68192,1,0,0:0:0:0:
492,268,68342,1,2,0:0:0:0:
312,308,68492,5,0,0:0:0:0:
216,276,68642,1,0,1:0:0:0:
128,248,68792,1,0,1:0:0:0:
48,228,68942,1,0,0:0:0:0:
40,236,69017,1,0,0:0:0:0:
32,244,69092,5,10,0:0:0:0:
144,324,69242,1,0,0:0:0:0:
260,284,69392,1,2,0:0:0:0:
316,192,69542,1,0,0:0:0:0:
284,104,69692,5,0,1:0:0:0:
116,80,69842,1,0,0:0:0:0:
188,184,69992,1,0,0:0:0:0:
212,16,70142,1,0,0:0:0:0:
312,180,70292,5,10,0:0:0:0:
508,152,70442,1,0,0:0:0:0:
424,272,70592,1,0,1:0:0:0:
396,76,70742,1,0,0:0:0:0:
292,260,70892,5,2,0:0:0:0:
80,224,71042,1,0,0:0:0:0:
168,360,71192,1,0,1:0:0:0:
204,148,71342,1,0,0:0:0:0:
292,320,71492,5,10,0:0:0:0:
428,300,71642,1,0,0:0:0:0:
372,384,71792,1,2,0:0:0:0:
352,248,71942,1,0,0:0:0:0:
76,228,72092,5,0,1:0:0:0:
208,356,72242,1,0,0:0:0:0:
268,180,72392,1,0,0:0:0:0:
96,324,72542,5,0,0:0:0:0:
288,276,72692,1,10,0:0:0:0:
156,148,72842,1,0,0:0:0:0:
176,256,72992,5,2,0:0:0:0:
48,124,73142,1,0,0:0:0:0:
224,64,73292,1,0,1:0:0:0:
152,152,73442,5,0,0:0:0:0:
256,0,73592,1,0,0:0:0:0:
360,152,73742,1,0,0:0:0:0:
288,64,73892,5,10,0:0:0:0:
464,124,74042,1,0,0:0:0:0:
336,256,74192,1,2,0:0:0:0:
191,157,74342,2,0,L|135:149,1,38.4,0|0,0:0|0:0,0:0:0:0:
68,80,74492,5,0,1:0:0:0:
76,156,74642,1,0,0:0:0:0:
88,232,74792,1,0,0:0:0:0:
100,308,74942,1,0,1:0:0:0:
164,220,75092,5,8,1:2:0:0:
16,332,75242,1,0,1:0:0:0:
180,312,75392,1,0,1:0:0:0:
8,244,75542,1,0,1:0:0:0:
220,188,75692,5,0,1:0:0:0:
252,192,75767,1,0,1:0:0:0:
284,196,75842,1,0,1:0:0:0:
316,200,75917,1,0,1:0:0:0:
348,204,75992,1,0,1:0:0:0:
380,208,76067,1,0,1:0:0:0:
412,212,76142,1,0,1:0:0:0:
444,216,76217,1,0,1:0:0:0:
476,220,76292,5,8,1:2:0:0:
452,188,76367,1,0,1:0:0:0:
416,172,76442,1,0,1:0:0:0:
376,176,76517,1,0,1:0:0:0:
348,204,76592,1,0,1:0:0:0:
316,228,76667,1,0,1:0:0:0:
280,236,76742,1,0,1:0:0:0:
244,220,76817,1,0,1:0:0:0:
220,188,76892,6,0,P|232:144|292:168,1,115.199996484375,4|8,0:0|0:0,0:0:0:0:
288,157,77342,1,2,0:0:0:0:
120,136,77642,1,2,0:0:0:0:
288,157,77942,1,0,0:0:0:0:
288,157,78692,2,0,P|272:197|220:197,1,86.3999973632813,2|0,0:0|0:0,0:0:0:0:
220,196,78992,5,2,0:0:0:0:
336,224,79142,1,0,0:0:0:0:
416,312,79292,2,0,P|404:260|428:180,1,115.199996484375,8|0,0:0|0:0,0:0:0:0:
456,144,79742,1,2,0:0:0:0:
488,212,80042,1,2,0:0:0:0:
252,252,80342,5,0,0:0:0:0:
264,140,80642,1,2,0:0:0:0:
264,328,80942,1,2,0:0:0:0:
248,64,81242,1,2,0:0:0:0:
92,140,81542,1,0,0:0:0:0:
81,83,81692,6,0,L|93:151,1,57.5999982421876,10|0,0:0|0:0,0:0:0:0:
176,68,81992,1,0,0:0:0:0:
186,124,82142,6,0,L|175:67,1,57.5999982421876,2|0,0:0|0:0,0:0:0:0:
280,108,82442,1,2,0:0:0:0:
269,51,82742,6,0,L|280:108,2,57.5999982421876,0|0|0,0:0|0:0|0:0,0:0:0:0:
136,232,83792,6,0,P|96:220|56:224,1,72.043240674926,2|0,0:0|0:0,0:0:0:0:
66,221,84092,6,0,B|120:192|176:228|176:228|160:164|208:112,1,230.515306896831,8|2,0:0|0:0,0:0:0:0:
440,296,85892,6,0,B|386:267|330:303|330:303|346:239|298:187,1,235.199992822266,8|2,0:0|0:0,0:0:0:0:
360,148,86492,6,0,L|484:124,1,115.199996484375,4|0,0:0|0:0,0:0:0:0:
428,208,86942,1,2,0:0:0:0:
412,56,87242,1,0,0:0:0:0:
296,144,87542,1,0,0:0:0:0:
296,144,88292,2,0,P|244:136|224:176,1,86.3999973632813,2|0,0:0|0:0,0:0:0:0:
236,172,88592,5,0,0:0:0:0:
184,72,88742,1,0,0:0:0:0:
306,31,88892,2,0,P|310:87|294:147,1,115.199996484375,10|0,0:0|0:0,0:0:0:0:
295,143,89342,1,2,0:0:0:0:
136,120,89642,1,0,0:0:0:0:
116,240,89942,5,0,0:0:0:0:
240,84,90242,1,0,0:0:0:0:
344,212,90542,1,2,0:0:0:0:
440,68,90842,1,0,0:0:0:0:
440,68,90992,2,0,L|444:136,1,57.5999982421876,2|0,0:0|0:0,0:0:0:0:
443,125,91292,6,0,B|384:128|384:128|360:152|360:152|284:156,1,153.6,10|0,1:2|0:0,0:0:0:0:
420,200,91742,1,2,0:0:0:0:
320,80,92042,1,2,0:0:0:0:
184,196,92342,2,0,L|152:160,1,38.4,2|0,0:0|0:0,0:0:0:0:
158,167,92492,6,0,B|136:220|136:220|148:256|148:256|124:328,1,153.6,8|0,1:2|0:0,0:0:0:0:
220,208,92942,1,2,0:0:0:0:
64,264,93242,1,2,0:0:0:0:
96,84,93542,2,0,L|144:72,1,38.4,2|0,0:0|0:0,0:0:0:0:
204,116,93692,5,8,1:2:0:0:
224,128,93767,1,0,0:0:0:0:
252,132,93842,1,0,0:0:0:0:
284,124,93917,1,0,0:0:0:0:
312,104,93992,1,2,0:0:0:0:
336,72,94067,1,0,0:0:0:0:
372,52,94142,1,0,0:0:0:0:
420,52,94217,1,0,0:0:0:0:
464,80,94292,5,2,1:0:0:0:
476,132,94367,1,0,0:0:0:0:
440,172,94442,1,0,0:0:0:0:
388,176,94517,1,0,0:0:0:0:
348,140,94592,1,2,1:0:0:0:
312,104,94667,1,0,0:0:0:0:
260,88,94742,1,0,0:0:0:0:
208,100,94817,1,0,0:0:0:0:
168,136,94892,6,0,L|184:184,1,38.4,0|0,1:0|0:0,0:0:0:0:
304,204,95042,6,0,L|296:236,1,33.5999989746094,0|0,1:0|0:0,0:0:0:0:
200,248,95192,6,0,L|212:288,1,28.7999991210938,0|0,1:0|0:0,0:0:0:0:
272,312,95342,6,0,L|264:340,1,24,0|0,1:0|0:0,0:0:0:0:
120,248,95492,6,0,B|84:240|84:240|48:272,3,72.0000027465821,0|0|0|0,1:0|1:0|1:0|1:0,0:0:0:0:
100,376,95792,5,0,1:0:0:0:
108,356,95867,1,0,1:0:0:0:
96,336,95942,5,0,1:0:0:0:
104,316,96017,1,0,1:0:0:0:
57,263,96092,6,0,B|120:248|120:248|160:264|160:264|232:244,1,172.799994726563,4|0,0:0|0:0,0:0:0:0:
288,228,96392,1,8,0:1:0:0:
144,128,96542,1,2,0:0:0:0:
144,128,96617,1,0,0:0:0:0:
144,128,96692,6,0,L|161:182,1,57.5999982421876,0|0,0:0|0:0,0:0:0:0:
222,246,96842,1,0,1:0:0:0:
316,116,96992,2,0,P|308:52|368:116,1,172.799994726563,8|0,0:1|0:0,0:0:0:0:
384,148,97292,5,0,0:1:0:0:
344,304,97442,1,2,0:1:0:0:
480,232,97592,2,0,P|428:216|352:264,1,115.199996484375,8|0,0:1|0:0,0:0:0:0:
373,236,97817,1,0,0:0:0:0:
373,236,97892,1,0,0:0:0:0:
256,360,98042,6,0,P|268:312|244:240,1,115.199996484375,2|8,1:0|0:1,0:0:0:0:
208,224,98267,1,0,0:0:0:0:
160,208,98342,1,0,0:0:0:0:
108,200,98417,1,0,0:0:0:0:
60,216,98492,6,0,B|76:340|76:340|112:284,1,172.799994726563,0|0,1:0|0:0,0:0:0:0:
172,288,98792,1,8,0:1:0:0:
260,116,98942,1,2,0:0:0:0:
260,116,99017,1,0,0:0:0:0:
260,116,99092,6,0,L|204:128,1,57.5999982421876,0|0,0:0|0:0,0:0:0:0:
56,148,99242,1,0,1:0:0:0:
180,60,99392,2,0,B|152:8|152:8|124:152,1,172.799994726563,8|0,0:1|0:0,0:0:0:0:
124,188,99692,5,0,1:0:0:0:
72,32,99842,1,2,1:0:0:0:
260,116,99992,2,0,P|312:96|352:40,1,115.199996484375,8|0,0:1|0:0,0:0:0:0:
348,50,100217,1,0,0:0:0:0:
348,50,100292,1,0,0:0:0:0:
296,200,100442,5,0,1:0:0:0:
436,264,100592,1,8,0:1:0:0:
276,344,100742,1,2,0:0:0:0:
368,312,100892,6,0,B|352:248|352:248|368:212|368:212|344:120,1,172.799994726563,0|0,1:0|0:0,0:0:0:0:
332,80,101192,1,8,0:1:0:0:
436,264,101342,1,2,0:0:0:0:
436,264,101417,1,0,0:0:0:0:
436,264,101492,6,0,L|490:246,1,57.5999982421876,0|0,0:0|0:0,0:0:0:0:
284,200,101642,1,0,1:0:0:0:
408,92,101792,2,0,B|340:76|340:76|304:92|304:92|228:64,1,172.799994726563,8|0,0:1|0:0,0:0:0:0:
176,44,102092,5,0,1:0:0:0:
284,200,102242,1,0,1:0:0:0:
148,208,102392,2,0,P|204:172|196:120,1,115.199996484375,8|0,0:1|0:0,0:0:0:0:
201,129,102617,1,0,0:0:0:0:
201,129,102692,1,0,0:0:0:0:
88,48,102842,6,0,L|24:64,1,57.5999982421876,2|0,1:0|0:0,0:0:0:0:
0,136,102992,1,8,0:1:0:0:
64,268,103142,1,0,0:0:0:0:
220,233,103292,6,0,P|228:173|196:125,1,115.199996484375,0|0,1:0|0:0,0:0:0:0:
312,233,103592,1,8,0:1:0:0:
312,233,103742,2,0,P|359:269|417:266,1,115.199996484375,2|0,0:0|0:0,0:0:0:0:
268,305,104042,2,0,P|212:328|186:379,1,115.199996484375,0|8,1:0|0:1,0:0:0:0:
388,193,104342,1,2,0:0:0:0:
388,193,104417,1,0,0:0:0:0:
388,193,104492,6,0,L|364:125,1,57.5999982421876,0|0,1:0|0:0,0:0:0:0:
444,21,104642,1,0,1:0:0:0:
302,13,104792,1,8,0:1:0:0:
468,97,104942,2,0,B|404:85|404:85|372:49|372:49|332:81|332:81|256:87,1,230.39999296875,2|0,0:0|1:0,0:0:0:0:
88,160,105392,1,8,0:1:0:0:
132,172,105467,1,0,0:0:0:0:
172,148,105542,1,0,0:0:0:0:
188,104,105617,1,0,0:0:0:0:
156,68,105692,6,0,B|44:36|44:36|96:108,1,172.799994726563,4|0,1:0|0:0,0:0:0:0:
124,136,105992,1,8,0:1:0:0:
304,148,106142,1,2,0:0:0:0:
304,148,106217,1,0,0:0:0:0:
304,148,106292,6,0,L|366:164,1,57.5999982421876,0|0,0:0|0:0,0:0:0:0:
424,120,106442,1,0,1:0:0:0:
280,64,106592,2,0,B|244:72|216:120|216:120|200:72|144:48,1,172.799994726563,8|0,0:1|0:0,0:0:0:0:
100,88,106892,5,0,1:0:0:0:
304,148,107042,1,2,1:0:0:0:
160,208,107192,2,0,P|212:192|284:240,1,115.199996484375,8|0,0:1|0:0,0:0:0:0:
265,214,107417,1,0,0:0:0:0:
265,214,107492,1,0,0:0:0:0:
328,356,107642,2,0,P|320:320|348:228,1,115.199996484375,0|8,1:0|0:1,0:0:0:0:
380,216,107867,1,0,0:0:0:0:
400,168,107942,1,2,0:0:0:0:
392,116,108017,1,0,0:0:0:0:
364,72,108092,6,0,B|304:68|248:32|248:32|272:68|264:120,1,172.799994726563,0|0,1:0|0:0,0:0:0:0:
220,144,108392,1,8,0:1:0:0:
85,48,108542,1,2,0:0:0:0:
85,48,108617,1,0,0:0:0:0:
85,48,108692,6,0,L|145:24,1,57.5999982421876,0|0,0:0|0:0,0:0:0:0:
192,80,108842,1,0,1:0:0:0:
60,172,108992,2,0,B|84:108|84:108|116:92|116:92|140:24,1,172.799994726563,8|0,0:1|0:0,0:0:0:0:
208,12,109292,5,0,1:0:0:0:
20,68,109442,1,2,1:0:0:0:
148,168,109592,2,0,P|208:156|286:150,1,115.199996484375,8|0,0:1|0:0,0:0:0:0:
261,150,109817,1,0,0:0:0:0:
261,150,109892,1,0,0:0:0:0:
444,84,110042,5,2,1:0:0:0:
312,232,110192,1,8,0:1:0:0:
256,44,110342,1,0,0:0:0:0:
388,216,110492,6,0,B|412:320|412:320|392:288|344:280,1,172.799994726563,0|0,1:0|0:0,0:0:0:0:
304,324,110792,1,8,0:1:0:0:
328,120,110942,1,2,0:0:0:0:
328,120,111017,1,0,0:0:0:0:
328,120,111091,2,0,L|396:144,1,57.5999982421876,0|0,0:0|0:0,0:0:0:0:
480,172,111242,5,0,1:0:0:0:
456,84,111392,1,8,0:1:0:0:
368,208,111542,5,0,0:0:0:0:
380,72,111692,1,0,1:0:0:0:
260,220,111842,5,2,1:0:0:0:
304,64,111992,1,8,0:1:0:0:
148,224,112142,5,0,0:0:0:0:
224,56,112292,1,0,0:0:0:0:
24,216,112442,5,0,1:0:0:0:
144,48,112592,1,8,0:1:0:0:
24,120,112742,5,2,0:0:0:0:
24,120,112892,2,0,B|104:88|116:180|220:104,1,172.799994726563,0|0,1:0|0:0,0:0:0:0:
224,56,113192,5,8,0:1:0:0:
56,188,113342,2,0,P|48:224|96:192,1,115.199996484375,0|0,0:0|0:0,0:0:0:0:
190,122,113642,2,0,P|182:86|230:118,1,115.199996484375,2|8,1:0|0:1,0:0:0:0:
344,176,113942,1,0,1:0:0:0:
344,176,114017,1,0,1:0:0:0:
344,176,114092,6,0,P|372:188|372:148,1,57.5999982421876,8|0,1:0|0:0,0:0:0:0:
488,60,114242,2,0,P|460:48|460:88,1,57.5999982421876,2|0,0:0|0:0,0:0:0:0:
460,188,114392,6,0,P|404:100|320:124,1,172.799994726563,8|0,0:1|1:0,0:0:0:0:
252,200,114617,1,0,1:0:0:0:
240,268,114692,6,0,P|256:312|276:240,1,172.799994726563,8|0,0:1|1:0,0:0:0:0:
244,52,114917,1,0,0:0:0:0:
176,64,114992,6,0,L|-4:88,1,172.799994726563,8|8,1:0|1:0,0:0:0:0:
88,116,115217,5,8,1:0:0:0:
96,32,115292,5,4,0:0:0:0:
244,52,115442,1,0,0:0:0:0:
392,72,115592,1,10,0:0:0:0:
320,24,115742,5,0,0:0:0:0:
346,170,115892,1,0,0:0:0:0:
373,317,116042,1,2,0:0:0:0:
400,236,116192,5,8,0:0:0:0:
268,306,116342,1,0,0:0:0:0:
137,377,116492,1,2,0:0:0:0:
228,376,116642,5,0,0:0:0:0:
120,272,116792,1,8,0:0:0:0:
12,169,116942,1,0,0:0:0:0:
32,272,117092,5,2,0:0:0:0:
96,137,117242,1,0,0:0:0:0:
161,2,117392,1,8,0:0:0:0:
256,192,117542,1,0,0:0:0:0:
256,192,117617,1,0,0:0:0:0:
256,192,117692,5,2,0:0:0:0:
140,180,117842,1,0,0:0:0:0:
368,204,117992,1,8,0:0:0:0:
256,192,118142,5,2,0:0:0:0:
200,64,118292,1,0,0:0:0:0:
312,316,118442,1,0,0:0:0:0:
256,192,118592,5,8,0:0:0:0:
352,64,118742,1,0,0:0:0:0:
160,324,118892,1,2,0:0:0:0:
256,192,119042,5,0,0:0:0:0:
440,212,119192,1,8,0:0:0:0:
72,172,119342,1,0,0:0:0:0:
316,368,119492,5,2,0:0:0:0:
304,340,119567,1,0,0:0:0:0:
308,312,119642,1,0,0:0:0:0:
324,288,119717,1,0,0:0:0:0:
344,264,119792,1,8,0:0:0:0:
348,236,119867,1,0,0:0:0:0:
336,208,119942,1,0,0:0:0:0:
384,332,120092,5,2,0:0:0:0:
256,236,120242,1,0,0:0:0:0:
144,352,120392,1,10,0:0:0:0:
384,328,120542,5,0,0:0:0:0:
256,232,120692,1,0,0:0:0:0:
144,348,120842,1,2,0:0:0:0:
384,324,120992,5,8,0:0:0:0:
256,228,121142,1,0,0:0:0:0:
144,344,121292,1,2,0:0:0:0:
384,320,121442,5,0,0:0:0:0:
256,224,121592,1,8,0:0:0:0:
144,340,121742,1,0,0:0:0:0:
384,316,121892,5,0,0:0:0:0:
256,220,122042,1,0,0:0:0:0:
144,336,122192,1,8,0:0:0:0:
340,252,122342,1,0,0:0:0:0:
348,220,122417,1,0,0:0:0:0:
336,188,122492,5,2,0:0:0:0:
240,316,122642,1,0,0:0:0:0:
172,172,122792,1,8,0:0:0:0:
156,320,122942,5,0,0:0:0:0:
248,220,123092,1,0,0:0:0:0:
320,336,123242,1,0,0:0:0:0:
328,240,123392,5,8,0:0:0:0:
240,316,123542,1,0,0:0:0:0:
172,220,123692,1,2,0:0:0:0:
172,288,123842,5,0,0:0:0:0:
248,232,123992,1,8,0:0:0:0:
308,304,124142,1,0,0:0:0:0:
148,148,124292,5,2,0:0:0:0:
128,140,124367,1,0,0:0:0:0:
104,136,124442,1,0,0:0:0:0:
80,144,124517,1,0,0:0:0:0:
52,140,124592,5,8,0:0:0:0:
80,104,124667,1,0,0:0:0:0:
120,80,124742,1,2,0:0:0:0:
164,68,124817,1,0,0:0:0:0:
208,64,124892,5,4,0:0:0:0:
280,260,125042,1,0,0:0:0:0:
396,88,125192,1,8,0:0:0:0:
416,80,125342,5,2,0:0:0:0:
280,268,125492,1,0,0:0:0:0:
192,56,125642,1,0,0:0:0:0:
172,48,125792,5,10,0:0:0:0:
280,276,125942,1,0,0:0:0:0:
432,72,126092,1,0,0:0:0:0:
448,64,126242,5,2,0:0:0:0:
280,284,126392,1,8,0:0:0:0:
148,40,126542,1,0,0:0:0:0:
128,32,126692,5,2,0:0:0:0:
280,288,126842,1,0,0:0:0:0:
468,56,126992,1,8,0:0:0:0:
476,276,127142,1,0,0:0:0:0:
476,276,127217,1,0,0:0:0:0:
476,276,127292,5,2,0:0:0:0:
472,156,127442,1,0,0:0:0:0:
384,288,127592,1,8,0:0:0:0:
376,116,127742,5,2,0:0:0:0:
384,288,127892,1,0,0:0:0:0:
272,80,128042,1,0,0:0:0:0:
288,300,128192,5,10,0:0:0:0:
272,80,128342,1,0,0:0:0:0:
188,316,128492,1,0,0:0:0:0:
164,52,128642,5,2,0:0:0:0:
188,316,128792,1,8,0:0:0:0:
56,20,128942,1,0,0:0:0:0:
92,328,129092,5,2,0:0:0:0:
56,20,129242,1,0,0:0:0:0:
0,340,129392,1,8,0:0:0:0:
164,132,129542,1,2,0:0:0:0:
164,132,129617,1,0,0:0:0:0:
164,132,129692,6,0,P|192:116|224:116,1,48,4|0,0:0|0:0,0:0:0:0:
280,192,129842,2,0,P|304:192|332:172,1,48,0|0,0:0|0:0,0:0:0:0:
396,124,129992,1,8,0:0:0:0:
400,108,130067,1,0,0:0:0:0:
404,96,130142,1,0,0:0:0:0:
408,84,130217,1,0,0:0:0:0:
404,48,130292,5,2,0:0:0:0:
384,88,130367,1,0,0:0:0:0:
344,104,130442,1,0,0:0:0:0:
300,96,130517,1,0,0:0:0:0:
268,112,130592,5,8,0:0:0:0:
248,72,130667,1,0,0:0:0:0:
208,56,130742,1,0,0:0:0:0:
164,60,130817,1,0,0:0:0:0:
120,52,130892,5,2,0:0:0:0:
120,52,130967,2,0,P|96:72|88:104,1,48,0|0,0:0|0:0,0:0:0:0:
16,148,131117,5,2,0:0:0:0:
16,148,131192,2,0,P|21:178|45:201,1,48,8|0,0:0|0:0,0:0:0:0:
52,280,131342,5,2,0:0:0:0:
52,280,131417,2,0,P|81:290|113:281,1,48,0|0,0:0|0:0,0:0:0:0:
168,340,131567,5,2,0:0:0:0:
168,340,131642,2,0,P|192:320|200:288,1,48,0|0,0:0|0:0,0:0:0:0:
248,180,131792,1,8,0:0:0:0:
244,160,131867,1,0,0:0:0:0:
240,140,131942,1,0,0:0:0:0:
236,120,132017,1,0,0:0:0:0:
208,84,132092,5,2,0:0:0:0:
216,132,132167,1,0,0:0:0:0:
256,156,132242,1,0,0:0:0:0:
304,156,132317,1,0,0:0:0:0:
344,128,132392,1,8,0:0:0:0:
388,108,132467,1,0,0:0:0:0:
436,112,132542,1,0,0:0:0:0:
476,140,132617,1,0,0:0:0:0:
496,184,132692,5,2,0:0:0:0:
448,196,132767,1,0,0:0:0:0:
412,224,132842,1,0,0:0:0:0:
392,268,132917,1,0,0:0:0:0:
384,316,132992,1,10,0:0:0:0:
344,292,133067,1,0,0:0:0:0:
300,276,133142,1,0,0:0:0:0:
252,272,133217,1,0,0:0:0:0:
204,272,133292,6,0,L|128:300,1,48,10|0,0:0|0:0,0:0:0:0:
12,228,133442,2,0,L|72:208,1,48,0|0,0:0|0:0,0:0:0:0:
80,344,133592,6,0,L|64:288,1,48,10|0,0:0|0:0,0:0:0:0:
152,160,133742,2,0,L|144:207,1,48,0|0,0:0|0:0,0:0:0:0:
36,96,133892,5,10,0:0:0:0:
96,48,133967,5,2,0:0:0:0:
168,40,134042,5,2,0:0:0:0:
232,68,134117,5,2,0:0:0:0:
276,116,134192,5,10,0:0:0:0:
328,148,134267,5,2,0:0:0:0:
384,136,134342,5,8,0:0:0:0:
424,100,134417,5,0,0:0:0:0:
432,52,134492,5,4,0:0:0:0:
256,192,134567,12,0,139292,0:0:0:0:
