osu file format v14

[General]
AudioFilename: audio.mp3
AudioLeadIn: 0
PreviewTime: 57617
Countdown: 0
SampleSet: Soft
StackLeniency: 0.2
Mode: 3
LetterboxInBreaks: 0
SpecialStyle: 0
WidescreenStoryboard: 0

[Editor]
DistanceSpacing: 0.7
BeatDivisor: 4
GridSize: 32
TimelineZoom: 3.499999

[Metadata]
Title:LAISSEZ : FAIRE
TitleUnicode:LAISSEZ:FAIRE
Artist:adaptor
ArtistUnicode:adaptor
Creator:AncuL
Version:Relinquish
Source:nanobeat
Tags:blocko Arzenvald ajeemaniz exusagi maxus artcore GLASSY WORLD Glassy:oceaN piano Video Game Instrumental
BeatmapID:1776170
BeatmapSetID:849389

[Difficulty]
HPDrainRate:9.1
CircleSize:7
OverallDifficulty:8.5
ApproachRate:5
SliderMultiplier:1.4
SliderTickRate:1

[Events]
//Background and Video events
0,0,"jordan-grimmer-sketch-22-12.jpg",0,0
//Break Periods
//Storyboard Layer 0 (Background)
//Storyboard Layer 1 (Fail)
//Storyboard Layer 2 (Pass)
//Storyboard Layer 3 (Foreground)
//Storyboard Layer 4 (Overlay)
//Storyboard Sound Samples

[TimingPoints]
92,300,4,2,1,60,1,0
92,-166.666666666667,4,2,1,60,0,0
8492,-163.934426229508,4,2,1,60,0,0
8642,-161.290322580645,4,2,1,60,0,0
8792,-158.730158730159,4,2,1,60,0,0
8942,-156.25,4,2,1,60,0,0
9092,-153.846153846154,4,2,1,60,0,0
9167,-151.515151515152,4,2,1,60,0,0
9242,-149.253731343284,4,2,1,60,0,0
9317,-147.058823529412,4,2,1,60,0,0
9392,-144.927536231884,4,2,1,60,0,0
9467,-142.857142857143,4,2,1,60,0,0
9517,-140.845070422535,4,2,1,60,0,0
9567,-138.888888888889,4,2,1,60,0,0
9617,-136.986301369863,4,2,1,60,0,0
9654,-135.135135135135,4,2,1,60,0,0
9692,-133.333333333333,4,2,1,60,0,0
14492,-125,4,2,1,60,0,0
15542,-123.456790123457,4,2,1,60,0,0
15567,-121.951219512195,4,2,1,60,0,0
15592,-120.481927710843,4,2,1,60,0,0
15617,-119.047619047619,4,2,1,60,0,0
15635,-117.647058823529,4,2,1,60,0,0
15654,-116.279069767442,4,2,1,60,0,0
15673,-113.636363636364,4,2,1,60,0,0
15692,-111.111111111111,4,2,1,60,0,0
16742,-109.89010989011,4,2,1,60,0,0
16767,-108.695652173913,4,2,1,60,0,0
16792,-107.52688172043,4,2,1,60,0,0
16817,-106.382978723404,4,2,1,60,0,0
16835,-105.263157894737,4,2,1,60,0,0
16854,-104.166666666667,4,2,1,60,0,0
16873,-102.040816326531,4,2,1,60,0,0
16892,-100,4,2,1,60,0,0
19292,-117.647058823529,4,2,1,60,0,0
37292,-116.279069767442,4,2,1,60,0,0
37342,-114.942528735632,4,2,1,60,0,0
37392,-113.636363636364,4,2,1,60,0,0
37442,-112.359550561798,4,2,1,60,0,0
37492,-111.111111111111,4,2,1,60,0,0
37542,-109.89010989011,4,2,1,60,0,0
37592,-108.695652173913,4,2,1,60,0,0
37667,-107.52688172043,4,2,1,60,0,0
37742,-106.382978723404,4,2,1,60,0,0
37817,-105.263157894737,4,2,1,60,0,0
37892,-104.166666666667,4,2,1,60,0,0
38042,-103.092783505155,4,2,1,60,0,0
38192,-102.040816326531,4,2,1,60,0,0
38342,-101.010101010101,4,2,1,60,0,0
38492,-100,4,2,1,60,0,0
57692,-142.857142857143,4,2,1,60,0,0
71942,-140.845070422535,4,2,1,60,0,0
71967,-138.888888888889,4,2,1,60,0,0
71992,-136.986301369863,4,2,1,60,0,0
72017,-135.135135135135,4,2,1,60,0,0
72035,-133.333333333333,4,2,1,60,0,0
72054,-131.578947368421,4,2,1,60,0,0
72073,-128.205128205128,4,2,1,60,0,0
72092,-125,4,2,1,60,0,0
73142,-123.457,4,2,1,60,0,0
73167,-121.951,4,2,1,60,0,0
73192,-120.482,4,2,1,60,0,0
73217,-119.048,4,2,1,60,0,0
73235,-117.647,4,2,1,60,0,0
73254,-116.279,4,2,1,60,0,0
73273,-113.636,4,2,1,60,0,0
73292,-111.111,4,2,1,60,0,0
74342,-109.89,4,2,1,60,0,0
74367,-108.696,4,2,1,60,0,0
74392,-107.527,4,2,1,60,0,0
74417,-106.383,4,2,1,60,0,0
74435,-105.263,4,2,1,60,0,0
74454,-104.167,4,2,1,60,0,0
74473,-102.041,4,2,1,60,0,0
74492,-100,4,2,1,60,0,0
76892,-117.647058823529,4,2,1,60,0,0
91142,-116.279069767442,4,2,1,60,0,0
91179,-114.942528735632,4,2,1,60,0,0
91217,-113.636363636364,4,2,1,60,0,0
91254,-112.359550561798,4,2,1,60,0,0
91292,-111.111111111111,4,2,1,60,0,0
92342,-109.89010989011,4,2,1,60,0,0
92379,-108.695652173913,4,2,1,60,0,0
92417,-107.52688172043,4,2,1,60,0,0
92454,-106.382978723404,4,2,1,60,0,0
92492,-105.263157894737,4,2,1,60,0,0
93542,-104.166666666667,4,2,1,60,0,0
93579,-103.092783505155,4,2,1,60,0,0
93617,-102.040816326531,4,2,1,60,0,0
93654,-101.010101010101,4,2,1,60,0,0
93692,-100,4,2,1,60,0,0
95492,-29.4117647058824,4,2,1,60,0,0
95510,-500,4,2,1,60,0,0
95567,-29.4117647058824,4,2,1,60,0,0
95585,-500,4,2,1,60,0,0
95642,-29.4117647058824,4,2,1,60,0,0
95660,-500,4,2,1,60,0,0
95717,-29.4117647058824,4,2,1,60,0,0
95735,-500,4,2,1,60,0,0
95792,-29.4117647058824,4,2,1,60,0,0
95810,-500,4,2,1,60,0,0
95867,-29.4117647058824,4,2,1,60,0,0
95885,-500,4,2,1,60,0,0
95942,-29.4117647058824,4,2,1,60,0,0
95960,-500,4,2,1,60,0,0
96017,-29.4117647058824,4,2,1,60,0,0
96035,-500,4,2,1,60,0,0
96092,-100,4,2,1,60,0,0
115292,-100,4,2,1,60,0,1
134492,-10,4,2,1,60,0,0
134529,-1000,4,2,1,60,0,0

[HitObjects]
402,192,92,5,0,0:0:0:0:
36,192,92,1,0,0:0:0:0:
182,192,92,128,0,542:0:0:0:0:
256,192,542,128,0,932:0:0:0:0:
402,192,932,1,0,0:0:0:0:
475,192,992,128,0,1292:0:0:0:0:
402,192,1292,128,0,1742:0:0:0:0:
329,192,1742,128,0,1817:0:0:0:0:
182,192,1817,128,0,1892:0:0:0:0:
109,192,1892,128,0,2192:0:0:0:0:
256,192,2192,128,0,2492:0:0:0:0:
402,192,2492,128,0,2942:0:0:0:0:
182,192,2942,128,0,3332:0:0:0:0:
256,192,3332,1,0,0:0:0:0:
329,192,3392,128,0,3692:0:0:0:0:
109,192,3692,128,0,4892:0:0:0:0:
36,192,4892,128,0,5342:0:0:0:0:
256,192,5342,128,0,5417:0:0:0:0:
329,192,5417,128,0,5492:0:0:0:0:
402,192,5492,128,0,5792:0:0:0:0:
329,192,5792,128,0,6092:0:0:0:0:
182,192,6092,128,0,6392:0:0:0:0:
329,192,6392,128,0,6542:0:0:0:0:
475,192,6542,128,0,6992:0:0:0:0:
36,192,6992,128,0,7292:0:0:0:0:
182,192,7292,128,0,7832:0:0:0:0:
256,192,7832,1,0,0:0:0:0:
329,192,7892,128,0,8192:0:0:0:0:
402,192,8192,128,0,8492:0:0:0:0:
109,192,8492,128,0,9692:0:0:0:0:
36,192,9692,128,0,10142:0:0:0:0:
256,192,9692,1,0,0:0:0:0:
475,192,9692,1,0,0:0:0:0:
402,192,9842,1,0,0:0:0:0:
329,192,9992,1,0,0:0:0:0:
109,192,10142,128,0,10592:0:0:0:0:
475,192,10142,1,0,0:0:0:0:
402,192,10292,1,0,0:0:0:0:
329,192,10442,1,0,0:0:0:0:
182,192,10592,128,0,10892:0:0:0:0:
475,192,10592,1,0,0:0:0:0:
402,192,10742,1,0,0:0:0:0:
109,192,10892,128,0,11342:0:0:0:0:
329,192,10892,1,0,0:0:0:0:
475,192,11042,1,0,0:0:0:0:
402,192,11192,1,0,0:0:0:0:
329,192,11342,1,0,0:0:0:0:
182,192,11342,1,0,0:0:0:0:
109,192,11417,1,0,0:0:0:0:
402,192,11492,1,0,0:0:0:0:
36,192,11492,128,0,11792:0:0:0:0:
256,192,11642,1,0,0:0:0:0:
402,192,11792,1,0,0:0:0:0:
109,192,11792,128,0,12092:0:0:0:0:
329,192,11942,1,0,0:0:0:0:
402,192,12017,1,0,0:0:0:0:
475,192,12092,128,0,12542:0:0:0:0:
182,192,12092,1,0,0:0:0:0:
109,192,12242,1,0,0:0:0:0:
36,192,12392,1,0,0:0:0:0:
329,192,12542,128,0,12992:0:0:0:0:
182,192,12542,1,0,0:0:0:0:
109,192,12692,1,0,0:0:0:0:
36,192,12842,1,0,0:0:0:0:
475,192,12992,128,0,13292:0:0:0:0:
182,192,12992,1,0,0:0:0:0:
109,192,13142,1,0,0:0:0:0:
402,192,13292,128,0,14492:0:0:0:0:
36,192,13292,1,0,0:0:0:0:
256,192,13442,1,0,0:0:0:0:
182,192,13592,1,0,0:0:0:0:
109,192,13742,1,0,0:0:0:0:
182,192,13892,1,0,0:0:0:0:
109,192,14042,1,0,0:0:0:0:
182,192,14192,1,0,0:0:0:0:
109,192,14267,1,0,0:0:0:0:
256,192,14342,1,0,0:0:0:0:
109,192,14417,1,0,0:0:0:0:
36,192,14492,128,0,14942:0:0:0:0:
475,192,14492,1,0,0:0:0:0:
329,192,14492,1,0,0:0:0:0:
329,192,14792,1,0,0:0:0:0:
109,192,14942,128,0,15017:0:0:0:0:
182,192,15017,128,0,15092:0:0:0:0:
256,192,15092,128,0,15392:0:0:0:0:
475,192,15092,1,0,0:0:0:0:
475,192,15392,1,0,0:0:0:0:
182,192,15392,128,0,15692:0:0:0:0:
329,192,15542,128,0,15692:0:0:0:0:
109,192,15692,128,0,15992:0:0:0:0:
402,192,15692,1,0,0:0:0:0:
36,192,15692,1,0,0:0:0:0:
256,192,15992,128,0,16142:0:0:0:0:
402,192,15992,1,0,0:0:0:0:
475,192,16142,128,0,16592:0:0:0:0:
182,192,16292,1,0,0:0:0:0:
109,192,16592,128,0,16892:0:0:0:0:
182,192,16592,1,0,0:0:0:0:
329,192,16742,128,0,16892:0:0:0:0:
36,192,16892,1,0,0:0:0:0:
402,192,16892,1,0,0:0:0:0:
256,192,16892,128,0,17492:0:0:0:0:
475,192,17192,1,0,0:0:0:0:
402,192,17342,1,0,0:0:0:0:
109,192,17492,1,0,0:0:0:0:
36,192,17492,1,0,0:0:0:0:
402,192,17492,128,0,17792:0:0:0:0:
182,192,17642,1,0,0:0:0:0:
36,192,17792,1,0,0:0:0:0:
256,192,17792,1,0,0:0:0:0:
475,192,17792,128,0,18092:0:0:0:0:
36,192,17942,1,0,0:0:0:0:
329,192,18092,1,0,0:0:0:0:
182,192,18092,1,0,0:0:0:0:
109,192,18092,1,0,0:0:0:0:
402,192,18167,1,0,0:0:0:0:
475,192,18167,1,0,0:0:0:0:
109,192,18242,1,0,0:0:0:0:
256,192,18242,1,0,0:0:0:0:
329,192,18317,1,0,0:0:0:0:
402,192,18317,1,0,0:0:0:0:
182,192,18392,1,0,0:0:0:0:
36,192,18392,1,0,0:0:0:0:
256,192,18467,1,0,0:0:0:0:
329,192,18467,1,0,0:0:0:0:
475,192,18542,1,0,0:0:0:0:
402,192,18542,1,0,0:0:0:0:
256,192,18617,1,0,0:0:0:0:
182,192,18617,1,0,0:0:0:0:
36,192,18692,1,0,0:0:0:0:
402,192,18692,1,0,0:0:0:0:
109,192,18692,1,0,0:0:0:0:
329,192,18767,1,0,0:0:0:0:
182,192,18767,1,0,0:0:0:0:
256,192,18842,1,0,0:0:0:0:
475,192,18842,1,0,0:0:0:0:
402,192,18917,1,0,0:0:0:0:
109,192,18917,1,0,0:0:0:0:
182,192,18992,1,0,0:0:0:0:
329,192,18992,1,0,0:0:0:0:
36,192,18992,1,0,0:0:0:0:
402,192,19067,1,0,0:0:0:0:
475,192,19067,1,0,0:0:0:0:
256,192,19142,1,0,0:0:0:0:
182,192,19142,1,0,0:0:0:0:
109,192,19142,1,0,0:0:0:0:
402,192,19217,1,0,0:0:0:0:
329,192,19217,1,0,0:0:0:0:
256,192,19292,1,0,0:0:0:0:
36,192,19292,1,0,0:0:0:0:
475,192,19292,128,0,19342:0:0:0:0:
109,192,19292,1,0,0:0:0:0:
182,192,19442,1,0,0:0:0:0:
182,192,19592,1,0,0:0:0:0:
402,192,19742,128,0,19792:0:0:0:0:
256,192,19817,1,0,0:0:0:0:
36,192,19892,1,0,0:0:0:0:
475,192,19892,1,0,0:0:0:0:
182,192,19967,1,0,0:0:0:0:
329,192,20042,1,0,0:0:0:0:
256,192,20192,128,0,20242:0:0:0:0:
475,192,20342,1,0,0:0:0:0:
329,192,20417,1,0,0:0:0:0:
182,192,20492,1,0,0:0:0:0:
36,192,20492,1,0,0:0:0:0:
402,192,20642,1,0,0:0:0:0:
402,192,20792,1,0,0:0:0:0:
109,192,20942,1,0,0:0:0:0:
182,192,21017,1,0,0:0:0:0:
329,192,21092,1,0,0:0:0:0:
36,192,21092,1,0,0:0:0:0:
402,192,21167,1,0,0:0:0:0:
256,192,21242,1,0,0:0:0:0:
36,192,21392,128,0,21442:0:0:0:0:
329,192,21542,1,0,0:0:0:0:
256,192,21617,1,0,0:0:0:0:
402,192,21692,1,0,0:0:0:0:
182,192,21692,128,0,21742:0:0:0:0:
475,192,21842,1,0,0:0:0:0:
475,192,21992,1,0,0:0:0:0:
109,192,22142,1,0,0:0:0:0:
256,192,22217,1,0,0:0:0:0:
36,192,22292,1,0,0:0:0:0:
475,192,22292,1,0,0:0:0:0:
402,192,22367,1,0,0:0:0:0:
182,192,22442,1,0,0:0:0:0:
329,192,22592,1,0,0:0:0:0:
256,192,22742,1,0,0:0:0:0:
36,192,22817,1,0,0:0:0:0:
329,192,22892,128,0,22942:0:0:0:0:
475,192,22892,1,0,0:0:0:0:
109,192,23042,1,0,0:0:0:0:
109,192,23192,1,0,0:0:0:0:
182,192,23342,1,0,0:0:0:0:
402,192,23417,1,0,0:0:0:0:
256,192,23492,1,0,0:0:0:0:
109,192,23492,1,0,0:0:0:0:
36,192,23567,1,0,0:0:0:0:
475,192,23642,1,0,0:0:0:0:
182,192,23792,128,0,23842:0:0:0:0:
329,192,23942,128,0,23992:0:0:0:0:
36,192,24017,1,0,0:0:0:0:
475,192,24092,128,0,24142:0:0:0:0:
256,192,24092,1,0,0:0:0:0:
36,192,24242,1,0,0:0:0:0:
36,192,24392,1,0,0:0:0:0:
329,192,24542,128,0,24592:0:0:0:0:
109,192,24617,1,0,0:0:0:0:
475,192,24692,1,0,0:0:0:0:
256,192,24692,1,0,0:0:0:0:
402,192,24767,1,0,0:0:0:0:
36,192,24842,1,0,0:0:0:0:
182,192,24992,128,0,25042:0:0:0:0:
329,192,25142,1,0,0:0:0:0:
109,192,25217,1,0,0:0:0:0:
36,192,25292,1,0,0:0:0:0:
402,192,25292,1,0,0:0:0:0:
475,192,25442,1,0,0:0:0:0:
475,192,25592,1,0,0:0:0:0:
182,192,25742,1,0,0:0:0:0:
36,192,25817,1,0,0:0:0:0:
402,192,25892,1,0,0:0:0:0:
256,192,25892,128,0,25942:0:0:0:0:
109,192,25967,1,0,0:0:0:0:
329,192,26042,1,0,0:0:0:0:
182,192,26192,1,0,0:0:0:0:
402,192,26342,1,0,0:0:0:0:
256,192,26417,1,0,0:0:0:0:
36,192,26492,128,0,26542:0:0:0:0:
475,192,26492,1,0,0:0:0:0:
329,192,26642,1,0,0:0:0:0:
329,192,26792,1,0,0:0:0:0:
109,192,26942,1,0,0:0:0:0:
256,192,27017,1,0,0:0:0:0:
475,192,27092,1,0,0:0:0:0:
36,192,27092,1,0,0:0:0:0:
402,192,27167,1,0,0:0:0:0:
109,192,27242,1,0,0:0:0:0:
329,192,27392,1,0,0:0:0:0:
182,192,27542,1,0,0:0:0:0:
256,192,27692,1,0,0:0:0:0:
475,192,27692,1,0,0:0:0:0:
109,192,27842,1,0,0:0:0:0:
109,192,27992,1,0,0:0:0:0:
182,192,28142,1,0,0:0:0:0:
402,192,28217,1,0,0:0:0:0:
256,192,28292,1,0,0:0:0:0:
36,192,28292,1,0,0:0:0:0:
109,192,28367,1,0,0:0:0:0:
329,192,28442,1,0,0:0:0:0:
475,192,28592,1,0,0:0:0:0:
256,192,28742,1,0,0:0:0:0:
182,192,28817,1,0,0:0:0:0:
475,192,28892,128,0,28942:0:0:0:0:
329,192,28892,1,0,0:0:0:0:
36,192,28892,1,0,0:0:0:0:
256,192,29042,1,0,0:0:0:0:
256,192,29192,1,0,0:0:0:0:
402,192,29342,128,0,29392:0:0:0:0:
182,192,29417,1,0,0:0:0:0:
36,192,29492,1,0,0:0:0:0:
329,192,29492,1,0,0:0:0:0:
475,192,29567,1,0,0:0:0:0:
109,192,29642,1,0,0:0:0:0:
256,192,29792,128,0,29842:0:0:0:0:
402,192,29942,1,0,0:0:0:0:
182,192,30017,1,0,0:0:0:0:
475,192,30092,1,0,0:0:0:0:
36,192,30092,1,0,0:0:0:0:
109,192,30242,1,0,0:0:0:0:
109,192,30392,1,0,0:0:0:0:
329,192,30542,1,0,0:0:0:0:
182,192,30617,1,0,0:0:0:0:
402,192,30692,1,0,0:0:0:0:
475,192,30692,1,0,0:0:0:0:
109,192,30767,1,0,0:0:0:0:
182,192,30842,1,0,0:0:0:0:
36,192,30992,128,0,31042:0:0:0:0:
256,192,31142,1,0,0:0:0:0:
329,192,31217,1,0,0:0:0:0:
182,192,31292,128,0,31342:0:0:0:0:
475,192,31292,1,0,0:0:0:0:
402,192,31442,1,0,0:0:0:0:
402,192,31592,1,0,0:0:0:0:
109,192,31742,1,0,0:0:0:0:
329,192,31817,1,0,0:0:0:0:
182,192,31892,1,0,0:0:0:0:
36,192,31892,1,0,0:0:0:0:
256,192,31967,1,0,0:0:0:0:
475,192,32042,1,0,0:0:0:0:
182,192,32192,1,0,0:0:0:0:
402,192,32342,1,0,0:0:0:0:
256,192,32417,1,0,0:0:0:0:
329,192,32492,128,0,32542:0:0:0:0:
109,192,32492,1,0,0:0:0:0:
402,192,32642,1,0,0:0:0:0:
402,192,32792,1,0,0:0:0:0:
256,192,32942,1,0,0:0:0:0:
182,192,33017,1,0,0:0:0:0:
475,192,33092,1,0,0:0:0:0:
36,192,33092,1,0,0:0:0:0:
329,192,33167,1,0,0:0:0:0:
256,192,33242,1,0,0:0:0:0:
109,192,33392,128,0,33442:0:0:0:0:
256,192,33542,128,0,33592:0:0:0:0:
36,192,33617,1,0,0:0:0:0:
402,192,33692,128,0,33742:0:0:0:0:
182,192,33692,1,0,0:0:0:0:
329,192,33842,1,0,0:0:0:0:
329,192,33992,1,0,0:0:0:0:
182,192,34142,128,0,34192:0:0:0:0:
402,192,34217,1,0,0:0:0:0:
36,192,34292,1,0,0:0:0:0:
475,192,34292,1,0,0:0:0:0:
256,192,34367,1,0,0:0:0:0:
109,192,34442,1,0,0:0:0:0:
475,192,34592,128,0,34642:0:0:0:0:
329,192,34742,1,0,0:0:0:0:
182,192,34817,1,0,0:0:0:0:
402,192,34892,1,0,0:0:0:0:
36,192,34892,1,0,0:0:0:0:
256,192,35042,1,0,0:0:0:0:
256,192,35192,1,0,0:0:0:0:
475,192,35342,1,0,0:0:0:0:
36,192,35417,1,0,0:0:0:0:
109,192,35492,128,0,35542:0:0:0:0:
329,192,35492,1,0,0:0:0:0:
256,192,35567,1,0,0:0:0:0:
182,192,35642,1,0,0:0:0:0:
402,192,35792,128,0,35842:0:0:0:0:
36,192,35942,1,0,0:0:0:0:
475,192,36017,1,0,0:0:0:0:
182,192,36092,128,0,36142:0:0:0:0:
329,192,36092,1,0,0:0:0:0:
109,192,36242,1,0,0:0:0:0:
109,192,36392,1,0,0:0:0:0:
256,192,36542,1,0,0:0:0:0:
402,192,36617,1,0,0:0:0:0:
475,192,36692,1,0,0:0:0:0:
182,192,36692,1,0,0:0:0:0:
329,192,36767,1,0,0:0:0:0:
109,192,36842,1,0,0:0:0:0:
402,192,36992,1,0,0:0:0:0:
182,192,37142,1,0,0:0:0:0:
329,192,37217,1,0,0:0:0:0:
36,192,37292,1,0,0:0:0:0:
475,192,37292,1,0,0:0:0:0:
109,192,37292,1,0,0:0:0:0:
402,192,37367,5,0,0:0:0:0:
256,192,37442,1,0,0:0:0:0:
329,192,37517,1,0,0:0:0:0:
475,192,37592,1,0,0:0:0:0:
109,192,37592,1,0,0:0:0:0:
182,192,37667,1,0,0:0:0:0:
402,192,37742,1,0,0:0:0:0:
256,192,37817,1,0,0:0:0:0:
329,192,37892,128,0,38492:0:0:0:0:
36,192,37892,1,0,0:0:0:0:
475,192,37892,1,0,0:0:0:0:
109,192,38042,128,0,38267:0:0:0:0:
182,192,38117,128,0,38192:0:0:0:0:
402,192,38192,1,0,0:0:0:0:
256,192,38192,128,0,38342:0:0:0:0:
182,192,38267,128,0,38417:0:0:0:0:
109,192,38342,128,0,38417:0:0:0:0:
256,192,38417,128,0,38492:0:0:0:0:
109,192,38492,5,0,0:0:0:0:
475,192,38492,1,0,0:0:0:0:
36,192,38492,128,0,38792:0:0:0:0:
402,192,38492,1,0,0:0:0:0:
402,192,38642,1,0,0:0:0:0:
329,192,38792,1,0,0:0:0:0:
182,192,38792,1,0,0:0:0:0:
475,192,38792,128,0,39242:0:0:0:0:
109,192,38942,128,0,39242:0:0:0:0:
256,192,38942,1,0,0:0:0:0:
329,192,39017,1,0,0:0:0:0:
182,192,39092,1,0,0:0:0:0:
402,192,39167,1,0,0:0:0:0:
329,192,39242,1,0,0:0:0:0:
256,192,39242,128,0,39317:0:0:0:0:
36,192,39242,128,0,39467:0:0:0:0:
402,192,39392,1,0,0:0:0:0:
182,192,39392,1,0,0:0:0:0:
256,192,39392,1,0,0:0:0:0:
329,192,39542,128,0,39617:0:0:0:0:
109,192,39542,128,0,39767:0:0:0:0:
329,192,39692,1,0,0:0:0:0:
256,192,39692,1,0,0:0:0:0:
475,192,39692,1,0,0:0:0:0:
182,192,39842,128,0,40067:0:0:0:0:
402,192,39842,128,0,39917:0:0:0:0:
402,192,39992,1,0,0:0:0:0:
36,192,39992,1,0,0:0:0:0:
329,192,39992,1,0,0:0:0:0:
182,192,40142,1,0,0:0:0:0:
475,192,40142,1,0,0:0:0:0:
329,192,40217,128,0,40292:0:0:0:0:
256,192,40292,128,0,40367:0:0:0:0:
329,192,40367,128,0,40442:0:0:0:0:
109,192,40442,1,0,0:0:0:0:
182,192,40442,1,0,0:0:0:0:
402,192,40442,128,0,40517:0:0:0:0:
329,192,40517,128,0,40592:0:0:0:0:
475,192,40592,1,0,0:0:0:0:
36,192,40592,1,0,0:0:0:0:
182,192,40592,128,0,40667:0:0:0:0:
329,192,40742,128,0,40817:0:0:0:0:
256,192,40742,1,0,0:0:0:0:
109,192,40817,1,0,0:0:0:0:
475,192,40892,128,0,41192:0:0:0:0:
182,192,40892,1,0,0:0:0:0:
329,192,40892,1,0,0:0:0:0:
182,192,41042,1,0,0:0:0:0:
402,192,41192,128,0,41642:0:0:0:0:
256,192,41192,1,0,0:0:0:0:
36,192,41192,1,0,0:0:0:0:
109,192,41342,1,0,0:0:0:0:
256,192,41342,128,0,41642:0:0:0:0:
329,192,41417,1,0,0:0:0:0:
36,192,41492,1,0,0:0:0:0:
109,192,41567,1,0,0:0:0:0:
182,192,41642,128,0,41717:0:0:0:0:
475,192,41642,128,0,41867:0:0:0:0:
329,192,41642,1,0,0:0:0:0:
36,192,41792,1,0,0:0:0:0:
182,192,41792,1,0,0:0:0:0:
256,192,41792,1,0,0:0:0:0:
402,192,41942,128,0,42167:0:0:0:0:
109,192,41942,128,0,42017:0:0:0:0:
475,192,42092,1,0,0:0:0:0:
182,192,42092,1,0,0:0:0:0:
109,192,42092,1,0,0:0:0:0:
329,192,42242,128,0,42467:0:0:0:0:
36,192,42242,128,0,42317:0:0:0:0:
36,192,42392,1,0,0:0:0:0:
402,192,42392,1,0,0:0:0:0:
109,192,42392,1,0,0:0:0:0:
475,192,42542,1,0,0:0:0:0:
182,192,42542,128,0,42617:0:0:0:0:
256,192,42617,128,0,42692:0:0:0:0:
109,192,42692,1,0,0:0:0:0:
329,192,42692,128,0,42767:0:0:0:0:
182,192,42842,1,0,0:0:0:0:
36,192,42842,1,0,0:0:0:0:
329,192,42842,128,0,42917:0:0:0:0:
402,192,42917,128,0,42992:0:0:0:0:
475,192,42992,128,0,43067:0:0:0:0:
36,192,42992,1,0,0:0:0:0:
256,192,42992,1,0,0:0:0:0:
402,192,43067,128,0,43142:0:0:0:0:
329,192,43142,1,0,0:0:0:0:
182,192,43142,128,0,43217:0:0:0:0:
109,192,43217,128,0,43292:0:0:0:0:
475,192,43292,1,0,0:0:0:0:
256,192,43292,128,0,43592:0:0:0:0:
36,192,43292,128,0,43517:0:0:0:0:
402,192,43442,1,0,0:0:0:0:
329,192,43592,1,0,0:0:0:0:
475,192,43592,1,0,0:0:0:0:
36,192,43592,1,0,0:0:0:0:
256,192,43742,128,0,43967:0:0:0:0:
402,192,43742,1,0,0:0:0:0:
36,192,43742,128,0,44042:0:0:0:0:
329,192,43817,1,0,0:0:0:0:
109,192,43892,1,0,0:0:0:0:
182,192,43967,1,0,0:0:0:0:
329,192,44042,1,0,0:0:0:0:
402,192,44042,1,0,0:0:0:0:
256,192,44042,1,0,0:0:0:0:
402,192,44192,128,0,44492:0:0:0:0:
182,192,44192,128,0,44492:0:0:0:0:
36,192,44192,1,0,0:0:0:0:
329,192,44267,1,0,0:0:0:0:
109,192,44342,1,0,0:0:0:0:
256,192,44417,1,0,0:0:0:0:
36,192,44492,1,0,0:0:0:0:
475,192,44492,1,0,0:0:0:0:
329,192,44492,1,0,0:0:0:0:
329,192,44642,1,0,0:0:0:0:
256,192,44792,1,0,0:0:0:0:
109,192,44792,1,0,0:0:0:0:
475,192,44792,1,0,0:0:0:0:
329,192,44942,1,0,0:0:0:0:
109,192,44942,1,0,0:0:0:0:
182,192,45017,1,0,0:0:0:0:
402,192,45092,1,0,0:0:0:0:
256,192,45092,1,0,0:0:0:0:
36,192,45167,1,0,0:0:0:0:
329,192,45242,1,0,0:0:0:0:
475,192,45242,1,0,0:0:0:0:
109,192,45242,1,0,0:0:0:0:
402,192,45392,1,0,0:0:0:0:
182,192,45392,1,0,0:0:0:0:
329,192,45392,1,0,0:0:0:0:
475,192,45542,1,0,0:0:0:0:
182,192,45542,1,0,0:0:0:0:
256,192,45617,1,0,0:0:0:0:
36,192,45692,1,0,0:0:0:0:
109,192,45692,1,0,0:0:0:0:
329,192,45692,1,0,0:0:0:0:
182,192,45842,1,0,0:0:0:0:
475,192,45992,1,0,0:0:0:0:
256,192,45992,1,0,0:0:0:0:
109,192,45992,1,0,0:0:0:0:
329,192,46142,1,0,0:0:0:0:
402,192,46142,1,0,0:0:0:0:
109,192,46217,1,0,0:0:0:0:
329,192,46292,1,0,0:0:0:0:
36,192,46367,1,0,0:0:0:0:
256,192,46442,1,0,0:0:0:0:
475,192,46442,1,0,0:0:0:0:
182,192,46442,1,0,0:0:0:0:
329,192,46592,1,0,0:0:0:0:
36,192,46592,1,0,0:0:0:0:
475,192,46592,1,0,0:0:0:0:
402,192,46742,1,0,0:0:0:0:
109,192,46742,1,0,0:0:0:0:
329,192,46817,1,0,0:0:0:0:
109,192,46892,1,0,0:0:0:0:
475,192,46892,1,0,0:0:0:0:
256,192,46892,1,0,0:0:0:0:
329,192,47042,1,0,0:0:0:0:
402,192,47192,1,0,0:0:0:0:
256,192,47192,1,0,0:0:0:0:
182,192,47192,1,0,0:0:0:0:
109,192,47342,1,0,0:0:0:0:
256,192,47342,1,0,0:0:0:0:
36,192,47417,1,0,0:0:0:0:
402,192,47492,1,0,0:0:0:0:
182,192,47567,1,0,0:0:0:0:
475,192,47642,1,0,0:0:0:0:
256,192,47642,1,0,0:0:0:0:
329,192,47642,1,0,0:0:0:0:
36,192,47792,1,0,0:0:0:0:
402,192,47792,1,0,0:0:0:0:
109,192,47792,1,0,0:0:0:0:
256,192,47867,1,0,0:0:0:0:
329,192,47942,1,0,0:0:0:0:
36,192,47942,1,0,0:0:0:0:
475,192,48017,1,0,0:0:0:0:
256,192,48092,1,0,0:0:0:0:
109,192,48092,128,0,48392:0:0:0:0:
402,192,48092,1,0,0:0:0:0:
256,192,48242,1,0,0:0:0:0:
402,192,48392,128,0,48842:0:0:0:0:
182,192,48392,1,0,0:0:0:0:
475,192,48392,1,0,0:0:0:0:
329,192,48542,1,0,0:0:0:0:
36,192,48542,128,0,48842:0:0:0:0:
475,192,48617,1,0,0:0:0:0:
182,192,48692,1,0,0:0:0:0:
256,192,48767,1,0,0:0:0:0:
329,192,48842,128,0,48917:0:0:0:0:
109,192,48842,128,0,49067:0:0:0:0:
475,192,48992,1,0,0:0:0:0:
329,192,48992,1,0,0:0:0:0:
256,192,48992,1,0,0:0:0:0:
402,192,49142,128,0,49217:0:0:0:0:
182,192,49142,128,0,49367:0:0:0:0:
402,192,49292,1,0,0:0:0:0:
329,192,49292,1,0,0:0:0:0:
36,192,49292,1,0,0:0:0:0:
256,192,49442,128,0,49667:0:0:0:0:
475,192,49442,128,0,49517:0:0:0:0:
109,192,49592,1,0,0:0:0:0:
402,192,49592,1,0,0:0:0:0:
475,192,49592,1,0,0:0:0:0:
36,192,49742,1,0,0:0:0:0:
182,192,49742,128,0,49817:0:0:0:0:
256,192,49817,128,0,49892:0:0:0:0:
475,192,49892,1,0,0:0:0:0:
329,192,49892,128,0,49967:0:0:0:0:
182,192,49967,128,0,50117:0:0:0:0:
36,192,50042,1,0,0:0:0:0:
329,192,50042,128,0,50117:0:0:0:0:
256,192,50042,1,0,0:0:0:0:
402,192,50117,128,0,50192:0:0:0:0:
109,192,50192,1,0,0:0:0:0:
475,192,50192,128,0,50417:0:0:0:0:
182,192,50192,128,0,50267:0:0:0:0:
402,192,50267,128,0,50417:0:0:0:0:
256,192,50342,128,0,50417:0:0:0:0:
109,192,50417,128,0,50492:0:0:0:0:
182,192,50492,1,0,0:0:0:0:
256,192,50492,128,0,51092:0:0:0:0:
475,192,50492,128,0,50792:0:0:0:0:
182,192,50642,1,0,0:0:0:0:
36,192,50792,128,0,50942:0:0:0:0:
402,192,50792,1,0,0:0:0:0:
329,192,50792,1,0,0:0:0:0:
402,192,50942,128,0,51242:0:0:0:0:
109,192,50942,1,0,0:0:0:0:
475,192,51017,1,0,0:0:0:0:
182,192,51092,1,0,0:0:0:0:
256,192,51167,1,0,0:0:0:0:
36,192,51242,1,0,0:0:0:0:
329,192,51242,128,0,51317:0:0:0:0:
109,192,51242,128,0,51467:0:0:0:0:
475,192,51392,1,0,0:0:0:0:
329,192,51392,1,0,0:0:0:0:
182,192,51392,1,0,0:0:0:0:
256,192,51542,128,0,51617:0:0:0:0:
402,192,51542,128,0,51767:0:0:0:0:
256,192,51692,1,0,0:0:0:0:
109,192,51692,1,0,0:0:0:0:
475,192,51692,1,0,0:0:0:0:
329,192,51842,128,0,52067:0:0:0:0:
182,192,51842,128,0,51917:0:0:0:0:
182,192,51992,1,0,0:0:0:0:
36,192,51992,1,0,0:0:0:0:
402,192,51992,1,0,0:0:0:0:
109,192,52142,128,0,52217:0:0:0:0:
256,192,52142,128,0,52367:0:0:0:0:
329,192,52217,1,0,0:0:0:0:
109,192,52292,1,0,0:0:0:0:
475,192,52292,1,0,0:0:0:0:
402,192,52367,1,0,0:0:0:0:
182,192,52442,128,0,52667:0:0:0:0:
329,192,52442,128,0,52517:0:0:0:0:
36,192,52442,1,0,0:0:0:0:
475,192,52592,1,0,0:0:0:0:
109,192,52592,1,0,0:0:0:0:
329,192,52592,1,0,0:0:0:0:
256,192,52742,1,0,0:0:0:0:
36,192,52742,128,0,52817:0:0:0:0:
109,192,52817,128,0,52892:0:0:0:0:
402,192,52892,1,0,0:0:0:0:
182,192,52892,128,0,52967:0:0:0:0:
329,192,52892,1,0,0:0:0:0:
256,192,52967,128,0,53042:0:0:0:0:
182,192,53042,128,0,53117:0:0:0:0:
329,192,53117,128,0,53192:0:0:0:0:
402,192,53192,128,0,53267:0:0:0:0:
36,192,53192,1,0,0:0:0:0:
475,192,53192,128,0,53267:0:0:0:0:
36,192,53342,1,0,0:0:0:0:
109,192,53342,128,0,53492:0:0:0:0:
256,192,53417,128,0,53642:0:0:0:0:
402,192,53492,128,0,53567:0:0:0:0:
109,192,53567,128,0,53642:0:0:0:0:
475,192,53642,1,0,0:0:0:0:
182,192,53642,128,0,53717:0:0:0:0:
402,192,53642,128,0,53717:0:0:0:0:
329,192,53792,128,0,53867:0:0:0:0:
182,192,53792,128,0,53867:0:0:0:0:
256,192,53792,1,0,0:0:0:0:
109,192,53867,128,0,53942:0:0:0:0:
475,192,53867,128,0,53942:0:0:0:0:
402,192,53942,128,0,54017:0:0:0:0:
36,192,53942,128,0,54017:0:0:0:0:
329,192,54017,128,0,54092:0:0:0:0:
182,192,54017,128,0,54092:0:0:0:0:
36,192,54092,1,0,0:0:0:0:
475,192,54092,1,0,0:0:0:0:
109,192,54092,128,0,54317:0:0:0:0:
256,192,54167,128,0,54317:0:0:0:0:
402,192,54242,128,0,54317:0:0:0:0:
475,192,54317,128,0,54392:0:0:0:0:
109,192,54392,128,0,54467:0:0:0:0:
329,192,54392,128,0,54467:0:0:0:0:
256,192,54392,1,0,0:0:0:0:
182,192,54467,128,0,54617:0:0:0:0:
475,192,54467,128,0,54617:0:0:0:0:
36,192,54542,128,0,54617:0:0:0:0:
402,192,54542,128,0,54617:0:0:0:0:
329,192,54692,128,0,54767:0:0:0:0:
36,192,54692,128,0,55067:0:0:0:0:
109,192,54767,128,0,54917:0:0:0:0:
402,192,54767,128,0,54842:0:0:0:0:
256,192,54842,1,0,0:0:0:0:
182,192,54842,128,0,54917:0:0:0:0:
475,192,54842,128,0,54917:0:0:0:0:
329,192,54917,128,0,54992:0:0:0:0:
475,192,54992,1,0,0:0:0:0:
256,192,54992,128,0,55067:0:0:0:0:
109,192,54992,1,0,0:0:0:0:
182,192,55067,128,0,55142:0:0:0:0:
402,192,55067,1,0,0:0:0:0:
109,192,55142,128,0,55217:0:0:0:0:
329,192,55142,1,0,0:0:0:0:
256,192,55217,1,0,0:0:0:0:
36,192,55217,128,0,55292:0:0:0:0:
402,192,55292,1,0,0:0:0:0:
475,192,55292,128,0,55742:0:0:0:0:
182,192,55292,128,0,55592:0:0:0:0:
402,192,55442,1,0,0:0:0:0:
256,192,55592,128,0,55742:0:0:0:0:
109,192,55592,1,0,0:0:0:0:
36,192,55592,1,0,0:0:0:0:
109,192,55742,128,0,55967:0:0:0:0:
329,192,55742,128,0,55817:0:0:0:0:
182,192,55817,1,0,0:0:0:0:
329,192,55892,1,0,0:0:0:0:
402,192,55967,1,0,0:0:0:0:
329,192,56042,128,0,56267:0:0:0:0:
109,192,56042,128,0,56117:0:0:0:0:
256,192,56042,1,0,0:0:0:0:
36,192,56192,1,0,0:0:0:0:
475,192,56192,1,0,0:0:0:0:
109,192,56192,1,0,0:0:0:0:
475,192,56342,128,0,56717:0:0:0:0:
182,192,56342,128,0,56417:0:0:0:0:
36,192,56417,1,0,0:0:0:0:
109,192,56417,1,0,0:0:0:0:
402,192,56492,1,0,0:0:0:0:
182,192,56492,1,0,0:0:0:0:
329,192,56492,1,0,0:0:0:0:
109,192,56567,1,0,0:0:0:0:
329,192,56642,1,0,0:0:0:0:
256,192,56642,1,0,0:0:0:0:
36,192,56642,1,0,0:0:0:0:
256,192,56792,1,0,0:0:0:0:
475,192,56792,1,0,0:0:0:0:
182,192,56792,1,0,0:0:0:0:
329,192,56942,1,0,0:0:0:0:
475,192,56942,1,0,0:0:0:0:
256,192,57017,1,0,0:0:0:0:
402,192,57017,1,0,0:0:0:0:
329,192,57092,1,0,0:0:0:0:
182,192,57092,1,0,0:0:0:0:
109,192,57092,1,0,0:0:0:0:
402,192,57167,1,0,0:0:0:0:
182,192,57242,1,0,0:0:0:0:
256,192,57242,1,0,0:0:0:0:
475,192,57242,1,0,0:0:0:0:
256,192,57392,1,0,0:0:0:0:
329,192,57392,1,0,0:0:0:0:
36,192,57392,1,0,0:0:0:0:
109,192,57467,1,0,0:0:0:0:
402,192,57542,1,0,0:0:0:0:
475,192,57542,1,0,0:0:0:0:
182,192,57542,1,0,0:0:0:0:
256,192,57617,1,0,0:0:0:0:
36,192,57617,1,0,0:0:0:0:
109,192,57617,1,0,0:0:0:0:
402,192,57692,1,0,0:0:0:0:
182,192,57692,1,0,0:0:0:0:
475,192,57692,1,0,0:0:0:0:
329,192,57692,128,0,57842:0:0:0:0:
109,192,57842,128,0,57992:0:0:0:0:
256,192,58142,128,0,58292:0:0:0:0:
182,192,58292,1,0,0:0:0:0:
36,192,58292,1,0,0:0:0:0:
402,192,58442,128,0,58667:0:0:0:0:
402,192,58742,128,0,59492:0:0:0:0:
109,192,59042,1,0,0:0:0:0:
182,192,59042,1,0,0:0:0:0:
109,192,59192,1,0,0:0:0:0:
182,192,59192,1,0,0:0:0:0:
256,192,59492,1,0,0:0:0:0:
36,192,59492,1,0,0:0:0:0:
109,192,59792,128,0,59942:0:0:0:0:
182,192,59942,128,0,60092:0:0:0:0:
402,192,60092,128,0,60242:0:0:0:0:
475,192,60092,1,0,0:0:0:0:
256,192,60242,128,0,60392:0:0:0:0:
329,192,60542,128,0,60692:0:0:0:0:
182,192,60692,1,0,0:0:0:0:
36,192,60692,1,0,0:0:0:0:
402,192,60842,128,0,60992:0:0:0:0:
182,192,60992,1,0,0:0:0:0:
256,192,60992,1,0,0:0:0:0:
475,192,61142,128,0,61292:0:0:0:0:
329,192,61442,128,0,61592:0:0:0:0:
109,192,61592,1,0,0:0:0:0:
182,192,61592,1,0,0:0:0:0:
256,192,61742,128,0,62192:0:0:0:0:
329,192,61892,1,0,0:0:0:0:
475,192,61892,1,0,0:0:0:0:
182,192,62192,128,0,62342:0:0:0:0:
182,192,62492,128,0,62942:0:0:0:0:
475,192,62492,1,0,0:0:0:0:
402,192,62792,1,0,0:0:0:0:
329,192,62942,128,0,63392:0:0:0:0:
182,192,63092,1,0,0:0:0:0:
36,192,63092,1,0,0:0:0:0:
109,192,63392,128,0,63842:0:0:0:0:
256,192,63842,128,0,64292:0:0:0:0:
402,192,63842,1,0,0:0:0:0:
402,192,63992,1,0,0:0:0:0:
475,192,63992,1,0,0:0:0:0:
36,192,64292,128,0,64592:0:0:0:0:
329,192,64292,1,0,0:0:0:0:
182,192,64592,128,0,64892:0:0:0:0:
329,192,64892,1,0,0:0:0:0:
402,192,64892,1,0,0:0:0:0:
329,192,65492,1,0,0:0:0:0:
475,192,65492,1,0,0:0:0:0:
109,192,65792,1,0,0:0:0:0:
182,192,65792,1,0,0:0:0:0:
402,192,66092,1,0,0:0:0:0:
109,192,66392,1,0,0:0:0:0:
182,192,66392,1,0,0:0:0:0:
329,192,66692,1,0,0:0:0:0:
475,192,66692,1,0,0:0:0:0:
36,192,66992,128,0,67142:0:0:0:0:
329,192,67292,128,0,67442:0:0:0:0:
475,192,67292,1,0,0:0:0:0:
36,192,67292,1,0,0:0:0:0:
182,192,67442,128,0,67592:0:0:0:0:
256,192,67742,128,0,67892:0:0:0:0:
182,192,67892,1,0,0:0:0:0:
36,192,67892,1,0,0:0:0:0:
402,192,68042,128,0,68267:0:0:0:0:
402,192,68342,128,0,69092:0:0:0:0:
109,192,68642,1,0,0:0:0:0:
182,192,68642,1,0,0:0:0:0:
109,192,68792,1,0,0:0:0:0:
182,192,68792,1,0,0:0:0:0:
256,192,69092,1,0,0:0:0:0:
109,192,69092,1,0,0:0:0:0:
36,192,69392,128,0,69542:0:0:0:0:
109,192,69542,128,0,69692:0:0:0:0:
256,192,69692,128,0,69842:0:0:0:0:
329,192,69692,1,0,0:0:0:0:
182,192,69842,128,0,69992:0:0:0:0:
256,192,70142,128,0,70292:0:0:0:0:
475,192,70292,1,0,0:0:0:0:
109,192,70292,1,0,0:0:0:0:
329,192,70442,128,0,70592:0:0:0:0:
36,192,70592,1,0,0:0:0:0:
109,192,70592,1,0,0:0:0:0:
402,192,70742,128,0,70892:0:0:0:0:
329,192,71042,128,0,71192:0:0:0:0:
109,192,71192,1,0,0:0:0:0:
36,192,71192,1,0,0:0:0:0:
402,192,71342,128,0,71492:0:0:0:0:
256,192,71492,1,0,0:0:0:0:
109,192,71492,1,0,0:0:0:0:
182,192,71792,128,0,71942:0:0:0:0:
475,192,71942,128,0,72092:0:0:0:0:
182,192,72092,128,0,72542:0:0:0:0:
329,192,72092,1,0,0:0:0:0:
36,192,72092,1,0,0:0:0:0:
475,192,72392,1,0,0:0:0:0:
402,192,72542,128,0,72992:0:0:0:0:
256,192,72692,1,0,0:0:0:0:
36,192,72692,1,0,0:0:0:0:
109,192,72992,128,0,73442:0:0:0:0:
256,192,73142,128,0,73292:0:0:0:0:
402,192,73292,1,0,0:0:0:0:
475,192,73292,1,0,0:0:0:0:
36,192,73292,1,0,0:0:0:0:
329,192,73442,128,0,73892:0:0:0:0:
182,192,73442,1,0,0:0:0:0:
182,192,73592,1,0,0:0:0:0:
36,192,73892,128,0,74192:0:0:0:0:
475,192,73892,1,0,0:0:0:0:
256,192,74192,128,0,75092:0:0:0:0:
402,192,74342,128,0,74492:0:0:0:0:
109,192,74492,1,0,0:0:0:0:
36,192,74492,1,0,0:0:0:0:
475,192,74492,1,0,0:0:0:0:
402,192,74792,5,0,0:0:0:0:
402,192,74942,1,0,0:0:0:0:
36,192,75092,1,0,0:0:0:0:
109,192,75092,1,0,0:0:0:0:
329,192,75092,1,0,0:0:0:0:
182,192,75242,1,0,0:0:0:0:
402,192,75392,1,0,0:0:0:0:
475,192,75392,1,0,0:0:0:0:
256,192,75392,1,0,0:0:0:0:
109,192,75542,1,0,0:0:0:0:
182,192,75692,5,0,0:0:0:0:
475,192,75692,1,0,0:0:0:0:
36,192,75692,1,0,0:0:0:0:
329,192,75767,1,0,0:0:0:0:
402,192,75767,1,0,0:0:0:0:
182,192,75842,1,0,0:0:0:0:
109,192,75842,1,0,0:0:0:0:
256,192,75917,1,0,0:0:0:0:
402,192,75917,1,0,0:0:0:0:
475,192,75992,1,0,0:0:0:0:
36,192,75992,1,0,0:0:0:0:
109,192,76067,1,0,0:0:0:0:
329,192,76067,1,0,0:0:0:0:
256,192,76142,1,0,0:0:0:0:
475,192,76142,1,0,0:0:0:0:
182,192,76217,1,0,0:0:0:0:
402,192,76217,1,0,0:0:0:0:
109,192,76292,1,0,0:0:0:0:
36,192,76292,1,0,0:0:0:0:
329,192,76292,1,0,0:0:0:0:
475,192,76367,1,0,0:0:0:0:
402,192,76367,1,0,0:0:0:0:
256,192,76442,1,0,0:0:0:0:
109,192,76442,1,0,0:0:0:0:
402,192,76517,1,0,0:0:0:0:
36,192,76517,1,0,0:0:0:0:
329,192,76592,1,0,0:0:0:0:
475,192,76592,1,0,0:0:0:0:
182,192,76592,1,0,0:0:0:0:
36,192,76667,1,0,0:0:0:0:
256,192,76667,1,0,0:0:0:0:
402,192,76742,1,0,0:0:0:0:
109,192,76742,1,0,0:0:0:0:
182,192,76742,1,0,0:0:0:0:
256,192,76817,1,0,0:0:0:0:
329,192,76817,1,0,0:0:0:0:
475,192,76892,1,0,0:0:0:0:
109,192,76892,1,0,0:0:0:0:
402,192,76892,128,0,77042:0:0:0:0:
36,192,76892,1,0,0:0:0:0:
182,192,77042,1,0,0:0:0:0:
329,192,77192,128,0,77342:0:0:0:0:
109,192,77342,128,0,77492:0:0:0:0:
256,192,77417,1,0,0:0:0:0:
402,192,77492,1,0,0:0:0:0:
475,192,77492,1,0,0:0:0:0:
182,192,77567,1,0,0:0:0:0:
36,192,77642,128,0,77792:0:0:0:0:
329,192,77792,1,0,0:0:0:0:
109,192,77942,128,0,78692:0:0:0:0:
256,192,78017,1,0,0:0:0:0:
402,192,78092,128,0,78142:0:0:0:0:
182,192,78242,1,0,0:0:0:0:
182,192,78392,1,0,0:0:0:0:
256,192,78542,1,0,0:0:0:0:
329,192,78617,1,0,0:0:0:0:
475,192,78692,1,0,0:0:0:0:
36,192,78692,1,0,0:0:0:0:
329,192,78767,1,0,0:0:0:0:
182,192,78842,1,0,0:0:0:0:
109,192,78992,128,0,79142:0:0:0:0:
256,192,79142,128,0,79292:0:0:0:0:
475,192,79217,1,0,0:0:0:0:
402,192,79292,128,0,79442:0:0:0:0:
36,192,79292,128,0,79342:0:0:0:0:
182,192,79442,1,0,0:0:0:0:
329,192,79592,128,0,79742:0:0:0:0:
256,192,79742,128,0,79892:0:0:0:0:
402,192,79817,1,0,0:0:0:0:
475,192,79892,1,0,0:0:0:0:
36,192,79892,1,0,0:0:0:0:
329,192,79967,1,0,0:0:0:0:
109,192,80042,128,0,80192:0:0:0:0:
256,192,80192,1,0,0:0:0:0:
402,192,80342,1,0,0:0:0:0:
36,192,80342,128,0,80492:0:0:0:0:
329,192,80417,1,0,0:0:0:0:
256,192,80492,128,0,80542:0:0:0:0:
109,192,80492,1,0,0:0:0:0:
475,192,80642,128,0,80792:0:0:0:0:
182,192,80792,1,0,0:0:0:0:
329,192,80942,128,0,81092:0:0:0:0:
109,192,81017,1,0,0:0:0:0:
475,192,81092,1,0,0:0:0:0:
36,192,81092,1,0,0:0:0:0:
182,192,81167,1,0,0:0:0:0:
256,192,81242,128,0,81392:0:0:0:0:
402,192,81392,1,0,0:0:0:0:
109,192,81542,128,0,81692:0:0:0:0:
256,192,81617,1,0,0:0:0:0:
36,192,81692,128,0,81742:0:0:0:0:
329,192,81692,128,0,81842:0:0:0:0:
182,192,81842,1,0,0:0:0:0:
402,192,81992,128,0,82142:0:0:0:0:
329,192,82142,128,0,82292:0:0:0:0:
182,192,82142,1,0,0:0:0:0:
109,192,82217,1,0,0:0:0:0:
36,192,82292,1,0,0:0:0:0:
402,192,82292,1,0,0:0:0:0:
256,192,82367,1,0,0:0:0:0:
182,192,82442,128,0,82592:0:0:0:0:
329,192,82592,1,0,0:0:0:0:
36,192,82742,128,0,83492:0:0:0:0:
256,192,82817,1,0,0:0:0:0:
402,192,82892,128,0,82942:0:0:0:0:
182,192,82892,1,0,0:0:0:0:
329,192,83042,1,0,0:0:0:0:
329,192,83192,1,0,0:0:0:0:
256,192,83342,1,0,0:0:0:0:
402,192,83417,1,0,0:0:0:0:
475,192,83492,1,0,0:0:0:0:
109,192,83492,1,0,0:0:0:0:
329,192,83567,1,0,0:0:0:0:
182,192,83642,1,0,0:0:0:0:
329,192,83792,1,0,0:0:0:0:
36,192,83942,1,0,0:0:0:0:
182,192,84017,1,0,0:0:0:0:
402,192,84092,128,0,84142:0:0:0:0:
256,192,84092,1,0,0:0:0:0:
109,192,84242,1,0,0:0:0:0:
109,192,84392,1,0,0:0:0:0:
329,192,84542,1,0,0:0:0:0:
182,192,84617,1,0,0:0:0:0:
256,192,84692,1,0,0:0:0:0:
475,192,84692,1,0,0:0:0:0:
109,192,84767,1,0,0:0:0:0:
36,192,84842,1,0,0:0:0:0:
329,192,84992,1,0,0:0:0:0:
109,192,85142,1,0,0:0:0:0:
256,192,85217,1,0,0:0:0:0:
402,192,85292,128,0,85342:0:0:0:0:
182,192,85292,1,0,0:0:0:0:
475,192,85442,1,0,0:0:0:0:
475,192,85592,1,0,0:0:0:0:
256,192,85742,1,0,0:0:0:0:
109,192,85817,1,0,0:0:0:0:
402,192,85892,1,0,0:0:0:0:
182,192,85892,1,0,0:0:0:0:
475,192,85967,1,0,0:0:0:0:
329,192,86042,1,0,0:0:0:0:
256,192,86192,1,0,0:0:0:0:
36,192,86192,1,0,0:0:0:0:
182,192,86342,1,0,0:0:0:0:
329,192,86417,1,0,0:0:0:0:
402,192,86492,128,0,86642:0:0:0:0:
36,192,86492,128,0,86542:0:0:0:0:
475,192,86492,1,0,0:0:0:0:
256,192,86492,1,0,0:0:0:0:
182,192,86642,1,0,0:0:0:0:
329,192,86792,128,0,86942:0:0:0:0:
109,192,86942,128,0,87092:0:0:0:0:
256,192,87017,1,0,0:0:0:0:
475,192,87092,1,0,0:0:0:0:
402,192,87092,1,0,0:0:0:0:
329,192,87167,1,0,0:0:0:0:
36,192,87242,128,0,87392:0:0:0:0:
182,192,87392,1,0,0:0:0:0:
109,192,87542,128,0,88292:0:0:0:0:
329,192,87617,1,0,0:0:0:0:
402,192,87692,128,0,87742:0:0:0:0:
36,192,87692,1,0,0:0:0:0:
256,192,87842,1,0,0:0:0:0:
256,192,87992,1,0,0:0:0:0:
329,192,88142,1,0,0:0:0:0:
402,192,88217,1,0,0:0:0:0:
256,192,88292,1,0,0:0:0:0:
36,192,88292,1,0,0:0:0:0:
475,192,88367,1,0,0:0:0:0:
329,192,88442,1,0,0:0:0:0:
109,192,88592,128,0,88742:0:0:0:0:
182,192,88742,128,0,88892:0:0:0:0:
402,192,88817,1,0,0:0:0:0:
36,192,88892,128,0,88942:0:0:0:0:
329,192,88892,128,0,89042:0:0:0:0:
475,192,89042,1,0,0:0:0:0:
182,192,89192,128,0,89342:0:0:0:0:
256,192,89342,128,0,89492:0:0:0:0:
109,192,89417,1,0,0:0:0:0:
36,192,89492,1,0,0:0:0:0:
475,192,89492,1,0,0:0:0:0:
182,192,89567,1,0,0:0:0:0:
329,192,89642,128,0,89792:0:0:0:0:
36,192,89792,1,0,0:0:0:0:
402,192,89942,128,0,90092:0:0:0:0:
256,192,90017,1,0,0:0:0:0:
109,192,90092,128,0,90142:0:0:0:0:
475,192,90092,1,0,0:0:0:0:
329,192,90242,128,0,90392:0:0:0:0:
36,192,90392,1,0,0:0:0:0:
256,192,90542,128,0,90692:0:0:0:0:
109,192,90617,1,0,0:0:0:0:
402,192,90692,1,0,0:0:0:0:
475,192,90692,1,0,0:0:0:0:
329,192,90767,1,0,0:0:0:0:
182,192,90842,128,0,90992:0:0:0:0:
256,192,90992,128,0,91142:0:0:0:0:
36,192,91142,128,0,91292:0:0:0:0:
329,192,91142,128,0,91292:0:0:0:0:
402,192,91292,128,0,91442:0:0:0:0:
182,192,91292,128,0,91442:0:0:0:0:
475,192,91292,1,0,0:0:0:0:
256,192,91592,128,0,91742:0:0:0:0:
36,192,91592,128,0,91742:0:0:0:0:
182,192,91742,128,0,91892:0:0:0:0:
402,192,91742,128,0,91892:0:0:0:0:
256,192,92042,128,0,92192:0:0:0:0:
475,192,92042,128,0,92192:0:0:0:0:
475,192,92342,128,0,92492:0:0:0:0:
329,192,92342,128,0,92492:0:0:0:0:
109,192,92492,1,0,0:0:0:0:
182,192,92492,1,0,0:0:0:0:
256,192,92492,1,0,0:0:0:0:
256,192,92642,128,0,92792:0:0:0:0:
402,192,92642,128,0,92792:0:0:0:0:
329,192,92942,128,0,93092:0:0:0:0:
182,192,92942,128,0,93092:0:0:0:0:
256,192,93242,128,0,93392:0:0:0:0:
109,192,93242,128,0,93392:0:0:0:0:
182,192,93542,128,0,93692:0:0:0:0:
36,192,93542,128,0,93692:0:0:0:0:
475,192,93692,5,0,0:0:0:0:
402,192,93692,1,0,0:0:0:0:
256,192,93692,128,0,93767:0:0:0:0:
109,192,93767,128,0,93842:0:0:0:0:
182,192,93842,128,0,93917:0:0:0:0:
256,192,93917,128,0,93992:0:0:0:0:
329,192,93992,128,0,94067:0:0:0:0:
402,192,93992,1,0,0:0:0:0:
182,192,94067,128,0,94142:0:0:0:0:
256,192,94142,128,0,94217:0:0:0:0:
36,192,94142,1,0,0:0:0:0:
329,192,94217,128,0,94292:0:0:0:0:
475,192,94292,1,0,0:0:0:0:
36,192,94292,128,0,94442:0:0:0:0:
402,192,94292,128,0,94367:0:0:0:0:
109,192,94367,128,0,94517:0:0:0:0:
256,192,94442,128,0,94592:0:0:0:0:
329,192,94442,1,0,0:0:0:0:
402,192,94517,128,0,94667:0:0:0:0:
475,192,94592,128,0,94667:0:0:0:0:
182,192,94592,128,0,94742:0:0:0:0:
109,192,94592,1,0,0:0:0:0:
256,192,94667,128,0,94817:0:0:0:0:
329,192,94742,128,0,94892:0:0:0:0:
402,192,94817,128,0,94892:0:0:0:0:
475,192,94892,128,0,95042:0:0:0:0:
182,192,94892,128,0,95117:0:0:0:0:
36,192,94892,128,0,95192:0:0:0:0:
402,192,94967,128,0,95117:0:0:0:0:
329,192,95042,128,0,95192:0:0:0:0:
256,192,95117,128,0,95267:0:0:0:0:
182,192,95192,128,0,95342:0:0:0:0:
402,192,95192,128,0,95267:0:0:0:0:
475,192,95192,1,0,0:0:0:0:
109,192,95267,128,0,95417:0:0:0:0:
329,192,95267,128,0,95342:0:0:0:0:
256,192,95342,128,0,95417:0:0:0:0:
36,192,95342,128,0,95492:0:0:0:0:
182,192,95417,128,0,95492:0:0:0:0:
475,192,95492,1,0,0:0:0:0:
402,192,95492,1,0,0:0:0:0:
109,192,95567,1,0,0:0:0:0:
36,192,95567,1,0,0:0:0:0:
329,192,95642,1,0,0:0:0:0:
475,192,95642,1,0,0:0:0:0:
182,192,95717,1,0,0:0:0:0:
36,192,95717,1,0,0:0:0:0:
329,192,95792,1,0,0:0:0:0:
402,192,95792,1,0,0:0:0:0:
109,192,95867,1,0,0:0:0:0:
182,192,95867,1,0,0:0:0:0:
402,192,95942,1,0,0:0:0:0:
329,192,95942,1,0,0:0:0:0:
182,192,96017,1,0,0:0:0:0:
109,192,96017,1,0,0:0:0:0:
36,192,96092,1,0,0:0:0:0:
475,192,96092,1,0,0:0:0:0:
402,192,96092,1,0,0:0:0:0:
256,192,96092,128,0,96392:0:0:0:0:
182,192,96242,1,0,0:0:0:0:
402,192,96392,128,0,96842:0:0:0:0:
475,192,96392,1,0,0:0:0:0:
109,192,96392,1,0,0:0:0:0:
256,192,96542,1,0,0:0:0:0:
109,192,96542,128,0,96842:0:0:0:0:
329,192,96617,1,0,0:0:0:0:
182,192,96692,1,0,0:0:0:0:
256,192,96767,1,0,0:0:0:0:
36,192,96842,128,0,97067:0:0:0:0:
329,192,96842,1,0,0:0:0:0:
475,192,96842,1,0,0:0:0:0:
402,192,96992,1,0,0:0:0:0:
475,192,96992,1,0,0:0:0:0:
256,192,96992,1,0,0:0:0:0:
109,192,97142,128,0,97367:0:0:0:0:
329,192,97142,1,0,0:0:0:0:
402,192,97217,1,0,0:0:0:0:
256,192,97292,1,0,0:0:0:0:
475,192,97292,1,0,0:0:0:0:
36,192,97292,1,0,0:0:0:0:
402,192,97442,1,0,0:0:0:0:
256,192,97442,1,0,0:0:0:0:
182,192,97442,128,0,97667:0:0:0:0:
109,192,97592,1,0,0:0:0:0:
475,192,97592,1,0,0:0:0:0:
402,192,97592,1,0,0:0:0:0:
256,192,97742,128,0,97967:0:0:0:0:
36,192,97742,1,0,0:0:0:0:
329,192,97817,1,0,0:0:0:0:
475,192,97892,1,0,0:0:0:0:
109,192,97967,1,0,0:0:0:0:
402,192,98042,1,0,0:0:0:0:
182,192,98042,128,0,98192:0:0:0:0:
475,192,98042,1,0,0:0:0:0:
109,192,98192,1,0,0:0:0:0:
329,192,98192,128,0,98267:0:0:0:0:
402,192,98192,1,0,0:0:0:0:
36,192,98267,1,0,0:0:0:0:
256,192,98267,128,0,98342:0:0:0:0:
109,192,98342,1,0,0:0:0:0:
329,192,98342,128,0,98417:0:0:0:0:
182,192,98417,1,0,0:0:0:0:
402,192,98417,128,0,98492:0:0:0:0:
256,192,98492,1,0,0:0:0:0:
36,192,98492,1,0,0:0:0:0:
475,192,98492,128,0,98792:0:0:0:0:
256,192,98642,1,0,0:0:0:0:
329,192,98792,1,0,0:0:0:0:
109,192,98792,128,0,98942:0:0:0:0:
402,192,98792,1,0,0:0:0:0:
256,192,98867,128,0,99017:0:0:0:0:
402,192,98942,128,0,99242:0:0:0:0:
109,192,99017,1,0,0:0:0:0:
256,192,99092,1,0,0:0:0:0:
329,192,99167,1,0,0:0:0:0:
182,192,99242,128,0,99467:0:0:0:0:
36,192,99242,128,0,99317:0:0:0:0:
475,192,99242,1,0,0:0:0:0:
36,192,99392,1,0,0:0:0:0:
402,192,99392,1,0,0:0:0:0:
329,192,99392,1,0,0:0:0:0:
256,192,99542,128,0,99767:0:0:0:0:
109,192,99542,128,0,99617:0:0:0:0:
109,192,99692,1,0,0:0:0:0:
402,192,99692,1,0,0:0:0:0:
475,192,99692,1,0,0:0:0:0:
329,192,99842,128,0,100067:0:0:0:0:
402,192,99842,1,0,0:0:0:0:
182,192,99842,128,0,99917:0:0:0:0:
182,192,99992,1,0,0:0:0:0:
475,192,99992,1,0,0:0:0:0:
36,192,99992,1,0,0:0:0:0:
402,192,100142,128,0,100367:0:0:0:0:
256,192,100142,128,0,100217:0:0:0:0:
256,192,100292,1,0,0:0:0:0:
109,192,100292,1,0,0:0:0:0:
329,192,100367,1,0,0:0:0:0:
182,192,100442,1,0,0:0:0:0:
475,192,100442,1,0,0:0:0:0:
36,192,100442,128,0,100892:0:0:0:0:
329,192,100592,1,0,0:0:0:0:
182,192,100592,128,0,100892:0:0:0:0:
402,192,100592,1,0,0:0:0:0:
475,192,100742,1,0,0:0:0:0:
402,192,100742,128,0,100892:0:0:0:0:
475,192,100892,128,0,101192:0:0:0:0:
109,192,100892,1,0,0:0:0:0:
256,192,100892,1,0,0:0:0:0:
329,192,101042,1,0,0:0:0:0:
36,192,101192,1,0,0:0:0:0:
402,192,101192,128,0,101492:0:0:0:0:
182,192,101192,1,0,0:0:0:0:
182,192,101342,128,0,101717:0:0:0:0:
329,192,101342,1,0,0:0:0:0:
109,192,101417,1,0,0:0:0:0:
475,192,101492,1,0,0:0:0:0:
402,192,101567,1,0,0:0:0:0:
329,192,101642,1,0,0:0:0:0:
256,192,101642,128,0,102017:0:0:0:0:
36,192,101642,128,0,101717:0:0:0:0:
182,192,101792,1,0,0:0:0:0:
402,192,101792,1,0,0:0:0:0:
36,192,101792,1,0,0:0:0:0:
329,192,101942,128,0,102317:0:0:0:0:
109,192,101942,128,0,102017:0:0:0:0:
256,192,102092,1,0,0:0:0:0:
475,192,102092,1,0,0:0:0:0:
109,192,102092,1,0,0:0:0:0:
475,192,102242,1,0,0:0:0:0:
402,192,102242,128,0,102617:0:0:0:0:
182,192,102242,128,0,102317:0:0:0:0:
36,192,102392,1,0,0:0:0:0:
182,192,102392,1,0,0:0:0:0:
329,192,102392,1,0,0:0:0:0:
256,192,102542,128,0,102617:0:0:0:0:
475,192,102542,128,0,102917:0:0:0:0:
256,192,102692,1,0,0:0:0:0:
402,192,102692,1,0,0:0:0:0:
182,192,102767,1,0,0:0:0:0:
109,192,102842,1,0,0:0:0:0:
329,192,102842,128,0,103292:0:0:0:0:
36,192,102842,1,0,0:0:0:0:
109,192,102992,128,0,103292:0:0:0:0:
182,192,102992,1,0,0:0:0:0:
256,192,102992,1,0,0:0:0:0:
256,192,103142,128,0,103292:0:0:0:0:
475,192,103142,1,0,0:0:0:0:
402,192,103292,1,0,0:0:0:0:
475,192,103292,128,0,103592:0:0:0:0:
36,192,103292,1,0,0:0:0:0:
256,192,103442,1,0,0:0:0:0:
36,192,103592,128,0,103892:0:0:0:0:
329,192,103592,1,0,0:0:0:0:
109,192,103592,1,0,0:0:0:0:
329,192,103742,128,0,104117:0:0:0:0:
402,192,103742,1,0,0:0:0:0:
182,192,103817,1,0,0:0:0:0:
109,192,103892,1,0,0:0:0:0:
36,192,103967,1,0,0:0:0:0:
256,192,104042,128,0,104417:0:0:0:0:
475,192,104042,128,0,104117:0:0:0:0:
182,192,104042,1,0,0:0:0:0:
329,192,104192,1,0,0:0:0:0:
109,192,104192,1,0,0:0:0:0:
475,192,104192,1,0,0:0:0:0:
402,192,104342,128,0,104417:0:0:0:0:
182,192,104342,128,0,104717:0:0:0:0:
256,192,104492,1,0,0:0:0:0:
402,192,104492,1,0,0:0:0:0:
36,192,104492,1,0,0:0:0:0:
109,192,104642,128,0,104942:0:0:0:0:
329,192,104642,128,0,104717:0:0:0:0:
36,192,104642,1,0,0:0:0:0:
182,192,104792,1,0,0:0:0:0:
475,192,104792,1,0,0:0:0:0:
329,192,104792,1,0,0:0:0:0:
475,192,104942,128,0,105242:0:0:0:0:
256,192,104942,1,0,0:0:0:0:
402,192,105017,1,0,0:0:0:0:
329,192,105092,1,0,0:0:0:0:
36,192,105167,1,0,0:0:0:0:
256,192,105242,1,0,0:0:0:0:
109,192,105242,1,0,0:0:0:0:
182,192,105242,1,0,0:0:0:0:
109,192,105392,1,0,0:0:0:0:
329,192,105392,1,0,0:0:0:0:
475,192,105392,128,0,105467:0:0:0:0:
256,192,105467,1,0,0:0:0:0:
402,192,105467,128,0,105542:0:0:0:0:
182,192,105542,1,0,0:0:0:0:
329,192,105542,128,0,105617:0:0:0:0:
109,192,105617,1,0,0:0:0:0:
256,192,105617,128,0,105692:0:0:0:0:
475,192,105692,1,0,0:0:0:0:
402,192,105692,1,0,0:0:0:0:
36,192,105692,1,0,0:0:0:0:
182,192,105692,128,0,105992:0:0:0:0:
256,192,105842,1,0,0:0:0:0:
402,192,105992,128,0,106442:0:0:0:0:
109,192,105992,1,0,0:0:0:0:
475,192,105992,1,0,0:0:0:0:
109,192,106142,128,0,106442:0:0:0:0:
256,192,106142,1,0,0:0:0:0:
475,192,106217,1,0,0:0:0:0:
182,192,106292,1,0,0:0:0:0:
329,192,106367,1,0,0:0:0:0:
36,192,106442,128,0,106667:0:0:0:0:
256,192,106442,1,0,0:0:0:0:
475,192,106442,1,0,0:0:0:0:
182,192,106592,1,0,0:0:0:0:
329,192,106592,1,0,0:0:0:0:
256,192,106592,1,0,0:0:0:0:
109,192,106742,128,0,106967:0:0:0:0:
402,192,106742,1,0,0:0:0:0:
256,192,106817,1,0,0:0:0:0:
36,192,106892,1,0,0:0:0:0:
329,192,106892,1,0,0:0:0:0:
475,192,106892,1,0,0:0:0:0:
182,192,107042,128,0,107267:0:0:0:0:
402,192,107042,1,0,0:0:0:0:
475,192,107042,1,0,0:0:0:0:
402,192,107192,1,0,0:0:0:0:
36,192,107192,1,0,0:0:0:0:
109,192,107192,1,0,0:0:0:0:
475,192,107342,1,0,0:0:0:0:
256,192,107342,128,0,107567:0:0:0:0:
329,192,107417,1,0,0:0:0:0:
36,192,107492,1,0,0:0:0:0:
109,192,107567,1,0,0:0:0:0:
182,192,107642,128,0,107792:0:0:0:0:
256,192,107642,1,0,0:0:0:0:
475,192,107642,1,0,0:0:0:0:
475,192,107792,1,0,0:0:0:0:
402,192,107792,1,0,0:0:0:0:
36,192,107792,128,0,107867:0:0:0:0:
329,192,107867,1,0,0:0:0:0:
109,192,107867,128,0,107942:0:0:0:0:
182,192,107942,128,0,108017:0:0:0:0:
402,192,107942,1,0,0:0:0:0:
256,192,108017,128,0,108092:0:0:0:0:
475,192,108017,1,0,0:0:0:0:
109,192,108092,1,0,0:0:0:0:
36,192,108092,1,0,0:0:0:0:
329,192,108092,128,0,108392:0:0:0:0:
182,192,108242,1,0,0:0:0:0:
36,192,108392,128,0,108542:0:0:0:0:
402,192,108392,1,0,0:0:0:0:
475,192,108392,1,0,0:0:0:0:
256,192,108467,128,0,108617:0:0:0:0:
475,192,108542,128,0,108842:0:0:0:0:
36,192,108617,1,0,0:0:0:0:
256,192,108692,1,0,0:0:0:0:
402,192,108767,1,0,0:0:0:0:
329,192,108842,1,0,0:0:0:0:
182,192,108842,128,0,109067:0:0:0:0:
36,192,108842,128,0,108917:0:0:0:0:
36,192,108992,1,0,0:0:0:0:
329,192,108992,1,0,0:0:0:0:
475,192,108992,1,0,0:0:0:0:
256,192,109142,128,0,109367:0:0:0:0:
109,192,109142,128,0,109217:0:0:0:0:
109,192,109292,1,0,0:0:0:0:
402,192,109292,1,0,0:0:0:0:
36,192,109292,1,0,0:0:0:0:
182,192,109442,128,0,109517:0:0:0:0:
329,192,109442,128,0,109667:0:0:0:0:
402,192,109442,1,0,0:0:0:0:
475,192,109592,1,0,0:0:0:0:
109,192,109592,1,0,0:0:0:0:
182,192,109592,1,0,0:0:0:0:
402,192,109742,128,0,109967:0:0:0:0:
256,192,109742,128,0,109817:0:0:0:0:
256,192,109892,1,0,0:0:0:0:
182,192,109892,1,0,0:0:0:0:
36,192,109967,1,0,0:0:0:0:
475,192,110042,128,0,110492:0:0:0:0:
109,192,110042,1,0,0:0:0:0:
329,192,110042,1,0,0:0:0:0:
109,192,110192,128,0,110492:0:0:0:0:
256,192,110192,1,0,0:0:0:0:
402,192,110192,1,0,0:0:0:0:
36,192,110342,1,0,0:0:0:0:
256,192,110342,128,0,110492:0:0:0:0:
329,192,110492,1,0,0:0:0:0:
36,192,110492,128,0,110792:0:0:0:0:
402,192,110492,1,0,0:0:0:0:
256,192,110642,1,0,0:0:0:0:
182,192,110792,1,0,0:0:0:0:
402,192,110792,128,0,111092:0:0:0:0:
182,192,110942,128,0,111317:0:0:0:0:
329,192,110942,1,0,0:0:0:0:
256,192,111017,1,0,0:0:0:0:
109,192,111092,1,0,0:0:0:0:
329,192,111167,1,0,0:0:0:0:
36,192,111242,1,0,0:0:0:0:
256,192,111242,128,0,111617:0:0:0:0:
475,192,111242,128,0,111317:0:0:0:0:
402,192,111317,1,0,0:0:0:0:
182,192,111392,1,0,0:0:0:0:
475,192,111392,1,0,0:0:0:0:
109,192,111392,1,0,0:0:0:0:
329,192,111542,128,0,111917:0:0:0:0:
36,192,111542,128,0,111617:0:0:0:0:
475,192,111617,1,0,0:0:0:0:
256,192,111692,1,0,0:0:0:0:
36,192,111692,1,0,0:0:0:0:
182,192,111692,1,0,0:0:0:0:
475,192,111842,1,0,0:0:0:0:
109,192,111842,128,0,111917:0:0:0:0:
402,192,111842,128,0,112217:0:0:0:0:
182,192,111842,1,0,0:0:0:0:
36,192,111917,1,0,0:0:0:0:
256,192,111992,1,0,0:0:0:0:
329,192,111992,1,0,0:0:0:0:
109,192,111992,1,0,0:0:0:0:
475,192,112142,128,0,112517:0:0:0:0:
182,192,112142,128,0,112217:0:0:0:0:
109,192,112217,1,0,0:0:0:0:
182,192,112292,1,0,0:0:0:0:
402,192,112292,1,0,0:0:0:0:
329,192,112292,1,0,0:0:0:0:
36,192,112442,128,0,113867:0:0:0:0:
256,192,112442,128,0,112517:0:0:0:0:
329,192,112442,1,0,0:0:0:0:
182,192,112517,1,0,0:0:0:0:
256,192,112592,1,0,0:0:0:0:
402,192,112592,1,0,0:0:0:0:
109,192,112592,1,0,0:0:0:0:
475,192,112742,1,0,0:0:0:0:
329,192,112742,128,0,113267:0:0:0:0:
109,192,112742,128,0,113567:0:0:0:0:
475,192,112892,128,0,113117:0:0:0:0:
256,192,112892,1,0,0:0:0:0:
182,192,112892,1,0,0:0:0:0:
256,192,113042,1,0,0:0:0:0:
182,192,113192,1,0,0:0:0:0:
475,192,113192,128,0,113417:0:0:0:0:
402,192,113192,128,0,113267:0:0:0:0:
256,192,113342,128,0,113567:0:0:0:0:
402,192,113342,128,0,113417:0:0:0:0:
182,192,113417,1,0,0:0:0:0:
475,192,113492,1,0,0:0:0:0:
402,192,113567,1,0,0:0:0:0:
329,192,113642,1,0,0:0:0:0:
182,192,113642,128,0,114017:0:0:0:0:
256,192,113642,128,0,113717:0:0:0:0:
256,192,113792,1,0,0:0:0:0:
475,192,113792,1,0,0:0:0:0:
402,192,113792,1,0,0:0:0:0:
475,192,113942,128,0,114017:0:0:0:0:
36,192,113942,128,0,114017:0:0:0:0:
256,192,114017,1,0,0:0:0:0:
402,192,114017,1,0,0:0:0:0:
475,192,114092,1,0,0:0:0:0:
109,192,114092,1,0,0:0:0:0:
182,192,114092,1,0,0:0:0:0:
182,192,114242,5,0,0:0:0:0:
402,192,114242,1,0,0:0:0:0:
36,192,114242,1,0,0:0:0:0:
329,192,114317,1,0,0:0:0:0:
475,192,114392,1,0,0:0:0:0:
256,192,114392,1,0,0:0:0:0:
36,192,114392,1,0,0:0:0:0:
109,192,114467,1,0,0:0:0:0:
182,192,114542,1,0,0:0:0:0:
329,192,114542,1,0,0:0:0:0:
475,192,114542,1,0,0:0:0:0:
256,192,114617,1,0,0:0:0:0:
109,192,114617,1,0,0:0:0:0:
36,192,114692,1,0,0:0:0:0:
402,192,114692,1,0,0:0:0:0:
329,192,114692,1,0,0:0:0:0:
182,192,114767,1,0,0:0:0:0:
109,192,114842,1,0,0:0:0:0:
256,192,114842,1,0,0:0:0:0:
402,192,114842,1,0,0:0:0:0:
475,192,114917,1,0,0:0:0:0:
329,192,114992,1,0,0:0:0:0:
109,192,114992,1,0,0:0:0:0:
36,192,114992,1,0,0:0:0:0:
402,192,115067,1,0,0:0:0:0:
182,192,115067,1,0,0:0:0:0:
256,192,115142,1,0,0:0:0:0:
475,192,115142,1,0,0:0:0:0:
36,192,115142,1,0,0:0:0:0:
329,192,115217,1,0,0:0:0:0:
109,192,115217,1,0,0:0:0:0:
182,192,115217,1,0,0:0:0:0:
256,192,115292,1,0,0:0:0:0:
36,192,115292,1,0,0:0:0:0:
402,192,115292,128,0,115442:0:0:0:0:
475,192,115292,1,0,0:0:0:0:
256,192,115442,128,0,115592:0:0:0:0:
109,192,115442,1,0,0:0:0:0:
109,192,115592,128,0,115742:0:0:0:0:
475,192,115592,1,0,0:0:0:0:
329,192,115592,1,0,0:0:0:0:
329,192,115742,128,0,115892:0:0:0:0:
182,192,115742,1,0,0:0:0:0:
36,192,115892,1,0,0:0:0:0:
182,192,115892,128,0,116042:0:0:0:0:
475,192,116042,1,0,0:0:0:0:
402,192,116042,1,0,0:0:0:0:
36,192,116042,128,0,116192:0:0:0:0:
256,192,116192,1,0,0:0:0:0:
402,192,116192,128,0,116342:0:0:0:0:
182,192,116192,1,0,0:0:0:0:
109,192,116342,1,0,0:0:0:0:
256,192,116342,128,0,116492:0:0:0:0:
329,192,116492,1,0,0:0:0:0:
109,192,116492,128,0,116642:0:0:0:0:
475,192,116492,1,0,0:0:0:0:
182,192,116642,1,0,0:0:0:0:
329,192,116642,128,0,116792:0:0:0:0:
402,192,116642,1,0,0:0:0:0:
256,192,116792,1,0,0:0:0:0:
182,192,116792,128,0,116942:0:0:0:0:
36,192,116792,1,0,0:0:0:0:
36,192,116942,128,0,117092:0:0:0:0:
402,192,116942,1,0,0:0:0:0:
402,192,117092,128,0,117242:0:0:0:0:
256,192,117092,1,0,0:0:0:0:
256,192,117242,128,0,117392:0:0:0:0:
109,192,117242,1,0,0:0:0:0:
475,192,117242,1,0,0:0:0:0:
109,192,117392,128,0,117542:0:0:0:0:
402,192,117392,1,0,0:0:0:0:
36,192,117392,1,0,0:0:0:0:
329,192,117542,1,0,0:0:0:0:
256,192,117542,1,0,0:0:0:0:
475,192,117617,1,0,0:0:0:0:
402,192,117617,1,0,0:0:0:0:
109,192,117692,1,0,0:0:0:0:
329,192,117692,128,0,117842:0:0:0:0:
182,192,117692,1,0,0:0:0:0:
182,192,117842,128,0,117992:0:0:0:0:
36,192,117842,1,0,0:0:0:0:
36,192,117992,128,0,118142:0:0:0:0:
402,192,117992,1,0,0:0:0:0:
475,192,117992,1,0,0:0:0:0:
402,192,118142,128,0,118292:0:0:0:0:
182,192,118142,1,0,0:0:0:0:
36,192,118292,1,0,0:0:0:0:
182,192,118292,128,0,118442:0:0:0:0:
36,192,118442,128,0,118592:0:0:0:0:
402,192,118442,1,0,0:0:0:0:
329,192,118442,1,0,0:0:0:0:
475,192,118592,1,0,0:0:0:0:
256,192,118592,1,0,0:0:0:0:
402,192,118592,128,0,118742:0:0:0:0:
256,192,118742,128,0,118892:0:0:0:0:
109,192,118742,1,0,0:0:0:0:
475,192,118892,1,0,0:0:0:0:
36,192,118892,1,0,0:0:0:0:
109,192,118892,128,0,119042:0:0:0:0:
475,192,119042,128,0,119192:0:0:0:0:
329,192,119042,1,0,0:0:0:0:
256,192,119042,1,0,0:0:0:0:
329,192,119192,128,0,119342:0:0:0:0:
182,192,119192,1,0,0:0:0:0:
109,192,119192,1,0,0:0:0:0:
182,192,119342,128,0,119492:0:0:0:0:
36,192,119342,1,0,0:0:0:0:
402,192,119492,1,0,0:0:0:0:
475,192,119492,1,0,0:0:0:0:
256,192,119567,1,0,0:0:0:0:
182,192,119642,1,0,0:0:0:0:
36,192,119642,1,0,0:0:0:0:
402,192,119642,1,0,0:0:0:0:
329,192,119717,1,0,0:0:0:0:
109,192,119792,1,0,0:0:0:0:
36,192,119792,1,0,0:0:0:0:
475,192,119792,1,0,0:0:0:0:
256,192,119867,1,0,0:0:0:0:
475,192,119942,1,0,0:0:0:0:
329,192,119942,1,0,0:0:0:0:
182,192,120092,1,0,0:0:0:0:
402,192,120092,1,0,0:0:0:0:
36,192,120092,128,0,120242:0:0:0:0:
182,192,120242,128,0,120392:0:0:0:0:
329,192,120242,1,0,0:0:0:0:
329,192,120392,128,0,120542:0:0:0:0:
109,192,120392,1,0,0:0:0:0:
475,192,120392,1,0,0:0:0:0:
109,192,120542,128,0,120692:0:0:0:0:
256,192,120542,1,0,0:0:0:0:
256,192,120692,128,0,120842:0:0:0:0:
402,192,120692,1,0,0:0:0:0:
402,192,120842,128,0,120992:0:0:0:0:
36,192,120842,1,0,0:0:0:0:
475,192,120842,1,0,0:0:0:0:
256,192,120992,1,0,0:0:0:0:
182,192,120992,1,0,0:0:0:0:
36,192,120992,128,0,121142:0:0:0:0:
182,192,121142,128,0,121292:0:0:0:0:
329,192,121142,1,0,0:0:0:0:
329,192,121292,128,0,121442:0:0:0:0:
109,192,121292,1,0,0:0:0:0:
475,192,121292,1,0,0:0:0:0:
109,192,121442,128,0,121592:0:0:0:0:
256,192,121442,1,0,0:0:0:0:
36,192,121442,1,0,0:0:0:0:
256,192,121592,128,0,121742:0:0:0:0:
402,192,121592,1,0,0:0:0:0:
475,192,121592,1,0,0:0:0:0:
36,192,121742,1,0,0:0:0:0:
402,192,121742,128,0,121892:0:0:0:0:
36,192,121892,128,0,122042:0:0:0:0:
182,192,121892,1,0,0:0:0:0:
182,192,122042,128,0,122192:0:0:0:0:
329,192,122042,1,0,0:0:0:0:
402,192,122042,1,0,0:0:0:0:
329,192,122192,128,0,122342:0:0:0:0:
475,192,122192,1,0,0:0:0:0:
36,192,122192,1,0,0:0:0:0:
109,192,122342,1,0,0:0:0:0:
256,192,122342,1,0,0:0:0:0:
329,192,122417,1,0,0:0:0:0:
182,192,122417,1,0,0:0:0:0:
256,192,122492,1,0,0:0:0:0:
36,192,122492,1,0,0:0:0:0:
402,192,122492,128,0,122642:0:0:0:0:
256,192,122642,128,0,122792:0:0:0:0:
109,192,122642,1,0,0:0:0:0:
109,192,122792,128,0,122942:0:0:0:0:
475,192,122792,1,0,0:0:0:0:
182,192,122792,1,0,0:0:0:0:
475,192,122942,128,0,123092:0:0:0:0:
329,192,122942,1,0,0:0:0:0:
329,192,123092,128,0,123242:0:0:0:0:
182,192,123092,1,0,0:0:0:0:
182,192,123242,128,0,123392:0:0:0:0:
36,192,123242,1,0,0:0:0:0:
475,192,123242,1,0,0:0:0:0:
256,192,123392,1,0,0:0:0:0:
402,192,123392,1,0,0:0:0:0:
36,192,123392,128,0,123542:0:0:0:0:
256,192,123542,128,0,123692:0:0:0:0:
475,192,123542,1,0,0:0:0:0:
182,192,123617,1,0,0:0:0:0:
402,192,123617,1,0,0:0:0:0:
475,192,123692,128,0,123842:0:0:0:0:
329,192,123692,1,0,0:0:0:0:
36,192,123692,1,0,0:0:0:0:
329,192,123842,128,0,123992:0:0:0:0:
182,192,123842,1,0,0:0:0:0:
109,192,123842,1,0,0:0:0:0:
182,192,123992,128,0,124142:0:0:0:0:
36,192,123992,1,0,0:0:0:0:
475,192,123992,1,0,0:0:0:0:
402,192,124142,128,0,124292:0:0:0:0:
256,192,124142,1,0,0:0:0:0:
109,192,124217,1,0,0:0:0:0:
329,192,124217,1,0,0:0:0:0:
182,192,124292,1,0,0:0:0:0:
36,192,124292,1,0,0:0:0:0:
329,192,124367,1,0,0:0:0:0:
256,192,124442,1,0,0:0:0:0:
109,192,124442,1,0,0:0:0:0:
475,192,124442,1,0,0:0:0:0:
402,192,124517,1,0,0:0:0:0:
256,192,124592,1,0,0:0:0:0:
36,192,124592,1,0,0:0:0:0:
475,192,124592,1,0,0:0:0:0:
329,192,124667,1,0,0:0:0:0:
109,192,124667,1,0,0:0:0:0:
402,192,124742,1,0,0:0:0:0:
182,192,124742,1,0,0:0:0:0:
36,192,124742,1,0,0:0:0:0:
256,192,124817,1,0,0:0:0:0:
475,192,124817,1,0,0:0:0:0:
329,192,124892,128,0,125042:0:0:0:0:
109,192,124892,1,0,0:0:0:0:
182,192,124892,1,0,0:0:0:0:
402,192,124892,1,0,0:0:0:0:
182,192,125042,128,0,125192:0:0:0:0:
36,192,125042,1,0,0:0:0:0:
36,192,125192,128,0,125342:0:0:0:0:
402,192,125192,1,0,0:0:0:0:
475,192,125192,1,0,0:0:0:0:
402,192,125342,128,0,125492:0:0:0:0:
256,192,125342,1,0,0:0:0:0:
256,192,125492,128,0,125642:0:0:0:0:
109,192,125492,1,0,0:0:0:0:
109,192,125642,128,0,125792:0:0:0:0:
329,192,125642,1,0,0:0:0:0:
475,192,125642,1,0,0:0:0:0:
402,192,125792,1,0,0:0:0:0:
329,192,125792,128,0,125942:0:0:0:0:
182,192,125792,1,0,0:0:0:0:
182,192,125942,128,0,126092:0:0:0:0:
36,192,125942,1,0,0:0:0:0:
36,192,126092,128,0,126242:0:0:0:0:
402,192,126092,1,0,0:0:0:0:
475,192,126092,1,0,0:0:0:0:
402,192,126242,128,0,126392:0:0:0:0:
256,192,126242,1,0,0:0:0:0:
182,192,126242,1,0,0:0:0:0:
475,192,126392,1,0,0:0:0:0:
256,192,126392,128,0,126542:0:0:0:0:
109,192,126392,1,0,0:0:0:0:
329,192,126542,1,0,0:0:0:0:
109,192,126542,128,0,126692:0:0:0:0:
329,192,126692,128,0,126842:0:0:0:0:
182,192,126692,1,0,0:0:0:0:
182,192,126842,128,0,126992:0:0:0:0:
36,192,126842,1,0,0:0:0:0:
475,192,126842,1,0,0:0:0:0:
36,192,126992,128,0,127142:0:0:0:0:
402,192,126992,1,0,0:0:0:0:
256,192,126992,1,0,0:0:0:0:
329,192,127142,1,0,0:0:0:0:
109,192,127142,1,0,0:0:0:0:
475,192,127217,1,0,0:0:0:0:
402,192,127217,1,0,0:0:0:0:
182,192,127292,1,0,0:0:0:0:
109,192,127292,1,0,0:0:0:0:
329,192,127292,128,0,127442:0:0:0:0:
182,192,127442,128,0,127592:0:0:0:0:
36,192,127442,1,0,0:0:0:0:
36,192,127592,128,0,127742:0:0:0:0:
402,192,127592,1,0,0:0:0:0:
475,192,127592,1,0,0:0:0:0:
402,192,127742,128,0,127892:0:0:0:0:
182,192,127742,1,0,0:0:0:0:
182,192,127892,128,0,128042:0:0:0:0:
36,192,127892,1,0,0:0:0:0:
36,192,128042,128,0,128192:0:0:0:0:
402,192,128042,1,0,0:0:0:0:
109,192,128042,1,0,0:0:0:0:
329,192,128192,1,0,0:0:0:0:
256,192,128192,1,0,0:0:0:0:
402,192,128192,128,0,128342:0:0:0:0:
256,192,128342,128,0,128492:0:0:0:0:
109,192,128342,1,0,0:0:0:0:
109,192,128492,128,0,128642:0:0:0:0:
402,192,128492,1,0,0:0:0:0:
475,192,128492,1,0,0:0:0:0:
402,192,128642,128,0,128792:0:0:0:0:
329,192,128642,1,0,0:0:0:0:
36,192,128642,1,0,0:0:0:0:
329,192,128792,128,0,128942:0:0:0:0:
109,192,128792,1,0,0:0:0:0:
182,192,128792,1,0,0:0:0:0:
475,192,128942,1,0,0:0:0:0:
109,192,128942,128,0,129092:0:0:0:0:
329,192,129092,1,0,0:0:0:0:
475,192,129092,128,0,129242:0:0:0:0:
329,192,129242,128,0,129392:0:0:0:0:
182,192,129242,1,0,0:0:0:0:
109,192,129242,1,0,0:0:0:0:
182,192,129392,128,0,129542:0:0:0:0:
36,192,129392,1,0,0:0:0:0:
475,192,129392,1,0,0:0:0:0:
329,192,129467,1,0,0:0:0:0:
36,192,129542,128,0,129692:0:0:0:0:
256,192,129542,1,0,0:0:0:0:
402,192,129617,1,0,0:0:0:0:
182,192,129692,1,0,0:0:0:0:
329,192,129692,1,0,0:0:0:0:
475,192,129692,1,0,0:0:0:0:
109,192,129767,1,0,0:0:0:0:
36,192,129842,1,0,0:0:0:0:
329,192,129842,1,0,0:0:0:0:
475,192,129842,1,0,0:0:0:0:
182,192,129917,1,0,0:0:0:0:
109,192,129992,1,0,0:0:0:0:
475,192,129992,1,0,0:0:0:0:
256,192,129992,1,0,0:0:0:0:
36,192,130067,1,0,0:0:0:0:
329,192,130142,1,0,0:0:0:0:
182,192,130142,1,0,0:0:0:0:
402,192,130217,1,0,0:0:0:0:
109,192,130292,1,0,0:0:0:0:
475,192,130292,1,0,0:0:0:0:
36,192,130292,1,0,0:0:0:0:
329,192,130367,1,0,0:0:0:0:
182,192,130442,1,0,0:0:0:0:
36,192,130442,1,0,0:0:0:0:
256,192,130517,1,0,0:0:0:0:
402,192,130592,1,0,0:0:0:0:
475,192,130592,1,0,0:0:0:0:
36,192,130592,1,0,0:0:0:0:
329,192,130667,1,0,0:0:0:0:
256,192,130742,1,0,0:0:0:0:
109,192,130742,1,0,0:0:0:0:
329,192,130817,1,0,0:0:0:0:
182,192,130817,1,0,0:0:0:0:
402,192,130892,1,0,0:0:0:0:
36,192,130892,1,0,0:0:0:0:
109,192,130892,1,0,0:0:0:0:
329,192,130967,1,0,0:0:0:0:
256,192,131042,1,0,0:0:0:0:
36,192,131042,1,0,0:0:0:0:
109,192,131042,1,0,0:0:0:0:
402,192,131117,1,0,0:0:0:0:
329,192,131192,1,0,0:0:0:0:
36,192,131192,1,0,0:0:0:0:
475,192,131192,1,0,0:0:0:0:
256,192,131267,1,0,0:0:0:0:
182,192,131342,1,0,0:0:0:0:
329,192,131342,1,0,0:0:0:0:
109,192,131342,1,0,0:0:0:0:
475,192,131417,1,0,0:0:0:0:
402,192,131417,1,0,0:0:0:0:
256,192,131492,1,0,0:0:0:0:
36,192,131492,1,0,0:0:0:0:
109,192,131492,1,0,0:0:0:0:
475,192,131567,1,0,0:0:0:0:
36,192,131642,1,0,0:0:0:0:
109,192,131642,1,0,0:0:0:0:
402,192,131642,1,0,0:0:0:0:
329,192,131717,1,0,0:0:0:0:
475,192,131792,1,0,0:0:0:0:
182,192,131792,1,0,0:0:0:0:
109,192,131792,1,0,0:0:0:0:
402,192,131867,1,0,0:0:0:0:
329,192,131867,1,0,0:0:0:0:
36,192,131942,1,0,0:0:0:0:
182,192,131942,1,0,0:0:0:0:
256,192,131942,1,0,0:0:0:0:
475,192,132017,1,0,0:0:0:0:
402,192,132017,1,0,0:0:0:0:
329,192,132092,1,0,0:0:0:0:
109,192,132092,1,0,0:0:0:0:
36,192,132092,1,0,0:0:0:0:
182,192,132167,1,0,0:0:0:0:
329,192,132242,1,0,0:0:0:0:
402,192,132242,1,0,0:0:0:0:
36,192,132242,1,0,0:0:0:0:
256,192,132317,1,0,0:0:0:0:
109,192,132392,1,0,0:0:0:0:
36,192,132392,1,0,0:0:0:0:
475,192,132392,1,0,0:0:0:0:
329,192,132467,1,0,0:0:0:0:
402,192,132542,1,0,0:0:0:0:
256,192,132542,1,0,0:0:0:0:
109,192,132542,1,0,0:0:0:0:
182,192,132617,1,0,0:0:0:0:
36,192,132617,1,0,0:0:0:0:
475,192,132692,1,0,0:0:0:0:
256,192,132692,1,0,0:0:0:0:
109,192,132692,1,0,0:0:0:0:
402,192,132767,1,0,0:0:0:0:
36,192,132842,1,0,0:0:0:0:
329,192,132842,1,0,0:0:0:0:
182,192,132842,1,0,0:0:0:0:
256,192,132917,1,0,0:0:0:0:
36,192,132992,1,0,0:0:0:0:
109,192,132992,1,0,0:0:0:0:
402,192,132992,1,0,0:0:0:0:
329,192,133067,1,0,0:0:0:0:
475,192,133142,1,0,0:0:0:0:
402,192,133142,1,0,0:0:0:0:
109,192,133142,1,0,0:0:0:0:
182,192,133179,1,0,0:0:0:0:
256,192,133217,1,0,0:0:0:0:
329,192,133254,1,0,0:0:0:0:
475,192,133292,1,0,0:0:0:0:
109,192,133292,1,0,0:0:0:0:
36,192,133292,1,0,0:0:0:0:
256,192,133367,1,0,0:0:0:0:
402,192,133442,1,0,0:0:0:0:
109,192,133442,1,0,0:0:0:0:
36,192,133442,1,0,0:0:0:0:
329,192,133479,1,0,0:0:0:0:
256,192,133517,1,0,0:0:0:0:
182,192,133554,1,0,0:0:0:0:
475,192,133592,1,0,0:0:0:0:
36,192,133592,1,0,0:0:0:0:
402,192,133592,1,0,0:0:0:0:
329,192,133667,1,0,0:0:0:0:
36,192,133742,1,0,0:0:0:0:
402,192,133742,1,0,0:0:0:0:
475,192,133742,1,0,0:0:0:0:
109,192,133779,1,0,0:0:0:0:
182,192,133817,1,0,0:0:0:0:
256,192,133854,1,0,0:0:0:0:
475,192,133892,1,0,0:0:0:0:
329,192,133892,1,0,0:0:0:0:
109,192,133892,1,0,0:0:0:0:
402,192,133967,1,0,0:0:0:0:
36,192,133967,1,0,0:0:0:0:
256,192,133967,1,0,0:0:0:0:
329,192,134042,1,0,0:0:0:0:
36,192,134117,1,0,0:0:0:0:
182,192,134117,1,0,0:0:0:0:
475,192,134117,1,0,0:0:0:0:
109,192,134192,1,0,0:0:0:0:
329,192,134192,1,0,0:0:0:0:
256,192,134192,1,0,0:0:0:0:
402,192,134267,1,0,0:0:0:0:
182,192,134342,1,0,0:0:0:0:
36,192,134342,1,0,0:0:0:0:
256,192,134342,1,0,0:0:0:0:
475,192,134379,1,0,0:0:0:0:
109,192,134417,1,0,0:0:0:0:
402,192,134417,1,0,0:0:0:0:
329,192,134454,1,0,0:0:0:0:
36,192,134492,128,0,139292:0:0:0:0:
182,192,134492,128,0,139292:0:0:0:0:
256,192,134492,1,0,0:0:0:0:
