osu file format v14

[General]
AudioFilename: audio.mp3
AudioLeadIn: 0
PreviewTime: 57617
Countdown: 0
SampleSet: Soft
StackLeniency: 0.7
Mode: 3
LetterboxInBreaks: 0
SpecialStyle: 0
WidescreenStoryboard: 0

[Editor]
DistanceSpacing: 1
BeatDivisor: 4
GridSize: 16
TimelineZoom: 1

[Metadata]
Title:LAISSEZ : FAIRE
TitleUnicode:LAISSEZ:FAIRE
Artist:adaptor
ArtistUnicode:adaptor
Creator:AncuL
Version:Easy
Source:nanobeat
Tags:blocko Arzenvald ajeemaniz exusagi maxus artcore GLASSY WORLD Glassy:oceaN piano Video Game Instrumental
BeatmapID:3347053
BeatmapSetID:849389

[Difficulty]
HPDrainRate:6.8
CircleSize:7
OverallDifficulty:6.8
ApproachRate:9
SliderMultiplier:1.4
SliderTickRate:1

[Events]
//Background and Video events
0,0,"jordan-grimmer-sketch-22-12.jpg",0,0
//Break Periods
//Storyboard Layer 0 (Background)
//Storyboard Layer 1 (Fail)
//Storyboard Layer 2 (Pass)
//Storyboard Layer 3 (Foreground)
//Storyboard Layer 4 (Overlay)
//Storyboard Sound Samples

[TimingPoints]
92,300,4,2,2,100,1,0

[HitObjects]
109,192,92,5,0,0:0:0:0:
256,192,542,1,0,0:0:0:0:
475,192,992,1,0,0:0:0:0:
402,192,1292,1,0,0:0:0:0:
256,192,1742,1,0,0:0:0:0:
109,192,1892,1,0,0:0:0:0:
182,192,2192,1,0,0:0:0:0:
329,192,2492,1,0,0:0:0:0:
109,192,2942,1,0,0:0:0:0:
256,192,3392,1,0,0:0:0:0:
182,192,3692,1,0,0:0:0:0:
36,192,4892,1,0,0:0:0:0:
329,192,5492,1,0,0:0:0:0:
256,192,5792,1,0,0:0:0:0:
109,192,6092,1,0,0:0:0:0:
256,192,6392,1,0,0:0:0:0:
402,192,6542,1,0,0:0:0:0:
36,192,6992,1,0,0:0:0:0:
182,192,7292,1,0,0:0:0:0:
329,192,7892,1,0,0:0:0:0:
402,192,8192,1,0,0:0:0:0:
182,192,8492,1,0,0:0:0:0:
109,192,9692,1,0,0:0:0:0:
256,192,10142,1,0,0:0:0:0:
475,192,10592,1,0,0:0:0:0:
402,192,10892,1,0,0:0:0:0:
256,192,11342,1,0,0:0:0:0:
109,192,11492,1,0,0:0:0:0:
182,192,11792,1,0,0:0:0:0:
329,192,12092,1,0,0:0:0:0:
109,192,12542,1,0,0:0:0:0:
256,192,12992,1,0,0:0:0:0:
182,192,13292,1,0,0:0:0:0:
36,192,14492,1,0,0:0:0:0:
182,192,14942,1,0,0:0:0:0:
329,192,15092,1,0,0:0:0:0:
256,192,15392,1,0,0:0:0:0:
109,192,15692,1,0,0:0:0:0:
256,192,15992,1,0,0:0:0:0:
402,192,16142,1,0,0:0:0:0:
36,192,16592,1,0,0:0:0:0:
182,192,16892,1,0,0:0:0:0:
329,192,17492,1,0,0:0:0:0:
402,192,17792,1,0,0:0:0:0:
182,192,18092,128,0,19292:0:0:0:0:
475,192,19292,1,0,0:0:0:0:
402,192,19742,1,0,0:0:0:0:
256,192,20192,1,0,0:0:0:0:
36,192,21392,1,0,0:0:0:0:
182,192,21692,1,0,0:0:0:0:
329,192,22892,1,0,0:0:0:0:
109,192,23792,1,0,0:0:0:0:
256,192,23942,1,0,0:0:0:0:
475,192,24092,1,0,0:0:0:0:
402,192,24542,1,0,0:0:0:0:
256,192,24992,1,0,0:0:0:0:
329,192,25892,1,0,0:0:0:0:
36,192,26492,1,0,0:0:0:0:
475,192,28892,1,0,0:0:0:0:
402,192,29342,1,0,0:0:0:0:
256,192,29792,1,0,0:0:0:0:
36,192,30992,1,0,0:0:0:0:
182,192,31292,1,0,0:0:0:0:
329,192,32492,1,0,0:0:0:0:
109,192,33392,1,0,0:0:0:0:
256,192,33542,1,0,0:0:0:0:
402,192,33692,1,0,0:0:0:0:
182,192,34142,1,0,0:0:0:0:
475,192,34592,1,0,0:0:0:0:
109,192,35492,1,0,0:0:0:0:
402,192,35792,1,0,0:0:0:0:
36,192,36092,1,0,0:0:0:0:
329,192,37292,1,0,0:0:0:0:
182,192,38492,1,0,0:0:0:0:
475,192,38792,1,0,0:0:0:0:
36,192,38942,1,0,0:0:0:0:
109,192,39242,1,0,0:0:0:0:
256,192,39542,1,0,0:0:0:0:
329,192,39842,1,0,0:0:0:0:
182,192,40142,1,0,0:0:0:0:
402,192,40292,1,0,0:0:0:0:
402,192,40592,1,0,0:0:0:0:
109,192,40892,1,0,0:0:0:0:
475,192,41192,1,0,0:0:0:0:
329,192,41342,1,0,0:0:0:0:
256,192,41642,1,0,0:0:0:0:
182,192,41942,1,0,0:0:0:0:
36,192,42242,1,0,0:0:0:0:
109,192,42542,1,0,0:0:0:0:
329,192,42692,1,0,0:0:0:0:
402,192,42992,1,0,0:0:0:0:
36,192,43292,1,0,0:0:0:0:
36,192,43742,1,0,0:0:0:0:
256,192,44192,1,0,0:0:0:0:
182,192,48092,1,0,0:0:0:0:
475,192,48392,1,0,0:0:0:0:
36,192,48542,1,0,0:0:0:0:
109,192,48842,1,0,0:0:0:0:
256,192,49142,1,0,0:0:0:0:
329,192,49442,1,0,0:0:0:0:
182,192,49742,1,0,0:0:0:0:
402,192,49892,1,0,0:0:0:0:
475,192,50192,1,0,0:0:0:0:
329,192,50342,1,0,0:0:0:0:
109,192,50492,1,0,0:0:0:0:
36,192,50792,1,0,0:0:0:0:
182,192,50942,1,0,0:0:0:0:
256,192,51242,1,0,0:0:0:0:
475,192,51542,1,0,0:0:0:0:
402,192,51842,1,0,0:0:0:0:
256,192,52142,1,0,0:0:0:0:
329,192,52442,1,0,0:0:0:0:
36,192,52742,1,0,0:0:0:0:
182,192,52892,1,0,0:0:0:0:
402,192,53192,1,0,0:0:0:0:
109,192,53492,1,0,0:0:0:0:
256,192,53792,1,0,0:0:0:0:
329,192,54092,1,0,0:0:0:0:
182,192,54392,1,0,0:0:0:0:
475,192,54692,1,0,0:0:0:0:
402,192,54992,1,0,0:0:0:0:
256,192,55292,1,0,0:0:0:0:
329,192,55592,1,0,0:0:0:0:
109,192,55742,1,0,0:0:0:0:
109,192,56042,1,0,0:0:0:0:
182,192,56342,1,0,0:0:0:0:
402,192,57692,1,0,0:0:0:0:
36,192,57842,1,0,0:0:0:0:
109,192,58142,1,0,0:0:0:0:
256,192,58442,1,0,0:0:0:0:
329,192,59792,1,0,0:0:0:0:
475,192,60092,1,0,0:0:0:0:
109,192,60242,1,0,0:0:0:0:
182,192,60542,1,0,0:0:0:0:
256,192,60842,1,0,0:0:0:0:
475,192,61142,1,0,0:0:0:0:
402,192,61442,1,0,0:0:0:0:
329,192,61742,1,0,0:0:0:0:
36,192,62192,1,0,0:0:0:0:
36,192,62492,1,0,0:0:0:0:
475,192,62942,1,0,0:0:0:0:
109,192,63392,1,0,0:0:0:0:
402,192,63842,1,0,0:0:0:0:
182,192,64292,1,0,0:0:0:0:
329,192,64592,1,0,0:0:0:0:
182,192,66992,1,0,0:0:0:0:
402,192,67292,1,0,0:0:0:0:
36,192,67442,1,0,0:0:0:0:
109,192,67742,1,0,0:0:0:0:
256,192,68042,1,0,0:0:0:0:
329,192,69392,1,0,0:0:0:0:
475,192,69692,1,0,0:0:0:0:
109,192,69842,1,0,0:0:0:0:
182,192,70142,1,0,0:0:0:0:
256,192,70442,1,0,0:0:0:0:
475,192,70742,1,0,0:0:0:0:
402,192,71042,1,0,0:0:0:0:
475,192,71342,1,0,0:0:0:0:
329,192,71792,1,0,0:0:0:0:
329,192,72092,1,0,0:0:0:0:
475,192,72542,1,0,0:0:0:0:
182,192,72992,1,0,0:0:0:0:
402,192,73442,1,0,0:0:0:0:
109,192,73892,1,0,0:0:0:0:
329,192,74192,1,0,0:0:0:0:
475,192,76892,1,0,0:0:0:0:
402,192,77192,1,0,0:0:0:0:
182,192,77342,1,0,0:0:0:0:
36,192,77642,1,0,0:0:0:0:
256,192,77942,1,0,0:0:0:0:
109,192,78992,1,0,0:0:0:0:
256,192,79142,1,0,0:0:0:0:
475,192,79292,1,0,0:0:0:0:
402,192,79592,1,0,0:0:0:0:
182,192,79742,1,0,0:0:0:0:
36,192,80042,1,0,0:0:0:0:
402,192,80342,1,0,0:0:0:0:
329,192,80642,1,0,0:0:0:0:
256,192,80942,1,0,0:0:0:0:
182,192,81242,1,0,0:0:0:0:
109,192,81542,1,0,0:0:0:0:
402,192,81692,1,0,0:0:0:0:
475,192,81992,1,0,0:0:0:0:
329,192,82142,1,0,0:0:0:0:
182,192,82442,1,0,0:0:0:0:
36,192,82742,1,0,0:0:0:0:
475,192,86492,1,0,0:0:0:0:
402,192,86792,1,0,0:0:0:0:
182,192,86942,1,0,0:0:0:0:
36,192,87242,1,0,0:0:0:0:
256,192,87542,1,0,0:0:0:0:
109,192,88592,1,0,0:0:0:0:
329,192,88742,1,0,0:0:0:0:
402,192,88892,1,0,0:0:0:0:
256,192,89192,1,0,0:0:0:0:
402,192,89342,1,0,0:0:0:0:
182,192,89642,1,0,0:0:0:0:
475,192,89942,1,0,0:0:0:0:
402,192,90242,1,0,0:0:0:0:
256,192,90542,1,0,0:0:0:0:
182,192,90842,1,0,0:0:0:0:
256,192,90992,1,0,0:0:0:0:
329,192,91142,1,0,0:0:0:0:
402,192,91292,1,0,0:0:0:0:
36,192,91592,1,0,0:0:0:0:
182,192,91742,1,0,0:0:0:0:
256,192,92042,1,0,0:0:0:0:
475,192,92342,1,0,0:0:0:0:
402,192,92642,1,0,0:0:0:0:
329,192,92942,1,0,0:0:0:0:
109,192,93242,1,0,0:0:0:0:
36,192,93542,1,0,0:0:0:0:
256,192,93692,1,0,0:0:0:0:
109,192,93992,1,0,0:0:0:0:
402,192,94292,1,0,0:0:0:0:
182,192,94592,1,0,0:0:0:0:
475,192,94892,1,0,0:0:0:0:
329,192,95192,1,0,0:0:0:0:
182,192,95492,1,0,0:0:0:0:
36,192,95792,1,0,0:0:0:0:
402,192,96092,1,0,0:0:0:0:
475,192,96392,1,0,0:0:0:0:
256,192,96542,1,0,0:0:0:0:
36,192,96842,1,0,0:0:0:0:
109,192,97142,1,0,0:0:0:0:
182,192,97442,1,0,0:0:0:0:
329,192,97742,1,0,0:0:0:0:
256,192,98042,1,0,0:0:0:0:
402,192,98192,1,0,0:0:0:0:
475,192,98492,1,0,0:0:0:0:
182,192,98792,1,0,0:0:0:0:
329,192,98942,1,0,0:0:0:0:
36,192,99242,1,0,0:0:0:0:
109,192,99542,1,0,0:0:0:0:
256,192,99842,1,0,0:0:0:0:
402,192,100142,1,0,0:0:0:0:
182,192,100442,1,0,0:0:0:0:
256,192,100592,1,0,0:0:0:0:
329,192,100742,1,0,0:0:0:0:
475,192,100892,1,0,0:0:0:0:
182,192,101192,1,0,0:0:0:0:
36,192,101342,1,0,0:0:0:0:
109,192,101642,1,0,0:0:0:0:
256,192,101942,1,0,0:0:0:0:
402,192,102242,1,0,0:0:0:0:
475,192,102542,1,0,0:0:0:0:
182,192,102842,1,0,0:0:0:0:
329,192,102992,1,0,0:0:0:0:
475,192,103142,1,0,0:0:0:0:
109,192,103292,1,0,0:0:0:0:
402,192,103592,1,0,0:0:0:0:
329,192,103742,1,0,0:0:0:0:
256,192,104042,1,0,0:0:0:0:
182,192,104342,1,0,0:0:0:0:
109,192,104642,1,0,0:0:0:0:
329,192,104942,1,0,0:0:0:0:
36,192,105242,1,0,0:0:0:0:
402,192,105392,1,0,0:0:0:0:
182,192,105692,1,0,0:0:0:0:
475,192,105992,1,0,0:0:0:0:
256,192,106142,1,0,0:0:0:0:
36,192,106442,1,0,0:0:0:0:
109,192,106742,1,0,0:0:0:0:
182,192,107042,1,0,0:0:0:0:
329,192,107342,1,0,0:0:0:0:
256,192,107642,1,0,0:0:0:0:
402,192,107792,1,0,0:0:0:0:
475,192,108092,1,0,0:0:0:0:
182,192,108392,1,0,0:0:0:0:
329,192,108542,1,0,0:0:0:0:
36,192,108842,1,0,0:0:0:0:
109,192,109142,1,0,0:0:0:0:
256,192,109442,1,0,0:0:0:0:
402,192,109742,1,0,0:0:0:0:
182,192,110042,1,0,0:0:0:0:
256,192,110192,1,0,0:0:0:0:
329,192,110342,1,0,0:0:0:0:
475,192,110492,1,0,0:0:0:0:
182,192,110792,1,0,0:0:0:0:
36,192,110942,1,0,0:0:0:0:
109,192,111242,1,0,0:0:0:0:
182,192,111542,1,0,0:0:0:0:
256,192,111842,1,0,0:0:0:0:
329,192,112142,1,0,0:0:0:0:
402,192,112442,1,0,0:0:0:0:
256,192,112742,1,0,0:0:0:0:
475,192,112892,1,0,0:0:0:0:
402,192,113192,1,0,0:0:0:0:
329,192,113342,1,0,0:0:0:0:
256,192,113642,1,0,0:0:0:0:
182,192,113942,1,0,0:0:0:0:
109,192,114242,1,0,0:0:0:0:
256,192,114392,1,0,0:0:0:0:
402,192,114542,1,0,0:0:0:0:
36,192,114692,1,0,0:0:0:0:
109,192,114992,1,0,0:0:0:0:
475,192,115292,1,0,0:0:0:0:
329,192,115442,1,0,0:0:0:0:
36,192,115742,1,0,0:0:0:0:
182,192,115892,1,0,0:0:0:0:
475,192,116192,1,0,0:0:0:0:
329,192,116342,1,0,0:0:0:0:
36,192,116642,1,0,0:0:0:0:
182,192,116792,1,0,0:0:0:0:
475,192,117092,1,0,0:0:0:0:
329,192,117242,1,0,0:0:0:0:
182,192,117392,1,0,0:0:0:0:
256,192,117692,1,0,0:0:0:0:
36,192,117842,1,0,0:0:0:0:
329,192,118142,1,0,0:0:0:0:
109,192,118292,1,0,0:0:0:0:
402,192,118592,1,0,0:0:0:0:
182,192,118742,1,0,0:0:0:0:
475,192,119042,1,0,0:0:0:0:
329,192,119192,1,0,0:0:0:0:
256,192,119342,1,0,0:0:0:0:
109,192,119492,1,0,0:0:0:0:
109,192,119792,1,0,0:0:0:0:
329,192,120092,1,0,0:0:0:0:
402,192,120242,1,0,0:0:0:0:
475,192,120392,1,0,0:0:0:0:
109,192,120692,1,0,0:0:0:0:
36,192,120842,1,0,0:0:0:0:
329,192,121142,1,0,0:0:0:0:
402,192,121292,1,0,0:0:0:0:
182,192,121592,1,0,0:0:0:0:
109,192,121742,1,0,0:0:0:0:
256,192,122042,1,0,0:0:0:0:
329,192,122192,1,0,0:0:0:0:
475,192,122492,1,0,0:0:0:0:
256,192,122642,1,0,0:0:0:0:
36,192,122792,1,0,0:0:0:0:
402,192,123092,1,0,0:0:0:0:
182,192,123392,1,0,0:0:0:0:
329,192,123692,1,0,0:0:0:0:
256,192,123842,1,0,0:0:0:0:
109,192,123992,1,0,0:0:0:0:
36,192,124292,1,0,0:0:0:0:
182,192,124592,1,0,0:0:0:0:
402,192,124892,1,0,0:0:0:0:
329,192,125042,1,0,0:0:0:0:
109,192,125342,1,0,0:0:0:0:
182,192,125492,1,0,0:0:0:0:
402,192,125792,1,0,0:0:0:0:
329,192,125942,1,0,0:0:0:0:
109,192,126242,1,0,0:0:0:0:
182,192,126392,1,0,0:0:0:0:
402,192,126692,1,0,0:0:0:0:
329,192,126842,1,0,0:0:0:0:
256,192,126992,1,0,0:0:0:0:
475,192,127292,1,0,0:0:0:0:
329,192,127442,1,0,0:0:0:0:
109,192,127742,1,0,0:0:0:0:
36,192,127892,1,0,0:0:0:0:
402,192,128192,1,0,0:0:0:0:
256,192,128342,1,0,0:0:0:0:
329,192,128642,1,0,0:0:0:0:
182,192,128792,1,0,0:0:0:0:
109,192,128942,1,0,0:0:0:0:
475,192,129092,1,0,0:0:0:0:
402,192,129242,1,0,0:0:0:0:
256,192,129392,1,0,0:0:0:0:
329,192,129692,1,0,0:0:0:0:
329,192,129917,1,0,0:0:0:0:
182,192,130142,1,0,0:0:0:0:
402,192,130292,1,0,0:0:0:0:
402,192,130592,1,0,0:0:0:0:
109,192,130892,1,0,0:0:0:0:
109,192,131117,1,0,0:0:0:0:
109,192,131342,1,0,0:0:0:0:
475,192,131492,1,0,0:0:0:0:
475,192,131792,1,0,0:0:0:0:
36,192,132092,1,0,0:0:0:0:
182,192,132242,1,0,0:0:0:0:
256,192,132392,1,0,0:0:0:0:
329,192,132692,1,0,0:0:0:0:
109,192,132842,1,0,0:0:0:0:
36,192,132992,1,0,0:0:0:0:
402,192,133292,1,0,0:0:0:0:
182,192,133442,1,0,0:0:0:0:
329,192,133592,1,0,0:0:0:0:
475,192,133892,1,0,0:0:0:0:
402,192,134042,1,0,0:0:0:0:
256,192,134192,1,0,0:0:0:0:
109,192,134342,1,0,0:0:0:0:
36,192,134492,128,0,139892:0:0:0:0:
