osu file format v14

[General]
AudioFilename: audio.mp3
AudioLeadIn: 0
PreviewTime: 147235
Countdown: 0
SampleSet: None
StackLeniency: 0.7
Mode: 3
LetterboxInBreaks: 0
SpecialStyle: 0
WidescreenStoryboard: 0

[Editor]
DistanceSpacing: 0.9
BeatDivisor: 16
GridSize: 8
TimelineZoom: 1.2

[Metadata]
Title:Stronger Than You
TitleUnicode:Stronger Than You
Artist:achie/djsmell/Milkychan
ArtistUnicode:achie/djsmell/Milkychan
Creator:Alyxia
Version:Stronger
Source:
Tags:marathon
BeatmapID:1102916
BeatmapSetID:519137

[Difficulty]
HPDrainRate:7
CircleSize:4
OverallDifficulty:7
ApproachRate:5
SliderMultiplier:1.1
SliderTickRate:1

[Events]
//Background and Video events
0,0,"frisk_wallpaper_by_shinjifurokawa-d9hkv67.jpg",0,0
//Break Periods
//Storyboard Layer 0 (Background)
//Storyboard Layer 1 (Fail)
//Storyboard Layer 2 (Pass)
//Storyboard Layer 3 (Foreground)
//Storyboard Sound Samples

[TimingPoints]
418,612.05753340814,4,2,0,60,1,0
29490,-100,4,2,0,60,0,0
38977,-100,4,2,0,60,0,0
49382,-100,4,2,0,60,0,1
67820,-100,4,2,0,60,0,0
117933,-100,4,2,0,60,0,1
147388,-100,4,2,0,60,0,0
194669,-100,4,2,0,60,0,1
225578,-100,4,2,0,60,0,0
245164,-100,4,2,0,60,0,1
279380,-100,4,2,0,60,0,0

[HitObjects]
64,192,418,128,8,1489:0:0:0:0:
320,192,418,128,8,1489:0:0:0:0:
448,192,418,128,8,1489:0:0:0:0:
320,192,1642,128,8,2713:0:0:0:0:
192,192,1642,128,8,2713:0:0:0:0:
64,192,2866,128,8,4090:0:0:0:0:
192,192,4090,128,8,4702:0:0:0:0:
320,192,4702,128,8,5314:0:0:0:0:
448,192,5314,128,8,6538:0:0:0:0:
64,192,6538,128,8,7609:0:0:0:0:
448,192,7686,128,8,9828:0:0:0:0:
320,192,7686,128,8,9828:0:0:0:0:
192,192,7686,128,8,9828:0:0:0:0:
64,192,10210,128,8,10822:0:0:0:0:
448,192,10516,1,8,0:0:0:0:
448,192,10669,1,8,0:0:0:0:
320,192,10822,1,8,0:0:0:0:
448,192,11129,1,8,0:0:0:0:
448,192,11282,1,8,0:0:0:0:
192,192,11435,1,8,0:0:0:0:
64,192,11435,128,8,12200:0:0:0:0:
448,192,11741,1,8,0:0:0:0:
448,192,11894,1,8,0:0:0:0:
320,192,12047,1,8,0:0:0:0:
192,192,12200,1,8,0:0:0:0:
64,192,12353,1,8,0:0:0:0:
448,192,12659,128,8,13271:0:0:0:0:
320,192,12659,128,8,13271:0:0:0:0:
64,192,12965,1,8,0:0:0:0:
64,192,13118,1,8,0:0:0:0:
64,192,13271,1,8,0:0:0:0:
320,192,13577,1,8,0:0:0:0:
192,192,13730,1,8,0:0:0:0:
448,192,13883,1,8,0:0:0:0:
448,192,14036,1,8,0:0:0:0:
320,192,14189,1,8,0:0:0:0:
64,192,14189,1,8,0:0:0:0:
192,192,14342,1,8,0:0:0:0:
448,192,14342,1,8,0:0:0:0:
64,192,14495,1,8,0:0:0:0:
192,192,14648,1,8,0:0:0:0:
448,192,14648,1,8,0:0:0:0:
320,192,14801,1,8,0:0:0:0:
192,192,14954,1,8,0:0:0:0:
64,192,15107,1,8,0:0:0:0:
448,192,15107,128,8,15566:0:0:0:0:
320,192,15107,128,8,15413:0:0:0:0:
64,192,15413,1,8,0:0:0:0:
192,192,15413,128,8,15872:0:0:0:0:
320,192,15566,128,8,16025:0:0:0:0:
64,192,15566,1,8,0:0:0:0:
64,192,15872,1,8,0:0:0:0:
448,192,16178,1,8,0:0:0:0:
192,192,16178,1,8,0:0:0:0:
320,192,16331,1,8,0:0:0:0:
64,192,16331,1,8,0:0:0:0:
192,192,16484,1,8,0:0:0:0:
192,192,16637,1,8,0:0:0:0:
448,192,16943,1,8,0:0:0:0:
192,192,16943,1,8,0:0:0:0:
448,192,17096,128,8,17555:0:0:0:0:
320,192,17249,128,8,17708:0:0:0:0:
192,192,17402,1,8,0:0:0:0:
64,192,17555,128,8,18167:0:0:0:0:
192,192,17861,1,8,0:0:0:0:
192,192,18014,1,8,0:0:0:0:
192,192,18167,1,8,0:0:0:0:
320,192,18320,1,8,0:0:0:0:
448,192,18473,1,8,0:0:0:0:
448,192,18626,1,8,0:0:0:0:
320,192,18779,1,8,0:0:0:0:
64,192,18779,1,8,0:0:0:0:
448,192,18932,1,8,0:0:0:0:
192,192,18932,1,8,0:0:0:0:
64,192,19085,1,8,0:0:0:0:
320,192,19085,1,8,0:0:0:0:
448,192,19315,1,8,0:0:0:0:
320,192,19391,1,8,0:0:0:0:
192,192,19468,1,8,0:0:0:0:
320,192,19544,1,8,0:0:0:0:
448,192,19621,1,8,0:0:0:0:
64,192,19697,1,8,0:0:0:0:
64,192,20003,128,8,20615:0:0:0:0:
192,192,20003,128,8,20615:0:0:0:0:
448,192,20003,128,8,20615:0:0:0:0:
320,192,20309,1,8,0:0:0:0:
320,192,20462,1,8,0:0:0:0:
320,192,20615,1,8,0:0:0:0:
192,192,20921,1,8,0:0:0:0:
448,192,20921,1,8,0:0:0:0:
320,192,21074,1,8,0:0:0:0:
64,192,21074,1,8,0:0:0:0:
448,192,21227,1,8,0:0:0:0:
192,192,21227,1,8,0:0:0:0:
64,192,21380,1,8,0:0:0:0:
192,192,21533,1,8,0:0:0:0:
192,192,21840,128,8,22452:0:0:0:0:
448,192,22452,128,8,23064:0:0:0:0:
320,192,22452,128,8,23064:0:0:0:0:
64,192,22758,1,8,0:0:0:0:
64,192,22911,1,8,0:0:0:0:
192,192,23064,1,8,0:0:0:0:
448,192,23370,1,8,0:0:0:0:
64,192,23370,1,8,0:0:0:0:
320,192,23523,1,8,0:0:0:0:
64,192,23523,1,8,0:0:0:0:
192,192,23676,1,8,0:0:0:0:
64,192,23829,1,8,0:0:0:0:
320,192,23829,1,8,0:0:0:0:
192,192,23982,1,8,0:0:0:0:
448,192,23982,1,8,0:0:0:0:
64,192,24135,1,8,0:0:0:0:
64,192,24288,1,8,0:0:0:0:
192,192,24594,1,8,0:0:0:0:
448,192,24594,1,8,0:0:0:0:
64,192,24747,1,8,0:0:0:0:
320,192,24747,1,8,0:0:0:0:
320,192,24900,128,8,25206:0:0:0:0:
448,192,25206,128,8,25512:0:0:0:0:
320,192,25512,128,8,25818:0:0:0:0:
448,192,25818,128,8,26124:0:0:0:0:
320,192,26124,128,8,26430:0:0:0:0:
192,192,26430,1,8,0:0:0:0:
192,192,26583,1,8,0:0:0:0:
64,192,26736,1,8,0:0:0:0:
64,192,27042,1,8,0:0:0:0:
64,192,27348,128,8,27807:0:0:0:0:
192,192,27348,128,8,27807:0:0:0:0:
448,192,27348,128,8,27807:0:0:0:0:
320,192,27654,1,8,0:0:0:0:
320,192,27807,1,8,0:0:0:0:
320,192,27960,1,8,0:0:0:0:
192,192,28113,1,8,0:0:0:0:
192,192,28266,1,8,0:0:0:0:
64,192,28419,1,8,0:0:0:0:
320,192,28419,1,8,0:0:0:0:
192,192,28572,1,8,0:0:0:0:
448,192,28572,1,8,0:0:0:0:
320,192,28725,1,8,0:0:0:0:
64,192,28725,1,8,0:0:0:0:
448,192,28878,1,8,0:0:0:0:
192,192,28878,1,8,0:0:0:0:
320,192,29031,1,8,0:0:0:0:
64,192,29031,1,8,0:0:0:0:
64,192,29490,1,8,0:0:0:0:
320,192,29490,1,8,0:0:0:0:
320,192,29796,1,8,0:0:0:0:
64,192,29796,128,8,30255:0:0:0:0:
192,192,29796,128,8,30255:0:0:0:0:
320,192,30102,1,8,0:0:0:0:
320,192,30408,1,8,0:0:0:0:
192,192,30561,1,8,0:0:0:0:
64,192,30714,1,8,0:0:0:0:
192,192,30867,1,8,0:0:0:0:
64,192,31020,1,8,0:0:0:0:
192,192,31020,1,8,0:0:0:0:
320,192,31020,128,8,31632:0:0:0:0:
448,192,31020,128,8,31632:0:0:0:0:
64,192,31326,1,8,0:0:0:0:
192,192,31326,1,8,0:0:0:0:
192,192,31632,1,8,0:0:0:0:
192,192,31938,1,8,0:0:0:0:
320,192,32244,1,8,0:0:0:0:
448,192,32244,1,8,0:0:0:0:
64,192,32244,128,8,32857:0:0:0:0:
192,192,32244,128,8,32857:0:0:0:0:
448,192,32551,1,8,0:0:0:0:
320,192,32704,1,8,0:0:0:0:
448,192,32857,1,8,0:0:0:0:
320,192,33010,1,8,0:0:0:0:
192,192,33163,1,8,0:0:0:0:
64,192,33316,1,8,0:0:0:0:
320,192,33469,1,8,0:0:0:0:
448,192,33469,1,8,0:0:0:0:
64,192,33775,1,8,0:0:0:0:
192,192,33775,1,8,0:0:0:0:
320,192,34387,1,8,0:0:0:0:
448,192,34387,1,8,0:0:0:0:
448,192,34693,1,8,0:0:0:0:
64,192,34693,128,8,35305:0:0:0:0:
192,192,34693,128,8,35305:0:0:0:0:
320,192,34999,1,8,0:0:0:0:
448,192,35305,1,8,0:0:0:0:
320,192,35458,1,8,0:0:0:0:
192,192,35611,1,8,0:0:0:0:
64,192,35764,1,8,0:0:0:0:
192,192,35917,1,8,0:0:0:0:
320,192,35917,128,8,36529:0:0:0:0:
448,192,35917,128,8,36529:0:0:0:0:
64,192,36223,1,8,0:0:0:0:
320,192,36682,1,8,0:0:0:0:
192,192,36835,1,8,0:0:0:0:
320,192,36988,1,8,0:0:0:0:
64,192,37141,128,8,37447:0:0:0:0:
192,192,37141,1,8,0:0:0:0:
64,192,37600,1,8,0:0:0:0:
192,192,37753,1,8,0:0:0:0:
320,192,37753,128,8,38059:0:0:0:0:
448,192,38212,1,8,0:0:0:0:
64,192,38365,128,8,38748:0:0:0:0:
192,192,38365,128,8,38748:0:0:0:0:
448,192,38365,1,8,0:0:0:0:
320,192,38365,1,8,0:0:0:0:
320,192,38671,1,8,0:0:0:0:
448,192,38671,1,8,0:0:0:0:
64,192,38977,1,8,0:0:0:0:
320,192,38977,1,8,0:0:0:0:
192,192,39130,1,8,0:0:0:0:
448,192,39130,1,8,0:0:0:0:
320,192,39283,1,8,0:0:0:0:
64,192,39283,1,8,0:0:0:0:
448,192,39436,1,8,0:0:0:0:
64,192,39436,1,8,0:0:0:0:
320,192,39589,1,8,0:0:0:0:
192,192,39589,1,8,0:0:0:0:
64,192,39589,1,8,0:0:0:0:
192,192,39895,1,8,0:0:0:0:
320,192,39895,1,8,0:0:0:0:
448,192,39895,1,8,0:0:0:0:
64,192,40201,1,8,0:0:0:0:
448,192,40201,1,8,0:0:0:0:
320,192,40507,1,8,0:0:0:0:
448,192,40660,1,8,0:0:0:0:
320,192,40813,1,8,0:0:0:0:
64,192,40813,1,8,0:0:0:0:
64,192,41119,1,8,0:0:0:0:
192,192,41272,1,8,0:0:0:0:
448,192,41425,1,8,0:0:0:0:
320,192,41578,1,8,0:0:0:0:
192,192,41731,1,8,0:0:0:0:
64,192,41884,1,8,0:0:0:0:
320,192,42037,1,8,0:0:0:0:
448,192,42037,1,8,0:0:0:0:
192,192,42343,1,8,0:0:0:0:
64,192,42343,1,8,0:0:0:0:
192,192,42649,1,8,0:0:0:0:
448,192,42649,1,8,0:0:0:0:
448,192,42955,1,8,0:0:0:0:
192,192,43109,1,8,0:0:0:0:
64,192,43109,1,8,0:0:0:0:
64,192,43262,1,8,0:0:0:0:
448,192,43262,1,8,0:0:0:0:
320,192,43568,128,8,43721:0:0:0:0:
448,192,43874,128,8,44027:0:0:0:0:
320,192,44027,128,8,44180:0:0:0:0:
192,192,44180,128,8,44333:0:0:0:0:
64,192,44333,128,8,44486:0:0:0:0:
192,192,44486,128,8,44715:0:0:0:0:
320,192,44486,128,8,44715:0:0:0:0:
448,192,44486,128,8,44715:0:0:0:0:
64,192,44792,128,8,45098:0:0:0:0:
192,192,44792,128,8,45098:0:0:0:0:
320,192,44792,128,8,45098:0:0:0:0:
448,192,45098,128,8,45404:0:0:0:0:
320,192,45327,128,8,45557:0:0:0:0:
192,192,45557,128,8,45863:0:0:0:0:
320,192,45786,1,8,0:0:0:0:
448,192,46016,1,8,0:0:0:0:
320,192,46169,1,8,0:0:0:0:
448,192,46322,1,8,0:0:0:0:
192,192,46475,1,8,0:0:0:0:
64,192,46781,1,8,0:0:0:0:
320,192,46934,1,8,0:0:0:0:
64,192,46934,1,8,0:0:0:0:
448,192,47240,1,8,0:0:0:0:
320,192,47393,1,8,0:0:0:0:
192,192,47699,1,8,0:0:0:0:
448,192,47852,1,8,0:0:0:0:
320,192,48005,1,8,0:0:0:0:
448,192,48311,1,8,0:0:0:0:
448,192,48770,1,8,0:0:0:0:
192,192,48770,1,8,0:0:0:0:
320,192,48923,1,8,0:0:0:0:
64,192,48923,1,8,0:0:0:0:
192,192,49229,1,8,0:0:0:0:
320,192,49229,1,8,0:0:0:0:
64,192,49382,128,8,49688:0:0:0:0:
448,192,49382,128,8,49688:0:0:0:0:
448,192,49994,128,8,50147:0:0:0:0:
192,192,49994,128,8,50147:0:0:0:0:
64,192,50300,128,8,50453:0:0:0:0:
320,192,50300,128,8,50453:0:0:0:0:
448,192,50300,128,8,50453:0:0:0:0:
320,192,50606,128,8,50912:0:0:0:0:
64,192,50606,128,8,50912:0:0:0:0:
192,192,50606,128,8,50912:0:0:0:0:
448,192,51065,128,8,51371:0:0:0:0:
320,192,51065,128,8,51371:0:0:0:0:
192,192,51065,128,8,51371:0:0:0:0:
64,192,51524,128,8,51830:0:0:0:0:
192,192,51524,128,8,51830:0:0:0:0:
320,192,51524,128,8,51830:0:0:0:0:
448,192,52136,1,8,0:0:0:0:
192,192,52289,1,8,0:0:0:0:
448,192,52442,128,8,52595:0:0:0:0:
320,192,52442,128,8,52595:0:0:0:0:
64,192,52442,128,8,52595:0:0:0:0:
64,192,52748,128,8,52901:0:0:0:0:
192,192,52748,128,8,52901:0:0:0:0:
192,192,53054,128,8,53360:0:0:0:0:
320,192,53054,128,8,53360:0:0:0:0:
448,192,53054,128,8,53360:0:0:0:0:
448,192,53513,128,8,53820:0:0:0:0:
320,192,53513,128,8,53820:0:0:0:0:
64,192,53513,128,8,53820:0:0:0:0:
64,192,53973,128,8,54279:0:0:0:0:
192,192,53973,128,8,54279:0:0:0:0:
448,192,53973,128,8,54279:0:0:0:0:
320,192,54432,1,8,0:0:0:0:
192,192,54585,1,8,0:0:0:0:
64,192,54738,1,8,0:0:0:0:
448,192,54891,128,8,55350:0:0:0:0:
320,192,55044,128,8,55503:0:0:0:0:
192,192,55197,128,8,55656:0:0:0:0:
64,192,55503,128,8,56115:0:0:0:0:
448,192,55503,128,8,56115:0:0:0:0:
192,192,55962,128,8,56421:0:0:0:0:
320,192,55962,128,8,56421:0:0:0:0:
448,192,56421,128,8,57033:0:0:0:0:
64,192,56421,128,8,57033:0:0:0:0:
320,192,56880,1,8,0:0:0:0:
192,192,57033,1,8,0:0:0:0:
64,192,57186,1,8,0:0:0:0:
192,192,57339,1,8,0:0:0:0:
320,192,57339,1,8,0:0:0:0:
448,192,57645,1,8,0:0:0:0:
320,192,57645,1,8,0:0:0:0:
64,192,57645,1,8,0:0:0:0:
64,192,57798,1,8,0:0:0:0:
320,192,57798,1,8,0:0:0:0:
192,192,57951,1,8,0:0:0:0:
448,192,57951,1,8,0:0:0:0:
448,192,58257,1,8,0:0:0:0:
320,192,58563,1,8,0:0:0:0:
448,192,58563,1,8,0:0:0:0:
192,192,58716,1,8,0:0:0:0:
448,192,58716,1,8,0:0:0:0:
64,192,58869,1,8,0:0:0:0:
448,192,58869,1,8,0:0:0:0:
448,192,59175,1,8,0:0:0:0:
320,192,59175,1,8,0:0:0:0:
192,192,59175,1,8,0:0:0:0:
64,192,59175,1,8,0:0:0:0:
192,192,59787,128,8,59940:0:0:0:0:
448,192,59787,128,8,59940:0:0:0:0:
448,192,60093,128,8,60246:0:0:0:0:
64,192,60093,128,8,60246:0:0:0:0:
320,192,60093,128,8,60246:0:0:0:0:
320,192,60399,128,8,60705:0:0:0:0:
64,192,60399,128,8,60705:0:0:0:0:
192,192,60399,128,8,60705:0:0:0:0:
320,192,60858,128,8,61164:0:0:0:0:
192,192,60858,128,8,61164:0:0:0:0:
448,192,60858,128,8,61164:0:0:0:0:
192,192,61317,128,8,61623:0:0:0:0:
64,192,61317,128,8,61623:0:0:0:0:
320,192,61317,128,8,61623:0:0:0:0:
448,192,62235,128,8,62388:0:0:0:0:
320,192,62235,128,8,62388:0:0:0:0:
64,192,62235,128,8,62388:0:0:0:0:
192,192,62541,128,8,62694:0:0:0:0:
64,192,62541,128,8,62694:0:0:0:0:
320,192,62847,128,8,63153:0:0:0:0:
192,192,62847,128,8,63153:0:0:0:0:
448,192,62847,128,8,63153:0:0:0:0:
320,192,63306,128,8,63612:0:0:0:0:
64,192,63306,128,8,63612:0:0:0:0:
448,192,63306,128,8,63612:0:0:0:0:
64,192,63765,128,8,64071:0:0:0:0:
448,192,63765,128,8,64071:0:0:0:0:
192,192,63765,128,8,64071:0:0:0:0:
448,192,64684,128,8,65143:0:0:0:0:
320,192,64837,128,8,65296:0:0:0:0:
192,192,64990,128,8,65449:0:0:0:0:
64,192,65296,128,8,65908:0:0:0:0:
448,192,65296,128,8,65908:0:0:0:0:
192,192,65755,128,8,66214:0:0:0:0:
320,192,65755,128,8,66214:0:0:0:0:
448,192,66214,128,8,66826:0:0:0:0:
64,192,66214,128,8,66826:0:0:0:0:
320,192,66673,1,8,0:0:0:0:
192,192,66826,1,8,0:0:0:0:
64,192,66979,1,8,0:0:0:0:
192,192,67132,1,8,0:0:0:0:
320,192,67132,1,8,0:0:0:0:
448,192,67438,1,8,0:0:0:0:
320,192,67438,1,8,0:0:0:0:
64,192,67438,1,8,0:0:0:0:
64,192,67591,1,8,0:0:0:0:
320,192,67591,1,8,0:0:0:0:
192,192,67744,1,8,0:0:0:0:
448,192,67744,1,8,0:0:0:0:
448,192,68050,1,8,0:0:0:0:
320,192,68356,1,8,0:0:0:0:
448,192,68356,1,8,0:0:0:0:
64,192,68662,1,8,0:0:0:0:
320,192,68968,1,8,0:0:0:0:
192,192,68968,1,8,0:0:0:0:
64,192,68968,1,8,0:0:0:0:
448,192,68968,128,8,71416:0:0:0:0:
64,192,69274,1,8,0:0:0:0:
64,192,69427,1,8,0:0:0:0:
192,192,69733,1,8,0:0:0:0:
320,192,69886,1,8,0:0:0:0:
320,192,70804,1,8,0:0:0:0:
192,192,71110,1,8,0:0:0:0:
320,192,71416,128,8,73864:0:0:0:0:
192,192,71416,1,8,0:0:0:0:
64,192,71416,1,8,0:0:0:0:
192,192,71722,1,8,0:0:0:0:
192,192,71875,1,8,0:0:0:0:
448,192,72181,1,8,0:0:0:0:
64,192,72334,1,8,0:0:0:0:
192,192,73711,1,8,0:0:0:0:
448,192,73864,128,8,76313:0:0:0:0:
64,192,73864,1,8,0:0:0:0:
192,192,73864,1,8,0:0:0:0:
320,192,74170,1,8,0:0:0:0:
192,192,74323,1,8,0:0:0:0:
192,192,74629,1,8,0:0:0:0:
192,192,75089,1,8,0:0:0:0:
64,192,75395,1,8,0:0:0:0:
320,192,75701,1,8,0:0:0:0:
192,192,76007,1,8,0:0:0:0:
64,192,76313,128,8,78761:0:0:0:0:
192,192,76313,1,8,0:0:0:0:
320,192,76313,1,8,0:0:0:0:
448,192,76619,1,8,0:0:0:0:
320,192,76772,1,8,0:0:0:0:
320,192,77078,1,8,0:0:0:0:
192,192,77384,1,8,0:0:0:0:
320,192,77537,1,8,0:0:0:0:
448,192,77537,1,8,0:0:0:0:
320,192,78761,128,8,81209:0:0:0:0:
448,192,78761,1,8,0:0:0:0:
192,192,78761,1,8,0:0:0:0:
192,192,79067,1,8,0:0:0:0:
192,192,79220,1,8,0:0:0:0:
448,192,79373,1,8,0:0:0:0:
192,192,79526,1,8,0:0:0:0:
64,192,79679,1,8,0:0:0:0:
448,192,79985,1,8,0:0:0:0:
192,192,80291,1,8,0:0:0:0:
448,192,80597,1,8,0:0:0:0:
64,192,80597,1,8,0:0:0:0:
192,192,80903,1,8,0:0:0:0:
448,192,81209,128,8,83657:0:0:0:0:
64,192,81209,1,8,0:0:0:0:
192,192,81209,1,8,0:0:0:0:
320,192,81515,1,8,0:0:0:0:
320,192,81668,1,8,0:0:0:0:
64,192,81821,1,8,0:0:0:0:
192,192,81974,1,8,0:0:0:0:
320,192,82127,1,8,0:0:0:0:
64,192,82433,1,8,0:0:0:0:
320,192,82739,1,8,0:0:0:0:
320,192,82892,1,8,0:0:0:0:
64,192,83045,1,8,0:0:0:0:
192,192,83045,1,8,0:0:0:0:
64,192,83351,1,8,0:0:0:0:
192,192,83504,1,8,0:0:0:0:
64,192,83657,128,8,86106:0:0:0:0:
320,192,83657,1,8,0:0:0:0:
192,192,83657,1,8,0:0:0:0:
448,192,83963,1,8,0:0:0:0:
320,192,83963,1,8,0:0:0:0:
192,192,84116,1,8,0:0:0:0:
448,192,84269,1,8,0:0:0:0:
192,192,84422,1,8,0:0:0:0:
448,192,84575,1,8,0:0:0:0:
320,192,84728,1,8,0:0:0:0:
448,192,84881,1,8,0:0:0:0:
192,192,85034,1,8,0:0:0:0:
448,192,85187,1,8,0:0:0:0:
320,192,85340,1,8,0:0:0:0:
448,192,85493,1,8,0:0:0:0:
192,192,85647,1,8,0:0:0:0:
448,192,85800,1,8,0:0:0:0:
320,192,85953,1,8,0:0:0:0:
448,192,86106,128,8,87942:0:0:0:0:
320,192,86412,1,8,0:0:0:0:
192,192,86565,1,8,0:0:0:0:
192,192,86871,1,8,0:0:0:0:
64,192,87177,1,8,0:0:0:0:
64,192,87942,1,8,0:0:0:0:
192,192,87942,1,8,0:0:0:0:
320,192,87942,1,8,0:0:0:0:
192,192,88248,1,8,0:0:0:0:
192,192,88401,1,8,0:0:0:0:
64,192,88554,128,8,89166:0:0:0:0:
448,192,88554,128,8,89166:0:0:0:0:
192,192,89166,1,8,0:0:0:0:
320,192,89166,1,8,0:0:0:0:
448,192,89319,1,8,0:0:0:0:
320,192,89472,1,8,0:0:0:0:
448,192,89625,1,8,0:0:0:0:
320,192,89778,128,8,90390:0:0:0:0:
64,192,89778,128,8,90390:0:0:0:0:
192,192,90390,1,8,0:0:0:0:
448,192,90390,1,8,0:0:0:0:
448,192,91002,128,8,91614:0:0:0:0:
320,192,91002,128,8,91614:0:0:0:0:
192,192,91614,128,8,92226:0:0:0:0:
64,192,91614,128,8,92226:0:0:0:0:
448,192,92226,1,8,0:0:0:0:
320,192,92226,128,8,92838:0:0:0:0:
64,192,92838,128,8,93144:0:0:0:0:
192,192,92838,128,8,93144:0:0:0:0:
448,192,92838,1,8,0:0:0:0:
448,192,92991,1,8,0:0:0:0:
320,192,93144,1,8,0:0:0:0:
192,192,93297,1,8,0:0:0:0:
192,192,93450,128,8,94062:0:0:0:0:
320,192,93450,128,8,94062:0:0:0:0:
64,192,93450,128,8,94062:0:0:0:0:
448,192,93450,1,8,0:0:0:0:
448,192,94062,1,8,0:0:0:0:
320,192,94215,1,8,0:0:0:0:
448,192,94368,1,8,0:0:0:0:
320,192,94521,1,8,0:0:0:0:
64,192,94674,128,8,95286:0:0:0:0:
192,192,94674,128,8,95286:0:0:0:0:
448,192,94674,128,8,95286:0:0:0:0:
320,192,95286,1,8,0:0:0:0:
448,192,95898,128,8,96358:0:0:0:0:
320,192,95898,128,8,96358:0:0:0:0:
192,192,95898,1,8,0:0:0:0:
64,192,96051,1,8,0:0:0:0:
192,192,96205,1,8,0:0:0:0:
64,192,96358,1,8,0:0:0:0:
320,192,96511,128,8,96970:0:0:0:0:
448,192,96511,128,8,96970:0:0:0:0:
192,192,96511,1,8,0:0:0:0:
64,192,96664,1,8,0:0:0:0:
192,192,96817,1,8,0:0:0:0:
64,192,96970,1,8,0:0:0:0:
64,192,97123,128,8,97582:0:0:0:0:
192,192,97123,128,8,97582:0:0:0:0:
448,192,97123,1,8,0:0:0:0:
320,192,97276,1,8,0:0:0:0:
448,192,97429,1,8,0:0:0:0:
320,192,97582,1,8,0:0:0:0:
448,192,97735,1,8,0:0:0:0:
320,192,97888,1,8,0:0:0:0:
448,192,97888,1,8,0:0:0:0:
192,192,98041,1,8,0:0:0:0:
64,192,98194,1,8,0:0:0:0:
320,192,98194,1,8,0:0:0:0:
64,192,98347,1,8,0:0:0:0:
320,192,98347,1,8,0:0:0:0:
192,192,98500,1,8,0:0:0:0:
448,192,98500,1,8,0:0:0:0:
320,192,98653,1,8,0:0:0:0:
448,192,98653,1,8,0:0:0:0:
448,192,98959,1,8,0:0:0:0:
192,192,99265,1,8,0:0:0:0:
320,192,99265,1,8,0:0:0:0:
192,192,99418,1,8,0:0:0:0:
320,192,99418,1,8,0:0:0:0:
64,192,99571,128,8,100183:0:0:0:0:
192,192,99571,128,8,100183:0:0:0:0:
448,192,99571,128,8,100030:0:0:0:0:
448,192,100183,1,8,0:0:0:0:
320,192,100336,1,8,0:0:0:0:
192,192,100489,1,8,0:0:0:0:
64,192,100642,1,8,0:0:0:0:
192,192,100795,1,8,0:0:0:0:
320,192,100795,1,8,0:0:0:0:
320,192,101101,1,8,0:0:0:0:
448,192,101101,1,8,0:0:0:0:
448,192,101407,1,8,0:0:0:0:
448,192,101560,1,8,0:0:0:0:
320,192,101713,1,8,0:0:0:0:
192,192,101866,1,8,0:0:0:0:
64,192,102019,1,8,0:0:0:0:
320,192,102325,1,8,0:0:0:0:
448,192,102631,1,8,0:0:0:0:
448,192,102784,1,8,0:0:0:0:
320,192,102937,1,8,0:0:0:0:
192,192,103090,1,8,0:0:0:0:
64,192,103243,1,8,0:0:0:0:
320,192,103243,1,8,0:0:0:0:
192,192,103549,1,8,0:0:0:0:
448,192,103549,1,8,0:0:0:0:
448,192,103855,1,8,0:0:0:0:
448,192,104008,1,8,0:0:0:0:
320,192,104161,1,8,0:0:0:0:
192,192,104314,1,8,0:0:0:0:
64,192,104467,1,8,0:0:0:0:
320,192,104620,1,8,0:0:0:0:
448,192,104773,1,8,0:0:0:0:
320,192,104926,1,8,0:0:0:0:
448,192,105079,1,8,0:0:0:0:
448,192,105385,1,8,0:0:0:0:
320,192,105538,1,8,0:0:0:0:
192,192,105691,1,8,0:0:0:0:
64,192,105691,1,8,0:0:0:0:
448,192,105691,1,8,0:0:0:0:
64,192,105997,1,8,0:0:0:0:
192,192,105997,1,8,0:0:0:0:
320,192,106150,1,8,0:0:0:0:
448,192,106150,1,8,0:0:0:0:
448,192,106303,1,8,0:0:0:0:
320,192,106456,1,8,0:0:0:0:
192,192,106456,1,8,0:0:0:0:
192,192,106762,1,8,0:0:0:0:
320,192,106762,1,8,0:0:0:0:
448,192,106916,1,8,0:0:0:0:
64,192,107069,1,8,0:0:0:0:
320,192,107069,1,8,0:0:0:0:
448,192,107528,1,8,0:0:0:0:
192,192,107528,1,8,0:0:0:0:
320,192,107681,1,8,0:0:0:0:
64,192,107681,1,8,0:0:0:0:
192,192,107987,1,8,0:0:0:0:
448,192,107987,1,8,0:0:0:0:
64,192,108140,128,8,108599:0:0:0:0:
320,192,108140,128,8,108599:0:0:0:0:
192,192,108599,1,8,0:0:0:0:
448,192,108599,1,8,0:0:0:0:
320,192,108752,1,8,0:0:0:0:
448,192,108905,1,8,0:0:0:0:
320,192,109058,1,8,0:0:0:0:
320,192,109364,1,8,0:0:0:0:
192,192,109364,1,8,0:0:0:0:
64,192,109364,1,8,0:0:0:0:
320,192,109670,1,8,0:0:0:0:
448,192,109823,1,8,0:0:0:0:
320,192,109823,1,8,0:0:0:0:
192,192,109823,1,8,0:0:0:0:
192,192,110129,1,8,0:0:0:0:
64,192,110282,1,8,0:0:0:0:
192,192,110282,1,8,0:0:0:0:
448,192,110588,1,8,0:0:0:0:
448,192,110894,1,8,0:0:0:0:
320,192,111047,1,8,0:0:0:0:
192,192,111200,1,8,0:0:0:0:
64,192,111200,1,8,0:0:0:0:
192,192,111506,1,8,0:0:0:0:
320,192,111659,1,8,0:0:0:0:
448,192,111812,1,8,0:0:0:0:
320,192,111812,1,8,0:0:0:0:
320,192,112118,1,8,0:0:0:0:
448,192,112271,1,8,0:0:0:0:
320,192,112271,1,8,0:0:0:0:
192,192,112271,1,8,0:0:0:0:
192,192,112577,1,8,0:0:0:0:
64,192,112730,1,8,0:0:0:0:
192,192,112730,1,8,0:0:0:0:
448,192,112730,1,8,0:0:0:0:
64,192,113036,1,8,0:0:0:0:
448,192,113036,1,8,0:0:0:0:
192,192,113342,1,8,0:0:0:0:
448,192,113342,1,8,0:0:0:0:
320,192,113648,1,8,0:0:0:0:
448,192,113648,1,8,0:0:0:0:
448,192,113954,1,8,0:0:0:0:
64,192,114260,1,8,0:0:0:0:
320,192,114260,1,8,0:0:0:0:
448,192,114260,1,8,0:0:0:0:
448,192,114719,1,8,0:0:0:0:
320,192,114719,1,8,0:0:0:0:
192,192,114719,1,8,0:0:0:0:
64,192,115178,1,8,0:0:0:0:
192,192,115178,1,8,0:0:0:0:
320,192,115178,1,8,0:0:0:0:
64,192,115484,1,8,0:0:0:0:
192,192,115790,1,8,0:0:0:0:
320,192,116096,1,8,0:0:0:0:
448,192,116402,1,8,0:0:0:0:
192,192,116402,1,8,0:0:0:0:
192,192,116555,1,8,0:0:0:0:
320,192,116708,1,8,0:0:0:0:
448,192,117014,1,8,0:0:0:0:
320,192,117320,1,8,0:0:0:0:
192,192,117474,1,8,0:0:0:0:
64,192,117627,1,8,0:0:0:0:
192,192,117780,1,8,0:0:0:0:
192,192,117933,1,8,0:0:0:0:
448,192,117933,1,8,0:0:0:0:
320,192,117933,1,8,0:0:0:0:
448,192,118239,1,8,0:0:0:0:
320,192,118392,1,8,0:0:0:0:
64,192,118545,1,8,0:0:0:0:
192,192,118545,1,8,0:0:0:0:
320,192,118545,1,8,0:0:0:0:
320,192,118851,1,8,0:0:0:0:
448,192,118851,1,8,0:0:0:0:
192,192,119004,1,8,0:0:0:0:
64,192,119157,1,8,0:0:0:0:
192,192,119157,1,8,0:0:0:0:
320,192,119463,1,8,0:0:0:0:
192,192,119616,1,8,0:0:0:0:
320,192,119616,1,8,0:0:0:0:
192,192,119922,1,8,0:0:0:0:
448,192,120075,1,8,0:0:0:0:
192,192,120075,1,8,0:0:0:0:
64,192,120075,1,8,0:0:0:0:
448,192,120534,1,8,0:0:0:0:
192,192,120687,1,8,0:0:0:0:
64,192,120993,1,8,0:0:0:0:
320,192,120993,1,8,0:0:0:0:
448,192,120993,1,8,0:0:0:0:
320,192,121146,1,8,0:0:0:0:
448,192,121299,1,8,0:0:0:0:
320,192,121299,1,8,0:0:0:0:
192,192,121299,1,8,0:0:0:0:
192,192,121452,1,8,0:0:0:0:
448,192,121605,1,8,0:0:0:0:
64,192,121605,1,8,0:0:0:0:
192,192,121605,1,8,0:0:0:0:
320,192,121911,1,8,0:0:0:0:
64,192,122064,1,8,0:0:0:0:
448,192,122064,1,8,0:0:0:0:
320,192,122064,1,8,0:0:0:0:
192,192,122370,1,8,0:0:0:0:
64,192,122523,1,8,0:0:0:0:
192,192,122523,1,8,0:0:0:0:
320,192,122523,1,8,0:0:0:0:
320,192,123135,1,8,0:0:0:0:
448,192,123441,1,8,0:0:0:0:
320,192,123441,1,8,0:0:0:0:
192,192,123441,1,8,0:0:0:0:
192,192,123594,1,8,0:0:0:0:
64,192,123747,1,8,0:0:0:0:
192,192,123747,1,8,0:0:0:0:
320,192,123747,1,8,0:0:0:0:
320,192,123900,1,8,0:0:0:0:
448,192,124053,1,8,0:0:0:0:
320,192,124053,1,8,0:0:0:0:
192,192,124053,1,8,0:0:0:0:
192,192,124359,1,8,0:0:0:0:
64,192,124512,1,8,0:0:0:0:
192,192,124512,1,8,0:0:0:0:
448,192,124512,1,8,0:0:0:0:
320,192,124818,1,8,0:0:0:0:
64,192,124971,128,8,125889:0:0:0:0:
320,192,124971,128,8,125889:0:0:0:0:
448,192,124971,128,8,125889:0:0:0:0:
64,192,126501,1,8,0:0:0:0:
64,192,126654,1,8,0:0:0:0:
192,192,126960,1,8,0:0:0:0:
320,192,127113,1,8,0:0:0:0:
448,192,127266,1,8,0:0:0:0:
192,192,127266,1,8,0:0:0:0:
320,192,127419,1,8,0:0:0:0:
448,192,127572,1,8,0:0:0:0:
448,192,127725,128,8,128950:0:0:0:0:
320,192,128644,1,8,0:0:0:0:
192,192,128720,1,8,0:0:0:0:
64,192,128797,1,8,0:0:0:0:
192,192,128873,1,8,0:0:0:0:
320,192,128950,1,8,0:0:0:0:
192,192,129256,1,8,0:0:0:0:
64,192,129256,1,8,0:0:0:0:
448,192,129256,1,8,0:0:0:0:
448,192,129409,1,8,0:0:0:0:
320,192,129409,1,8,0:0:0:0:
192,192,129638,1,8,0:0:0:0:
448,192,129715,1,8,0:0:0:0:
192,192,129868,128,8,130862:0:0:0:0:
64,192,129868,128,8,130939:0:0:0:0:
448,192,130327,1,8,0:0:0:0:
448,192,130480,1,8,0:0:0:0:
448,192,131015,1,8,0:0:0:0:
320,192,131168,128,8,131551:0:0:0:0:
448,192,131551,1,8,0:0:0:0:
320,192,131704,1,8,0:0:0:0:
192,192,131780,1,8,0:0:0:0:
64,192,131857,1,8,0:0:0:0:
192,192,131933,1,8,0:0:0:0:
320,192,132010,1,8,0:0:0:0:
192,192,132086,1,8,0:0:0:0:
64,192,132163,1,8,0:0:0:0:
448,192,132163,1,8,0:0:0:0:
320,192,132239,1,8,0:0:0:0:
192,192,132316,128,8,133387:0:0:0:0:
64,192,132316,1,8,0:0:0:0:
448,192,132316,1,8,0:0:0:0:
64,192,132622,1,8,0:0:0:0:
448,192,132928,1,8,0:0:0:0:
64,192,133081,1,8,0:0:0:0:
320,192,133234,1,8,0:0:0:0:
448,192,133234,1,8,0:0:0:0:
192,192,133540,128,8,133693:0:0:0:0:
320,192,133540,128,8,133693:0:0:0:0:
320,192,133846,128,8,133923:0:0:0:0:
448,192,133846,128,8,133923:0:0:0:0:
64,192,133846,1,8,0:0:0:0:
192,192,133846,1,8,0:0:0:0:
192,192,134152,1,8,0:0:0:0:
192,192,134305,128,8,134382:0:0:0:0:
64,192,134305,128,8,134382:0:0:0:0:
448,192,134305,1,8,0:0:0:0:
320,192,134305,1,8,0:0:0:0:
448,192,134611,1,8,0:0:0:0:
192,192,134611,1,8,0:0:0:0:
448,192,134764,128,8,135835:0:0:0:0:
64,192,135682,1,8,0:0:0:0:
192,192,135682,1,8,0:0:0:0:
320,192,135873,1,8,0:0:0:0:
192,192,135912,1,8,0:0:0:0:
448,192,135950,128,8,136256:0:0:0:0:
320,192,136294,1,8,0:0:0:0:
192,192,136447,1,8,0:0:0:0:
64,192,136600,1,8,0:0:0:0:
192,192,136753,1,8,0:0:0:0:
320,192,136906,1,8,0:0:0:0:
448,192,137212,1,8,0:0:0:0:
320,192,137212,1,8,0:0:0:0:
64,192,137518,1,8,0:0:0:0:
192,192,137518,1,8,0:0:0:0:
320,192,137671,1,8,0:0:0:0:
448,192,137824,1,8,0:0:0:0:
320,192,137977,1,8,0:0:0:0:
320,192,138130,1,8,0:0:0:0:
448,192,138130,1,8,0:0:0:0:
64,192,138283,1,8,0:0:0:0:
320,192,138589,1,8,0:0:0:0:
64,192,138743,1,8,0:0:0:0:
448,192,138896,1,8,0:0:0:0:
448,192,139049,1,8,0:0:0:0:
320,192,139202,1,8,0:0:0:0:
448,192,139202,1,8,0:0:0:0:
192,192,139355,1,8,0:0:0:0:
64,192,139508,1,8,0:0:0:0:
192,192,139661,128,8,140732:0:0:0:0:
320,192,140579,1,8,0:0:0:0:
448,192,140579,1,8,0:0:0:0:
64,192,140655,1,8,0:0:0:0:
320,192,140808,1,8,0:0:0:0:
448,192,140885,1,8,0:0:0:0:
320,192,140961,1,8,0:0:0:0:
192,192,141038,1,8,0:0:0:0:
64,192,141114,1,8,0:0:0:0:
192,192,141191,1,8,0:0:0:0:
320,192,141191,1,8,0:0:0:0:
64,192,141267,1,8,0:0:0:0:
320,192,141344,1,8,0:0:0:0:
448,192,141497,1,8,0:0:0:0:
320,192,141650,1,8,0:0:0:0:
64,192,141650,1,8,0:0:0:0:
192,192,141650,1,8,0:0:0:0:
320,192,141803,1,8,0:0:0:0:
192,192,141879,1,8,0:0:0:0:
64,192,141956,1,8,0:0:0:0:
448,192,142032,1,8,0:0:0:0:
192,192,142032,128,8,142797:0:0:0:0:
320,192,142109,1,8,0:0:0:0:
64,192,142109,1,8,0:0:0:0:
64,192,142797,1,8,0:0:0:0:
448,192,142874,1,8,0:0:0:0:
320,192,142950,1,8,0:0:0:0:
192,192,143027,1,8,0:0:0:0:
448,192,143027,1,8,0:0:0:0:
64,192,143103,1,8,0:0:0:0:
192,192,143180,1,8,0:0:0:0:
320,192,143256,1,8,0:0:0:0:
64,192,143256,1,8,0:0:0:0:
448,192,143333,1,8,0:0:0:0:
320,192,143486,1,8,0:0:0:0:
448,192,143639,1,8,0:0:0:0:
64,192,143639,1,8,0:0:0:0:
192,192,143639,1,8,0:0:0:0:
192,192,144098,1,8,0:0:0:0:
64,192,144098,1,8,0:0:0:0:
320,192,144098,1,8,0:0:0:0:
448,192,144098,1,8,0:0:0:0:
64,192,144404,1,8,0:0:0:0:
320,192,144404,1,8,0:0:0:0:
192,192,144481,1,8,0:0:0:0:
448,192,144481,1,8,0:0:0:0:
320,192,144557,1,8,0:0:0:0:
64,192,144557,128,8,146087:0:0:0:0:
448,192,145169,1,8,0:0:0:0:
192,192,145322,128,8,146317:0:0:0:0:
448,192,145475,1,8,0:0:0:0:
320,192,145475,128,8,146470:0:0:0:0:
448,192,145781,1,8,0:0:0:0:
448,192,146087,128,8,147311:0:0:0:0:
64,192,146240,1,8,0:0:0:0:
64,192,147311,1,8,0:0:0:0:
192,192,147311,1,8,0:0:0:0:
320,192,147311,1,8,0:0:0:0:
64,192,147541,1,8,0:0:0:0:
192,192,147617,1,8,0:0:0:0:
448,192,147694,1,8,0:0:0:0:
320,192,147770,1,8,0:0:0:0:
64,192,148076,1,8,0:0:0:0:
448,192,148076,1,8,0:0:0:0:
448,192,148229,128,8,149300:0:0:0:0:
192,192,148229,128,8,149300:0:0:0:0:
192,192,149454,1,8,0:0:0:0:
448,192,149454,1,8,0:0:0:0:
64,192,149760,1,8,0:0:0:0:
448,192,149760,1,8,0:0:0:0:
320,192,149760,1,8,0:0:0:0:
192,192,149989,1,8,0:0:0:0:
448,192,149989,1,8,0:0:0:0:
448,192,150219,1,8,0:0:0:0:
320,192,150525,1,8,0:0:0:0:
192,192,150831,128,8,151902:0:0:0:0:
448,192,151443,1,8,0:0:0:0:
448,192,151596,1,8,0:0:0:0:
64,192,151902,1,8,0:0:0:0:
448,192,152208,1,8,0:0:0:0:
320,192,152514,1,8,0:0:0:0:
192,192,152667,1,8,0:0:0:0:
320,192,152820,1,8,0:0:0:0:
448,192,152820,1,8,0:0:0:0:
64,192,152973,1,8,0:0:0:0:
192,192,153126,1,8,0:0:0:0:
320,192,153432,1,8,0:0:0:0:
448,192,153738,1,8,0:0:0:0:
320,192,153891,1,8,0:0:0:0:
448,192,154044,1,8,0:0:0:0:
320,192,154044,1,8,0:0:0:0:
320,192,154197,1,8,0:0:0:0:
320,192,154350,1,8,0:0:0:0:
192,192,154350,1,8,0:0:0:0:
64,192,154656,1,8,0:0:0:0:
192,192,154656,1,8,0:0:0:0:
320,192,154809,1,8,0:0:0:0:
448,192,154962,1,8,0:0:0:0:
320,192,155115,1,8,0:0:0:0:
448,192,155421,1,8,0:0:0:0:
64,192,155421,1,8,0:0:0:0:
320,192,155574,128,8,156492:0:0:0:0:
192,192,155727,1,8,0:0:0:0:
64,192,156033,1,8,0:0:0:0:
192,192,156033,1,8,0:0:0:0:
64,192,156339,1,8,0:0:0:0:
192,192,156492,1,8,0:0:0:0:
320,192,156645,1,8,0:0:0:0:
192,192,156798,1,8,0:0:0:0:
192,192,156951,1,8,0:0:0:0:
64,192,157104,1,8,0:0:0:0:
320,192,157104,1,8,0:0:0:0:
448,192,157104,1,8,0:0:0:0:
192,192,157104,128,8,159552:0:0:0:0:
320,192,157410,1,8,0:0:0:0:
448,192,157563,1,8,0:0:0:0:
64,192,157716,1,8,0:0:0:0:
448,192,157869,1,8,0:0:0:0:
320,192,158022,1,8,0:0:0:0:
64,192,158328,1,8,0:0:0:0:
448,192,158328,1,8,0:0:0:0:
64,192,158940,1,8,0:0:0:0:
448,192,158940,1,8,0:0:0:0:
320,192,159246,1,8,0:0:0:0:
64,192,159552,1,8,0:0:0:0:
320,192,159552,128,8,162001:0:0:0:0:
448,192,159858,1,8,0:0:0:0:
64,192,160165,1,8,0:0:0:0:
448,192,160165,1,8,0:0:0:0:
448,192,160471,1,8,0:0:0:0:
64,192,160777,1,8,0:0:0:0:
192,192,160777,1,8,0:0:0:0:
64,192,161389,1,8,0:0:0:0:
192,192,161389,1,8,0:0:0:0:
448,192,161695,1,8,0:0:0:0:
64,192,161962,1,8,0:0:0:0:
192,192,162115,1,8,0:0:0:0:
64,192,162268,1,8,0:0:0:0:
320,192,162268,1,8,0:0:0:0:
192,192,162421,1,8,0:0:0:0:
64,192,162574,1,8,0:0:0:0:
320,192,162574,1,8,0:0:0:0:
192,192,162728,1,8,0:0:0:0:
64,192,162881,1,8,0:0:0:0:
320,192,162881,1,8,0:0:0:0:
192,192,163034,1,8,0:0:0:0:
64,192,163187,1,8,0:0:0:0:
320,192,163187,1,8,0:0:0:0:
192,192,163340,1,8,0:0:0:0:
64,192,163493,1,8,0:0:0:0:
320,192,163493,1,8,0:0:0:0:
192,192,163646,1,8,0:0:0:0:
64,192,163799,1,8,0:0:0:0:
320,192,163799,1,8,0:0:0:0:
192,192,163952,1,8,0:0:0:0:
64,192,164105,1,8,0:0:0:0:
320,192,164105,1,8,0:0:0:0:
192,192,164258,1,8,0:0:0:0:
64,192,164411,1,8,0:0:0:0:
320,192,164449,128,8,165061:0:0:0:0:
192,192,165061,128,8,165673:0:0:0:0:
64,192,165673,128,8,166285:0:0:0:0:
448,192,166285,1,8,0:0:0:0:
320,192,166285,1,8,0:0:0:0:
192,192,166591,1,8,0:0:0:0:
64,192,166897,1,8,0:0:0:0:
192,192,166897,1,8,0:0:0:0:
320,192,166897,1,8,0:0:0:0:
448,192,166897,1,8,0:0:0:0:
192,192,167203,1,8,0:0:0:0:
448,192,167356,1,8,0:0:0:0:
320,192,167509,1,8,0:0:0:0:
192,192,167662,1,8,0:0:0:0:
64,192,167815,1,8,0:0:0:0:
192,192,167968,1,8,0:0:0:0:
448,192,167968,1,8,0:0:0:0:
320,192,168121,1,8,0:0:0:0:
448,192,168427,1,8,0:0:0:0:
64,192,168733,1,8,0:0:0:0:
192,192,168733,1,8,0:0:0:0:
320,192,169039,1,8,0:0:0:0:
64,192,169345,1,8,0:0:0:0:
192,192,169345,1,8,0:0:0:0:
448,192,169651,1,8,0:0:0:0:
320,192,169804,1,8,0:0:0:0:
192,192,169957,1,8,0:0:0:0:
448,192,169957,1,8,0:0:0:0:
320,192,169957,1,8,0:0:0:0:
64,192,170110,1,8,0:0:0:0:
192,192,170263,1,8,0:0:0:0:
320,192,170416,1,8,0:0:0:0:
192,192,170569,1,8,0:0:0:0:
64,192,170876,1,8,0:0:0:0:
320,192,171182,1,8,0:0:0:0:
448,192,171182,1,8,0:0:0:0:
192,192,171488,1,8,0:0:0:0:
64,192,171794,1,8,0:0:0:0:
192,192,171794,1,8,0:0:0:0:
192,192,172100,1,8,0:0:0:0:
320,192,172406,1,8,0:0:0:0:
448,192,172406,1,8,0:0:0:0:
320,192,172559,1,8,0:0:0:0:
192,192,172712,1,8,0:0:0:0:
64,192,172865,1,8,0:0:0:0:
192,192,173018,1,8,0:0:0:0:
320,192,173018,1,8,0:0:0:0:
192,192,173324,1,8,0:0:0:0:
320,192,173630,1,8,0:0:0:0:
448,192,173630,1,8,0:0:0:0:
320,192,173936,1,8,0:0:0:0:
448,192,174089,1,8,0:0:0:0:
192,192,174242,1,8,0:0:0:0:
64,192,174242,1,8,0:0:0:0:
320,192,174395,1,8,0:0:0:0:
448,192,174548,1,8,0:0:0:0:
192,192,174548,1,8,0:0:0:0:
320,192,174701,1,8,0:0:0:0:
64,192,174854,1,8,0:0:0:0:
192,192,174854,1,8,0:0:0:0:
448,192,174854,1,8,0:0:0:0:
192,192,175007,1,8,0:0:0:0:
64,192,175160,1,8,0:0:0:0:
192,192,175313,1,8,0:0:0:0:
448,192,175466,1,8,0:0:0:0:
320,192,175466,1,8,0:0:0:0:
64,192,175466,1,8,0:0:0:0:
64,192,175772,1,8,0:0:0:0:
192,192,175772,1,8,0:0:0:0:
448,192,176078,1,8,0:0:0:0:
320,192,176231,1,8,0:0:0:0:
192,192,176384,1,8,0:0:0:0:
64,192,176537,1,8,0:0:0:0:
448,192,176690,1,8,0:0:0:0:
320,192,176690,1,8,0:0:0:0:
64,192,176843,1,8,0:0:0:0:
192,192,176996,1,8,0:0:0:0:
192,192,177149,1,8,0:0:0:0:
320,192,177302,1,8,0:0:0:0:
448,192,177302,1,8,0:0:0:0:
448,192,177608,1,8,0:0:0:0:
192,192,177761,1,8,0:0:0:0:
320,192,177914,1,8,0:0:0:0:
64,192,177914,1,8,0:0:0:0:
192,192,178373,1,8,0:0:0:0:
320,192,178526,1,8,0:0:0:0:
448,192,178526,1,8,0:0:0:0:
320,192,178679,1,8,0:0:0:0:
320,192,178832,1,8,0:0:0:0:
192,192,178832,1,8,0:0:0:0:
64,192,178985,1,8,0:0:0:0:
192,192,179138,1,8,0:0:0:0:
64,192,179138,1,8,0:0:0:0:
192,192,179444,1,8,0:0:0:0:
192,192,179597,1,8,0:0:0:0:
320,192,179750,128,8,180515:0:0:0:0:
448,192,179750,128,8,180515:0:0:0:0:
64,192,179750,1,8,0:0:0:0:
192,192,180209,1,8,0:0:0:0:
64,192,180362,1,8,0:0:0:0:
64,192,180515,1,8,0:0:0:0:
192,192,180668,1,8,0:0:0:0:
448,192,180974,1,8,0:0:0:0:
320,192,181127,1,8,0:0:0:0:
192,192,181281,1,8,0:0:0:0:
64,192,181434,1,8,0:0:0:0:
448,192,181587,1,8,0:0:0:0:
320,192,181587,1,8,0:0:0:0:
320,192,181893,1,8,0:0:0:0:
192,192,182199,1,8,0:0:0:0:
64,192,182199,1,8,0:0:0:0:
320,192,182352,1,8,0:0:0:0:
448,192,182658,1,8,0:0:0:0:
320,192,182811,1,8,0:0:0:0:
64,192,182811,1,8,0:0:0:0:
192,192,183117,1,8,0:0:0:0:
64,192,183270,1,8,0:0:0:0:
320,192,183423,1,8,0:0:0:0:
448,192,183423,1,8,0:0:0:0:
192,192,183423,1,8,0:0:0:0:
320,192,183576,1,8,0:0:0:0:
448,192,183729,1,8,0:0:0:0:
320,192,183882,1,8,0:0:0:0:
192,192,184035,1,8,0:0:0:0:
64,192,184188,1,8,0:0:0:0:
192,192,184341,1,8,0:0:0:0:
320,192,184494,1,8,0:0:0:0:
192,192,184647,1,8,0:0:0:0:
64,192,184800,1,8,0:0:0:0:
320,192,184953,1,8,0:0:0:0:
448,192,184953,1,8,0:0:0:0:
192,192,185106,1,8,0:0:0:0:
64,192,185106,1,8,0:0:0:0:
192,192,185412,1,8,0:0:0:0:
320,192,185412,1,8,0:0:0:0:
448,192,185412,1,8,0:0:0:0:
448,192,185871,1,8,0:0:0:0:
192,192,185871,1,8,0:0:0:0:
320,192,186024,1,8,0:0:0:0:
64,192,186024,1,8,0:0:0:0:
192,192,186330,1,8,0:0:0:0:
64,192,186483,1,8,0:0:0:0:
320,192,186483,1,8,0:0:0:0:
448,192,186483,1,8,0:0:0:0:
64,192,186942,1,8,0:0:0:0:
448,192,187095,1,8,0:0:0:0:
320,192,187095,1,8,0:0:0:0:
192,192,187401,1,8,0:0:0:0:
64,192,187401,1,8,0:0:0:0:
320,192,187707,1,8,0:0:0:0:
320,192,188013,1,8,0:0:0:0:
448,192,188166,1,8,0:0:0:0:
320,192,188166,1,8,0:0:0:0:
64,192,188166,1,8,0:0:0:0:
192,192,188472,1,8,0:0:0:0:
192,192,188625,1,8,0:0:0:0:
320,192,188625,1,8,0:0:0:0:
448,192,188625,1,8,0:0:0:0:
192,192,189084,1,8,0:0:0:0:
320,192,189237,1,8,0:0:0:0:
192,192,189390,1,8,0:0:0:0:
448,192,189543,1,8,0:0:0:0:
320,192,189543,1,8,0:0:0:0:
192,192,189543,1,8,0:0:0:0:
64,192,189696,1,8,0:0:0:0:
192,192,189849,1,8,0:0:0:0:
320,192,190002,1,8,0:0:0:0:
448,192,190155,1,8,0:0:0:0:
320,192,190155,1,8,0:0:0:0:
192,192,190461,1,8,0:0:0:0:
192,192,190614,1,8,0:0:0:0:
64,192,190614,1,8,0:0:0:0:
320,192,190920,1,8,0:0:0:0:
192,192,191073,1,8,0:0:0:0:
320,192,191073,1,8,0:0:0:0:
448,192,191073,1,8,0:0:0:0:
64,192,191838,1,8,0:0:0:0:
192,192,191992,1,8,0:0:0:0:
320,192,192145,1,8,0:0:0:0:
448,192,192298,1,8,0:0:0:0:
320,192,192604,1,8,0:0:0:0:
448,192,192604,1,8,0:0:0:0:
320,192,192910,1,8,0:0:0:0:
448,192,193063,1,8,0:0:0:0:
320,192,193063,1,8,0:0:0:0:
192,192,193063,1,8,0:0:0:0:
192,192,193369,1,8,0:0:0:0:
64,192,193522,128,8,194287:0:0:0:0:
192,192,193522,128,8,194440:0:0:0:0:
320,192,193522,128,8,194593:0:0:0:0:
64,192,194746,1,8,0:0:0:0:
64,192,194899,1,8,0:0:0:0:
192,192,195052,1,8,0:0:0:0:
448,192,195358,1,8,0:0:0:0:
320,192,195664,1,8,0:0:0:0:
192,192,195817,1,8,0:0:0:0:
64,192,195970,1,8,0:0:0:0:
320,192,196123,1,8,0:0:0:0:
64,192,196276,1,8,0:0:0:0:
320,192,196276,1,8,0:0:0:0:
448,192,196276,1,8,0:0:0:0:
320,192,196735,1,8,0:0:0:0:
448,192,196888,1,8,0:0:0:0:
320,192,196888,1,8,0:0:0:0:
192,192,196888,1,8,0:0:0:0:
448,192,197194,1,8,0:0:0:0:
320,192,197347,1,8,0:0:0:0:
64,192,197500,1,8,0:0:0:0:
192,192,197500,1,8,0:0:0:0:
448,192,197653,1,8,0:0:0:0:
320,192,197653,1,8,0:0:0:0:
192,192,197806,1,8,0:0:0:0:
64,192,197959,1,8,0:0:0:0:
320,192,197959,1,8,0:0:0:0:
448,192,197959,1,8,0:0:0:0:
320,192,198265,1,8,0:0:0:0:
192,192,198418,1,8,0:0:0:0:
64,192,198418,1,8,0:0:0:0:
448,192,198418,1,8,0:0:0:0:
320,192,198724,1,8,0:0:0:0:
448,192,198877,1,8,0:0:0:0:
320,192,199030,1,8,0:0:0:0:
192,192,199183,1,8,0:0:0:0:
64,192,199336,1,8,0:0:0:0:
320,192,199336,1,8,0:0:0:0:
448,192,199336,1,8,0:0:0:0:
448,192,199642,1,8,0:0:0:0:
320,192,199642,1,8,0:0:0:0:
64,192,199948,1,8,0:0:0:0:
192,192,199948,1,8,0:0:0:0:
320,192,200101,1,8,0:0:0:0:
448,192,200101,1,8,0:0:0:0:
192,192,200407,1,8,0:0:0:0:
64,192,200407,1,8,0:0:0:0:
192,192,200560,1,8,0:0:0:0:
320,192,200560,1,8,0:0:0:0:
320,192,200866,1,8,0:0:0:0:
192,192,200866,1,8,0:0:0:0:
448,192,201019,128,8,201478:0:0:0:0:
320,192,201019,128,8,201478:0:0:0:0:
448,192,201784,1,8,0:0:0:0:
320,192,201784,1,8,0:0:0:0:
192,192,201937,1,8,0:0:0:0:
320,192,201937,1,8,0:0:0:0:
64,192,202090,1,8,0:0:0:0:
192,192,202090,1,8,0:0:0:0:
320,192,202396,1,8,0:0:0:0:
448,192,202396,1,8,0:0:0:0:
64,192,202550,1,8,0:0:0:0:
192,192,202550,1,8,0:0:0:0:
320,192,202856,1,8,0:0:0:0:
448,192,202856,1,8,0:0:0:0:
192,192,203009,1,8,0:0:0:0:
64,192,203009,1,8,0:0:0:0:
320,192,203315,128,8,204233:0:0:0:0:
448,192,203315,128,8,204233:0:0:0:0:
192,192,204080,1,8,0:0:0:0:
192,192,204233,1,8,0:0:0:0:
64,192,204233,1,8,0:0:0:0:
192,192,204386,1,8,0:0:0:0:
320,192,204539,1,8,0:0:0:0:
448,192,204692,1,8,0:0:0:0:
320,192,204845,1,8,0:0:0:0:
64,192,204845,1,8,0:0:0:0:
192,192,204845,1,8,0:0:0:0:
192,192,205151,1,8,0:0:0:0:
64,192,205457,1,8,0:0:0:0:
320,192,205457,1,8,0:0:0:0:
448,192,205457,1,8,0:0:0:0:
448,192,205763,1,8,0:0:0:0:
64,192,205763,128,8,206757:0:0:0:0:
192,192,205916,128,8,206834:0:0:0:0:
320,192,205992,128,8,206910:0:0:0:0:
448,192,206069,128,8,206987:0:0:0:0:
64,192,206910,1,8,0:0:0:0:
192,192,206987,1,8,0:0:0:0:
320,192,207063,1,8,0:0:0:0:
448,192,207140,1,8,0:0:0:0:
448,192,207293,1,8,0:0:0:0:
320,192,207369,1,8,0:0:0:0:
192,192,207446,1,8,0:0:0:0:
64,192,207522,1,8,0:0:0:0:
192,192,207599,1,8,0:0:0:0:
320,192,207675,1,8,0:0:0:0:
448,192,207752,1,8,0:0:0:0:
64,192,207752,1,8,0:0:0:0:
192,192,207752,1,8,0:0:0:0:
192,192,207905,1,8,0:0:0:0:
64,192,207982,1,8,0:0:0:0:
320,192,208211,128,8,209282:0:0:0:0:
448,192,208211,128,8,209206:0:0:0:0:
64,192,208517,1,8,0:0:0:0:
64,192,208670,1,8,0:0:0:0:
64,192,208823,1,8,0:0:0:0:
448,192,209359,1,8,0:0:0:0:
320,192,209435,1,8,0:0:0:0:
192,192,209512,1,8,0:0:0:0:
64,192,209588,1,8,0:0:0:0:
192,192,209665,1,8,0:0:0:0:
320,192,209894,1,8,0:0:0:0:
192,192,209971,1,8,0:0:0:0:
320,192,210124,1,8,0:0:0:0:
192,192,210200,1,8,0:0:0:0:
320,192,210353,1,8,0:0:0:0:
192,192,210430,1,8,0:0:0:0:
192,192,210583,128,8,211883:0:0:0:0:
64,192,210659,128,8,211807:0:0:0:0:
448,192,211577,1,8,0:0:0:0:
320,192,211577,1,8,0:0:0:0:
448,192,212036,1,8,0:0:0:0:
448,192,212189,1,8,0:0:0:0:
320,192,212189,1,8,0:0:0:0:
64,192,212495,1,8,0:0:0:0:
192,192,212648,1,8,0:0:0:0:
64,192,212648,1,8,0:0:0:0:
448,192,212954,1,8,0:0:0:0:
448,192,213107,128,8,214026:0:0:0:0:
320,192,213107,128,8,214026:0:0:0:0:
192,192,214026,1,8,0:0:0:0:
64,192,214026,1,8,0:0:0:0:
64,192,214485,1,8,0:0:0:0:
192,192,214638,1,8,0:0:0:0:
448,192,214791,1,8,0:0:0:0:
320,192,214944,1,8,0:0:0:0:
448,192,215097,1,8,0:0:0:0:
320,192,215250,1,8,0:0:0:0:
64,192,215250,1,8,0:0:0:0:
192,192,215250,1,8,0:0:0:0:
448,192,215403,1,8,0:0:0:0:
320,192,215556,1,8,0:0:0:0:
192,192,215862,1,8,0:0:0:0:
64,192,215862,1,8,0:0:0:0:
320,192,216015,1,8,0:0:0:0:
448,192,216168,1,8,0:0:0:0:
320,192,216321,1,8,0:0:0:0:
448,192,216474,1,8,0:0:0:0:
192,192,216474,1,8,0:0:0:0:
64,192,216474,1,8,0:0:0:0:
320,192,216627,1,8,0:0:0:0:
64,192,216933,1,8,0:0:0:0:
192,192,217086,1,8,0:0:0:0:
448,192,217086,1,8,0:0:0:0:
320,192,217239,1,8,0:0:0:0:
448,192,217392,1,8,0:0:0:0:
448,192,217545,1,8,0:0:0:0:
64,192,217545,1,8,0:0:0:0:
192,192,217545,1,8,0:0:0:0:
320,192,217698,1,8,0:0:0:0:
192,192,217851,1,8,0:0:0:0:
64,192,218004,1,8,0:0:0:0:
192,192,218310,1,8,0:0:0:0:
448,192,218310,1,8,0:0:0:0:
64,192,218616,1,8,0:0:0:0:
192,192,218769,1,8,0:0:0:0:
448,192,218922,1,8,0:0:0:0:
320,192,218922,1,8,0:0:0:0:
64,192,219075,1,8,0:0:0:0:
192,192,219228,1,8,0:0:0:0:
320,192,219381,1,8,0:0:0:0:
448,192,219534,1,8,0:0:0:0:
320,192,219687,1,8,0:0:0:0:
448,192,219840,1,8,0:0:0:0:
192,192,220070,1,8,0:0:0:0:
448,192,220146,1,8,0:0:0:0:
320,192,220299,1,8,0:0:0:0:
192,192,220376,1,8,0:0:0:0:
448,192,220452,1,8,0:0:0:0:
448,192,221141,1,8,0:0:0:0:
320,192,221217,1,8,0:0:0:0:
192,192,221294,1,8,0:0:0:0:
64,192,221370,1,8,0:0:0:0:
192,192,221447,1,8,0:0:0:0:
320,192,221523,1,8,0:0:0:0:
192,192,221600,1,8,0:0:0:0:
64,192,221676,1,8,0:0:0:0:
192,192,221753,1,8,0:0:0:0:
448,192,221906,1,8,0:0:0:0:
320,192,221906,1,8,0:0:0:0:
448,192,222059,1,8,0:0:0:0:
320,192,222059,1,8,0:0:0:0:
64,192,222288,1,8,0:0:0:0:
192,192,222288,1,8,0:0:0:0:
320,192,222441,1,8,0:0:0:0:
448,192,222441,1,8,0:0:0:0:
192,192,222594,1,8,0:0:0:0:
64,192,222824,128,8,224584:0:0:0:0:
192,192,222900,1,8,0:0:0:0:
320,192,222900,1,8,0:0:0:0:
448,192,222900,1,8,0:0:0:0:
448,192,223589,1,8,0:0:0:0:
320,192,223818,1,8,0:0:0:0:
448,192,223818,1,8,0:0:0:0:
192,192,223818,128,8,225043:0:0:0:0:
448,192,224125,1,8,0:0:0:0:
320,192,224278,128,8,225272:0:0:0:0:
448,192,224431,1,8,0:0:0:0:
448,192,224584,128,8,225502:0:0:0:0:
64,192,224813,1,8,0:0:0:0:
64,192,225043,1,8,0:0:0:0:
192,192,225196,1,8,0:0:0:0:
64,192,225655,128,8,226114:0:0:0:0:
320,192,225655,1,8,0:0:0:0:
448,192,225655,1,8,0:0:0:0:
192,192,226114,128,8,226649:0:0:0:0:
320,192,226496,1,8,0:0:0:0:
448,192,226649,1,8,0:0:0:0:
64,192,226649,128,8,228103:0:0:0:0:
320,192,227338,1,8,0:0:0:0:
448,192,227567,1,8,0:0:0:0:
320,192,227797,1,8,0:0:0:0:
448,192,228103,128,8,229174:0:0:0:0:
320,192,228103,128,8,229174:0:0:0:0:
192,192,228103,128,8,229174:0:0:0:0:
64,192,228256,1,8,0:0:0:0:
64,192,228562,1,8,0:0:0:0:
64,192,228868,1,8,0:0:0:0:
64,192,229174,128,8,230551:0:0:0:0:
320,192,229480,1,8,0:0:0:0:
320,192,229633,1,8,0:0:0:0:
192,192,229939,1,8,0:0:0:0:
192,192,230092,1,8,0:0:0:0:
320,192,230245,1,8,0:0:0:0:
448,192,230398,128,8,230704:0:0:0:0:
320,192,230398,128,8,230704:0:0:0:0:
192,192,230551,128,8,230857:0:0:0:0:
320,192,230857,128,8,231163:0:0:0:0:
448,192,230857,128,8,231163:0:0:0:0:
192,192,231010,128,8,231316:0:0:0:0:
64,192,231010,128,8,231316:0:0:0:0:
320,192,231316,128,8,231622:0:0:0:0:
192,192,231469,128,8,231928:0:0:0:0:
64,192,231622,128,8,232540:0:0:0:0:
448,192,231622,128,8,232081:0:0:0:0:
320,192,231775,128,8,232693:0:0:0:0:
192,192,232081,128,8,232846:0:0:0:0:
448,192,232387,128,8,232846:0:0:0:0:
64,192,232693,128,8,233152:0:0:0:0:
448,192,232999,128,8,234070:0:0:0:0:
320,192,232999,128,8,233458:0:0:0:0:
192,192,233305,128,8,233764:0:0:0:0:
64,192,233458,128,8,233917:0:0:0:0:
320,192,233764,128,8,234070:0:0:0:0:
192,192,234070,128,8,234836:0:0:0:0:
320,192,234836,1,8,0:0:0:0:
320,192,234989,1,8,0:0:0:0:
64,192,235142,1,8,0:0:0:0:
320,192,235142,1,8,0:0:0:0:
448,192,235295,128,8,235601:0:0:0:0:
320,192,235448,128,8,235754:0:0:0:0:
192,192,235601,128,8,236060:0:0:0:0:
320,192,235907,128,8,236825:0:0:0:0:
448,192,236060,1,8,0:0:0:0:
192,192,236213,128,8,236519:0:0:0:0:
64,192,236366,128,8,236825:0:0:0:0:
192,192,236672,128,8,236978:0:0:0:0:
448,192,236672,1,8,0:0:0:0:
320,192,237284,1,8,0:0:0:0:
448,192,237284,1,8,0:0:0:0:
64,192,237590,1,8,0:0:0:0:
192,192,237896,1,8,0:0:0:0:
448,192,237896,1,8,0:0:0:0:
320,192,238049,1,8,0:0:0:0:
448,192,238202,1,8,0:0:0:0:
192,192,238355,1,8,0:0:0:0:
448,192,238508,1,8,0:0:0:0:
448,192,238661,1,8,0:0:0:0:
448,192,238967,1,8,0:0:0:0:
320,192,238967,1,8,0:0:0:0:
448,192,239120,1,8,0:0:0:0:
448,192,239579,1,8,0:0:0:0:
320,192,239732,1,8,0:0:0:0:
448,192,239885,1,8,0:0:0:0:
320,192,240038,1,8,0:0:0:0:
448,192,240344,1,8,0:0:0:0:
320,192,240344,1,8,0:0:0:0:
64,192,240497,1,8,0:0:0:0:
448,192,240650,1,8,0:0:0:0:
192,192,240650,1,8,0:0:0:0:
320,192,240803,1,8,0:0:0:0:
448,192,240956,1,8,0:0:0:0:
64,192,240956,1,8,0:0:0:0:
320,192,241109,1,8,0:0:0:0:
448,192,241262,1,8,0:0:0:0:
192,192,241262,1,8,0:0:0:0:
64,192,241415,1,8,0:0:0:0:
448,192,241568,1,8,0:0:0:0:
320,192,241568,1,8,0:0:0:0:
64,192,241721,1,8,0:0:0:0:
448,192,241874,1,8,0:0:0:0:
192,192,241874,1,8,0:0:0:0:
320,192,242027,1,8,0:0:0:0:
448,192,242180,1,8,0:0:0:0:
64,192,242180,1,8,0:0:0:0:
320,192,242333,1,8,0:0:0:0:
448,192,242486,1,8,0:0:0:0:
192,192,242486,1,8,0:0:0:0:
64,192,242639,1,8,0:0:0:0:
448,192,242792,1,8,0:0:0:0:
320,192,242792,1,8,0:0:0:0:
64,192,242945,1,8,0:0:0:0:
192,192,243098,1,8,0:0:0:0:
320,192,243251,1,8,0:0:0:0:
320,192,243557,1,8,0:0:0:0:
192,192,243710,1,8,0:0:0:0:
64,192,243863,1,8,0:0:0:0:
64,192,244169,1,8,0:0:0:0:
192,192,244322,1,8,0:0:0:0:
320,192,244475,1,8,0:0:0:0:
448,192,244628,1,8,0:0:0:0:
192,192,244628,1,8,0:0:0:0:
64,192,245087,1,8,0:0:0:0:
64,192,245241,1,8,0:0:0:0:
192,192,245241,1,8,0:0:0:0:
320,192,245241,1,8,0:0:0:0:
448,192,245241,1,8,0:0:0:0:
320,192,245394,1,8,0:0:0:0:
448,192,245547,1,8,0:0:0:0:
320,192,245700,1,8,0:0:0:0:
192,192,245853,1,8,0:0:0:0:
320,192,246006,1,8,0:0:0:0:
192,192,246159,1,8,0:0:0:0:
320,192,246312,1,8,0:0:0:0:
448,192,246465,1,8,0:0:0:0:
64,192,246465,128,8,247077:0:0:0:0:
192,192,246465,128,8,247077:0:0:0:0:
320,192,246618,1,8,0:0:0:0:
448,192,246771,1,8,0:0:0:0:
320,192,246924,1,8,0:0:0:0:
320,192,247077,1,8,0:0:0:0:
448,192,247077,1,8,0:0:0:0:
192,192,247383,1,8,0:0:0:0:
64,192,247383,1,8,0:0:0:0:
320,192,247689,128,8,248301:0:0:0:0:
448,192,247689,128,8,248148:0:0:0:0:
64,192,247689,1,8,0:0:0:0:
64,192,248148,1,8,0:0:0:0:
448,192,248301,128,8,248913:0:0:0:0:
64,192,248301,128,8,248913:0:0:0:0:
192,192,248301,1,8,0:0:0:0:
320,192,248454,1,8,0:0:0:0:
192,192,248607,1,8,0:0:0:0:
320,192,248760,1,8,0:0:0:0:
192,192,248913,128,8,249525:0:0:0:0:
320,192,248913,128,8,249525:0:0:0:0:
64,192,249219,1,8,0:0:0:0:
448,192,249525,1,8,0:0:0:0:
320,192,249678,1,8,0:0:0:0:
192,192,249831,1,8,0:0:0:0:
64,192,249984,1,8,0:0:0:0:
320,192,250137,128,8,250749:0:0:0:0:
448,192,250137,128,8,250596:0:0:0:0:
64,192,250749,1,8,0:0:0:0:
192,192,250902,1,8,0:0:0:0:
320,192,251055,1,8,0:0:0:0:
64,192,251055,1,8,0:0:0:0:
448,192,251208,1,8,0:0:0:0:
192,192,251208,1,8,0:0:0:0:
64,192,251361,128,8,251973:0:0:0:0:
448,192,251361,128,8,251973:0:0:0:0:
320,192,251361,1,8,0:0:0:0:
192,192,251514,1,8,0:0:0:0:
320,192,251667,1,8,0:0:0:0:
192,192,251820,1,8,0:0:0:0:
320,192,251973,1,8,0:0:0:0:
320,192,252126,1,8,0:0:0:0:
448,192,252279,1,8,0:0:0:0:
192,192,252279,1,8,0:0:0:0:
320,192,252432,1,8,0:0:0:0:
64,192,252432,1,8,0:0:0:0:
192,192,252585,1,8,0:0:0:0:
448,192,252585,1,8,0:0:0:0:
448,192,252738,128,8,253350:0:0:0:0:
192,192,252738,128,8,253197:0:0:0:0:
320,192,252815,1,8,0:0:0:0:
64,192,252891,1,8,0:0:0:0:
320,192,252929,128,8,253159:0:0:0:0:
64,192,253044,1,8,0:0:0:0:
64,192,253197,1,8,0:0:0:0:
320,192,253274,1,8,0:0:0:0:
64,192,253312,128,8,253695:0:0:0:0:
192,192,253350,128,8,254001:0:0:0:0:
320,192,253427,1,8,0:0:0:0:
448,192,253503,1,8,0:0:0:0:
320,192,253542,128,8,253771:0:0:0:0:
448,192,253733,128,8,253924:0:0:0:0:
64,192,253848,1,8,0:0:0:0:
320,192,253886,1,8,0:0:0:0:
64,192,253962,1,8,0:0:0:0:
320,192,254001,128,8,254383:0:0:0:0:
448,192,254039,1,8,0:0:0:0:
192,192,254077,128,8,254460:0:0:0:0:
64,192,254115,1,8,0:0:0:0:
448,192,254154,1,8,0:0:0:0:
448,192,254421,1,8,0:0:0:0:
448,192,254574,1,8,0:0:0:0:
320,192,254574,1,8,0:0:0:0:
320,192,254727,1,8,0:0:0:0:
192,192,254727,1,8,0:0:0:0:
192,192,254880,1,8,0:0:0:0:
64,192,254880,1,8,0:0:0:0:
64,192,255033,1,8,0:0:0:0:
320,192,255033,1,8,0:0:0:0:
192,192,255186,1,8,0:0:0:0:
448,192,255186,1,8,0:0:0:0:
320,192,255339,1,8,0:0:0:0:
320,192,255492,1,8,0:0:0:0:
448,192,255492,1,8,0:0:0:0:
448,192,255645,1,8,0:0:0:0:
320,192,255645,1,8,0:0:0:0:
320,192,255799,1,8,0:0:0:0:
448,192,255952,1,8,0:0:0:0:
192,192,256028,1,8,0:0:0:0:
320,192,256105,1,8,0:0:0:0:
64,192,256181,1,8,0:0:0:0:
320,192,256258,1,8,0:0:0:0:
448,192,256564,1,8,0:0:0:0:
192,192,256564,1,8,0:0:0:0:
320,192,256717,1,8,0:0:0:0:
192,192,256870,1,8,0:0:0:0:
320,192,256870,1,8,0:0:0:0:
64,192,257023,1,8,0:0:0:0:
448,192,257023,1,8,0:0:0:0:
320,192,257176,1,8,0:0:0:0:
192,192,257329,1,8,0:0:0:0:
64,192,257482,1,8,0:0:0:0:
192,192,257482,1,8,0:0:0:0:
448,192,257482,1,8,0:0:0:0:
192,192,257788,1,8,0:0:0:0:
320,192,257788,1,8,0:0:0:0:
320,192,257941,1,8,0:0:0:0:
448,192,257941,1,8,0:0:0:0:
192,192,258094,1,8,0:0:0:0:
320,192,258094,1,8,0:0:0:0:
64,192,258247,1,8,0:0:0:0:
192,192,258247,1,8,0:0:0:0:
192,192,258400,1,8,0:0:0:0:
64,192,258553,1,8,0:0:0:0:
192,192,258706,1,8,0:0:0:0:
320,192,258706,1,8,0:0:0:0:
320,192,258859,1,8,0:0:0:0:
192,192,258859,1,8,0:0:0:0:
448,192,259012,1,8,0:0:0:0:
320,192,259012,1,8,0:0:0:0:
448,192,259318,1,8,0:0:0:0:
320,192,259318,1,8,0:0:0:0:
320,192,259471,1,8,0:0:0:0:
192,192,259624,1,8,0:0:0:0:
64,192,259624,1,8,0:0:0:0:
192,192,259777,1,8,0:0:0:0:
320,192,259930,1,8,0:0:0:0:
64,192,259930,1,8,0:0:0:0:
320,192,260083,1,8,0:0:0:0:
448,192,260236,1,8,0:0:0:0:
192,192,260236,1,8,0:0:0:0:
320,192,260389,1,8,0:0:0:0:
192,192,260542,1,8,0:0:0:0:
64,192,260695,1,8,0:0:0:0:
320,192,260695,1,8,0:0:0:0:
64,192,260848,1,8,0:0:0:0:
320,192,260848,1,8,0:0:0:0:
448,192,261001,1,8,0:0:0:0:
192,192,261001,1,8,0:0:0:0:
320,192,261154,1,8,0:0:0:0:
64,192,261154,1,8,0:0:0:0:
192,192,261154,1,8,0:0:0:0:
320,192,261307,1,8,0:0:0:0:
192,192,261460,1,8,0:0:0:0:
320,192,261460,1,8,0:0:0:0:
448,192,261460,1,8,0:0:0:0:
64,192,261613,1,8,0:0:0:0:
192,192,261766,1,8,0:0:0:0:
320,192,261919,1,8,0:0:0:0:
448,192,262072,1,8,0:0:0:0:
64,192,262072,1,8,0:0:0:0:
192,192,262072,1,8,0:0:0:0:
320,192,262225,1,8,0:0:0:0:
448,192,262378,1,8,0:0:0:0:
320,192,262531,1,8,0:0:0:0:
192,192,262684,1,8,0:0:0:0:
64,192,262837,1,8,0:0:0:0:
320,192,262837,1,8,0:0:0:0:
448,192,262837,1,8,0:0:0:0:
192,192,262914,1,8,0:0:0:0:
320,192,262990,1,8,0:0:0:0:
448,192,263067,1,8,0:0:0:0:
320,192,263143,1,8,0:0:0:0:
192,192,263220,1,8,0:0:0:0:
64,192,263296,1,8,0:0:0:0:
320,192,263296,128,8,263755:0:0:0:0:
192,192,263296,128,8,263908:0:0:0:0:
448,192,263296,128,8,263602:0:0:0:0:
64,192,263908,1,8,0:0:0:0:
192,192,264061,1,8,0:0:0:0:
448,192,264214,1,8,0:0:0:0:
320,192,264214,1,8,0:0:0:0:
320,192,264367,1,8,0:0:0:0:
448,192,264367,1,8,0:0:0:0:
64,192,264367,1,8,0:0:0:0:
192,192,264520,1,8,0:0:0:0:
320,192,264520,1,8,0:0:0:0:
64,192,264673,1,8,0:0:0:0:
192,192,264673,1,8,0:0:0:0:
192,192,264826,128,8,265285:0:0:0:0:
320,192,264826,128,8,265285:0:0:0:0:
448,192,264826,128,8,265285:0:0:0:0:
192,192,265438,128,8,265591:0:0:0:0:
320,192,265438,128,8,265591:0:0:0:0:
448,192,265438,128,8,265591:0:0:0:0:
64,192,265744,128,8,265897:0:0:0:0:
192,192,265744,128,8,265897:0:0:0:0:
320,192,265744,128,8,265897:0:0:0:0:
192,192,266050,128,8,266356:0:0:0:0:
320,192,266050,128,8,266356:0:0:0:0:
448,192,266050,128,8,266356:0:0:0:0:
448,192,266510,128,8,266816:0:0:0:0:
320,192,266510,128,8,266816:0:0:0:0:
64,192,266510,128,8,266816:0:0:0:0:
448,192,266969,1,8,0:0:0:0:
192,192,266969,128,8,267275:0:0:0:0:
64,192,266969,128,8,267275:0:0:0:0:
448,192,267275,1,8,0:0:0:0:
320,192,267428,1,8,0:0:0:0:
192,192,267581,1,8,0:0:0:0:
448,192,267887,128,8,268040:0:0:0:0:
320,192,267887,128,8,268040:0:0:0:0:
192,192,267887,128,8,268040:0:0:0:0:
192,192,268193,128,8,268346:0:0:0:0:
320,192,268193,128,8,268346:0:0:0:0:
320,192,268499,1,8,0:0:0:0:
64,192,268499,128,8,268805:0:0:0:0:
192,192,268499,128,8,268805:0:0:0:0:
448,192,268499,1,8,0:0:0:0:
192,192,268958,128,8,269264:0:0:0:0:
448,192,268958,128,8,269264:0:0:0:0:
320,192,268958,128,8,269264:0:0:0:0:
320,192,269417,128,8,269723:0:0:0:0:
192,192,269417,128,8,269723:0:0:0:0:
64,192,269417,128,8,269723:0:0:0:0:
64,192,270029,1,8,0:0:0:0:
192,192,270182,1,8,0:0:0:0:
64,192,270182,1,8,0:0:0:0:
320,192,270335,1,8,0:0:0:0:
192,192,270335,1,8,0:0:0:0:
320,192,270488,1,8,0:0:0:0:
448,192,270488,1,8,0:0:0:0:
448,192,270641,1,8,0:0:0:0:
320,192,270641,1,8,0:0:0:0:
320,192,270947,1,8,0:0:0:0:
192,192,270947,1,8,0:0:0:0:
64,192,270947,1,8,0:0:0:0:
192,192,271406,1,8,0:0:0:0:
320,192,271406,1,8,0:0:0:0:
448,192,271406,1,8,0:0:0:0:
192,192,271865,1,8,0:0:0:0:
448,192,271865,1,8,0:0:0:0:
64,192,271865,1,8,0:0:0:0:
320,192,272171,1,8,0:0:0:0:
320,192,272324,1,8,0:0:0:0:
192,192,272477,1,8,0:0:0:0:
64,192,272783,1,8,0:0:0:0:
192,192,272783,1,8,0:0:0:0:
448,192,272783,1,8,0:0:0:0:
320,192,272783,1,8,0:0:0:0:
192,192,272936,1,8,0:0:0:0:
448,192,272936,1,8,0:0:0:0:
320,192,272936,1,8,0:0:0:0:
320,192,273089,1,8,0:0:0:0:
448,192,273089,1,8,0:0:0:0:
64,192,273089,1,8,0:0:0:0:
448,192,273242,1,8,0:0:0:0:
64,192,273242,1,8,0:0:0:0:
192,192,273242,1,8,0:0:0:0:
320,192,273395,1,8,0:0:0:0:
192,192,273395,1,8,0:0:0:0:
64,192,273395,1,8,0:0:0:0:
64,192,273548,1,8,0:0:0:0:
192,192,273548,1,8,0:0:0:0:
320,192,273548,1,8,0:0:0:0:
448,192,273548,1,8,0:0:0:0:
448,192,273701,1,8,0:0:0:0:
320,192,273701,1,8,0:0:0:0:
320,192,273854,1,8,0:0:0:0:
192,192,274007,1,8,0:0:0:0:
64,192,274007,1,8,0:0:0:0:
64,192,274160,1,8,0:0:0:0:
320,192,274313,1,8,0:0:0:0:
448,192,274313,1,8,0:0:0:0:
192,192,274313,1,8,0:0:0:0:
448,192,274619,1,8,0:0:0:0:
320,192,274619,1,8,0:0:0:0:
64,192,274925,1,8,0:0:0:0:
192,192,275078,1,8,0:0:0:0:
320,192,275078,1,8,0:0:0:0:
448,192,275231,1,8,0:0:0:0:
320,192,275231,1,8,0:0:0:0:
320,192,275384,1,8,0:0:0:0:
448,192,275537,1,8,0:0:0:0:
192,192,275537,1,8,0:0:0:0:
320,192,275690,1,8,0:0:0:0:
64,192,275690,1,8,0:0:0:0:
192,192,275843,1,8,0:0:0:0:
64,192,275843,1,8,0:0:0:0:
192,192,275996,1,8,0:0:0:0:
320,192,276149,1,8,0:0:0:0:
448,192,276302,1,8,0:0:0:0:
320,192,276302,1,8,0:0:0:0:
64,192,276761,1,8,0:0:0:0:
192,192,276761,1,8,0:0:0:0:
448,192,276761,1,8,0:0:0:0:
320,192,277068,1,8,0:0:0:0:
448,192,277374,1,8,0:0:0:0:
320,192,277374,1,8,0:0:0:0:
64,192,277374,1,8,0:0:0:0:
192,192,277680,1,8,0:0:0:0:
320,192,277986,1,8,0:0:0:0:
448,192,278292,1,8,0:0:0:0:
64,192,278292,1,8,0:0:0:0:
192,192,278292,1,8,0:0:0:0:
320,192,278445,1,8,0:0:0:0:
192,192,278598,1,8,0:0:0:0:
448,192,278751,1,8,0:0:0:0:
320,192,278751,1,8,0:0:0:0:
64,192,278751,1,8,0:0:0:0:
320,192,278904,1,8,0:0:0:0:
192,192,279057,1,8,0:0:0:0:
320,192,279210,1,8,0:0:0:0:
448,192,279210,1,8,0:0:0:0:
64,192,279210,1,8,0:0:0:0:
64,192,279822,1,8,0:0:0:0:
192,192,280128,1,8,0:0:0:0:
320,192,280128,1,8,0:0:0:0:
448,192,280128,1,8,0:0:0:0:
320,192,280434,1,8,0:0:0:0:
448,192,280740,1,8,0:0:0:0:
64,192,280740,1,8,0:0:0:0:
192,192,280740,1,8,0:0:0:0:
192,192,281199,1,8,0:0:0:0:
320,192,281199,1,8,0:0:0:0:
448,192,281199,1,8,0:0:0:0:
192,192,281658,1,8,0:0:0:0:
320,192,281658,1,8,0:0:0:0:
64,192,281658,1,8,0:0:0:0:
64,192,281964,1,8,0:0:0:0:
192,192,282270,1,8,0:0:0:0:
320,192,282576,1,8,0:0:0:0:
448,192,282729,1,8,0:0:0:0:
448,192,282882,1,8,0:0:0:0:
320,192,282882,1,8,0:0:0:0:
320,192,283035,1,8,0:0:0:0:
192,192,283035,1,8,0:0:0:0:
192,192,283188,1,8,0:0:0:0:
64,192,283188,1,8,0:0:0:0:
192,192,283341,1,8,0:0:0:0:
320,192,283341,1,8,0:0:0:0:
320,192,283494,1,8,0:0:0:0:
448,192,283494,1,8,0:0:0:0:
320,192,283647,1,8,0:0:0:0:
192,192,283647,1,8,0:0:0:0:
64,192,283800,1,8,0:0:0:0:
192,192,283800,1,8,0:0:0:0:
192,192,284106,1,8,0:0:0:0:
320,192,284106,1,8,0:0:0:0:
448,192,284106,1,8,0:0:0:0:
448,192,284412,1,8,0:0:0:0:
64,192,284412,1,8,0:0:0:0:
192,192,284412,1,8,0:0:0:0:
320,192,284718,1,8,0:0:0:0:
192,192,285024,1,8,0:0:0:0:
448,192,285024,1,8,0:0:0:0:
64,192,285330,1,8,0:0:0:0:
64,192,285636,1,8,0:0:0:0:
192,192,285636,1,8,0:0:0:0:
320,192,285942,1,8,0:0:0:0:
448,192,286095,1,8,0:0:0:0:
192,192,286554,1,8,0:0:0:0:
64,192,286707,1,8,0:0:0:0:
64,192,287013,1,8,0:0:0:0:
64,192,287166,1,8,0:0:0:0:
448,192,287319,1,8,0:0:0:0:
448,192,287472,1,8,0:0:0:0:
320,192,287625,1,8,0:0:0:0:
448,192,287779,1,8,0:0:0:0:
320,192,287932,1,8,0:0:0:0:
192,192,288085,1,8,0:0:0:0:
64,192,288238,1,8,0:0:0:0:
448,192,288391,1,8,0:0:0:0:
320,192,288544,1,8,0:0:0:0:
192,192,288697,1,8,0:0:0:0:
64,192,288850,1,8,0:0:0:0:
320,192,289003,1,8,0:0:0:0:
64,192,289309,1,8,0:0:0:0:
64,192,289921,1,8,0:0:0:0:
320,192,289921,1,8,0:0:0:0:
448,192,289921,1,8,0:0:0:0:
320,192,290227,1,8,0:0:0:0:
448,192,290227,1,8,0:0:0:0:
192,192,290533,1,8,0:0:0:0:
64,192,290533,1,8,0:0:0:0:
192,192,290992,1,8,0:0:0:0:
320,192,290992,1,8,0:0:0:0:
448,192,290992,1,8,0:0:0:0:
64,192,291451,1,8,0:0:0:0:
192,192,291451,1,8,0:0:0:0:
320,192,291527,1,8,0:0:0:0:
448,192,291527,1,8,0:0:0:0:
320,192,291757,1,8,0:0:0:0:
192,192,291757,1,8,0:0:0:0:
64,192,291757,1,8,0:0:0:0:
448,192,292063,1,8,0:0:0:0:
192,192,292369,1,8,0:0:0:0:
64,192,292369,1,8,0:0:0:0:
64,192,292675,1,8,0:0:0:0:
64,192,292828,1,8,0:0:0:0:
64,192,292981,1,8,0:0:0:0:
192,192,293134,1,8,0:0:0:0:
320,192,293287,1,8,0:0:0:0:
448,192,293593,1,8,0:0:0:0:
64,192,293899,1,8,0:0:0:0:
192,192,294205,1,8,0:0:0:0:
448,192,294205,1,8,0:0:0:0:
320,192,294205,1,8,0:0:0:0:
448,192,294511,1,8,0:0:0:0:
320,192,294664,1,8,0:0:0:0:
192,192,294817,1,8,0:0:0:0:
64,192,294817,128,8,295429:0:0:0:0:
192,192,295123,128,8,295735:0:0:0:0:
320,192,295429,128,8,296041:0:0:0:0:
448,192,295888,128,8,296347:0:0:0:0:
192,192,296347,128,8,297418:0:0:0:0:
320,192,297265,128,8,297571:0:0:0:0:
448,192,297571,128,8,298030:0:0:0:0:
320,192,297877,128,8,298337:0:0:0:0:
192,192,298337,128,8,298949:0:0:0:0:
64,192,298796,128,8,299714:0:0:0:0:
192,192,299714,128,8,300326:0:0:0:0:
320,192,300020,128,8,300632:0:0:0:0:
448,192,300326,128,8,300938:0:0:0:0:
192,192,300785,128,8,301703:0:0:0:0:
64,192,300785,1,8,0:0:0:0:
320,192,300785,1,8,0:0:0:0:
64,192,301244,128,8,302621:0:0:0:0:
192,192,302162,1,8,0:0:0:0:
320,192,302162,1,8,0:0:0:0:
448,192,302162,1,8,0:0:0:0:
