osu file format v14

[General]
AudioFilename: audio.mp3
AudioLeadIn: 0
PreviewTime: 187194
Countdown: 1
SampleSet: Normal
StackLeniency: 0.7
Mode: 2
LetterboxInBreaks: 0
WidescreenStoryboard: 1

[Editor]
DistanceSpacing: 0.8
BeatDivisor: 2
GridSize: 32
TimelineZoom: 1.99744

[Metadata]
Title:Bokutachi no Tabi to Epilogue.[Long ver.]
TitleUnicode:僕たちの旅とエピローグ。[Long ver.]
Artist:aaaa
ArtistUnicode:ああああ
Creator:Vulkin
Version:Salad
Source:BMS
Tags:Our Journey and Epilogue Epirogu Ricora Chiptune Marathon Groundbreaking 2014 game music Anxient Hi_Hello Chara ArcherLove agu deadbill Ryu_Sei
BeatmapID:1070428
BeatmapSetID:467409

[Difficulty]
HPDrainRate:4
CircleSize:3
OverallDifficulty:6
ApproachRate:5
SliderMultiplier:1.3999999666214
SliderTickRate:1

[Events]
//Background and Video events
0,0,"CTB-BG.jpg",0,0
//Break Periods
//Storyboard Layer 0 (Background)
//Storyboard Layer 1 (Fail)
//Storyboard Layer 2 (Pass)
//Storyboard Layer 3 (Foreground)
//Storyboard Sound Samples

[TimingPoints]
324,1161.103,4,1,0,30,1,0
324,-28.2377060828382,4,1,0,30,0,0
37479,582.807187955318,4,1,0,30,1,0
37479,-56.2568306010929,4,1,0,30,0,0
39810,774.943493703584,4,1,0,30,1,0
39810,-42.3087431693989,4,1,0,30,0,0
42909,917.090909090911,4,1,0,30,1,0
42909,-35.7509652760624,4,1,0,30,0,0
50245,306.544729985184,3,1,0,30,1,0
50245,-106.956284153005,3,1,0,30,0,0
61280,318.0493,3,1,0,30,1,0
61280,-103.087430929424,3,1,0,30,0,0
63188,774.500000000006,3,1,0,30,1,0
63188,-42.3329699753407,3,1,0,30,0,0
65511,327.863477647907,4,1,0,30,1,0
65511,-100.001639344262,4,1,0,30,0,0
133706,339.212000000003,4,1,0,30,1,0
133706,-96.6560299927519,4,1,0,30,0,0
135062,350.558300000002,4,1,0,30,1,0
135062,-93.5276250652215,4,1,0,30,0,0
136464,379.070200000001,4,1,0,30,1,0
136464,-86.4929114604671,4,1,0,30,0,0
137980,407.884300000001,4,1,0,30,1,0
137980,-80.3828076881154,4,1,0,30,0,0
139611,442.8004,4,1,0,30,1,0
139611,-74.0443894041235,4,1,0,30,0,0
141382,446.0393,4,1,0,30,1,0
141382,-73.5067184570993,4,1,0,30,0,0
143166,443.5344,4,1,0,30,1,0
143166,-73.9218541919221,4,1,0,30,0,0
144940,445.7675,4,1,0,30,1,0
144940,-73.5515380683913,4,1,0,30,0,0
146723,443.4074,4,1,0,30,1,0
146723,-73.9430267647803,4,1,0,30,0,0
148496,444.183999999999,4,1,0,30,1,0
148496,-73.8137466588209,4,1,0,30,0,0
150272,461.0999,4,1,0,30,1,0
150272,-71.1058172988145,4,1,0,30,0,0
152116,461.0341,4,1,0,30,1,0
152116,-71.11596570818,4,1,0,30,0,0
153960,463.7749,4,1,0,30,1,0
153960,-70.6956871661266,4,1,0,30,0,0
155815,460.8153,4,1,0,30,1,0
155815,-71.1497323242124,4,1,0,30,0,0
157658,461.5362,4,1,0,30,1,0
157658,-71.0385994552576,4,1,0,30,0,0
159504,460.7658,4,1,0,30,1,0
159504,-71.1573759291632,4,1,0,30,0,0
161347,460.5839,4,1,0,30,1,0
161347,-71.1854783588867,4,1,0,30,0,0
163189,462.9486,4,1,0,30,1,0
163189,-70.821869308821,4,1,0,30,0,0
165040,463.338,4,1,0,30,1,0
165040,-70.7623489674959,4,1,0,30,0,0
166893,460.325,4,1,0,30,1,0
166893,-71.2255151162801,4,1,0,30,0,0
168734,462.4028,4,1,0,30,1,0
168734,-70.9054643395361,4,1,0,30,0,0
170583,459.5447,4,1,0,30,1,0
170583,-71.3464549714133,4,1,0,30,0,0
172421,462.3072,4,1,0,30,1,0
172421,-70.9201268029173,4,1,0,30,0,0
174270,459.3071,4,1,0,30,1,0
174270,-71.3833625604778,4,1,0,30,0,0
176107,464.3747,4,1,0,30,1,0
176107,-70.6043745404339,4,1,0,30,0,0
177964,461.8207,4,1,0,30,1,0
177964,-70.9948368401452,4,1,0,30,0,0
179811,461.2475,4,1,0,30,1,0
179811,-71.0830633139511,4,1,0,30,0,0
181655,462.3072,4,1,0,30,1,0
181655,-70.9201268029173,4,1,0,30,0,0
183504,459.7609,4,1,0,30,1,0
183504,-71.3129046987285,4,1,0,30,0,0
185343,462.6524,4,1,0,30,1,0
185343,-70.8672109901551,4,1,0,30,0,0
187193,546.8251,4,1,0,30,1,0
187193,-59.9586325607615,4,1,0,30,0,0
189380,375.530200000001,4,1,0,30,1,0
189380,-87.3082517621793,4,1,0,30,0,0
190882,372.5506,4,1,0,30,1,0
190882,-88.0065291691965,4,1,0,30,0,0
192372,365.938200000001,4,1,0,30,1,0
192372,-89.5967823143404,4,1,0,30,0,0
193835,362.0984,4,1,0,30,1,0
193835,-90.5468934574183,4,1,0,30,0,0
195283,352.3141,4,1,0,30,1,0
195283,-93.0615188148917,4,1,0,30,0,0
196692,355.5833,4,1,0,30,1,0
196692,-92.2059198109181,4,1,0,30,0,0
198114,346.253500000001,4,1,0,30,1,0
198114,-94.690408171763,4,1,0,30,0,0
199499,348.2665,4,1,0,30,1,0
199499,-94.1430922753169,4,1,0,30,0,0
200892,343.839541547278,4,1,0,30,1,0
200892,-95.2380952380952,4,1,0,30,0,1
202267,337.078651685393,4,1,0,30,1,1
202267,-98.0392156862745,4,1,0,30,0,1
203615,334.261838440111,4,1,0,30,1,1
203615,-98.7043937890754,4,1,0,30,0,1
204952,332.409972299169,4,1,0,30,1,1
204952,-98.0078666210159,4,1,0,30,0,1
206281,329.760923330585,4,1,0,30,1,1
206281,-100.270487662108,4,1,0,30,0,1
207600,326.975476839237,4,1,0,30,1,1
207600,-99.4042914532431,4,1,0,30,0,1
208907,328.767123287671,4,1,0,30,1,1
208907,-100.255280019513,4,1,0,30,0,1
210222,327.958458595245,4,1,0,30,1,1
210222,-100.013925939048,4,1,0,30,0,1
211532,327.788248791281,4,1,0,30,1,0
211532,-99.9908363398036,4,1,0,30,0,0
231199,354.0906,4,1,0,30,1,0
231199,-92.5946219580572,4,1,0,30,0,0
232615,751.9088,4,1,0,30,1,0
232615,-43.6048696941725,4,1,0,30,0,0
235622,748.6787,4,1,0,30,1,0
235622,-43.7929985799003,4,1,0,30,0,0
238616,727.5307,4,1,0,30,1,0
238616,-45.0659817460647,4,1,0,30,0,0
241526,727.4252,4,1,0,30,1,0
241526,-45.0725177597664,4,1,0,30,0,0
244435,733.0117,4,1,0,30,1,0
244435,-44.7290067073986,4,1,0,30,0,0
247367,720.6176,4,1,0,30,1,0
247367,-45.4983131773379,4,1,0,30,0,0
250249,705.0665,4,1,0,30,1,0
250249,-46.5018338637584,4,1,0,30,0,0
253069,705.7523,4,1,0,30,1,0
253069,-46.4566466817064,4,1,0,30,0,0
255892,355.576626763067,4,1,0,30,1,0
255892,-92.5925925925926,4,1,0,30,0,0
256589,359.841176470589,4,1,0,30,1,0
256589,-90.9090909090909,4,1,0,30,0,0
257331,392.8,3,1,0,30,1,0
257331,-83.4696671229675,3,1,0,30,0,0
258509,391.5,3,1,0,30,1,0
258509,-83.746833322865,3,1,0,30,0,0
259683,397.6,3,1,0,30,1,0
259683,-82.4619850249035,3,1,0,30,0,0
260875,402.4,3,1,0,30,1,0
260875,-81.4783430564156,3,1,0,30,0,0
262082,421,3,1,0,30,1,0
262082,-77.8785872824267,3,1,0,30,0,0
263345,398.4,3,1,0,30,1,0
263345,-82.2963987095925,3,1,0,30,0,0
264540,396.8,3,1,0,30,1,0
264540,-82.6282390269699,3,1,0,30,0,0
265730,390.9,3,1,0,30,1,0
265730,-83.875377963422,3,1,0,30,0,0
266902,408,3,1,0,30,1,0
266902,-80.3600128576021,3,1,0,30,0,0
268126,418.4,3,1,0,30,1,0
268126,-78.3625364385795,3,1,0,30,0,0
269381,466.8,3,1,0,30,1,0
269381,-70.237543371683,3,1,0,30,0,0
270781,500,4,1,0,30,1,0
270781,-65.5737704918033,4,1,0,30,0,0
272781,315.3471,4,1,0,30,1,0
272781,-103.970784084907,4,1,0,30,0,0
274042,316.2576,4,1,0,30,1,0
274042,-103.67145404854,4,1,0,30,0,0
275307,325.024,4,1,0,30,1,0
275307,-100.875274582497,4,1,0,30,0,0
276607,354.505169867061,4,1,0,30,1,0
276607,-92.5925925925926,4,1,0,30,0,0
277670,418.118466898955,4,1,0,30,1,0
277670,-78.125,4,1,0,30,0,0
278088,407.193756362402,4,1,0,30,1,0
278088,-80.5191256830602,4,1,0,30,0,0
279716,399.773461705034,4,1,0,30,1,0
279716,-82.0136612021858,4,1,0,30,0,0
306900,390.480999999999,4,1,0,30,1,0
306900,-83.9653792269066,4,1,0,30,0,0
308461,387.8318,4,1,0,30,1,0
308461,-84.5389296233616,4,1,0,30,0,0
310012,382.9109,4,1,0,30,1,0
310012,-85.6253641405916,4,1,0,30,0,0
311543,378.2685,4,1,0,30,1,0
311543,-86.6762240205083,4,1,0,30,0,0
313056,372.3664,4,1,0,30,1,0
313056,-88.0500637165481,4,1,0,30,0,0
314545,367.7202,4,1,0,30,1,0
314545,-89.1625895066456,4,1,0,30,0,0
316015,364.4207,4,1,0,30,1,0
316015,-89.9698761511123,4,1,0,30,0,0
317472,363.0741,4,1,0,30,1,0
317472,-90.3035640545598,4,1,0,30,0,0
318924,365.1356,4,1,0,30,1,1
318924,-90.3035640545598,4,1,0,30,0,1
320384,363.1703,4,1,0,30,1,1
320384,-90.2796435884257,4,1,0,30,0,1
321836,364.072,4,1,0,30,1,1
321836,-90.0560472815862,4,1,0,30,0,1
323292,362.5079,4,1,0,30,1,1
323292,-90.4446089199757,4,1,0,30,0,1
324742,364.344,4,1,0,30,1,1
324742,-89.9888161899239,4,1,0,30,0,1
326199,363.373699999999,4,1,0,30,1,1
326199,-90.2291091675092,4,1,0,30,0,1
327652,364.86,4,1,0,30,1,1
327652,-89.8615503094382,4,1,0,30,0,1
329111,362.3438,4,1,0,30,1,1
329111,-90.4855699087487,4,1,0,30,0,1
330560,386.5369,4,1,0,30,1,1
330560,-84.8221353405112,4,1,0,30,0,0
332106,488.5329,4,1,0,30,1,0
332106,-67.1129523639076,4,1,0,30,0,0
334060,400,4,1,0,30,1,0
334060,-81.9672131147541,4,1,0,30,0,0
338860,-81.9672131147541,4,1,0,30,0,1
340451,405.7183,4,1,0,30,1,1
340451,-80.8119457414212,4,1,0,30,0,1
342073,419.4708,4,1,0,30,1,1
342073,-78.1624972367603,4,1,0,30,0,1
343750,417.5244,4,1,0,30,1,0
343750,-78.5268723118976,4,1,0,30,0,0
345420,541.9388,4,1,0,30,1,0
345420,-60.4992394822102,4,1,0,30,0,0
347587,397,3,1,0,30,1,0
347587,-82.5866127100797,3,1,0,30,0,0
348778,407.4,3,1,0,30,1,0
348778,-80.4783633920021,3,1,0,30,0,0
350000,404.448938321537,3,1,0,30,1,0
350000,-83.2154447865524,3,1,0,30,0,0
351213,412.371134020619,3,1,0,30,1,0
351213,-77.528695308351,3,1,0,30,0,0
352450,410.7,3,1,0,30,1,0
352450,-79.8317147453169,3,1,0,30,0,0
354914,399.0335,3,1,0,30,1,0
354914,-82.1657460987652,3,1,0,30,0,0
356111,399.1335,3,1,0,30,1,0
356111,-82.1451600677509,3,1,0,30,0,0
357308,398.9335,3,1,0,30,1,0
357308,-82.1863424503122,3,1,0,30,0,0
360896,381.6335,3,1,0,30,1,0
360896,-85.9119685402399,3,1,0,30,0,0
362040,400,3,1,0,30,1,0
362040,-81.9672131147541,3,1,0,30,0,0

[HitObjects]
126,191,324,5,0,0:0:0:0:
405,198,1485,5,0,0:0:0:0:
301,280,1872,1,0,0:0:0:0:
247,159,2259,1,0,0:0:0:0:
162,57,2646,1,0,0:0:0:0:
132,188,3807,5,0,0:0:0:0:
216,86,4194,1,0,0:0:0:0:
271,206,4581,1,0,0:0:0:0:
187,308,4968,2,0,L|95:136,2,165.263661380279
300,240,6129,2,0,L|392:68,2,165.263661380279
186,171,7290,1,0,0:0:0:0:
416,192,8451,5,0,0:0:0:0:
96,192,9612,5,0,0:0:0:0:
295,91,10773,6,0,P|328:165|403:196,2,165.263661380279
210,193,11935,1,0,0:0:0:0:
206,185,13096,6,0,P|65:238|-27:148,2,165.263661380279
329,234,14257,1,0,0:0:0:0:
437,156,14644,1,0,0:0:0:0:
341,65,15031,1,0,0:0:0:0:
244,155,15418,2,0,P|146:119|128:-7,2,165.263661380279
376,151,16579,5,0,0:0:0:0:
256,192,16966,12,0,18514,0:0:0:0:
74,201,18901,5,0,0:0:0:0:
192,142,19288,1,0,0:0:0:0:
303,69,19675,1,0,0:0:0:0:
413,141,20062,1,0,0:0:0:0:
316,231,20449,1,0,0:0:0:0:
203,302,20836,1,0,0:0:0:0:
158,253,21030,1,0,0:0:0:0:
219,230,21223,5,0,0:0:0:0:
339,176,21610,1,0,0:0:0:0:
339,176,21997,1,0,0:0:0:0:
436,265,22384,1,0,0:0:0:0:
339,176,22771,1,0,0:0:0:0:
339,176,23159,1,0,0:0:0:0:
236,259,23546,5,0,0:0:0:0:
172,143,23933,1,0,0:0:0:0:
289,82,24320,1,0,0:0:0:0:
366,188,24707,1,0,0:0:0:0:
479,256,25094,1,0,0:0:0:0:
302,165,25674,1,0,0:0:0:0:
242,195,25868,2,0,P|134:244|0:173,1,247.895492070418
255,198,27029,2,0,P|366:243|476:194,1,247.895492070418
337,336,28190,5,0,0:0:0:0:
322,204,28577,1,0,0:0:0:0:
250,93,28964,1,0,0:0:0:0:
118,77,29351,5,0,0:0:0:0:
250,74,29738,1,0,0:0:0:0:
370,20,30125,1,0,0:0:0:0:
457,118,30512,5,0,0:0:0:0:
392,233,30899,1,0,0:0:0:0:
291,147,31286,1,0,0:0:0:0:
224,32,31673,5,0,0:0:0:0:
28,209,32447,5,0,0:0:0:0:
127,296,32834,1,0,0:0:0:0:
238,224,33221,2,0,P|407:184|159:77,1,661.054645521116
114,161,35157,1,0,0:0:0:0:
151,54,35544,2,0,P|48:254|391:228,1,661.054645521116
315,180,37479,1,0,0:0:0:0:
225,81,37867,2,0,B|336:42|349:234|94:248|70:83|37:46|37:46|58:313|337:264,1,829.528855307356
256,192,40068,12,0,45354,0:0:0:0:
54,65,50245,5,0,0:0:0:0:
159,180,50704,2,0,P|204:163|208:118,1,65.447298648603
247,111,51011,2,0,P|279:58|310:42,1,65.447298648603
