osu file format v14

[General]
AudioFilename: audio.mp3
AudioLeadIn: 0
PreviewTime: 187194
Countdown: 1
SampleSet: Normal
StackLeniency: 0.7
Mode: 1
LetterboxInBreaks: 0
WidescreenStoryboard: 1

[Editor]
DistanceSpacing: 0.8
BeatDivisor: 1
GridSize: 32
TimelineZoom: 2.697439

[Metadata]
Title:Bokutachi no Tabi to Epilogue.[Long ver.]
TitleUnicode:僕たちの旅とエピローグ。[Long ver.]
Artist:aaaa
ArtistUnicode:ああああ
Creator:Vulkin
Version:Kantan
Source:BMS
Tags:Our Journey and Epilogue Epirogu Ricora Chiptune Marathon Groundbreaking 2014 game music Anxient Hi_Hello Chara ArcherLove agu deadbill Ryu_Sei
BeatmapID:1012445
BeatmapSetID:467409

[Difficulty]
HPDrainRate:4
CircleSize:2
OverallDifficulty:8
ApproachRate:5
SliderMultiplier:1.3999999666214
SliderTickRate:1

[Events]
//Background and Video events
0,0,"TAIKO-BG.jpg",0,0
//Break Periods
//Storyboard Layer 0 (Background)
//Storyboard Layer 1 (Fail)
//Storyboard Layer 2 (Pass)
//Storyboard Layer 3 (Foreground)
//Storyboard Sound Samples

[TimingPoints]
324,1161.103,4,1,0,30,1,0
324,-28.2377060828382,4,1,0,30,0,0
37479,582.807187955318,4,1,0,30,1,0
37479,-56.2568306010929,4,1,0,30,0,0
39810,774.943493703584,4,1,0,30,1,0
39810,-42.3087431693989,4,1,0,30,0,0
42909,917.090909090911,4,1,0,30,1,0
42909,-35.7509652760624,4,1,0,30,0,0
50245,306.544729985184,3,1,0,30,1,0
50245,-106.956284153005,3,1,0,30,0,0
61280,318.0493,3,1,0,30,1,0
61280,-103.087430929424,3,1,0,30,0,0
63188,774.500000000006,3,1,0,30,1,0
63188,-42.3329699753407,3,1,0,30,0,0
65511,327.863477647907,4,1,0,30,1,0
65511,-100.001639344262,4,1,0,30,0,0
133706,339.212000000003,4,1,0,30,1,0
133706,-96.6560299927519,4,1,0,30,0,0
135062,350.558300000002,4,1,0,30,1,0
135062,-93.5276250652215,4,1,0,30,0,0
136464,379.070200000001,4,1,0,30,1,0
136464,-86.4929114604671,4,1,0,30,0,0
137980,407.884300000001,4,1,0,30,1,0
137980,-80.3828076881154,4,1,0,30,0,0
139611,442.8004,4,1,0,30,1,0
139611,-74.0443894041235,4,1,0,30,0,0
141382,446.0393,4,1,0,30,1,0
141382,-73.5067184570993,4,1,0,30,0,0
143166,443.5344,4,1,0,30,1,0
143166,-73.9218541919221,4,1,0,30,0,0
144940,445.7675,4,1,0,30,1,0
144940,-73.5515380683913,4,1,0,30,0,0
146723,443.4074,4,1,0,30,1,0
146723,-73.9430267647803,4,1,0,30,0,0
148496,444.183999999999,4,1,0,30,1,0
148496,-73.8137466588209,4,1,0,30,0,0
150272,461.0999,4,1,0,30,1,0
150272,-71.1058172988145,4,1,0,30,0,0
152116,461.0341,4,1,0,30,1,0
152116,-71.11596570818,4,1,0,30,0,0
153960,463.7749,4,1,0,30,1,0
153960,-70.6956871661266,4,1,0,30,0,0
155815,460.8153,4,1,0,30,1,0
155815,-71.1497323242124,4,1,0,30,0,0
157658,461.5362,4,1,0,30,1,0
157658,-71.0385994552576,4,1,0,30,0,0
159504,460.7658,4,1,0,30,1,0
159504,-71.1573759291632,4,1,0,30,0,0
161347,460.5839,4,1,0,30,1,0
161347,-71.1854783588867,4,1,0,30,0,0
163189,462.9486,4,1,0,30,1,0
163189,-70.821869308821,4,1,0,30,0,0
165040,463.338,4,1,0,30,1,0
165040,-70.7623489674959,4,1,0,30,0,0
166893,460.325,4,1,0,30,1,0
166893,-71.2255151162801,4,1,0,30,0,0
168734,462.4028,4,1,0,30,1,0
168734,-70.9054643395361,4,1,0,30,0,0
170583,459.5447,4,1,0,30,1,0
170583,-71.3464549714133,4,1,0,30,0,0
172421,462.3072,4,1,0,30,1,0
172421,-70.9201268029173,4,1,0,30,0,0
174270,459.3071,4,1,0,30,1,0
174270,-71.3833625604778,4,1,0,30,0,0
176107,464.3747,4,1,0,30,1,0
176107,-70.6043745404339,4,1,0,30,0,0
177964,461.8207,4,1,0,30,1,0
177964,-70.9948368401452,4,1,0,30,0,0
179811,461.2475,4,1,0,30,1,0
179811,-71.0830633139511,4,1,0,30,0,0
181655,462.3072,4,1,0,30,1,0
181655,-70.9201268029173,4,1,0,30,0,0
183504,459.7609,4,1,0,30,1,0
183504,-71.3129046987285,4,1,0,30,0,0
185343,462.6524,4,1,0,30,1,0
185343,-70.8672109901551,4,1,0,30,0,0
187193,546.8251,4,1,0,30,1,0
187193,-59.9586325607615,4,1,0,30,0,0
189380,375.530200000001,4,1,0,30,1,0
189380,-87.3082517621793,4,1,0,30,0,0
190882,372.5506,4,1,0,30,1,0
190882,-88.0065291691965,4,1,0,30,0,0
192372,365.938200000001,4,1,0,30,1,0
192372,-89.5967823143404,4,1,0,30,0,0
193835,362.0984,4,1,0,30,1,0
193835,-90.5468934574183,4,1,0,30,0,0
195283,352.3141,4,1,0,30,1,0
195283,-93.0615188148917,4,1,0,30,0,0
196692,355.5833,4,1,0,30,1,0
196692,-92.2059198109181,4,1,0,30,0,0
198114,346.253500000001,4,1,0,30,1,0
198114,-94.690408171763,4,1,0,30,0,0
199499,348.2665,4,1,0,30,1,0
199499,-94.1430922753169,4,1,0,30,0,0
200892,343.839541547278,4,1,0,30,1,0
200892,-95.2380952380952,4,1,0,30,0,1
202267,337.078651685393,4,1,0,30,1,1
202267,-98.0392156862745,4,1,0,30,0,1
203615,334.261838440111,4,1,0,30,1,1
203615,-98.7043937890754,4,1,0,30,0,1
204952,332.409972299169,4,1,0,30,1,1
204952,-98.0078666210159,4,1,0,30,0,1
206281,329.760923330585,4,1,0,30,1,1
206281,-100.270487662108,4,1,0,30,0,1
207600,326.975476839237,4,1,0,30,1,1
207600,-99.4042914532431,4,1,0,30,0,1
208907,328.767123287671,4,1,0,30,1,1
208907,-100.255280019513,4,1,0,30,0,1
210222,327.958458595245,4,1,0,30,1,1
210222,-100.013925939048,4,1,0,30,0,1
211532,327.788248791281,4,1,0,30,1,0
211532,-99.9908363398036,4,1,0,30,0,0
231199,354.0906,4,1,0,30,1,0
231199,-92.5946219580572,4,1,0,30,0,0
232615,751.9088,4,1,0,30,1,0
232615,-43.6048696941725,4,1,0,30,0,0
235622,748.6787,4,1,0,30,1,0
235622,-43.7929985799003,4,1,0,30,0,0
238616,727.5307,4,1,0,30,1,0
238616,-45.0659817460647,4,1,0,30,0,0
241526,727.4252,4,1,0,30,1,0
241526,-45.0725177597664,4,1,0,30,0,0
244435,733.0117,4,1,0,30,1,0
244435,-44.7290067073986,4,1,0,30,0,0
247367,720.6176,4,1,0,30,1,0
247367,-45.4983131773379,4,1,0,30,0,0
250249,705.0665,4,1,0,30,1,0
250249,-46.5018338637584,4,1,0,30,0,0
253069,705.7523,4,1,0,30,1,0
253069,-46.4566466817064,4,1,0,30,0,0
255892,355.576626763067,4,1,0,30,1,0
255892,-92.5925925925926,4,1,0,30,0,0
256589,359.841176470589,4,1,0,30,1,0
256589,-90.9090909090909,4,1,0,30,0,0
257331,392.8,3,1,0,30,1,0
257331,-83.4696671229675,3,1,0,30,0,0
258509,391.5,3,1,0,30,1,0
258509,-83.746833322865,3,1,0,30,0,0
259683,397.6,3,1,0,30,1,0
259683,-82.4619850249035,3,1,0,30,0,0
260875,402.4,3,1,0,30,1,0
260875,-81.4783430564156,3,1,0,30,0,0
262082,421,3,1,0,30,1,0
262082,-77.8785872824267,3,1,0,30,0,0
263345,398.4,3,1,0,30,1,0
263345,-82.2963987095925,3,1,0,30,0,0
264540,396.8,3,1,0,30,1,0
264540,-82.6282390269699,3,1,0,30,0,0
265730,390.9,3,1,0,30,1,0
265730,-83.875377963422,3,1,0,30,0,0
266902,408,3,1,0,30,1,0
266902,-80.3600128576021,3,1,0,30,0,0
268126,418.4,3,1,0,30,1,0
268126,-78.3625364385795,3,1,0,30,0,0
269381,466.8,3,1,0,30,1,0
269381,-70.237543371683,3,1,0,30,0,0
270781,500,4,1,0,30,1,0
270781,-65.5737704918033,4,1,0,30,0,0
272781,315.3471,4,1,0,30,1,0
272781,-103.970784084907,4,1,0,30,0,0
274042,316.2576,4,1,0,30,1,0
274042,-103.67145404854,4,1,0,30,0,0
275307,325.024,4,1,0,30,1,0
275307,-100.875274582497,4,1,0,30,0,0
276607,354.505169867061,4,1,0,30,1,0
276607,-92.5925925925926,4,1,0,30,0,0
277670,418.118466898955,4,1,0,30,1,0
277670,-78.125,4,1,0,30,0,0
278088,407.193756362402,4,1,0,30,1,0
278088,-80.5191256830602,4,1,0,30,0,0
279716,399.773461705034,4,1,0,30,1,0
279716,-82.0136612021858,4,1,0,30,0,0
306900,390.480999999999,4,1,0,30,1,0
306900,-83.9653792269066,4,1,0,30,0,0
308461,387.8318,4,1,0,30,1,0
308461,-84.5389296233616,4,1,0,30,0,0
310012,382.9109,4,1,0,30,1,0
310012,-85.6253641405916,4,1,0,30,0,0
311543,378.2685,4,1,0,30,1,0
311543,-86.6762240205083,4,1,0,30,0,0
313056,372.3664,4,1,0,30,1,0
313056,-88.0500637165481,4,1,0,30,0,0
314545,367.7202,4,1,0,30,1,0
314545,-89.1625895066456,4,1,0,30,0,0
316015,364.4207,4,1,0,30,1,0
316015,-89.9698761511123,4,1,0,30,0,0
317472,363.0741,4,1,0,30,1,0
317472,-90.3035640545598,4,1,0,30,0,0
318924,365.1356,4,1,0,30,1,1
318924,-90.3035640545598,4,1,0,30,0,1
320384,363.1703,4,1,0,30,1,1
320384,-90.2796435884257,4,1,0,30,0,1
321836,364.072,4,1,0,30,1,1
321836,-90.0560472815862,4,1,0,30,0,1
323292,362.5079,4,1,0,30,1,1
323292,-90.4446089199757,4,1,0,30,0,1
324742,364.344,4,1,0,30,1,1
324742,-89.9888161899239,4,1,0,30,0,1
326199,363.373699999999,4,1,0,30,1,1
326199,-90.2291091675092,4,1,0,30,0,1
327652,364.86,4,1,0,30,1,1
327652,-89.8615503094382,4,1,0,30,0,1
329111,362.3438,4,1,0,30,1,1
329111,-90.4855699087487,4,1,0,30,0,1
330560,386.5369,4,1,0,30,1,1
330560,-84.8221353405112,4,1,0,30,0,0
332106,488.5329,4,1,0,30,1,0
332106,-67.1129523639076,4,1,0,30,0,0
334060,400,4,1,0,30,1,0
334060,-81.9672131147541,4,1,0,30,0,0
338860,-81.9672131147541,4,1,0,30,0,1
340451,405.7183,4,1,0,30,1,1
340451,-80.8119457414212,4,1,0,30,0,1
342073,419.4708,4,1,0,30,1,1
342073,-78.1624972367603,4,1,0,30,0,1
343750,417.5244,4,1,0,30,1,0
343750,-78.5268723118976,4,1,0,30,0,0
345420,541.9388,4,1,0,30,1,0
345420,-60.4992394822102,4,1,0,30,0,0
347587,397,3,1,0,30,1,0
347587,-82.5866127100797,3,1,0,30,0,0
348778,407.4,3,1,0,30,1,0
348778,-80.4783633920021,3,1,0,30,0,0
350000,404.448938321537,3,1,0,30,1,0
350000,-83.2154447865524,3,1,0,30,0,0
351213,412.371134020619,3,1,0,30,1,0
351213,-77.528695308351,3,1,0,30,0,0
352450,410.7,3,1,0,30,1,0
352450,-79.8317147453169,3,1,0,30,0,0
354914,399.0335,3,1,0,30,1,0
354914,-82.1657460987652,3,1,0,30,0,0
356111,399.1335,3,1,0,30,1,0
356111,-82.1451600677509,3,1,0,30,0,0
357308,398.9335,3,1,0,30,1,0
357308,-82.1863424503122,3,1,0,30,0,0
360896,381.6335,3,1,0,30,1,0
360896,-85.9119685402399,3,1,0,30,0,0
362040,400,3,1,0,30,1,0
362040,-81.9672131147541,3,1,0,30,0,0

[HitObjects]
256,192,324,5,8,0:0:0:0:
256,192,2646,1,0,0:0:0:0:
256,192,4968,1,8,0:0:0:0:
256,192,6129,1,8,0:0:0:0:
256,192,7290,1,0,0:0:0:0:
256,192,9612,1,8,0:0:0:0:
256,192,11935,1,0,0:0:0:0:
256,192,14257,1,0,0:0:0:0:
256,192,15418,1,8,0:0:0:0:
256,192,16579,1,8,0:0:0:0:
256,192,17740,1,8,0:0:0:0:
256,192,18901,1,0,0:0:0:0:
256,192,21223,1,0,0:0:0:0:
256,192,23546,1,0,0:0:0:0:
256,192,24707,1,8,0:0:0:0:
256,192,25868,1,8,0:0:0:0:
256,192,27029,1,8,0:0:0:0:
256,192,28190,1,0,0:0:0:0:
256,192,29351,1,0,0:0:0:0:
256,192,30512,1,8,0:0:0:0:
256,192,31673,1,8,0:0:0:0:
256,192,32834,1,8,0:0:0:0:
256,192,35157,1,0,0:0:0:0:
256,192,37479,1,8,0:0:0:0:
256,192,39810,1,8,0:0:0:0:
256,192,40972,12,0,45660,0:0:0:0:
256,192,50245,5,8,0:0:0:0:
256,192,51164,1,0,0:0:0:0:
256,192,51624,1,0,0:0:0:0:
256,192,52084,1,0,0:0:0:0:
256,192,53003,1,8,0:0:0:0:
256,192,53923,1,8,0:0:0:0:
256,192,54843,1,8,0:0:0:0:
256,192,55302,1,8,0:0:0:0:
256,192,55762,1,0,0:0:0:0:
256,192,56682,1,0,0:0:0:0:
256,192,56988,1,8,0:0:0:0:
256,192,57295,1,8,0:0:0:0:
256,192,57602,1,0,0:0:0:0:
256,192,58521,1,8,0:0:0:0:
256,192,59441,1,8,0:0:0:0:
256,192,60360,1,8,0:0:0:0:
256,192,61280,1,0,0:0:0:0:
256,192,63188,1,8,0:0:0:0:
256,192,64220,1,0,0:0:0:0:
256,192,65511,1,8,0:0:0:0:
256,192,66822,1,0,0:0:0:0:
256,192,67478,1,8,0:0:0:0:
256,192,67806,1,8,0:0:0:0:
256,192,68133,1,8,0:0:0:0:
256,192,69445,1,0,0:0:0:0:
256,192,70101,1,0,0:0:0:0:
256,192,70428,1,8,0:0:0:0:
256,192,70756,1,8,0:0:0:0:
256,192,72068,1,8,0:0:0:0:
256,192,72396,1,0,0:0:0:0:
256,192,72723,1,8,0:0:0:0:
256,192,73051,1,8,0:0:0:0:
256,192,73379,1,8,0:0:0:0:
256,192,74691,1,0,0:0:0:0:
256,192,75346,1,0,0:0:0:0:
256,192,75674,1,8,0:0:0:0:
256,192,76002,1,0,0:0:0:0:
256,192,76658,1,0,0:0:0:0:
256,192,77314,1,0,0:0:0:0:
256,192,77969,1,0,0:0:0:0:
256,192,78297,1,8,0:0:0:0:
256,192,78625,1,0,0:0:0:0:
256,192,79281,1,0,0:0:0:0:
256,192,79936,1,8,0:0:0:0:
256,192,80592,1,0,0:0:0:0:
256,192,80920,1,8,0:0:0:0:
256,192,81248,1,0,0:0:0:0:
256,192,81576,1,0,0:0:0:0:
256,192,81904,1,0,0:0:0:0:
256,192,82232,1,0,0:0:0:0:
256,192,82559,1,8,0:0:0:0:
235,192,83215,1,0,0:0:0:0:
235,192,83543,1,0,0:0:0:0:
96,192,83871,2,0,L|288:192,4,139.997700252109
448,192,86166,1,8,0:0:0:0:
320,192,86494,1,0,0:0:0:0:
256,192,87805,1,0,0:0:0:0:
256,192,88461,1,8,0:0:0:0:
256,192,89117,1,8,0:0:0:0:
256,192,90428,1,0,0:0:0:0:
256,192,90756,1,0,0:0:0:0:
256,192,91084,1,0,0:0:0:0:
256,192,91740,1,8,0:0:0:0:
256,192,92395,1,0,0:0:0:0:
256,192,93051,1,8,0:0:0:0:
256,192,93707,1,8,0:0:0:0:
256,192,94362,1,0,0:0:0:0:
256,192,96985,1,0,0:0:0:0:
256,192,97313,1,0,0:0:0:0:
256,192,97641,1,8,0:0:0:0:
256,192,98297,1,8,0:0:0:0:
256,192,98953,1,8,0:0:0:0:
256,192,99608,1,0,0:0:0:0:
256,192,100920,1,8,0:0:0:0:
256,192,101575,1,0,0:0:0:0:
256,192,102231,1,0,0:0:0:0:
256,192,103543,1,0,0:0:0:0:
256,192,104198,1,8,0:0:0:0:
256,192,104854,1,8,0:0:0:0:
256,192,106166,1,0,0:0:0:0:
256,192,106493,1,8,0:0:0:0:
256,192,106821,1,0,0:0:0:0:
224,192,107477,1,8,0:0:0:0:
224,192,108788,1,0,0:0:0:0:
224,192,110100,1,0,0:0:0:0:
224,192,111411,1,0,0:0:0:0:
224,192,111739,1,8,0:0:0:0:
224,192,112067,1,8,0:0:0:0:
224,192,112723,1,8,0:0:0:0:
224,192,114034,1,8,0:0:0:0:
224,192,114690,1,0,0:0:0:0:
224,192,115346,1,8,0:0:0:0:
224,192,116329,1,8,0:0:0:0:
224,192,116657,1,0,0:0:0:0:
224,192,117313,1,8,0:0:0:0:
224,192,117969,1,8,0:0:0:0:
224,192,119280,1,0,0:0:0:0:
320,224,119608,1,0,0:0:0:0:
224,192,119936,1,8,0:0:0:0:
448,224,120592,1,8,0:0:0:0:
256,192,121903,1,0,0:0:0:0:
256,192,122559,1,8,0:0:0:0:
256,192,123214,1,8,0:0:0:0:
256,192,124526,1,0,0:0:0:0:
256,192,125182,1,8,0:0:0:0:
256,192,125837,1,8,0:0:0:0:
256,192,127149,1,8,0:0:0:0:
256,192,128460,1,0,0:0:0:0:
256,192,129116,1,0,0:0:0:0:
256,192,129772,1,8,0:0:0:0:
256,192,130427,1,8,0:0:0:0:
256,192,131083,1,0,0:0:0:0:
256,192,132395,1,8,0:0:0:0:
256,192,133706,1,8,0:0:0:0:
256,192,134384,1,0,0:0:0:0:
256,192,135062,1,8,0:0:0:0:
256,192,135763,1,8,0:0:0:0:
256,192,136464,1,0,0:0:0:0:
256,192,137222,1,8,0:0:0:0:
256,192,137980,1,8,0:0:0:0:
256,192,139611,1,0,0:0:0:0:
256,192,140496,1,8,0:0:0:0:
256,192,141382,1,8,0:0:0:0:
256,192,142274,1,8,0:0:0:0:
256,192,142720,1,8,0:0:0:0:
256,192,143166,1,8,0:0:0:0:
256,192,144053,1,0,0:0:0:0:
256,192,144940,1,0,0:0:0:0:
256,192,145831,1,8,0:0:0:0:
256,192,146277,1,8,0:0:0:0:
256,192,146723,1,0,0:0:0:0:
256,192,147609,1,8,0:0:0:0:
256,192,148496,1,8,0:0:0:0:
256,192,149384,1,8,0:0:0:0:
256,192,150272,1,0,0:0:0:0:
256,192,151194,1,8,0:0:0:0:
256,192,152116,1,0,0:0:0:0:
256,192,153960,1,8,0:0:0:0:
256,192,155815,1,0,0:0:0:0:
256,192,157658,1,8,0:0:0:0:
256,192,159504,1,0,0:0:0:0:
256,192,159964,1,8,0:0:0:0:
256,192,160425,1,8,0:0:0:0:
256,192,161347,1,0,0:0:0:0:
256,192,162268,1,8,0:0:0:0:
256,192,163189,1,8,0:0:0:0:
256,192,165040,1,0,0:0:0:0:
256,192,166893,1,0,0:0:0:0:
256,192,167353,1,8,0:0:0:0:
256,192,167813,1,8,0:0:0:0:
256,192,168734,1,0,0:0:0:0:
256,192,169658,1,8,0:0:0:0:
256,192,170583,1,8,0:0:0:0:
256,192,172421,1,0,0:0:0:0:
256,192,172883,1,8,0:0:0:0:
256,192,173345,1,8,0:0:0:0:
256,192,174270,1,0,0:0:0:0:
256,192,175188,1,8,0:0:0:0:
256,192,176107,1,8,0:0:0:0:
256,192,176571,1,0,0:0:0:0:
256,192,177035,1,8,0:0:0:0:
256,192,177964,1,8,0:0:0:0:
256,192,178887,1,0,0:0:0:0:
256,192,180272,1,0,0:0:0:0:
256,192,180733,1,8,0:0:0:0:
256,192,181655,1,8,0:0:0:0:
256,192,182579,1,0,0:0:0:0:
256,192,183504,1,8,0:0:0:0:
256,192,184423,1,8,0:0:0:0:
256,192,185343,1,0,0:0:0:0:
256,192,187193,1,0,0:0:0:0:
256,192,188195,1,8,0:0:0:0:
256,192,189380,1,0,0:0:0:0:
256,192,190882,1,0,0:0:0:0:
256,192,191627,1,8,0:0:0:0:
256,192,192372,1,0,0:0:0:0:
256,192,193835,1,0,0:0:0:0:
256,192,194559,1,8,0:0:0:0:
256,192,194921,1,8,0:0:0:0:
256,192,195283,1,8,0:0:0:0:
256,192,196692,1,8,0:0:0:0:
256,192,197403,1,8,0:0:0:0:
256,192,197758,1,8,0:0:0:0:
256,192,198114,1,8,0:0:0:0:
256,192,199499,1,0,0:0:0:0:
256,192,200543,1,8,0:0:0:0:
256,192,200892,1,0,0:0:0:0:
256,192,202267,1,0,0:0:0:0:
256,192,202941,1,0,0:0:0:0:
256,192,203615,1,0,0:0:0:0:
256,192,204952,1,8,0:0:0:0:
256,192,205616,1,0,0:0:0:0:
256,192,205949,1,8,0:0:0:0:
256,192,206281,1,8,0:0:0:0:
256,192,207600,1,8,0:0:0:0:
256,192,208907,1,0,0:0:0:0:
256,192,209564,1,8,0:0:0:0:
256,192,210222,1,8,0:0:0:0:
256,192,211533,1,0,0:0:0:0:
256,192,212843,1,8,0:0:0:0:
256,192,213498,1,8,0:0:0:0:
256,192,214154,1,8,0:0:0:0:
256,192,215465,1,0,0:0:0:0:
256,192,216121,1,8,0:0:0:0:
256,192,216448,1,8,0:0:0:0:
256,192,216776,1,0,0:0:0:0:
256,192,218087,1,8,0:0:0:0:
256,192,218743,1,8,0:0:0:0:
256,192,219071,1,8,0:0:0:0:
256,192,219398,1,8,0:0:0:0:
256,192,220382,1,0,0:0:0:0:
256,192,220710,1,8,0:0:0:0:
256,192,221365,1,8,0:0:0:0:
256,192,222021,1,0,0:0:0:0:
256,192,223332,1,0,0:0:0:0:
256,192,223660,1,8,0:0:0:0:
256,192,223987,1,8,0:0:0:0:
256,192,224643,1,8,0:0:0:0:
256,192,225299,1,0,0:0:0:0:
256,192,225954,1,8,0:0:0:0:
256,192,226610,1,8,0:0:0:0:
256,192,227265,1,0,0:0:0:0:
256,192,228576,1,8,0:0:0:0:
256,192,229232,1,8,0:0:0:0:
256,192,229888,1,8,0:0:0:0:
256,192,231199,1,0,0:0:0:0:
256,192,232615,1,8,0:0:0:0:
256,192,234118,1,0,0:0:0:0:
256,192,234870,1,8,0:0:0:0:
256,192,235622,1,8,0:0:0:0:
256,192,237119,1,0,0:0:0:0:
256,192,238616,1,8,0:0:0:0:
256,192,239343,1,8,0:0:0:0:
256,192,240071,1,8,0:0:0:0:
256,192,241526,1,0,0:0:0:0:
256,192,242980,1,0,0:0:0:0:
256,192,244435,1,8,0:0:0:0:
256,192,245168,1,8,0:0:0:0:
256,192,245901,1,8,0:0:0:0:
256,192,247367,1,0,0:0:0:0:
256,192,248087,1,0,0:0:0:0:
256,192,248808,1,0,0:0:0:0:
256,192,250249,1,8,0:0:0:0:
256,192,251659,1,8,0:0:0:0:
256,192,253069,1,8,0:0:0:0:
256,192,253774,1,8,0:0:0:0:
256,192,254480,1,8,0:0:0:0:
256,192,257308,1,0,0:0:0:0:
256,192,258509,1,8,0:0:0:0:
256,192,259683,1,8,0:0:0:0:
256,192,260875,1,0,0:0:0:0:
256,192,261277,1,8,0:0:0:0:
256,192,261679,1,8,0:0:0:0:
256,192,262082,1,0,0:0:0:0:
256,192,263345,1,0,0:0:0:0:
256,192,264540,1,0,0:0:0:0:
256,192,265730,1,0,0:0:0:0:
256,192,266511,1,8,0:0:0:0:
256,192,266902,1,0,0:0:0:0:
256,192,268126,1,8,0:0:0:0:
256,192,269381,1,0,0:0:0:0:
256,192,269847,1,8,0:0:0:0:
256,192,270314,1,8,0:0:0:0:
256,192,270781,1,8,0:0:0:0:
256,192,272114,1,8,0:0:0:0:
256,192,272781,1,0,0:0:0:0:
256,192,274042,1,0,0:0:0:0:
256,192,274358,1,8,0:0:0:0:
256,192,274674,1,8,0:0:0:0:
256,192,275307,1,0,0:0:0:0:
256,192,276607,1,8,0:0:0:0:
256,192,277316,1,8,0:0:0:0:
256,192,278088,1,0,0:0:0:0:
256,192,278902,1,0,0:0:0:0:
256,192,279309,1,0,0:0:0:0:
256,192,279716,1,0,0:0:0:0:
256,192,280515,1,8,0:0:0:0:
256,192,281315,1,8,0:0:0:0:
256,192,282114,1,8,0:0:0:0:
256,192,282514,1,8,0:0:0:0:
256,192,282914,1,0,0:0:0:0:
256,192,283713,1,8,0:0:0:0:
256,192,284513,1,0,0:0:0:0:
256,192,285312,1,8,0:0:0:0:
256,192,286112,1,8,0:0:0:0:
256,192,286512,1,8,0:0:0:0:
256,192,286911,1,8,0:0:0:0:
256,192,287711,1,0,0:0:0:0:
256,192,289310,1,8,0:0:0:0:
256,192,290110,1,0,0:0:0:0:
256,192,290909,1,8,0:0:0:0:
256,192,292508,1,0,0:0:0:0:
256,192,293308,1,8,0:0:0:0:
256,192,293708,1,8,0:0:0:0:
256,192,294107,1,8,0:0:0:0:
256,192,294907,1,8,0:0:0:0:
256,192,295706,1,0,0:0:0:0:
256,192,296506,1,0,0:0:0:0:
256,192,296906,1,8,0:0:0:0:
256,192,297306,1,0,0:0:0:0:
256,192,298105,1,8,0:0:0:0:
256,192,298905,1,8,0:0:0:0:
256,192,299304,1,8,0:0:0:0:
256,192,299704,1,8,0:0:0:0:
256,192,300504,1,0,0:0:0:0:
256,192,302103,1,8,0:0:0:0:
256,192,303702,1,0,0:0:0:0:
256,192,305301,1,8,0:0:0:0:
256,192,306900,1,0,0:0:0:0:
256,192,307680,1,8,0:0:0:0:
256,192,308071,1,8,0:0:0:0:
256,192,308461,1,8,0:0:0:0:
256,192,309236,1,0,0:0:0:0:
256,192,309624,1,0,0:0:0:0:
256,192,310012,1,0,0:0:0:0:
256,192,310777,1,8,0:0:0:0:
256,192,311543,1,0,0:0:0:0:
256,192,312299,1,8,0:0:0:0:
256,192,312677,1,0,0:0:0:0:
256,192,313056,1,8,0:0:0:0:
256,192,313800,1,8,0:0:0:0:
256,192,314545,1,8,0:0:0:0:
256,192,314912,1,0,0:0:0:0:
256,192,315280,1,8,0:0:0:0:
256,192,316015,1,0,0:0:0:0:
256,192,317472,1,8,0:0:0:0:
256,192,318198,1,8,0:0:0:0:
256,192,318924,1,0,0:0:0:0:
256,192,319654,1,8,0:0:0:0:
256,192,320019,1,8,0:0:0:0:
256,192,320384,1,8,0:0:0:0:
256,192,321110,1,0,0:0:0:0:
256,192,321836,1,8,0:0:0:0:
256,192,322564,1,8,0:0:0:0:
256,192,323292,1,0,0:0:0:0:
256,192,324017,1,8,0:0:0:0:
256,192,324379,1,8,0:0:0:0:
256,192,324742,1,0,0:0:0:0:
256,192,325470,1,8,0:0:0:0:
256,192,326199,1,8,0:0:0:0:
256,192,326562,1,8,0:0:0:0:
256,192,326925,1,8,0:0:0:0:
256,192,327652,1,0,0:0:0:0:
256,192,329111,1,8,0:0:0:0:
256,192,330560,1,0,0:0:0:0:
256,192,332106,1,8,0:0:0:0:
256,192,332960,1,8,0:0:0:0:
256,192,334060,1,0,0:0:0:0:
256,192,334860,1,8,0:0:0:0:
256,192,335260,1,8,0:0:0:0:
256,192,335660,1,8,0:0:0:0:
256,192,336460,1,0,0:0:0:0:
256,192,337260,1,0,0:0:0:0:
256,192,338060,1,8,0:0:0:0:
256,192,338860,1,0,0:0:0:0:
256,192,339260,1,8,0:0:0:0:
256,192,339660,1,0,0:0:0:0:
256,192,340060,1,8,0:0:0:0:
256,192,340460,1,0,0:0:0:0:
256,192,341262,1,8,0:0:0:0:
256,192,342073,1,8,0:0:0:0:
256,192,342911,1,8,0:0:0:0:
256,192,343750,1,0,0:0:0:0:
256,192,345420,1,8,0:0:0:0:
256,192,346368,1,8,0:0:0:0:
256,192,347587,1,0,0:0:0:0:
256,192,348778,1,8,0:0:0:0:
256,192,350000,1,8,0:0:0:0:
256,192,350404,1,8,0:0:0:0:
256,192,350808,1,8,0:0:0:0:
256,192,351213,1,8,0:0:0:0:
256,192,352450,1,0,0:0:0:0:
256,192,354914,5,8,0:0:0:0:
256,192,356111,1,0,0:0:0:0:
256,192,356909,1,8,0:0:0:0:
256,192,357308,5,8,0:0:0:0:
256,192,358504,1,0,0:0:0:0:
256,192,359701,1,0,0:0:0:0:
256,192,360896,12,0,362040,0:0:0:0:
