osu file format v14

[General]
AudioFilename: audio.mp3
AudioLeadIn: 0
PreviewTime: 187194
Countdown: 1
SampleSet: Normal
StackLeniency: 0.7
Mode: 1
LetterboxInBreaks: 0
WidescreenStoryboard: 0

[Editor]
DistanceSpacing: 0.8
BeatDivisor: 3
GridSize: 32
TimelineZoom: 2.697439

[Metadata]
Title:Bokutachi no Tabi to Epilogue.[Long ver.]
TitleUnicode:僕たちの旅とエピローグ。[Long ver.]
Artist:aaaa
ArtistUnicode:ああああ
Creator:Vulkin
Version:Inner Journey
Source:BMS
Tags:Our Journey and Epilogue Epirogu Ricora Chiptune Marathon Groundbreaking 2014 game music Anxient Hi_Hello Chara ArcherLove agu deadbill Ryu_Sei
BeatmapID:1000081
BeatmapSetID:467409

[Difficulty]
HPDrainRate:4
CircleSize:2
OverallDifficulty:8
ApproachRate:5
SliderMultiplier:1.3999999666214
SliderTickRate:1

[Events]
//Background and Video events
0,0,"TAIKO-BG.jpg",0,0
//Break Periods
2,43109,49045
//Storyboard Layer 0 (Background)
//Storyboard Layer 1 (Fail)
//Storyboard Layer 2 (Pass)
//Storyboard Layer 3 (Foreground)
//Storyboard Sound Samples

[TimingPoints]
324,1161.103,4,1,0,80,1,0
324,-28.2377060828382,4,1,0,80,0,0
37479,582.807187955318,4,1,0,80,1,0
37479,-56.2568306010929,4,1,0,80,0,0
39810,774.943493703584,4,1,0,80,1,0
39810,-42.3087431693989,4,1,0,80,0,0
42909,917.090909090911,4,1,0,80,1,0
42909,-35.7509652760624,4,1,0,80,0,0
50245,306.544729985184,3,1,0,80,1,0
50245,-106.956284153005,3,1,0,80,0,0
61280,318.0493,3,1,0,80,1,0
61280,-103.087430929424,3,1,0,80,0,0
63188,774.500000000006,3,1,0,80,1,0
63188,-42.3329699753407,3,1,0,80,0,0
65511,327.863477647907,4,1,0,80,1,0
65511,-100.001639344262,4,1,0,80,0,0
133706,339.212000000003,4,1,0,80,1,0
133706,-96.6560299927519,4,1,0,80,0,0
135062,350.558300000002,4,1,0,80,1,0
135062,-93.5276250652215,4,1,0,80,0,0
136464,379.070200000001,4,1,0,80,1,0
136464,-86.4929114604671,4,1,0,80,0,0
137980,407.884300000001,4,1,0,80,1,0
137980,-80.3828076881154,4,1,0,80,0,0
139611,442.8004,4,1,0,80,1,0
139611,-74.0443894041235,4,1,0,80,0,0
141382,446.0393,4,1,0,80,1,0
141382,-73.5067184570993,4,1,0,80,0,0
143166,443.5344,4,1,0,80,1,0
143166,-73.9218541919221,4,1,0,80,0,0
144940,445.7675,4,1,0,80,1,0
144940,-73.5515380683913,4,1,0,80,0,0
146723,443.4074,4,1,0,80,1,0
146723,-73.9430267647803,4,1,0,80,0,0
148496,444.183999999999,4,1,0,80,1,0
148496,-73.8137466588209,4,1,0,80,0,0
150272,461.0999,4,1,0,80,1,0
150272,-71.1058172988145,4,1,0,80,0,0
152116,461.0341,4,1,0,80,1,0
152116,-71.11596570818,4,1,0,80,0,0
153960,463.7749,4,1,0,80,1,0
153960,-70.6956871661266,4,1,0,80,0,0
155815,460.8153,4,1,0,80,1,0
155815,-71.1497323242124,4,1,0,80,0,0
157658,461.5362,4,1,0,80,1,0
157658,-71.0385994552576,4,1,0,80,0,0
159504,460.7658,4,1,0,80,1,0
159504,-71.1573759291632,4,1,0,80,0,0
161347,460.5839,4,1,0,80,1,0
161347,-71.1854783588867,4,1,0,80,0,0
163189,462.9486,4,1,0,80,1,0
163189,-70.821869308821,4,1,0,80,0,0
165040,463.338,4,1,0,80,1,0
165040,-70.7623489674959,4,1,0,80,0,0
166893,460.325,4,1,0,80,1,0
166893,-71.2255151162801,4,1,0,80,0,0
168734,462.4028,4,1,0,80,1,0
168734,-70.9054643395361,4,1,0,80,0,0
170583,459.5447,4,1,0,80,1,0
170583,-71.3464549714133,4,1,0,80,0,0
172421,462.3072,4,1,0,80,1,0
172421,-70.9201268029173,4,1,0,80,0,0
174270,459.3071,4,1,0,80,1,0
174270,-71.3833625604778,4,1,0,80,0,0
176107,464.3747,4,1,0,80,1,0
176107,-70.6043745404339,4,1,0,80,0,0
177964,461.8207,4,1,0,80,1,0
177964,-70.9948368401452,4,1,0,80,0,0
179811,461.2475,4,1,0,80,1,0
179811,-71.0830633139511,4,1,0,80,0,0
181655,462.3072,4,1,0,80,1,0
181655,-70.9201268029173,4,1,0,80,0,0
183504,459.7609,4,1,0,80,1,0
183504,-71.3129046987285,4,1,0,80,0,0
185343,462.6524,4,1,0,80,1,0
185343,-70.8672109901551,4,1,0,80,0,0
187193,546.8251,4,1,0,80,1,0
187193,-59.9586325607615,4,1,0,80,0,0
189380,375.530200000001,4,1,0,80,1,0
189380,-87.3082517621793,4,1,0,80,0,0
190882,372.5506,4,1,0,80,1,0
190882,-88.0065291691965,4,1,0,80,0,0
192372,365.938200000001,4,1,0,80,1,0
192372,-89.5967823143404,4,1,0,80,0,0
193835,362.0984,4,1,0,80,1,0
193835,-90.5468934574183,4,1,0,80,0,0
195283,352.3141,4,1,0,80,1,0
195283,-93.0615188148917,4,1,0,80,0,0
196692,355.5833,4,1,0,80,1,0
196692,-92.2059198109181,4,1,0,80,0,0
198114,346.253500000001,4,1,0,80,1,0
198114,-94.690408171763,4,1,0,80,0,0
199499,348.2665,4,1,0,80,1,0
199499,-94.1430922753169,4,1,0,80,0,0
200892,343.839541547278,4,1,0,80,1,0
200892,-95.2380952380952,4,1,0,80,0,1
202267,337.078651685393,4,1,0,80,1,1
202267,-98.0392156862745,4,1,0,80,0,1
203615,334.261838440111,4,1,0,80,1,1
203615,-98.7043937890754,4,1,0,80,0,1
204952,332.409972299169,4,1,0,80,1,1
204952,-98.0078666210159,4,1,0,80,0,1
206281,329.760923330585,4,1,0,80,1,1
206281,-100.270487662108,4,1,0,80,0,1
207600,326.975476839237,4,1,0,80,1,1
207600,-99.4042914532431,4,1,0,80,0,1
208907,328.767123287671,4,1,0,80,1,1
208907,-100.255280019513,4,1,0,80,0,1
210222,327.958458595245,4,1,0,80,1,1
210222,-100.013925939048,4,1,0,80,0,1
211532,327.788248791281,4,1,0,80,1,0
211532,-99.9908363398036,4,1,0,80,0,0
231199,354.0906,4,1,0,80,1,0
231199,-92.5946219580572,4,1,0,80,0,0
232615,751.9088,4,1,0,80,1,0
232615,-43.6048696941725,4,1,0,80,0,0
235622,748.6787,4,1,0,80,1,0
235622,-43.7929985799003,4,1,0,80,0,0
238616,727.5307,4,1,0,80,1,0
238616,-45.0659817460647,4,1,0,80,0,0
241526,727.4252,4,1,0,80,1,0
241526,-45.0725177597664,4,1,0,80,0,0
244435,733.0117,4,1,0,80,1,0
244435,-44.7290067073986,4,1,0,80,0,0
247367,720.6176,4,1,0,80,1,0
247367,-45.4983131773379,4,1,0,80,0,0
250249,705.0665,4,1,0,80,1,0
250249,-46.5018338637584,4,1,0,80,0,0
253069,705.7523,4,1,0,80,1,0
253069,-46.4566466817064,4,1,0,80,0,0
255892,355.576626763067,4,1,0,80,1,0
255892,-92.5925925925926,4,1,0,80,0,0
256589,359.841176470589,4,1,0,80,1,0
256589,-90.9090909090909,4,1,0,80,0,0
257331,392.8,3,1,0,80,1,0
257331,-83.4696671229675,3,1,0,80,0,0
258509,391.5,3,1,0,80,1,0
258509,-83.746833322865,3,1,0,80,0,0
259683,397.6,3,1,0,80,1,0
259683,-82.4619850249035,3,1,0,80,0,0
260875,402.4,3,1,0,80,1,0
260875,-81.4783430564156,3,1,0,80,0,0
262082,421,3,1,0,80,1,0
262082,-77.8785872824267,3,1,0,80,0,0
263345,398.4,3,1,0,80,1,0
263345,-82.2963987095925,3,1,0,80,0,0
264540,396.8,3,1,0,80,1,0
264540,-82.6282390269699,3,1,0,80,0,0
265730,390.9,3,1,0,80,1,0
265730,-83.875377963422,3,1,0,80,0,0
266902,408,3,1,0,80,1,0
266902,-80.3600128576021,3,1,0,80,0,0
268126,418.4,3,1,0,80,1,0
268126,-78.3625364385795,3,1,0,80,0,0
269381,466.8,3,1,0,80,1,0
269381,-70.237543371683,3,1,0,80,0,0
270781,500,4,1,0,80,1,0
270781,-65.5737704918033,4,1,0,80,0,0
272781,315.3471,4,1,0,80,1,0
272781,-103.970784084907,4,1,0,80,0,0
274042,316.2576,4,1,0,80,1,0
274042,-103.67145404854,4,1,0,80,0,0
275307,325.024,4,1,0,80,1,0
275307,-100.875274582497,4,1,0,80,0,0
276607,354.505169867061,4,1,0,80,1,0
276607,-92.5925925925926,4,1,0,80,0,0
277670,418.118466898955,4,1,0,80,1,0
277670,-78.125,4,1,0,80,0,0
278088,407.193756362402,4,1,0,80,1,0
278088,-80.5191256830602,4,1,0,80,0,0
279716,399.773461705034,4,1,0,80,1,0
279716,-82.0136612021858,4,1,0,80,0,0
306900,390.480999999999,4,1,0,80,1,0
306900,-83.9653792269066,4,1,0,80,0,0
308461,387.8318,4,1,0,80,1,0
308461,-84.5389296233616,4,1,0,80,0,0
310012,382.9109,4,1,0,80,1,0
310012,-85.6253641405916,4,1,0,80,0,0
311543,378.2685,4,1,0,80,1,0
311543,-86.6762240205083,4,1,0,80,0,0
313056,372.3664,4,1,0,80,1,0
313056,-88.0500637165481,4,1,0,80,0,0
314545,367.7202,4,1,0,80,1,0
314545,-89.1625895066456,4,1,0,80,0,0
316015,364.4207,4,1,0,80,1,0
316015,-89.9698761511123,4,1,0,80,0,0
317472,363.0741,4,1,0,80,1,0
317472,-90.3035640545598,4,1,0,80,0,0
318924,365.1356,4,1,0,80,1,1
318924,-90.3035640545598,4,1,0,80,0,1
320384,363.1703,4,1,0,80,1,1
320384,-90.2796435884257,4,1,0,80,0,1
321836,364.072,4,1,0,80,1,1
321836,-90.0560472815862,4,1,0,80,0,1
323292,362.5079,4,1,0,80,1,1
323292,-90.4446089199757,4,1,0,80,0,1
324742,364.344,4,1,0,80,1,1
324742,-89.9888161899239,4,1,0,80,0,1
326199,363.373699999999,4,1,0,80,1,1
326199,-90.2291091675092,4,1,0,80,0,1
327652,364.86,4,1,0,80,1,1
327652,-89.8615503094382,4,1,0,80,0,1
329111,362.3438,4,1,0,80,1,1
329111,-90.4855699087487,4,1,0,80,0,1
330560,386.5369,4,1,0,80,1,1
330560,-84.8221353405112,4,1,0,80,0,0
332106,488.5329,4,1,0,80,1,0
332106,-67.1129523639076,4,1,0,80,0,0
334060,400,4,1,0,80,1,0
334060,-81.9672131147541,4,1,0,80,0,0
338860,-81.9672131147541,4,1,0,80,0,1
340451,405.7183,4,1,0,80,1,1
340451,-80.8119457414212,4,1,0,80,0,1
342073,419.4708,4,1,0,80,1,1
342073,-78.1624972367603,4,1,0,80,0,1
343750,417.5244,4,1,0,80,1,0
343750,-78.5268723118976,4,1,0,80,0,0
345420,541.9388,4,1,0,80,1,0
345420,-60.4992394822102,4,1,0,80,0,0
347587,397,3,1,0,80,1,0
347587,-82.5866127100797,3,1,0,80,0,0
348778,407.4,3,1,0,80,1,0
348778,-80.4783633920021,3,1,0,80,0,0
350000,404.448938321537,3,1,0,80,1,0
350000,-83.2154447865524,3,1,0,80,0,0
351213,412.371134020619,3,1,0,80,1,0
351213,-77.528695308351,3,1,0,80,0,0
352450,410.7,3,1,0,80,1,0
352450,-79.8317147453169,3,1,0,80,0,0
354914,399.0335,3,1,0,80,1,0
354914,-82.1657460987652,3,1,0,80,0,0
356111,399.1335,3,1,0,80,1,0
356111,-82.1451600677509,3,1,0,80,0,0
357308,398.9335,3,1,0,80,1,0
357308,-82.1863424503122,3,1,0,80,0,0
360896,381.6335,3,1,0,80,1,0
360896,-85.9119685402399,3,1,0,80,0,0
362040,400,3,1,0,80,1,0
362040,-81.9672131147541,3,1,0,80,0,0

[HitObjects]
256,192,324,5,8,0:0:0:0:
256,192,1485,1,0,0:0:0:0:
256,192,1872,1,8,0:0:0:0:
256,192,2259,1,0,0:0:0:0:
256,192,2646,1,0,0:0:0:0:
256,192,3807,1,0,0:0:0:0:
256,192,4194,1,8,0:0:0:0:
256,192,4581,1,8,0:0:0:0:
256,192,4968,1,8,0:0:0:0:
256,192,5355,1,0,0:0:0:0:
256,192,5742,1,0,0:0:0:0:
256,192,6129,1,8,0:0:0:0:
256,192,6516,1,0,0:0:0:0:
256,192,6903,1,8,0:0:0:0:
256,192,7290,1,8,0:0:0:0:
256,192,8451,1,0,0:0:0:0:
256,192,9612,1,8,0:0:0:0:
256,192,10773,1,0,0:0:0:0:
256,192,11160,1,8,0:0:0:0:
256,192,11547,1,8,0:0:0:0:
256,192,11935,1,0,0:0:0:0:
256,192,13096,1,0,0:0:0:0:
256,192,13483,1,8,0:0:0:0:
256,192,13870,1,8,0:0:0:0:
256,192,14257,1,8,0:0:0:0:
256,192,14644,1,0,0:0:0:0:
256,192,15031,1,0,0:0:0:0:
256,192,15418,1,8,0:0:0:0:
256,192,15805,1,0,0:0:0:0:
256,192,16192,1,8,0:0:0:0:
256,192,16579,1,8,0:0:0:0:
256,192,16966,1,0,0:0:0:0:
256,192,17353,1,8,0:0:0:0:
256,192,17740,1,0,0:0:0:0:
256,192,18127,1,0,0:0:0:0:
256,192,18514,1,8,0:0:0:0:
256,192,18901,1,0,0:0:0:0:
256,192,19288,1,0,0:0:0:0:
256,192,19675,1,8,0:0:0:0:
256,192,20062,1,8,0:0:0:0:
256,192,20449,1,0,0:0:0:0:
256,192,20836,1,0,0:0:0:0:
256,192,21030,1,0,0:0:0:0:
256,192,21223,1,8,0:0:0:0:
256,192,21610,1,8,0:0:0:0:
256,192,21997,1,8,0:0:0:0:
256,192,22384,1,0,0:0:0:0:
256,192,22771,1,8,0:0:0:0:
256,192,23159,1,8,0:0:0:0:
256,192,23546,1,0,0:0:0:0:
256,192,23933,1,8,0:0:0:0:
256,192,24320,1,8,0:0:0:0:
256,192,24707,1,8,0:0:0:0:
256,192,25094,1,0,0:0:0:0:
256,192,25674,1,8,0:0:0:0:
256,192,25868,1,0,0:0:0:0:
256,192,26448,1,8,0:0:0:0:
256,192,27029,1,0,0:0:0:0:
256,192,27609,1,8,0:0:0:0:
256,192,28190,1,0,0:0:0:0:
256,192,28577,1,8,0:0:0:0:
256,192,28964,1,8,0:0:0:0:
256,192,29351,1,0,0:0:0:0:
256,192,29738,1,8,0:0:0:0:
256,192,30125,1,8,0:0:0:0:
256,192,30512,1,8,0:0:0:0:
256,192,30899,1,0,0:0:0:0:
256,192,31286,1,8,0:0:0:0:
256,192,31673,1,8,0:0:0:0:
256,192,32447,1,8,0:0:0:0:
256,192,32834,1,8,0:0:0:0:
256,192,33221,1,0,0:0:0:0:
256,192,33995,1,0,0:0:0:0:
256,192,34383,1,0,0:0:0:0:
256,192,34770,1,8,0:0:0:0:
256,192,35157,1,0,0:0:0:0:
256,192,35544,1,8,0:0:0:0:
256,192,36318,1,8,0:0:0:0:
256,192,36705,1,8,0:0:0:0:
256,192,37092,1,8,0:0:0:0:
256,192,37479,1,8,0:0:0:0:
256,192,37867,1,0,0:0:0:0:
256,192,39810,1,8,0:0:0:0:
256,192,40972,1,0,0:0:0:0:
256,192,41230,1,8,0:0:0:0:
256,192,41489,1,8,0:0:0:0:
256,192,41747,1,8,0:0:0:0:
256,192,42005,1,8,0:0:0:0:
256,192,42393,1,8,0:0:0:0:
256,192,42909,1,8,0:0:0:0:
256,192,50245,5,8,0:0:0:0:
256,192,50398,1,0,0:0:0:0:
256,192,50551,1,0,0:0:0:0:
256,192,50704,1,0,0:0:0:0:
256,192,50858,1,8,0:0:0:0:
256,192,51011,1,8,0:0:0:0:
256,192,51164,1,8,0:0:0:0:
256,192,51471,1,8,0:0:0:0:
256,192,51624,1,0,0:0:0:0:
256,192,51777,1,8,0:0:0:0:
256,192,52084,1,0,0:0:0:0:
256,192,52160,1,8,0:0:0:0:
256,192,52237,1,8,0:0:0:0:
256,192,52390,1,0,0:0:0:0:
256,192,52544,1,0,0:0:0:0:
256,192,52697,1,8,0:0:0:0:
256,192,53003,1,0,0:0:0:0:
256,192,53310,1,8,0:0:0:0:
256,192,53463,1,8,0:0:0:0:
256,192,53616,1,8,0:0:0:0:
256,192,53923,1,0,0:0:0:0:
256,192,54000,1,0,0:0:0:0:
256,192,54076,1,8,0:0:0:0:
256,192,54230,1,0,0:0:0:0:
256,192,54383,1,0,0:0:0:0:
256,192,54536,1,0,0:0:0:0:
256,192,54689,1,0,0:0:0:0:
256,192,54843,1,8,0:0:0:0:
256,192,55149,1,0,0:0:0:0:
256,192,55456,1,0,0:0:0:0:
256,192,55609,1,8,0:0:0:0:
256,192,55686,1,8,0:0:0:0:
256,192,55762,1,0,0:0:0:0:
256,192,55916,1,8,0:0:0:0:
256,192,55992,1,0,0:0:0:0:
256,192,56069,1,0,0:0:0:0:
256,192,56222,1,0,0:0:0:0:
256,192,56375,1,0,0:0:0:0:
256,192,56529,1,8,0:0:0:0:
256,192,56682,1,0,0:0:0:0:
256,192,56835,1,0,0:0:0:0:
256,192,56912,1,0,0:0:0:0:
256,192,56988,1,8,0:0:0:0:
256,192,57142,1,0,0:0:0:0:
256,192,57218,1,8,0:0:0:0:
256,192,57295,1,8,0:0:0:0:
256,192,57372,1,8,0:0:0:0:
256,192,57448,1,0,0:0:0:0:
256,192,57525,1,8,0:0:0:0:
256,192,57602,1,0,0:0:0:0:
256,192,57908,1,0,0:0:0:0:
256,192,58010,1,0,0:0:0:0:
256,192,58112,1,0,0:0:0:0:
256,192,58215,1,8,0:0:0:0:
256,192,58368,1,0,0:0:0:0:
256,192,58521,1,8,0:0:0:0:
256,192,58828,1,0,0:0:0:0:
256,192,58930,1,0,0:0:0:0:
256,192,59032,1,8,0:0:0:0:
256,192,59134,1,8,0:0:0:0:
256,192,59288,1,8,0:0:0:0:
256,192,59441,1,8,0:0:0:0:
256,192,59747,1,0,0:0:0:0:
256,192,59850,1,8,0:0:0:0:
256,192,59952,1,8,0:0:0:0:
256,192,60054,1,8,0:0:0:0:
256,192,60207,1,0,0:0:0:0:
256,192,60360,1,8,0:0:0:0:
256,192,60974,1,8,0:0:0:0:
256,192,61280,1,8,0:0:0:0:
256,192,61598,1,0,0:0:0:0:
256,192,61757,1,0,0:0:0:0:
256,192,63188,1,0,0:0:0:0:
256,192,64220,1,8,0:0:0:0:
256,192,65511,1,0,0:0:0:0:
256,192,65674,1,0,0:0:0:0:
256,192,65756,1,0,0:0:0:0:
256,192,65838,1,8,0:0:0:0:
256,192,66002,1,8,0:0:0:0:
256,192,66084,1,8,0:0:0:0:
256,192,66248,1,0,0:0:0:0:
256,192,66330,1,0,0:0:0:0:
256,192,66494,1,8,0:0:0:0:
256,192,66658,1,8,0:0:0:0:
256,192,66740,1,8,0:0:0:0:
256,192,66986,1,0,0:0:0:0:
256,192,67068,1,0,0:0:0:0:
256,192,67150,1,8,0:0:0:0:
256,192,67314,1,8,0:0:0:0:
256,192,67396,1,8,0:0:0:0:
256,192,67560,1,0,0:0:0:0:
256,192,67642,1,0,0:0:0:0:
256,192,67806,1,8,0:0:0:0:
256,192,67969,1,8,0:0:0:0:
256,192,68051,1,8,0:0:0:0:
256,192,68297,1,8,0:0:0:0:
256,192,68379,1,8,0:0:0:0:
256,192,68461,1,8,0:0:0:0:
256,192,68625,1,0,0:0:0:0:
256,192,68707,1,8,0:0:0:0:
256,192,68871,1,8,0:0:0:0:
256,192,68953,1,8,0:0:0:0:
256,192,69117,1,0,0:0:0:0:
256,192,69281,1,8,0:0:0:0:
256,192,69363,1,8,0:0:0:0:
256,192,69609,1,0,0:0:0:0:
256,192,69691,1,8,0:0:0:0:
256,192,69773,1,8,0:0:0:0:
256,192,69937,1,8,0:0:0:0:
256,192,70019,1,8,0:0:0:0:
256,192,70101,1,0,0:0:0:0:
256,192,70183,1,8,0:0:0:0:
256,192,70265,1,8,0:0:0:0:
256,192,70428,1,0,0:0:0:0:
256,192,70510,1,8,0:0:0:0:
256,192,70592,1,0,0:0:0:0:
256,192,70674,1,0,0:0:0:0:
256,192,70756,1,8,0:0:0:0:
256,192,70920,1,8,0:0:0:0:
256,192,71002,1,8,0:0:0:0:
256,192,71084,1,8,0:0:0:0:
256,192,71248,1,0,0:0:0:0:
256,192,71330,1,8,0:0:0:0:
256,192,71494,1,8,0:0:0:0:
256,192,71576,1,8,0:0:0:0:
256,192,71740,1,0,0:0:0:0:
256,192,71904,1,8,0:0:0:0:
256,192,71986,1,8,0:0:0:0:
256,192,72232,1,0,0:0:0:0:
256,192,72314,1,8,0:0:0:0:
256,192,72396,1,0,0:0:0:0:
256,192,72478,1,8,0:0:0:0:
256,192,72560,1,8,0:0:0:0:
256,192,72642,1,8,0:0:0:0:
256,192,72723,1,0,0:0:0:0:
256,192,72805,1,8,0:0:0:0:
256,192,72887,1,8,0:0:0:0:
256,192,73051,1,0,0:0:0:0:
256,192,73215,1,8,0:0:0:0:
256,192,73297,1,8,0:0:0:0:
256,192,73379,1,0,0:0:0:0:
256,192,73543,1,8,0:0:0:0:
256,192,73625,1,8,0:0:0:0:
256,192,73707,1,8,0:0:0:0:
256,192,73871,1,0,0:0:0:0:
256,192,73953,1,8,0:0:0:0:
256,192,74117,1,8,0:0:0:0:
256,192,74199,1,8,0:0:0:0:
256,192,74363,1,0,0:0:0:0:
256,192,74527,1,8,0:0:0:0:
256,192,74609,1,8,0:0:0:0:
256,192,74855,1,0,0:0:0:0:
256,192,74937,1,0,0:0:0:0:
256,192,75019,1,8,0:0:0:0:
256,192,75101,1,8,0:0:0:0:
256,192,75182,1,0,0:0:0:0:
256,192,75264,1,0,0:0:0:0:
256,192,75346,1,8,0:0:0:0:
256,192,75428,1,0,0:0:0:0:
256,192,75510,1,0,0:0:0:0:
256,192,75592,1,8,0:0:0:0:
256,192,75674,1,8,0:0:0:0:
256,192,75729,1,8,0:0:0:0:
256,192,75784,1,8,0:0:0:0:
256,192,75838,1,0,0:0:0:0:
256,192,75893,1,0,0:0:0:0:
256,192,75947,1,0,0:0:0:0:
256,192,76002,1,8,0:0:0:0:
256,192,76166,1,0,0:0:0:0:
256,192,76248,1,0,0:0:0:0:
256,192,76330,1,8,0:0:0:0:
256,192,76494,1,0,0:0:0:0:
256,192,76576,1,0,0:0:0:0:
256,192,76658,1,8,0:0:0:0:
256,192,76740,1,0,0:0:0:0:
256,192,76822,1,0,0:0:0:0:
256,192,76986,1,8,0:0:0:0:
256,192,77068,1,0,0:0:0:0:
256,192,77150,1,0,0:0:0:0:
256,192,77232,1,0,0:0:0:0:
256,192,77314,1,8,0:0:0:0:
256,192,77478,1,0,0:0:0:0:
256,192,77559,1,0,0:0:0:0:
256,192,77641,1,8,0:0:0:0:
256,192,77805,1,0,0:0:0:0:
256,192,77887,1,0,0:0:0:0:
256,192,77969,1,8,0:0:0:0:
256,192,78051,1,0,0:0:0:0:
256,192,78133,1,0,0:0:0:0:
256,192,78297,1,8,0:0:0:0:
256,192,78461,1,0,0:0:0:0:
256,192,78543,1,0,0:0:0:0:
256,192,78625,1,8,0:0:0:0:
256,192,78789,1,8,0:0:0:0:
256,192,78871,1,8,0:0:0:0:
256,192,78953,1,0,0:0:0:0:
256,192,79117,1,8,0:0:0:0:
256,192,79199,1,8,0:0:0:0:
256,192,79281,1,0,0:0:0:0:
256,192,79363,1,8,0:0:0:0:
256,192,79445,1,8,0:0:0:0:
256,192,79609,1,0,0:0:0:0:
256,192,79773,1,8,0:0:0:0:
256,192,79855,1,8,0:0:0:0:
256,192,79936,1,0,0:0:0:0:
256,192,80100,1,8,0:0:0:0:
256,192,80182,1,8,0:0:0:0:
256,192,80264,1,0,0:0:0:0:
256,192,80346,1,8,0:0:0:0:
256,192,80428,1,8,0:0:0:0:
256,192,80510,1,8,0:0:0:0:
256,192,80592,1,0,0:0:0:0:
256,192,80674,1,8,0:0:0:0:
256,192,80756,1,8,0:0:0:0:
256,192,80920,1,0,0:0:0:0:
256,192,81002,1,8,0:0:0:0:
256,192,81084,1,0,0:0:0:0:
256,192,81166,1,8,0:0:0:0:
256,192,81248,1,8,0:0:0:0:
256,192,81412,1,8,0:0:0:0:
256,192,81494,1,8,0:0:0:0:
256,192,81576,1,8,0:0:0:0:
256,192,81740,1,0,0:0:0:0:
256,192,81822,1,0,0:0:0:0:
256,192,81904,1,8,0:0:0:0:
256,192,81986,1,0,0:0:0:0:
256,192,82068,1,0,0:0:0:0:
256,192,82232,1,8,0:0:0:0:
256,192,82395,1,0,0:0:0:0:
256,192,82477,1,0,0:0:0:0:
256,192,82559,1,8,0:0:0:0:
256,192,82723,1,0,0:0:0:0:
256,192,82805,1,8,0:0:0:0:
256,192,82887,1,8,0:0:0:0:
256,192,83051,1,0,0:0:0:0:
256,192,83133,1,0,0:0:0:0:
256,192,83215,1,8,0:0:0:0:
256,192,83297,1,0,0:0:0:0:
256,192,83379,1,0,0:0:0:0:
256,192,83543,1,8,0:0:0:0:
256,192,83707,1,0,0:0:0:0:
256,192,83789,1,0,0:0:0:0:
256,192,83871,1,8,0:0:0:0:
256,192,83953,1,0,0:0:0:0:
256,192,84035,1,0,0:0:0:0:
256,192,84117,1,0,0:0:0:0:
256,192,84199,1,8,0:0:0:0:
256,192,84281,1,0,0:0:0:0:
256,192,84363,1,0,0:0:0:0:
256,192,84445,1,0,0:0:0:0:
256,192,84527,1,8,0:0:0:0:
256,192,84609,1,0,0:0:0:0:
256,192,84691,1,0,0:0:0:0:
256,192,84772,1,0,0:0:0:0:
288,192,84854,1,8,0:0:0:0:
256,192,84936,1,8,0:0:0:0:
256,192,85018,1,8,0:0:0:0:
256,192,85100,1,8,0:0:0:0:
256,192,85346,1,0,0:0:0:0:
256,192,85428,1,0,0:0:0:0:
256,192,85510,1,0,0:0:0:0:
256,192,85674,1,0,0:0:0:0:
256,192,85838,1,0,0:0:0:0:
256,192,86002,1,0,0:0:0:0:
256,192,86166,1,6,0:0:0:0:
256,192,86494,1,0,0:0:0:0:
256,192,86822,1,0,0:0:0:0:
256,192,86986,1,0,0:0:0:0:
256,192,87149,1,8,0:0:0:0:
256,192,87313,1,8,0:0:0:0:
256,192,87477,1,8,0:0:0:0:
256,192,87641,1,8,0:0:0:0:
256,192,87969,1,0,0:0:0:0:
256,192,88297,1,8,0:0:0:0:
256,192,88625,1,0,0:0:0:0:
256,192,88953,1,8,0:0:0:0:
256,192,89281,1,8,0:0:0:0:
256,192,89445,1,8,0:0:0:0:
256,192,89608,1,0,0:0:0:0:
256,192,89772,1,0,0:0:0:0:
256,192,89936,1,0,0:0:0:0:
256,192,90264,1,0,0:0:0:0:
256,192,90428,1,0,0:0:0:0:
256,192,90592,1,0,0:0:0:0:
256,192,90756,1,8,0:0:0:0:
256,192,90838,1,8,0:0:0:0:
256,192,91084,1,8,0:0:0:0:
256,192,91412,1,0,0:0:0:0:
256,224,91740,1,8,0:0:0:0:
256,192,92231,1,0,0:0:0:0:
256,192,92395,1,8,0:0:0:0:
256,192,92559,1,8,0:0:0:0:
256,192,92887,1,0,0:0:0:0:
256,192,92969,1,0,0:0:0:0:
256,192,93379,1,8,0:0:0:0:
256,192,93707,1,0,0:0:0:0:
256,192,93871,1,0,0:0:0:0:
256,192,94035,1,8,0:0:0:0:
256,192,94199,1,8,0:0:0:0:
256,192,94281,1,8,0:0:0:0:
256,192,94362,1,0,0:0:0:0:
256,192,94526,1,8,0:0:0:0:
256,192,94854,1,0,0:0:0:0:
256,192,95018,1,0,0:0:0:0:
256,192,95182,1,8,0:0:0:0:
256,192,95510,1,0,0:0:0:0:
256,192,95674,1,0,0:0:0:0:
256,192,95838,1,8,0:0:0:0:
256,192,96166,1,0,0:0:0:0:
256,192,96330,1,0,0:0:0:0:
256,192,96494,1,8,0:0:0:0:
256,192,96821,1,8,0:0:0:0:
256,192,96985,1,8,0:0:0:0:
256,192,97149,1,0,0:0:0:0:
256,192,97477,1,0,0:0:0:0:
256,192,97641,1,8,0:0:0:0:
256,192,97805,1,8,0:0:0:0:
256,192,97969,1,8,0:0:0:0:
256,192,98133,1,8,0:0:0:0:
256,192,98461,1,0,0:0:0:0:
256,192,98789,1,8,0:0:0:0:
256,192,99117,1,8,0:0:0:0:
256,192,99280,1,0,0:0:0:0:
256,192,99444,1,8,0:0:0:0:
256,192,100100,1,0,0:0:0:0:
256,192,100264,1,8,0:0:0:0:
256,192,100428,1,8,0:0:0:0:
256,192,100592,1,8,0:0:0:0:
256,192,100756,1,0,0:0:0:0:
256,192,101084,1,0,0:0:0:0:
256,192,101248,1,8,0:0:0:0:
256,192,101330,1,8,0:0:0:0:
256,192,101412,1,0,0:0:0:0:
256,192,101739,1,0,0:0:0:0:
256,192,101903,1,0,0:0:0:0:
256,192,102067,1,0,0:0:0:0:
256,192,102231,1,0,0:0:0:0:
256,192,102559,1,8,0:0:0:0:
256,192,102723,1,8,0:0:0:0:
256,192,103051,1,0,0:0:0:0:
256,192,103215,1,0,0:0:0:0:
256,192,103379,1,8,0:0:0:0:
256,192,103707,1,8,0:0:0:0:
256,192,103871,1,8,0:0:0:0:
256,192,104198,1,8,0:0:0:0:
256,192,104362,1,0,0:0:0:0:
256,192,104526,1,8,0:0:0:0:
256,192,104690,1,8,0:0:0:0:
256,192,105018,1,8,0:0:0:0:
256,192,105182,1,0,0:0:0:0:
256,192,105510,1,8,0:0:0:0:
256,192,105838,1,8,0:0:0:0:
256,192,106166,1,0,0:0:0:0:
256,192,106330,1,8,0:0:0:0:
256,192,106411,1,8,0:0:0:0:
256,192,106493,1,0,0:0:0:0:
256,192,106575,1,8,0:0:0:0:
256,192,106657,1,8,0:0:0:0:
256,192,106739,1,8,0:0:0:0:
256,192,106821,1,0,0:0:0:0:
256,192,106985,1,0,0:0:0:0:
256,192,107149,1,0,0:0:0:0:
256,192,107313,1,8,0:0:0:0:
256,224,107477,1,8,0:0:0:0:
256,224,107641,1,0,0:0:0:0:
256,224,107805,1,8,0:0:0:0:
256,224,107969,1,0,0:0:0:0:
256,224,108051,1,0,0:0:0:0:
256,224,108133,1,8,0:0:0:0:
256,224,108297,1,0,0:0:0:0:
256,224,108461,1,8,0:0:0:0:
256,224,108625,1,0,0:0:0:0:
256,224,108788,1,8,0:0:0:0:
256,224,108952,1,0,0:0:0:0:
256,224,109116,1,8,0:0:0:0:
256,192,109280,1,0,0:0:0:0:
256,192,109335,1,0,0:0:0:0:
256,224,109390,1,0,0:0:0:0:
256,224,109444,1,8,0:0:0:0:
256,192,109526,1,0,0:0:0:0:
256,192,109608,1,0,0:0:0:0:
256,192,109690,1,0,0:0:0:0:
256,192,109772,1,8,0:0:0:0:
256,224,109936,1,8,0:0:0:0:
256,192,110018,1,0,0:0:0:0:
256,192,110100,1,0,0:0:0:0:
256,224,110264,1,8,0:0:0:0:
256,224,110428,1,8,0:0:0:0:
256,224,110592,1,8,0:0:0:0:
256,224,110674,1,0,0:0:0:0:
256,224,110756,1,0,0:0:0:0:
256,224,110920,1,0,0:0:0:0:
256,224,111084,1,8,0:0:0:0:
256,224,111247,1,0,0:0:0:0:
256,224,111329,1,0,0:0:0:0:
256,224,111411,1,8,0:0:0:0:
256,224,111575,1,0,0:0:0:0:
256,224,111739,1,8,0:0:0:0:
256,224,111903,1,8,0:0:0:0:
256,224,111958,1,8,0:0:0:0:
256,192,112012,1,8,0:0:0:0:
256,224,112067,1,0,0:0:0:0:
256,192,112149,1,0,0:0:0:0:
256,224,112231,1,8,0:0:0:0:
256,192,112313,1,0,0:0:0:0:
256,192,112395,1,8,0:0:0:0:
192,288,112559,1,0,0:0:0:0:
256,192,112641,1,0,0:0:0:0:
256,224,112723,1,8,0:0:0:0:
288,192,112887,1,0,0:0:0:0:
256,224,113051,1,0,0:0:0:0:
256,224,113215,1,0,0:0:0:0:
256,224,113297,1,0,0:0:0:0:
256,192,113379,1,8,0:0:0:0:
256,224,113542,1,0,0:0:0:0:
256,224,113706,1,8,0:0:0:0:
256,192,113870,1,8,0:0:0:0:
256,192,113952,1,0,0:0:0:0:
256,192,114034,1,0,0:0:0:0:
256,224,114198,1,0,0:0:0:0:
256,224,114362,1,0,0:0:0:0:
256,192,114526,1,0,0:0:0:0:
256,192,114581,1,0,0:0:0:0:
256,192,114635,1,0,0:0:0:0:
256,224,114690,1,8,0:0:0:0:
256,192,114772,1,0,0:0:0:0:
256,192,114854,1,0,0:0:0:0:
256,192,114936,1,0,0:0:0:0:
256,224,115018,1,8,0:0:0:0:
256,224,115182,1,0,0:0:0:0:
256,192,115264,1,0,0:0:0:0:
256,224,115346,1,8,0:0:0:0:
256,224,115510,1,8,0:0:0:0:
256,192,115674,1,8,0:0:0:0:
256,192,115838,1,0,0:0:0:0:
256,192,115920,1,0,0:0:0:0:
256,192,116001,1,0,0:0:0:0:
256,192,116165,1,8,0:0:0:0:
256,224,116329,1,8,0:0:0:0:
256,224,116493,1,8,0:0:0:0:
256,192,116575,1,0,0:0:0:0:
256,224,116657,1,8,0:0:0:0:
256,192,116821,1,8,0:0:0:0:
256,192,116985,1,0,0:0:0:0:
256,192,117149,1,8,0:0:0:0:
256,224,117204,1,8,0:0:0:0:
256,192,117258,1,8,0:0:0:0:
256,192,117313,1,0,0:0:0:0:
256,192,117395,1,0,0:0:0:0:
256,192,117477,1,0,0:0:0:0:
256,192,117559,1,0,0:0:0:0:
256,192,117641,1,8,0:0:0:0:
256,192,117805,1,0,0:0:0:0:
256,192,117887,1,0,0:0:0:0:
256,224,117969,1,8,0:0:0:0:
256,192,118133,1,0,0:0:0:0:
256,224,118297,1,0,0:0:0:0:
256,192,118460,1,8,0:0:0:0:
256,192,118542,1,8,0:0:0:0:
256,192,118624,1,8,0:0:0:0:
256,192,118788,1,8,0:0:0:0:
256,192,118952,1,8,0:0:0:0:
256,192,119116,1,0,0:0:0:0:
256,192,119198,1,0,0:0:0:0:
256,192,119280,1,0,0:0:0:0:
256,224,119444,1,0,0:0:0:0:
256,192,119608,1,8,0:0:0:0:
256,224,119772,1,0,0:0:0:0:
256,224,119827,1,0,0:0:0:0:
256,224,119881,1,0,0:0:0:0:
256,224,119936,1,8,0:0:0:0:
256,192,120018,1,0,0:0:0:0:
256,224,120100,1,0,0:0:0:0:
256,192,120182,1,0,0:0:0:0:
256,192,120264,1,8,0:0:0:0:
256,192,120428,1,0,0:0:0:0:
256,192,120510,1,0,0:0:0:0:
256,192,120592,1,8,0:0:0:0:
256,192,120755,1,0,0:0:0:0:
256,224,120919,1,0,0:0:0:0:
256,224,121083,1,8,0:0:0:0:
256,192,121165,1,0,0:0:0:0:
256,192,121247,1,0,0:0:0:0:
256,192,121411,1,8,0:0:0:0:
256,224,121575,1,8,0:0:0:0:
256,192,121739,1,0,0:0:0:0:
256,224,121794,1,8,0:0:0:0:
256,224,121848,1,8,0:0:0:0:
256,224,121903,1,0,0:0:0:0:
256,224,122067,1,0,0:0:0:0:
256,224,122231,1,0,0:0:0:0:
256,224,122395,1,0,0:0:0:0:
256,224,122449,1,0,0:0:0:0:
256,224,122504,1,0,0:0:0:0:
256,224,122559,1,8,0:0:0:0:
256,224,122641,1,0,0:0:0:0:
256,224,122723,1,0,0:0:0:0:
256,224,122805,1,8,0:0:0:0:
256,224,122887,1,0,0:0:0:0:
256,224,123051,1,8,0:0:0:0:
256,192,123133,1,0,0:0:0:0:
256,224,123214,1,8,0:0:0:0:
256,224,123378,1,0,0:0:0:0:
256,224,123460,1,0,0:0:0:0:
256,224,123542,1,8,0:0:0:0:
256,224,123706,1,8,0:0:0:0:
256,224,123788,1,0,0:0:0:0:
256,224,123870,1,0,0:0:0:0:
256,224,124034,1,0,0:0:0:0:
256,224,124116,1,0,0:0:0:0:
256,224,124198,1,0,0:0:0:0:
256,224,124362,1,0,0:0:0:0:
256,224,124444,1,0,0:0:0:0:
256,192,124526,1,8,0:0:0:0:
256,224,124690,1,0,0:0:0:0:
256,192,124772,1,0,0:0:0:0:
256,224,124854,1,0,0:0:0:0:
256,224,125018,1,8,0:0:0:0:
256,224,125100,1,0,0:0:0:0:
256,224,125182,1,8,0:0:0:0:
256,224,125346,1,0,0:0:0:0:
256,224,125428,1,8,0:0:0:0:
256,224,125510,1,0,0:0:0:0:
256,224,125673,1,8,0:0:0:0:
256,224,125755,1,0,0:0:0:0:
256,224,125837,1,8,0:0:0:0:
256,224,126001,1,0,0:0:0:0:
256,224,126083,1,0,0:0:0:0:
256,224,126165,1,0,0:0:0:0:
256,224,126329,1,0,0:0:0:0:
256,224,126411,1,0,0:0:0:0:
256,192,126493,1,8,0:0:0:0:
256,224,126657,1,0,0:0:0:0:
256,224,126739,1,0,0:0:0:0:
256,224,126821,1,0,0:0:0:0:
256,224,126985,1,0,0:0:0:0:
256,224,127067,1,0,0:0:0:0:
256,224,127149,1,8,0:0:0:0:
256,224,127313,1,0,0:0:0:0:
256,224,127395,1,0,0:0:0:0:
256,224,127477,1,8,0:0:0:0:
256,224,127559,1,0,0:0:0:0:
256,224,127641,1,0,0:0:0:0:
256,224,127723,1,0,0:0:0:0:
256,224,127805,1,8,0:0:0:0:
256,224,127887,1,0,0:0:0:0:
256,224,127968,1,0,0:0:0:0:
256,224,128050,1,0,0:0:0:0:
256,224,128132,1,8,0:0:0:0:
256,192,128187,1,8,0:0:0:0:
256,224,128242,1,8,0:0:0:0:
256,224,128296,1,0,0:0:0:0:
256,192,128351,1,0,0:0:0:0:
256,224,128406,1,0,0:0:0:0:
256,224,128460,1,8,0:0:0:0:
256,160,128624,1,0,0:0:0:0:
256,224,128706,1,0,0:0:0:0:
256,224,128788,1,0,0:0:0:0:
256,224,128952,1,8,0:0:0:0:
256,224,129034,1,0,0:0:0:0:
256,224,129116,1,0,0:0:0:0:
256,224,129280,1,8,0:0:0:0:
256,224,129362,1,8,0:0:0:0:
256,224,129444,1,0,0:0:0:0:
256,224,129608,1,0,0:0:0:0:
256,224,129690,1,0,0:0:0:0:
256,224,129772,1,0,0:0:0:0:
256,224,129936,1,0,0:0:0:0:
256,224,130018,1,0,0:0:0:0:
256,224,130100,1,8,0:0:0:0:
256,224,130264,1,0,0:0:0:0:
256,224,130346,1,0,0:0:0:0:
256,224,130427,1,8,0:0:0:0:
256,224,130591,1,8,0:0:0:0:
256,224,130673,1,8,0:0:0:0:
256,224,130755,1,0,0:0:0:0:
256,224,130919,1,8,0:0:0:0:
256,224,131001,1,0,0:0:0:0:
256,224,131083,1,8,0:0:0:0:
256,224,131247,1,0,0:0:0:0:
256,224,131329,1,0,0:0:0:0:
256,224,131411,1,8,0:0:0:0:
256,224,131575,1,8,0:0:0:0:
256,224,131657,1,0,0:0:0:0:
256,224,131739,1,0,0:0:0:0:
256,224,131903,1,0,0:0:0:0:
256,224,131985,1,0,0:0:0:0:
256,224,132067,1,8,0:0:0:0:
256,224,132149,1,8,0:0:0:0:
256,224,132231,1,0,0:0:0:0:
256,224,132395,1,0,0:0:0:0:
256,224,132723,1,8,0:0:0:0:
256,224,133050,1,0,0:0:0:0:
256,192,133214,1,0,0:0:0:0:
256,192,133296,1,0,0:0:0:0:
256,224,133378,1,8,0:0:0:0:
256,224,133706,1,8,0:0:0:0:
256,224,133875,1,0,0:0:0:0:
256,224,133960,1,0,0:0:0:0:
256,224,134045,1,8,0:0:0:0:
256,192,134214,1,8,0:0:0:0:
256,192,134299,1,0,0:0:0:0:
256,192,134384,1,0,0:0:0:0:
256,192,134554,1,8,0:0:0:0:
256,192,134638,1,0,0:0:0:0:
256,192,134723,1,8,0:0:0:0:
256,192,134893,1,8,0:0:0:0:
256,192,134978,1,0,0:0:0:0:
256,192,135062,1,0,0:0:0:0:
256,192,135237,1,8,0:0:0:0:
256,192,135324,1,0,0:0:0:0:
256,192,135412,1,8,0:0:0:0:
256,192,135587,1,8,0:0:0:0:
256,192,135675,1,0,0:0:0:0:
256,192,135763,1,0,0:0:0:0:
256,192,135938,1,8,0:0:0:0:
256,192,136026,1,0,0:0:0:0:
256,192,136113,1,8,0:0:0:0:
256,192,136288,1,0,0:0:0:0:
256,192,136376,1,0,0:0:0:0:
256,192,136464,1,8,0:0:0:0:
256,192,136653,1,0,0:0:0:0:
256,192,136748,1,0,0:0:0:0:
256,192,136843,1,0,0:0:0:0:
256,192,137032,1,0,0:0:0:0:
256,192,137127,1,0,0:0:0:0:
256,192,137222,1,8,0:0:0:0:
256,192,137411,1,0,0:0:0:0:
256,192,137506,1,8,0:0:0:0:
256,192,137601,1,0,0:0:0:0:
256,192,137790,1,0,0:0:0:0:
256,192,137885,1,0,0:0:0:0:
256,192,137980,1,8,0:0:0:0:
256,192,138183,1,8,0:0:0:0:
256,192,138285,1,0,0:0:0:0:
256,192,138387,1,0,0:0:0:0:
256,192,138591,1,0,0:0:0:0:
256,192,138693,1,0,0:0:0:0:
256,192,138795,1,0,0:0:0:0:
256,192,138863,1,0,0:0:0:0:
256,192,138931,1,0,0:0:0:0:
256,192,138999,1,8,0:0:0:0:
256,192,139067,1,0,0:0:0:0:
256,192,139135,1,8,0:0:0:0:
256,192,139203,1,0,0:0:0:0:
256,192,139271,1,8,0:0:0:0:
256,192,139339,1,8,0:0:0:0:
288,192,139407,1,8,0:0:0:0:
288,192,139475,1,8,0:0:0:0:
256,192,139543,1,8,0:0:0:0:
256,192,139611,1,8,0:0:0:0:
256,192,139832,1,0,0:0:0:0:
256,192,140053,1,8,0:0:0:0:
256,192,140275,1,8,0:0:0:0:
256,192,140496,1,0,0:0:0:0:
256,192,140718,1,8,0:0:0:0:
256,192,140939,1,8,0:0:0:0:
256,192,141160,1,0,0:0:0:0:
256,192,141382,1,8,0:0:0:0:
256,192,141605,1,0,0:0:0:0:
256,192,141828,1,0,0:0:0:0:
256,192,142051,1,8,0:0:0:0:
256,192,142274,1,8,0:0:0:0:
256,192,142720,1,8,0:0:0:0:
256,192,143166,1,8,0:0:0:0:
256,192,143387,1,0,0:0:0:0:
256,192,143609,1,8,0:0:0:0:
256,192,143831,1,8,0:0:0:0:
256,192,144053,1,8,0:0:0:0:
256,192,144274,1,0,0:0:0:0:
256,192,144496,1,0,0:0:0:0:
256,192,144718,1,8,0:0:0:0:
256,192,144940,1,8,0:0:0:0:
256,192,145162,1,0,0:0:0:0:
256,192,145385,1,8,0:0:0:0:
256,192,145608,1,8,0:0:0:0:
256,192,145831,1,0,0:0:0:0:
256,192,146054,1,8,0:0:0:0:
256,192,146277,1,8,0:0:0:0:
256,192,146500,1,0,0:0:0:0:
256,192,146723,1,8,0:0:0:0:
256,192,146944,1,0,0:0:0:0:
256,192,147166,1,8,0:0:0:0:
256,192,147388,1,8,0:0:0:0:
256,192,147609,1,8,0:0:0:0:
256,192,147831,1,0,0:0:0:0:
256,192,148053,1,8,0:0:0:0:
256,192,148274,1,8,0:0:0:0:
256,192,148496,1,8,0:0:0:0:
256,192,148718,1,0,0:0:0:0:
256,192,148940,1,8,0:0:0:0:
256,192,149162,1,8,0:0:0:0:
256,192,149384,1,8,0:0:0:0:
256,192,149828,1,8,0:0:0:0:
256,192,150272,1,8,0:0:0:0:
256,192,150502,1,0,0:0:0:0:
256,192,150733,1,8,0:0:0:0:
256,192,150963,1,8,0:0:0:0:
256,192,151194,1,8,0:0:0:0:
256,192,151655,1,0,0:0:0:0:
256,192,152116,1,8,0:0:0:0:
256,192,152346,1,0,0:0:0:0:
256,192,152577,1,8,0:0:0:0:
256,192,152807,1,8,0:0:0:0:
256,192,153960,1,0,0:0:0:0:
256,192,154191,1,8,0:0:0:0:
256,192,154423,1,8,0:0:0:0:
256,192,154655,1,8,0:0:0:0:
256,192,155815,1,0,0:0:0:0:
256,192,156045,1,0,0:0:0:0:
256,192,156275,1,8,0:0:0:0:
256,192,156506,1,8,0:0:0:0:
256,192,157658,1,0,0:0:0:0:
256,192,157888,1,8,0:0:0:0:
256,192,158119,1,8,0:0:0:0:
256,192,158350,1,8,0:0:0:0:
256,192,159504,1,8,0:0:0:0:
256,192,159734,1,0,0:0:0:0:
256,192,159849,1,0,0:0:0:0:
256,192,159964,1,8,0:0:0:0:
256,192,160195,1,8,0:0:0:0:
256,192,160425,1,8,0:0:0:0:
256,192,160655,1,8,0:0:0:0:
256,192,160732,1,8,0:0:0:0:
256,192,160809,1,8,0:0:0:0:
256,192,160886,1,0,0:0:0:0:
256,192,161116,1,8,0:0:0:0:
256,192,161347,1,0,0:0:0:0:
256,192,161577,1,0,0:0:0:0:
256,192,161692,1,0,0:0:0:0:
256,192,161807,1,8,0:0:0:0:
256,192,162037,1,8,0:0:0:0:
256,192,162153,1,8,0:0:0:0:
256,192,162268,1,8,0:0:0:0:
256,192,162498,1,8,0:0:0:0:
256,192,162613,1,8,0:0:0:0:
256,192,162728,1,8,0:0:0:0:
256,192,162959,1,8,0:0:0:0:
256,192,163189,1,0,0:0:0:0:
256,192,163420,1,0,0:0:0:0:
256,192,163651,1,8,0:0:0:0:
256,192,163883,1,8,0:0:0:0:
256,192,165040,1,0,0:0:0:0:
256,192,165271,1,8,0:0:0:0:
256,192,165503,1,8,0:0:0:0:
256,192,165735,1,8,0:0:0:0:
256,192,166893,1,0,0:0:0:0:
256,192,167123,1,0,0:0:0:0:
256,192,167238,1,0,0:0:0:0:
256,192,167353,1,8,0:0:0:0:
256,192,167583,1,8,0:0:0:0:
256,192,167813,1,0,0:0:0:0:
256,192,168043,1,0,0:0:0:0:
256,192,168120,1,8,0:0:0:0:
256,192,168197,1,8,0:0:0:0:
256,192,168273,1,0,0:0:0:0:
256,192,168504,1,8,0:0:0:0:
256,192,168734,1,0,0:0:0:0:
256,192,168965,1,0,0:0:0:0:
256,192,169080,1,0,0:0:0:0:
256,192,169196,1,8,0:0:0:0:
256,192,169427,1,0,0:0:0:0:
256,192,169543,1,8,0:0:0:0:
256,192,169658,1,8,0:0:0:0:
256,192,169890,1,8,0:0:0:0:
256,192,170005,1,8,0:0:0:0:
256,192,170121,1,8,0:0:0:0:
256,192,170352,1,8,0:0:0:0:
256,192,170583,1,0,0:0:0:0:
256,192,170812,1,0,0:0:0:0:
256,192,171042,1,8,0:0:0:0:
256,192,171272,1,8,0:0:0:0:
256,192,172421,1,0,0:0:0:0:
256,192,172883,1,0,0:0:0:0:
256,192,172960,1,8,0:0:0:0:
256,192,173345,1,8,0:0:0:0:
256,192,173807,1,0,0:0:0:0:
256,192,174270,1,8,0:0:0:0:
256,192,174958,1,0,0:0:0:0:
256,192,175188,1,0,0:0:0:0:
256,192,175418,1,8,0:0:0:0:
256,192,175647,1,8,0:0:0:0:
256,192,175877,1,8,0:0:0:0:
256,192,176107,1,8,0:0:0:0:
256,192,176571,1,0,0:0:0:0:
256,192,177035,1,8,0:0:0:0:
256,192,177500,1,8,0:0:0:0:
256,192,177964,1,8,0:0:0:0:
256,192,178040,1,8,0:0:0:0:
256,192,178656,1,0,0:0:0:0:
256,192,178887,1,8,0:0:0:0:
256,192,179811,1,0,0:0:0:0:
256,192,180272,1,8,0:0:0:0:
256,192,180733,1,0,0:0:0:0:
256,192,180810,1,8,0:0:0:0:
256,192,181194,1,8,0:0:0:0:
256,192,181655,1,0,0:0:0:0:
256,192,182117,1,0,0:0:0:0:
256,192,182348,1,0,0:0:0:0:
256,192,182810,1,0,0:0:0:0:
256,192,183041,1,8,0:0:0:0:
256,192,183273,1,8,0:0:0:0:
256,192,183350,1,8,0:0:0:0:
256,192,183427,1,8,0:0:0:0:
256,192,183504,1,0,0:0:0:0:
256,192,183963,1,8,0:0:0:0:
256,192,184423,1,8,0:0:0:0:
256,192,184768,1,8,0:0:0:0:
256,192,185113,1,0,0:0:0:0:
256,192,185343,1,8,0:0:0:0:
256,192,185805,1,0,0:0:0:0:
256,192,186036,1,8,0:0:0:0:
256,192,187193,1,0,0:0:0:0:
256,192,187922,1,0,0:0:0:0:
256,192,188195,1,8,0:0:0:0:
256,192,188651,1,0,0:0:0:0:
256,192,189106,1,8,0:0:0:0:
256,192,189380,1,0,0:0:0:0:
256,192,189567,1,8,0:0:0:0:
256,192,189661,1,0,0:0:0:0:
256,192,189755,1,0,0:0:0:0:
256,192,189943,1,0,0:0:0:0:
256,192,190037,1,0,0:0:0:0:
256,192,190131,1,8,0:0:0:0:
256,192,190224,1,0,0:0:0:0:
256,192,190318,1,8,0:0:0:0:
256,192,190506,1,8,0:0:0:0:
256,192,190694,1,8,0:0:0:0:
256,192,190788,1,8,0:0:0:0:
256,192,190882,1,8,0:0:0:0:
256,192,191068,1,8,0:0:0:0:
256,192,191161,1,0,0:0:0:0:
256,192,191254,1,0,0:0:0:0:
256,192,191440,1,0,0:0:0:0:
256,192,191533,1,0,0:0:0:0:
256,192,191627,1,8,0:0:0:0:
256,192,191720,1,0,0:0:0:0:
256,192,191813,1,0,0:0:0:0:
256,192,191906,1,8,0:0:0:0:
256,192,191999,1,8,0:0:0:0:
256,192,192185,1,8,0:0:0:0:
256,192,192279,1,8,0:0:0:0:
256,192,192372,1,8,0:0:0:0:
256,192,192554,1,8,0:0:0:0:
256,192,192646,1,0,0:0:0:0:
256,192,192737,1,0,0:0:0:0:
256,192,192920,1,0,0:0:0:0:
256,192,193012,1,8,0:0:0:0:
256,192,193103,1,8,0:0:0:0:
256,192,193195,1,0,0:0:0:0:
256,192,193286,1,8,0:0:0:0:
256,192,193469,1,8,0:0:0:0:
256,192,193652,1,0,0:0:0:0:
256,192,193744,1,8,0:0:0:0:
256,192,193835,1,8,0:0:0:0:
256,192,194016,1,8,0:0:0:0:
256,192,194106,1,0,0:0:0:0:
256,192,194197,1,0,0:0:0:0:
256,192,194378,1,0,0:0:0:0:
256,192,194468,1,0,0:0:0:0:
256,192,194559,1,8,0:0:0:0:
256,192,194649,1,0,0:0:0:0:
256,192,194740,1,0,0:0:0:0:
256,192,194830,1,8,0:0:0:0:
256,192,194921,1,0,0:0:0:0:
256,192,195011,1,8,0:0:0:0:
256,192,195102,1,0,0:0:0:0:
256,192,195192,1,8,0:0:0:0:
256,192,195283,1,8,0:0:0:0:
256,192,195459,1,0,0:0:0:0:
256,192,195547,1,8,0:0:0:0:
256,192,195635,1,8,0:0:0:0:
256,192,195811,1,8,0:0:0:0:
256,192,195899,1,0,0:0:0:0:
256,192,195987,1,0,0:0:0:0:
256,192,196075,1,8,0:0:0:0:
256,192,196163,1,0,0:0:0:0:
256,192,196339,1,0,0:0:0:0:
256,192,196516,1,0,0:0:0:0:
256,192,196604,1,0,0:0:0:0:
256,192,196692,1,8,0:0:0:0:
256,192,196869,1,0,0:0:0:0:
256,192,196958,1,8,0:0:0:0:
256,192,197047,1,8,0:0:0:0:
256,192,197225,1,8,0:0:0:0:
256,192,197314,1,8,0:0:0:0:
256,192,197403,1,0,0:0:0:0:
256,192,197492,1,8,0:0:0:0:
256,192,197580,1,8,0:0:0:0:
256,192,197669,1,0,0:0:0:0:
256,192,197758,1,0,0:0:0:0:
256,192,197936,1,0,0:0:0:0:
256,192,198025,1,0,0:0:0:0:
256,192,198114,1,8,0:0:0:0:
256,192,198287,1,8,0:0:0:0:
256,192,198373,1,0,0:0:0:0:
256,192,198460,1,0,0:0:0:0:
256,192,198633,1,8,0:0:0:0:
256,192,198719,1,0,0:0:0:0:
256,192,198806,1,0,0:0:0:0:
256,192,198893,1,8,0:0:0:0:
256,192,198979,1,0,0:0:0:0:
256,192,199152,1,0,0:0:0:0:
256,192,199325,1,0,0:0:0:0:
256,192,199412,1,0,0:0:0:0:
256,192,199499,1,0,0:0:0:0:
256,192,199673,1,0,0:0:0:0:
256,192,199760,1,8,0:0:0:0:
256,192,199847,1,8,0:0:0:0:
256,192,199934,1,8,0:0:0:0:
256,192,200021,1,8,0:0:0:0:
256,192,200108,1,8,0:0:0:0:
256,192,200195,1,0,0:0:0:0:
256,192,200282,1,8,0:0:0:0:
256,192,200369,1,0,0:0:0:0:
256,192,200456,1,0,0:0:0:0:
256,192,200543,1,8,0:0:0:0:
256,192,200601,1,8,0:0:0:0:
256,192,200659,1,8,0:0:0:0:
256,192,200717,1,0,0:0:0:0:
256,192,200775,1,0,0:0:0:0:
256,192,200834,1,0,0:0:0:0:
256,192,200892,1,8,0:0:0:0:
256,192,201063,1,8,0:0:0:0:
256,192,201149,1,8,0:0:0:0:
256,192,201235,1,8,0:0:0:0:
256,192,201407,1,0,0:0:0:0:
256,192,201493,1,0,0:0:0:0:
256,192,201579,1,8,0:0:0:0:
256,192,201665,1,0,0:0:0:0:
256,192,201751,1,0,0:0:0:0:
256,192,201923,1,8,0:0:0:0:
256,192,202095,1,0,0:0:0:0:
256,192,202181,1,0,0:0:0:0:
256,192,202267,1,8,0:0:0:0:
256,192,202435,1,0,0:0:0:0:
256,192,202519,1,0,0:0:0:0:
256,192,202604,1,8,0:0:0:0:
256,192,202772,1,8,0:0:0:0:
256,192,202856,1,8,0:0:0:0:
256,192,202941,1,0,0:0:0:0:
256,192,203025,1,8,0:0:0:0:
256,192,203109,1,8,0:0:0:0:
256,192,203278,1,0,0:0:0:0:
256,192,203446,1,0,0:0:0:0:
256,192,203531,1,0,0:0:0:0:
256,192,203615,1,8,0:0:0:0:
256,192,203782,1,0,0:0:0:0:
256,192,203865,1,0,0:0:0:0:
256,192,203949,1,8,0:0:0:0:
256,192,204116,1,0,0:0:0:0:
256,192,204199,1,0,0:0:0:0:
256,192,204283,1,8,0:0:0:0:
256,192,204367,1,0,0:0:0:0:
256,192,204450,1,0,0:0:0:0:
256,192,204617,1,8,0:0:0:0:
256,192,204784,1,0,0:0:0:0:
256,192,204868,1,0,0:0:0:0:
256,192,204952,1,8,0:0:0:0:
256,192,205118,1,8,0:0:0:0:
256,192,205201,1,8,0:0:0:0:
256,192,205284,1,0,0:0:0:0:
256,192,205450,1,0,0:0:0:0:
256,192,205533,1,0,0:0:0:0:
256,192,205616,1,8,0:0:0:0:
256,192,205699,1,0,0:0:0:0:
256,192,205783,1,0,0:0:0:0:
256,192,205866,1,8,0:0:0:0:
256,192,205949,1,8,0:0:0:0:
256,192,206032,1,0,0:0:0:0:
256,192,206115,1,0,0:0:0:0:
256,192,206198,1,8,0:0:0:0:
256,192,206281,1,8,0:0:0:0:
256,192,206445,1,8,0:0:0:0:
256,192,206528,1,8,0:0:0:0:
256,192,206610,1,0,0:0:0:0:
256,192,206775,1,8,0:0:0:0:
256,192,206858,1,8,0:0:0:0:
256,192,206940,1,0,0:0:0:0:
256,192,207022,1,8,0:0:0:0:
256,192,207105,1,8,0:0:0:0:
256,192,207270,1,0,0:0:0:0:
256,192,207435,1,8,0:0:0:0:
256,192,207517,1,8,0:0:0:0:
256,192,207600,1,0,0:0:0:0:
256,192,207763,1,8,0:0:0:0:
256,192,207845,1,8,0:0:0:0:
256,192,207926,1,0,0:0:0:0:
256,192,208090,1,8,0:0:0:0:
256,192,208172,1,8,0:0:0:0:
256,192,208253,1,0,0:0:0:0:
256,192,208335,1,8,0:0:0:0:
256,192,208417,1,8,0:0:0:0:
256,192,208580,1,0,0:0:0:0:
256,192,208744,1,8,0:0:0:0:
256,192,208826,1,8,0:0:0:0:
256,192,208907,1,0,0:0:0:0:
256,192,209071,1,8,0:0:0:0:
256,192,209235,1,8,0:0:0:0:
256,192,209400,1,0,0:0:0:0:
256,192,209482,1,0,0:0:0:0:
256,192,209564,1,8,0:0:0:0:
256,192,209646,1,0,0:0:0:0:
256,192,209728,1,0,0:0:0:0:
256,192,209893,1,8,0:0:0:0:
256,192,210057,1,8,0:0:0:0:
256,192,210139,1,8,0:0:0:0:
256,192,210222,1,0,0:0:0:0:
256,192,210385,1,8,0:0:0:0:
256,192,210467,1,8,0:0:0:0:
256,192,210549,1,0,0:0:0:0:
256,192,210631,1,8,0:0:0:0:
256,192,210713,1,8,0:0:0:0:
256,192,210795,1,8,0:0:0:0:
256,192,210877,1,0,0:0:0:0:
256,192,210959,1,8,0:0:0:0:
256,192,211041,1,8,0:0:0:0:
256,192,211123,1,8,0:0:0:0:
256,192,211205,1,0,0:0:0:0:
256,192,211260,1,0,0:0:0:0:
256,192,211315,1,0,0:0:0:0:
256,192,211369,1,8,0:0:0:0:
256,192,211424,1,8,0:0:0:0:
256,192,211479,1,8,0:0:0:0:
256,192,211533,1,0,0:0:0:0:
256,192,211695,1,0,0:0:0:0:
256,192,211777,1,0,0:0:0:0:
256,192,211859,1,8,0:0:0:0:
256,192,212023,1,0,0:0:0:0:
256,192,212105,1,0,0:0:0:0:
256,192,212187,1,8,0:0:0:0:
256,192,212351,1,0,0:0:0:0:
256,192,212515,1,8,0:0:0:0:
256,192,212679,1,0,0:0:0:0:
256,192,212761,1,0,0:0:0:0:
256,192,212843,1,8,0:0:0:0:
256,192,213007,1,0,0:0:0:0:
256,192,213170,1,8,0:0:0:0:
256,192,213334,1,0,0:0:0:0:
256,192,213389,1,0,0:0:0:0:
256,192,213444,1,0,0:0:0:0:
256,192,213498,1,8,0:0:0:0:
256,192,213580,1,0,0:0:0:0:
256,192,213662,1,0,0:0:0:0:
256,192,213744,1,0,0:0:0:0:
256,192,213826,1,8,0:0:0:0:
256,192,213990,1,0,0:0:0:0:
256,192,214072,1,0,0:0:0:0:
256,192,214154,1,8,0:0:0:0:
256,192,214318,1,8,0:0:0:0:
256,192,214400,1,0,0:0:0:0:
256,192,214482,1,8,0:0:0:0:
256,192,214645,1,0,0:0:0:0:
256,192,214727,1,0,0:0:0:0:
256,192,214809,1,8,0:0:0:0:
256,192,214973,1,0,0:0:0:0:
256,192,215137,1,8,0:0:0:0:
256,192,215301,1,0,0:0:0:0:
256,192,215383,1,0,0:0:0:0:
256,192,215465,1,8,0:0:0:0:
256,192,215629,1,0,0:0:0:0:
256,192,215793,1,8,0:0:0:0:
256,192,215957,1,8,0:0:0:0:
256,192,216011,1,0,0:0:0:0:
256,192,216066,1,8,0:0:0:0:
256,192,216121,1,8,0:0:0:0:
256,192,216202,1,0,0:0:0:0:
256,192,216284,1,0,0:0:0:0:
256,192,216366,1,0,0:0:0:0:
256,192,216448,1,8,0:0:0:0:
256,192,216612,1,0,0:0:0:0:
256,192,216694,1,0,0:0:0:0:
256,192,216776,1,8,0:0:0:0:
256,192,216940,1,0,0:0:0:0:
256,192,217022,1,0,0:0:0:0:
256,192,217104,1,8,0:0:0:0:
256,192,217268,1,0,0:0:0:0:
256,192,217350,1,0,0:0:0:0:
256,192,217432,1,8,0:0:0:0:
256,192,217596,1,0,0:0:0:0:
256,192,217759,1,8,0:0:0:0:
256,192,217923,1,8,0:0:0:0:
256,192,218005,1,0,0:0:0:0:
256,192,218087,1,0,0:0:0:0:
256,192,218251,1,8,0:0:0:0:
256,192,218415,1,8,0:0:0:0:
256,192,218579,1,0,0:0:0:0:
256,192,218634,1,0,0:0:0:0:
256,192,218688,1,0,0:0:0:0:
256,192,218743,1,8,0:0:0:0:
256,192,218825,1,8,0:0:0:0:
256,192,218907,1,0,0:0:0:0:
256,192,218989,1,0,0:0:0:0:
256,192,219071,1,8,0:0:0:0:
256,192,219235,1,0,0:0:0:0:
256,192,219316,1,0,0:0:0:0:
256,192,219398,1,8,0:0:0:0:
256,192,219562,1,8,0:0:0:0:
256,224,219644,1,8,0:0:0:0:
256,192,219726,1,8,0:0:0:0:
256,192,219890,1,8,0:0:0:0:
256,192,219972,1,8,0:0:0:0:
256,192,220054,1,0,0:0:0:0:
256,192,220218,1,0,0:0:0:0:
256,192,220382,1,8,0:0:0:0:
256,192,220546,1,8,0:0:0:0:
256,192,220628,1,0,0:0:0:0:
256,192,220710,1,8,0:0:0:0:
256,192,220873,1,0,0:0:0:0:
256,192,221037,1,8,0:0:0:0:
256,192,221201,1,8,0:0:0:0:
256,192,221256,1,8,0:0:0:0:
256,192,221311,1,8,0:0:0:0:
256,192,221365,1,0,0:0:0:0:
256,192,221447,1,0,0:0:0:0:
256,192,221529,1,0,0:0:0:0:
256,192,221611,1,0,0:0:0:0:
256,192,221693,1,8,0:0:0:0:
256,192,221857,1,0,0:0:0:0:
256,192,221939,1,0,0:0:0:0:
256,192,222021,1,8,0:0:0:0:
256,192,222185,1,0,0:0:0:0:
256,192,222267,1,0,0:0:0:0:
256,192,222349,1,8,0:0:0:0:
256,192,222512,1,8,0:0:0:0:
256,192,222594,1,0,0:0:0:0:
256,192,222676,1,8,0:0:0:0:
256,192,222840,1,0,0:0:0:0:
256,192,222922,1,0,0:0:0:0:
256,192,223004,1,0,0:0:0:0:
256,192,223168,1,0,0:0:0:0:
256,192,223250,1,0,0:0:0:0:
256,192,223332,1,8,0:0:0:0:
256,192,223496,1,0,0:0:0:0:
256,192,223578,1,0,0:0:0:0:
256,192,223660,1,8,0:0:0:0:
256,192,223824,1,0,0:0:0:0:
256,192,223906,1,0,0:0:0:0:
256,192,223987,1,8,0:0:0:0:
256,192,224151,1,0,0:0:0:0:
256,128,224233,1,0,0:0:0:0:
256,192,224315,1,8,0:0:0:0:
256,192,224479,1,0,0:0:0:0:
288,160,224561,1,0,0:0:0:0:
256,192,224643,1,8,0:0:0:0:
256,192,224807,1,8,0:0:0:0:
256,192,224889,1,8,0:0:0:0:
256,192,224971,1,0,0:0:0:0:
288,160,225135,1,8,0:0:0:0:
288,160,225217,1,0,0:0:0:0:
288,160,225299,1,0,0:0:0:0:
288,160,225463,1,8,0:0:0:0:
288,160,225544,1,0,0:0:0:0:
288,160,225626,1,8,0:0:0:0:
256,160,225790,1,0,0:0:0:0:
288,160,225845,1,8,0:0:0:0:
256,192,225900,1,8,0:0:0:0:
256,160,225954,1,0,0:0:0:0:
288,160,226118,1,0,0:0:0:0:
288,160,226200,1,0,0:0:0:0:
288,160,226282,1,8,0:0:0:0:
256,160,226446,1,0,0:0:0:0:
256,160,226528,1,0,0:0:0:0:
256,192,226610,1,8,0:0:0:0:
256,160,226774,1,0,0:0:0:0:
256,192,226856,1,8,0:0:0:0:
256,160,226938,1,0,0:0:0:0:
256,160,227101,1,8,0:0:0:0:
256,160,227183,1,0,0:0:0:0:
256,160,227265,1,8,0:0:0:0:
256,192,227429,1,0,0:0:0:0:
256,160,227511,1,0,0:0:0:0:
256,160,227593,1,8,0:0:0:0:
256,192,227757,1,8,0:0:0:0:
256,160,227839,1,0,0:0:0:0:
256,192,227921,1,0,0:0:0:0:
256,192,228085,1,8,0:0:0:0:
256,192,228167,1,0,0:0:0:0:
256,192,228249,1,0,0:0:0:0:
256,192,228413,1,8,0:0:0:0:
256,192,228495,1,8,0:0:0:0:
256,192,228576,1,0,0:0:0:0:
256,192,228740,1,8,0:0:0:0:
256,192,228822,1,8,0:0:0:0:
256,192,228904,1,0,0:0:0:0:
256,192,229068,1,8,0:0:0:0:
256,192,229150,1,0,0:0:0:0:
256,192,229232,1,8,0:0:0:0:
256,192,229396,1,0,0:0:0:0:
256,192,229478,1,8,0:0:0:0:
256,192,229560,1,0,0:0:0:0:
256,192,229724,1,8,0:0:0:0:
256,192,229888,1,0,0:0:0:0:
256,192,230052,1,0,0:0:0:0:
256,192,230133,1,0,0:0:0:0:
256,192,230215,1,8,0:0:0:0:
256,192,230379,1,0,0:0:0:0:
256,192,230461,1,0,0:0:0:0:
256,192,230543,1,8,0:0:0:0:
256,192,230707,1,0,0:0:0:0:
256,192,230789,1,0,0:0:0:0:
256,192,230871,1,8,0:0:0:0:
256,224,231035,1,8,0:0:0:0:
256,224,231117,1,8,0:0:0:0:
256,224,231199,1,0,0:0:0:0:
256,192,231376,1,8,0:0:0:0:
256,192,231464,1,8,0:0:0:0:
256,192,231553,1,0,0:0:0:0:
256,192,231730,1,8,0:0:0:0:
256,192,231907,1,8,0:0:0:0:
256,192,231966,1,8,0:0:0:0:
256,192,232025,1,8,0:0:0:0:
256,192,232084,1,8,0:0:0:0:
256,192,232143,1,0,0:0:0:0:
256,192,232202,1,0,0:0:0:0:
256,192,232261,1,8,0:0:0:0:
256,192,232320,1,8,0:0:0:0:
256,192,232379,1,8,0:0:0:0:
256,192,232438,1,8,0:0:0:0:
256,192,232497,1,0,0:0:0:0:
256,192,232556,1,0,0:0:0:0:
256,192,232615,1,8,0:0:0:0:
256,192,232990,1,0,0:0:0:0:
256,192,233366,1,8,0:0:0:0:
256,192,233617,1,8,0:0:0:0:
256,192,233868,1,8,0:0:0:0:
256,192,234118,1,0,0:0:0:0:
256,192,234494,1,0,0:0:0:0:
256,192,234870,1,8,0:0:0:0:
256,192,235246,1,8,0:0:0:0:
256,192,235622,1,0,0:0:0:0:
256,192,235996,1,0,0:0:0:0:
256,192,236370,1,0,0:0:0:0:
256,192,236620,1,8,0:0:0:0:
256,192,236869,1,0,0:0:0:0:
256,192,237119,1,0,0:0:0:0:
256,192,237493,1,8,0:0:0:0:
256,192,237868,1,8,0:0:0:0:
256,192,238242,1,0,0:0:0:0:
256,192,238616,1,8,0:0:0:0:
256,192,239343,1,0,0:0:0:0:
256,192,239707,1,8,0:0:0:0:
256,192,240071,1,8,0:0:0:0:
256,192,240434,1,0,0:0:0:0:
256,192,240798,1,0,0:0:0:0:
256,192,241162,1,0,0:0:0:0:
256,192,241526,1,8,0:0:0:0:
64,256,242132,1,8,0:0:0:0:
320,160,242980,1,0,0:0:0:0:
128,256,243708,1,8,0:0:0:0:
320,160,244435,1,0,0:0:0:0:
224,224,244801,1,0,0:0:0:0:
256,192,244923,1,0,0:0:0:0:
256,192,245045,1,0,0:0:0:0:
320,192,245168,1,8,0:0:0:0:
256,192,245412,1,0,0:0:0:0:
224,224,245656,1,0,0:0:0:0:
320,192,245901,1,8,0:0:0:0:
224,224,246267,1,8,0:0:0:0:
256,192,246389,1,8,0:0:0:0:
256,192,246511,1,8,0:0:0:0:
256,192,246634,1,8,0:0:0:0:
256,192,247000,1,8,0:0:0:0:
256,192,247244,1,0,0:0:0:0:
256,192,247367,1,8,0:0:0:0:
224,224,247727,1,8,0:0:0:0:
256,192,247847,1,0,0:0:0:0:
256,192,247967,1,0,0:0:0:0:
256,192,248087,1,0,0:0:0:0:
224,224,248447,1,0,0:0:0:0:
320,192,248808,1,0,0:0:0:0:
224,224,249168,1,8,0:0:0:0:
256,192,249288,1,8,0:0:0:0:
256,192,249408,1,8,0:0:0:0:
256,192,249528,1,8,0:0:0:0:
224,224,249889,1,0,0:0:0:0:
320,192,250249,1,8,0:0:0:0:
224,224,250601,1,8,0:0:0:0:
416,160,251306,1,0,0:0:0:0:
320,192,251659,1,8,0:0:0:0:
224,224,252011,1,8,0:0:0:0:
320,192,252364,1,0,0:0:0:0:
224,224,252716,1,8,0:0:0:0:
320,192,253069,1,8,0:0:0:0:
160,256,253539,1,8,0:0:0:0:
192,224,253657,1,8,0:0:0:0:
224,224,253774,1,0,0:0:0:0:
352,192,254304,1,0,0:0:0:0:
256,224,254480,1,8,0:0:0:0:
256,192,254656,12,0,255892,0:0:0:0:
256,192,256069,5,0,0:0:0:0:
256,192,256158,1,0,0:0:0:0:
256,192,256247,1,8,0:0:0:0:
256,192,256336,1,8,0:0:0:0:
256,192,256425,1,0,0:0:0:0:
256,192,256514,1,8,0:0:0:0:
256,192,256589,1,0,0:0:0:0:
256,192,257331,1,8,0:0:0:0:
256,192,257723,1,0,0:0:0:0:
256,192,257920,1,0,0:0:0:0:
256,192,258116,1,8,0:0:0:0:
256,192,258313,1,8,0:0:0:0:
256,192,258509,1,0,0:0:0:0:
256,192,258900,1,8,0:0:0:0:
256,192,259292,1,0,0:0:0:0:
256,192,259683,1,0,0:0:0:0:
256,192,259782,1,8,0:0:0:0:
256,192,260080,1,0,0:0:0:0:
256,192,260478,1,0,0:0:0:0:
256,192,260875,1,0,0:0:0:0:
256,192,261277,1,8,0:0:0:0:
256,192,261679,1,8,0:0:0:0:
256,192,262082,1,0,0:0:0:0:
256,192,262187,1,8,0:0:0:0:
256,192,262503,1,0,0:0:0:0:
256,192,262924,1,0,0:0:0:0:
256,192,263345,1,8,0:0:0:0:
256,192,263743,1,8,0:0:0:0:
256,192,264141,1,0,0:0:0:0:
256,192,264341,1,8,0:0:0:0:
256,192,264440,1,8,0:0:0:0:
256,192,264540,1,0,0:0:0:0:
256,192,264936,1,8,0:0:0:0:
256,192,265333,1,8,0:0:0:0:
256,192,265730,1,0,0:0:0:0:
256,192,266120,1,8,0:0:0:0:
256,192,266218,1,8,0:0:0:0:
256,192,266511,1,0,0:0:0:0:
256,192,266902,1,0,0:0:0:0:
256,192,267310,1,8,0:0:0:0:
256,192,267718,1,0,0:0:0:0:
256,192,267922,1,0,0:0:0:0:
256,192,268126,1,8,0:0:0:0:
256,192,268544,1,0,0:0:0:0:
256,192,268962,1,0,0:0:0:0:
256,192,269172,1,0,0:0:0:0:
256,192,269381,1,8,0:0:0:0:
256,192,269847,1,0,0:0:0:0:
256,192,270314,1,8,0:0:0:0:
256,192,270781,1,0,0:0:0:0:
256,192,270947,1,8,0:0:0:0:
256,192,272114,1,8,0:0:0:0:
256,192,272781,1,8,0:0:0:0:
256,192,272938,1,0,0:0:0:0:
256,192,273017,1,0,0:0:0:0:
256,192,273096,1,0,0:0:0:0:
256,192,273254,1,0,0:0:0:0:
256,192,273411,1,0,0:0:0:0:
256,192,273569,1,8,0:0:0:0:
256,192,273727,1,0,0:0:0:0:
256,192,273884,1,8,0:0:0:0:
256,192,274042,1,0,0:0:0:0:
256,192,274200,1,0,0:0:0:0:
256,192,274279,1,0,0:0:0:0:
256,192,274358,1,8,0:0:0:0:
256,192,274516,1,0,0:0:0:0:
256,192,274674,1,8,0:0:0:0:
256,192,274832,1,0,0:0:0:0:
256,192,274911,1,0,0:0:0:0:
256,192,274990,1,0,0:0:0:0:
256,192,275148,1,0,0:0:0:0:
256,192,275307,1,8,0:0:0:0:
256,192,275388,1,0,0:0:0:0:
256,192,275469,1,0,0:0:0:0:
256,192,275550,1,0,0:0:0:0:
256,192,275632,1,8,0:0:0:0:
256,192,275713,1,0,0:0:0:0:
256,192,275794,1,0,0:0:0:0:
256,192,275875,1,0,0:0:0:0:
256,192,275957,1,8,0:0:0:0:
256,192,276065,1,0,0:0:0:0:
256,192,276173,1,0,0:0:0:0:
256,192,276282,1,8,0:0:0:0:
256,192,276390,1,0,0:0:0:0:
256,192,276498,1,0,0:0:0:0:
256,192,276607,1,8,0:0:0:0:
256,192,276784,1,0,0:0:0:0:
256,192,276843,1,0,0:0:0:0:
256,192,276902,1,0,0:0:0:0:
256,192,276961,1,8,0:0:0:0:
256,192,277138,1,0,0:0:0:0:
256,192,277197,1,0,0:0:0:0:
256,192,277256,1,0,0:0:0:0:
256,192,277316,1,8,0:0:0:0:
256,192,277434,1,0,0:0:0:0:
256,192,277552,1,0,0:0:0:0:
256,192,277670,1,8,0:0:0:0:
256,192,277879,1,0,0:0:0:0:
256,192,278088,1,8,0:0:0:0:
256,192,278495,1,0,0:0:0:0:
256,192,278630,1,0,0:0:0:0:
256,192,278766,1,8,0:0:0:0:
256,192,278902,1,0,0:0:0:0:
256,160,279173,1,8,0:0:0:0:
256,160,279445,1,0,0:0:0:0:
256,160,279716,1,8,0:0:0:0:
256,160,279982,1,0,0:0:0:0:
256,160,280515,1,0,0:0:0:0:
256,160,280782,1,8,0:0:0:0:
256,160,281048,1,8,0:0:0:0:
256,160,281315,1,0,0:0:0:0:
256,160,281714,1,0,0:0:0:0:
256,160,282114,1,8,0:0:0:0:
256,160,282381,1,8,0:0:0:0:
256,160,282647,1,0,0:0:0:0:
256,160,282914,1,8,0:0:0:0:
256,160,283713,1,0,0:0:0:0:
256,160,283980,1,8,0:0:0:0:
256,160,284246,1,0,0:0:0:0:
256,160,284513,1,8,0:0:0:0:
256,160,285046,1,0,0:0:0:0:
256,160,285179,1,0,0:0:0:0:
256,160,285312,1,8,0:0:0:0:
256,160,285845,1,0,0:0:0:0:
256,160,285979,1,8,0:0:0:0:
256,160,286112,1,8,0:0:0:0:
256,160,286378,1,8,0:0:0:0:
256,160,286645,1,0,0:0:0:0:
256,160,286911,1,8,0:0:0:0:
256,160,287311,1,8,0:0:0:0:
256,160,287711,1,8,0:0:0:0:
256,160,287977,1,0,0:0:0:0:
256,160,288111,1,0,0:0:0:0:
256,160,288511,1,8,0:0:0:0:
256,160,288777,1,0,0:0:0:0:
256,160,289044,1,8,0:0:0:0:
256,160,289310,1,8,0:0:0:0:
256,160,289843,1,0,0:0:0:0:
256,160,289976,1,0,0:0:0:0:
256,160,290110,1,8,0:0:0:0:
256,160,290376,1,8,0:0:0:0:
256,160,290643,1,0,0:0:0:0:
256,160,290909,1,8,0:0:0:0:
256,160,291176,1,0,0:0:0:0:
256,160,291309,1,0,0:0:0:0:
256,160,291442,1,0,0:0:0:0:
256,160,291575,1,0,0:0:0:0:
256,160,291709,1,8,0:0:0:0:
256,160,291975,1,8,0:0:0:0:
256,160,292108,1,0,0:0:0:0:
256,160,292242,1,8,0:0:0:0:
256,160,292375,1,8,0:0:0:0:
256,160,292508,1,8,0:0:0:0:
256,160,292775,1,8,0:0:0:0:
256,160,292908,1,8,0:0:0:0:
256,160,293041,1,0,0:0:0:0:
256,160,293175,1,0,0:0:0:0:
256,160,293308,1,8,0:0:0:0:
256,160,293574,1,0,0:0:0:0:
256,160,293841,1,8,0:0:0:0:
256,160,294107,1,8,0:0:0:0:
256,160,294374,1,0,0:0:0:0:
256,160,294507,1,0,0:0:0:0:
256,160,294640,1,0,0:0:0:0:
256,160,294774,1,8,0:0:0:0:
256,160,294907,1,8,0:0:0:0:
256,160,295173,1,0,0:0:0:0:
256,160,295440,1,8,0:0:0:0:
256,160,295573,1,8,0:0:0:0:
256,160,295640,1,8,0:0:0:0:
256,160,295706,1,0,0:0:0:0:
256,160,295973,1,0,0:0:0:0:
256,160,296106,1,0,0:0:0:0:
256,160,296239,1,8,0:0:0:0:
256,160,296373,1,8,0:0:0:0:
256,160,296506,1,8,0:0:0:0:
256,160,296639,1,0,0:0:0:0:
256,160,296773,1,8,0:0:0:0:
256,160,296906,1,0,0:0:0:0:
256,160,297039,1,8,0:0:0:0:
256,160,297306,1,8,0:0:0:0:
256,160,297572,1,0,0:0:0:0:
256,160,297839,1,0,0:0:0:0:
256,160,297972,1,0,0:0:0:0:
256,160,298105,1,8,0:0:0:0:
256,160,298372,1,0,0:0:0:0:
256,160,298638,1,0,0:0:0:0:
256,160,298771,1,8,0:0:0:0:
256,160,298905,1,8,0:0:0:0:
256,160,299171,1,0,0:0:0:0:
256,160,299438,1,8,0:0:0:0:
256,160,299704,1,8,0:0:0:0:
256,160,299971,1,0,0:0:0:0:
256,160,300104,1,8,0:0:0:0:
256,160,300237,1,0,0:0:0:0:
256,160,300370,1,0,0:0:0:0:
256,160,300504,1,8,0:0:0:0:
256,160,300770,1,0,0:0:0:0:
256,160,300903,1,0,0:0:0:0:
256,160,301170,1,0,0:0:0:0:
256,160,301303,1,8,0:0:0:0:
256,160,301703,1,0,0:0:0:0:
256,160,301836,1,0,0:0:0:0:
256,160,301970,1,0,0:0:0:0:
256,160,302103,1,8,0:0:0:0:
256,160,302369,1,8,0:0:0:0:
256,160,302503,1,8,0:0:0:0:
256,160,302636,1,0,0:0:0:0:
256,160,302769,1,8,0:0:0:0:
256,160,302902,1,8,0:0:0:0:
256,160,303169,1,0,0:0:0:0:
256,160,303302,1,8,0:0:0:0:
256,160,303702,1,8,0:0:0:0:
256,160,303968,1,0,0:0:0:0:
256,160,304102,1,0,0:0:0:0:
256,160,305301,1,0,0:0:0:0:
256,160,305501,1,0,0:0:0:0:
256,160,305601,1,8,0:0:0:0:
256,160,305701,1,8,0:0:0:0:
256,160,305801,1,8,0:0:0:0:
256,160,305901,1,0,0:0:0:0:
256,160,306001,1,8,0:0:0:0:
256,160,306101,1,0,0:0:0:0:
256,160,306900,1,8,0:0:0:0:
256,160,307160,1,0,0:0:0:0:
256,160,307225,1,0,0:0:0:0:
256,160,307290,1,0,0:0:0:0:
256,160,307420,1,0,0:0:0:0:
256,160,307550,1,8,0:0:0:0:
256,160,307615,1,8,0:0:0:0:
256,160,307680,1,0,0:0:0:0:
256,160,307941,1,8,0:0:0:0:
256,160,308071,1,0,0:0:0:0:
256,160,308201,1,0,0:0:0:0:
256,160,308331,1,0,0:0:0:0:
256,160,308461,1,8,0:0:0:0:
256,160,308719,1,0,0:0:0:0:
256,160,308784,1,0,0:0:0:0:
256,160,308848,1,0,0:0:0:0:
256,160,309107,1,0,0:0:0:0:
256,160,309172,1,0,0:0:0:0:
256,160,309236,1,8,0:0:0:0:
256,192,309365,1,0,0:0:0:0:
256,160,309495,1,8,0:0:0:0:
256,192,309624,1,0,0:0:0:0:
256,160,309753,1,8,0:0:0:0:
256,192,309883,1,0,0:0:0:0:
256,192,309947,1,0,0:0:0:0:
256,160,310012,1,8,0:0:0:0:
256,160,310267,1,0,0:0:0:0:
256,160,310331,1,0,0:0:0:0:
256,160,310394,1,0,0:0:0:0:
256,160,310522,1,0,0:0:0:0:
256,160,310650,1,0,0:0:0:0:
256,160,310777,1,8,0:0:0:0:
256,160,311033,1,8,0:0:0:0:
256,160,311288,1,0,0:0:0:0:
256,160,311543,1,8,0:0:0:0:
256,192,311795,1,0,0:0:0:0:
256,192,311858,1,0,0:0:0:0:
256,192,311921,1,0,0:0:0:0:
256,160,312047,1,0,0:0:0:0:
256,192,312173,1,0,0:0:0:0:
256,160,312299,1,8,0:0:0:0:
256,160,312551,1,8,0:0:0:0:
256,160,312803,1,0,0:0:0:0:
256,160,313056,1,8,0:0:0:0:
256,192,313304,1,0,0:0:0:0:
256,192,313366,1,0,0:0:0:0:
256,192,313428,1,0,0:0:0:0:
256,160,313552,1,0,0:0:0:0:
256,160,313676,1,0,0:0:0:0:
256,160,313800,1,8,0:0:0:0:
256,192,314048,1,0,0:0:0:0:
256,192,314111,1,0,0:0:0:0:
256,192,314173,1,8,0:0:0:0:
256,192,314297,1,0,0:0:0:0:
256,192,314421,1,0,0:0:0:0:
256,160,314545,1,8,0:0:0:0:
256,160,314790,1,8,0:0:0:0:
256,160,315035,1,0,0:0:0:0:
256,160,315280,1,8,0:0:0:0:
256,192,315525,1,0,0:0:0:0:
256,192,315586,1,0,0:0:0:0:
256,192,315648,1,8,0:0:0:0:
256,192,315770,1,0,0:0:0:0:
256,192,315893,1,0,0:0:0:0:
256,160,316015,1,8,0:0:0:0:
256,192,316257,1,0,0:0:0:0:
256,192,316318,1,0,0:0:0:0:
256,192,316379,1,0,0:0:0:0:
256,192,316500,1,0,0:0:0:0:
256,192,316622,1,0,0:0:0:0:
256,160,316743,1,8,0:0:0:0:
256,160,316986,1,0,0:0:0:0:
256,160,317229,1,8,0:0:0:0:
256,160,317472,1,8,0:0:0:0:
256,160,317714,1,0,0:0:0:0:
256,160,317774,1,0,0:0:0:0:
256,160,317835,1,0,0:0:0:0:
256,160,317956,1,0,0:0:0:0:
256,160,318077,1,0,0:0:0:0:
256,160,318198,1,8,0:0:0:0:
256,160,318319,1,0,0:0:0:0:
256,160,318440,1,8,0:0:0:0:
256,160,318561,1,0,0:0:0:0:
256,160,318682,1,8,0:0:0:0:
256,160,318803,1,0,0:0:0:0:
256,160,318863,1,0,0:0:0:0:
256,160,318924,1,8,0:0:0:0:
256,160,319167,1,0,0:0:0:0:
256,160,319228,1,0,0:0:0:0:
256,160,319289,1,0,0:0:0:0:
256,160,319410,1,0,0:0:0:0:
256,160,319532,1,8,0:0:0:0:
256,160,319654,1,8,0:0:0:0:
256,192,319775,1,0,0:0:0:0:
256,192,319836,1,0,0:0:0:0:
256,192,319897,1,0,0:0:0:0:
256,192,320019,1,0,0:0:0:0:
256,160,320141,1,8,0:0:0:0:
256,160,320262,1,0,0:0:0:0:
256,160,320384,1,8,0:0:0:0:
256,192,320626,1,0,0:0:0:0:
256,192,320686,1,0,0:0:0:0:
256,160,320747,1,0,0:0:0:0:
256,160,320868,1,0,0:0:0:0:
256,160,320989,1,8,0:0:0:0:
256,160,321110,1,8,0:0:0:0:
256,192,321231,1,0,0:0:0:0:
256,160,321352,1,8,0:0:0:0:
256,192,321473,1,0,0:0:0:0:
256,160,321594,1,8,0:0:0:0:
256,160,321715,1,0,0:0:0:0:
256,160,321836,1,8,0:0:0:0:
256,160,322078,1,0,0:0:0:0:
256,160,322139,1,0,0:0:0:0:
256,160,322200,1,0,0:0:0:0:
256,160,322321,1,8,0:0:0:0:
256,160,322442,1,8,0:0:0:0:
256,160,322564,1,8,0:0:0:0:
256,160,322685,1,0,0:0:0:0:
256,160,322746,1,0,0:0:0:0:
256,160,322806,1,8,0:0:0:0:
256,160,323049,1,8,0:0:0:0:
256,160,323170,1,8,0:0:0:0:
256,160,323231,1,8,0:0:0:0:
256,160,323292,1,0,0:0:0:0:
256,192,323533,1,0,0:0:0:0:
256,192,323654,1,8,0:0:0:0:
256,192,323775,1,0,0:0:0:0:
256,192,323896,1,8,0:0:0:0:
256,192,324017,1,8,0:0:0:0:
256,192,324137,1,0,0:0:0:0:
256,192,324258,1,8,0:0:0:0:
256,160,324379,1,0,0:0:0:0:
256,192,324500,1,8,0:0:0:0:
256,192,324621,1,0,0:0:0:0:
256,192,324681,1,0,0:0:0:0:
256,192,324742,1,8,0:0:0:0:
256,192,324984,1,0,0:0:0:0:
256,192,325045,1,0,0:0:0:0:
256,192,325106,1,8,0:0:0:0:
256,192,325227,1,0,0:0:0:0:
256,192,325349,1,0,0:0:0:0:
256,192,325470,1,8,0:0:0:0:
256,192,325713,1,0,0:0:0:0:
256,192,325774,1,0,0:0:0:0:
256,192,325835,1,8,0:0:0:0:
256,160,325956,1,0,0:0:0:0:
256,160,326077,1,0,0:0:0:0:
256,160,326199,1,8,0:0:0:0:
256,160,326320,1,0,0:0:0:0:
256,160,326441,1,8,0:0:0:0:
256,160,326562,1,0,0:0:0:0:
256,160,326683,1,8,0:0:0:0:
256,160,326804,1,0,0:0:0:0:
256,160,326925,1,8,0:0:0:0:
256,192,327167,1,0,0:0:0:0:
256,192,327228,1,0,0:0:0:0:
256,160,327289,1,8,0:0:0:0:
256,192,327410,1,0,0:0:0:0:
256,192,327531,1,0,0:0:0:0:
256,192,327652,1,8,0:0:0:0:
256,192,327895,1,0,0:0:0:0:
256,192,327956,1,0,0:0:0:0:
256,192,328016,1,0,0:0:0:0:
256,192,328260,1,0,0:0:0:0:
256,192,328320,1,0,0:0:0:0:
256,192,328381,1,8,0:0:0:0:
256,160,328624,1,0,0:0:0:0:
256,160,328746,1,8,0:0:0:0:
256,160,328868,1,0,0:0:0:0:
256,160,328989,1,0,0:0:0:0:
256,160,329111,1,8,0:0:0:0:
256,160,329352,1,8,0:0:0:0:
256,192,329412,1,8,0:0:0:0:
256,192,329473,1,8,0:0:0:0:
256,192,329714,1,0,0:0:0:0:
256,192,329775,1,0,0:0:0:0:
256,192,329835,1,8,0:0:0:0:
256,192,329956,1,0,0:0:0:0:
256,160,330077,1,0,0:0:0:0:
256,160,330198,1,8,0:0:0:0:
256,160,330318,1,0,0:0:0:0:
256,160,330439,1,0,0:0:0:0:
256,160,330560,1,8,0:0:0:0:
256,160,330817,1,8,0:0:0:0:
256,160,330946,1,8,0:0:0:0:
256,160,331333,1,0,0:0:0:0:
256,160,331590,1,0,0:0:0:0:
256,160,331848,1,8,0:0:0:0:
256,160,332106,1,8,0:0:0:0:
256,160,332960,1,8,0:0:0:0:
256,192,334060,1,8,0:0:0:0:
256,192,334460,1,0,0:0:0:0:
256,192,334593,1,0,0:0:0:0:
256,192,334726,1,8,0:0:0:0:
256,192,334860,1,8,0:0:0:0:
256,192,335126,1,0,0:0:0:0:
256,192,335393,1,8,0:0:0:0:
256,192,335660,1,8,0:0:0:0:
256,192,335926,1,0,0:0:0:0:
256,192,336060,1,0,0:0:0:0:
256,160,336460,1,0,0:0:0:0:
256,160,336726,1,8,0:0:0:0:
256,160,336993,1,8,0:0:0:0:
256,160,337260,1,0,0:0:0:0:
256,192,337660,1,0,0:0:0:0:
256,192,338060,1,8,0:0:0:0:
256,192,338326,1,8,0:0:0:0:
256,192,338593,1,0,0:0:0:0:
256,192,338860,1,8,0:0:0:0:
256,192,338993,1,0,0:0:0:0:
256,192,339126,1,0,0:0:0:0:
256,192,339260,1,8,0:0:0:0:
256,192,339393,1,0,0:0:0:0:
256,192,339526,1,8,0:0:0:0:
256,192,339660,1,0,0:0:0:0:
256,160,339926,1,8,0:0:0:0:
256,160,340193,1,8,0:0:0:0:
256,160,340326,1,8,0:0:0:0:
256,160,340451,1,8,0:0:0:0:
256,160,340721,1,0,0:0:0:0:
256,160,340856,1,0,0:0:0:0:
256,160,340991,1,0,0:0:0:0:
256,160,341127,1,0,0:0:0:0:
256,192,341262,1,8,0:0:0:0:
256,192,341532,1,0,0:0:0:0:
256,160,341668,1,0,0:0:0:0:
256,160,341803,1,0,0:0:0:0:
256,160,341938,1,8,0:0:0:0:
288,192,342073,1,8,0:0:0:0:
256,160,342352,1,0,0:0:0:0:
256,160,342632,1,8,0:0:0:0:
256,160,342911,1,8,0:0:0:0:
256,160,343331,1,8,0:0:0:0:
256,160,343750,1,8,0:0:0:0:
256,160,344028,1,0,0:0:0:0:
256,160,344167,1,0,0:0:0:0:
256,160,344863,1,0,0:0:0:0:
256,160,345141,1,8,0:0:0:0:
256,160,345420,1,8,0:0:0:0:
256,160,346368,1,8,0:0:0:0:
256,160,347587,1,0,0:0:0:0:
256,160,347984,1,0,0:0:0:0:
256,160,348381,1,8,0:0:0:0:
256,160,348778,1,8,0:0:0:0:
256,160,349185,1,0,0:0:0:0:
256,160,349592,1,8,0:0:0:0:
256,160,350000,1,8,0:0:0:0:
256,160,350404,1,0,0:0:0:0:
256,160,350808,1,8,0:0:0:0:
256,160,351213,1,8,0:0:0:0:
256,160,351281,1,0,0:0:0:0:
256,160,351350,1,8,0:0:0:0:
256,160,351419,1,0,0:0:0:0:
256,160,351487,1,8,0:0:0:0:
256,160,351556,1,0,0:0:0:0:
256,160,351625,1,8,0:0:0:0:
256,160,351694,1,0,0:0:0:0:
256,160,351762,1,8,0:0:0:0:
256,160,351831,1,0,0:0:0:0:
256,160,351900,1,8,0:0:0:0:
256,160,351969,1,0,0:0:0:0:
256,160,352037,1,8,0:0:0:0:
256,160,352106,1,0,0:0:0:0:
256,160,352175,1,8,0:0:0:0:
256,160,352243,1,0,0:0:0:0:
256,160,352312,1,8,0:0:0:0:
256,160,352381,1,0,0:0:0:0:
256,160,354914,1,8,0:0:0:0:
256,160,355047,1,0,0:0:0:0:
256,160,355180,1,0,0:0:0:0:
256,160,355313,1,8,0:0:0:0:
256,160,355446,1,0,0:0:0:0:
256,160,355579,1,0,0:0:0:0:
256,160,355712,1,8,0:0:0:0:
256,160,355845,1,0,0:0:0:0:
256,160,355978,1,0,0:0:0:0:
256,160,356111,1,8,0:0:0:0:
256,160,356909,1,8,0:0:0:0:
256,160,357308,1,0,0:0:0:0:
288,192,358504,1,8,0:0:0:0:
288,192,359701,1,0,0:0:0:0:
224,192,360896,2,0,L|256:192,18,27.1595823275451
