osu file format v14

[General]
AudioFilename: JOURNEY.mp3
AudioLeadIn: 1000
PreviewTime: 187193
Countdown: 0
SampleSet: None
StackLeniency: 0.4
Mode: 3
LetterboxInBreaks: 0
SpecialStyle: 0
WidescreenStoryboard: 0

[Editor]
DistanceSpacing: 0.8
BeatDivisor: 4
GridSize: 16
TimelineZoom: 2.599999

[Metadata]
Title:Bokutachi no Tabi to Epilogue.[Long ver.]
TitleUnicode:僕たちの旅とエピローグ。[Long ver.]
Artist:aaaa
ArtistUnicode:ああああ
Creator:ArcherLove
Version:Caramel
Source:BMS
Tags:Our Journey and Epilogue Ricora Marathon Groundbreaking 2014 game music
BeatmapID:1041584
BeatmapSetID:488559

[Difficulty]
HPDrainRate:8
CircleSize:7
OverallDifficulty:8
ApproachRate:5
SliderMultiplier:1.4
SliderTickRate:1

[Events]
//Background and Video events
0,0,"boku.jpg",0,0
//Break Periods
//Storyboard Layer 0 (Background)
//Storyboard Layer 1 (Fail)
//Storyboard Layer 2 (Pass)
//Storyboard Layer 3 (Foreground)
//Storyboard Sound Samples

[TimingPoints]
324,1161.103,4,1,1,25,1,0
324,-28.2377060828382,4,1,1,25,0,0
37479,582.807187955318,4,1,1,25,1,0
37479,-56.2568306010929,4,1,1,25,0,0
39810,774.943493703584,4,1,1,25,1,0
39810,-42.3087431693989,4,1,1,25,0,0
42909,917.090909090911,4,1,1,25,1,0
42909,-35.7509652760624,4,1,1,25,0,0
50245,306.544729985184,3,1,1,25,1,0
50245,-106.956284153005,3,1,1,25,0,0
61280,318.0493,3,1,1,25,1,0
61280,-103.087430929424,3,1,1,25,0,0
63188,774.500000000006,3,1,1,25,1,0
63188,-42.3329699753407,3,1,1,25,0,0
65511,327.863477647907,4,1,1,25,1,0
65511,-100.001639344262,4,1,1,25,0,0
132395,-50,4,1,1,25,0,0
132415,-133.333333333333,4,1,1,25,0,0
132682,-100,4,1,1,25,0,0
132723,-50,4,1,1,25,0,0
132743,-133.333333333333,4,1,1,25,0,0
133009,-100,4,1,1,25,0,0
133050,-50,4,1,1,25,0,0
133071,-133.333333333333,4,1,1,25,0,0
133337,-100,4,1,1,25,0,0
133378,-50,4,1,1,25,0,0
133399,-133.333333333333,4,1,1,25,0,0
133665,-100,4,1,1,25,0,0
133706,339.212000000003,4,1,1,25,1,0
133706,-96.6560299927519,4,1,1,25,0,0
135062,350.558300000002,4,1,1,25,1,0
135062,-93.5276250652215,4,1,1,25,0,0
136464,379.070200000001,4,1,1,25,1,0
136464,-86.4929114604671,4,1,1,25,0,0
137980,407.884300000001,4,1,1,25,1,0
137980,-80.3828076881154,4,1,1,25,0,0
139611,442.8004,4,1,1,25,1,0
139611,-74.0443894041235,4,1,1,25,0,0
141382,446.0393,4,1,1,25,1,0
141382,-73.5067184570993,4,1,1,25,0,0
143166,443.5344,4,1,1,25,1,0
143166,-73.9218541919221,4,1,1,25,0,0
144940,445.7675,4,1,1,25,1,0
144940,-73.5515380683913,4,1,1,25,0,0
146723,443.4074,4,1,1,25,1,0
146723,-73.9430267647803,4,1,1,25,0,0
148496,444.183999999999,4,1,1,25,1,0
148496,-73.8137466588209,4,1,1,25,0,0
150272,461.0999,4,1,1,25,1,0
150272,-71.1058172988145,4,1,1,25,0,0
152116,461.0341,4,1,1,25,1,0
152116,-71.11596570818,4,1,1,25,0,0
153960,463.7749,4,1,1,25,1,0
153960,-70.6956871661266,4,1,1,25,0,0
155815,460.8153,4,1,1,25,1,0
155815,-71.1497323242124,4,1,1,25,0,0
157658,461.5362,4,1,1,25,1,0
157658,-71.0385994552576,4,1,1,25,0,0
159504,460.7658,4,1,1,25,1,0
159504,-71.1573759291632,4,1,1,25,0,0
161347,460.5839,4,1,1,25,1,0
161347,-71.1854783588867,4,1,1,25,0,0
163189,462.9486,4,1,1,25,1,0
163189,-70.821869308821,4,1,1,25,0,0
165040,463.338,4,1,1,25,1,0
165040,-70.7623489674959,4,1,1,25,0,0
166893,460.325,4,1,1,25,1,0
166893,-71.2255151162801,4,1,1,25,0,0
168734,462.4028,4,1,1,25,1,0
168734,-70.9054643395361,4,1,1,25,0,0
170583,459.5447,4,1,1,25,1,0
170583,-71.3464549714133,4,1,1,25,0,0
172421,462.3072,4,1,1,25,1,0
172421,-70.9201268029173,4,1,1,25,0,0
174270,459.3071,4,1,1,25,1,0
174270,-71.3833625604778,4,1,1,25,0,0
176107,464.3747,4,1,1,25,1,0
176107,-70.6043745404339,4,1,1,25,0,0
177964,461.8207,4,1,1,25,1,0
177964,-70.9948368401452,4,1,1,25,0,0
179811,461.2475,4,1,1,25,1,0
179811,-71.0830633139511,4,1,1,25,0,0
181655,462.3072,4,1,1,25,1,0
181655,-70.9201268029173,4,1,1,25,0,0
183504,459.7609,4,1,1,25,1,0
183504,-71.3129046987285,4,1,1,25,0,0
185343,462.6524,4,1,1,25,1,0
185343,-70.8672109901551,4,1,1,25,0,0
187193,546.8251,4,1,1,25,1,0
187193,-59.9586325607615,4,1,1,25,0,0
189380,375.530200000001,4,1,1,25,1,0
189380,-87.3082517621793,4,1,1,25,0,0
190882,372.5506,4,1,1,25,1,0
190882,-88.0065291691965,4,1,1,25,0,0
192372,365.938200000001,4,1,1,25,1,0
192372,-89.5967823143404,4,1,1,25,0,0
193835,362.0984,4,1,1,25,1,0
193835,-90.5468934574183,4,1,1,25,0,0
195283,352.3141,4,1,1,25,1,0
195283,-93.0615188148917,4,1,1,25,0,0
196692,355.5833,4,1,1,25,1,0
196692,-92.2059198109181,4,1,1,25,0,0
198114,346.253500000001,4,1,1,25,1,0
198114,-94.690408171763,4,1,1,25,0,0
199499,348.2665,4,1,1,25,1,0
199499,-94.1430922753169,4,1,1,25,0,0
200892,343.839541547278,4,1,1,25,1,0
200892,-95.2380952380952,4,1,1,25,0,1
202267,337.078651685393,4,1,1,25,1,1
202267,-98.0392156862745,4,1,1,25,0,1
203615,334.261838440111,4,1,1,25,1,1
203615,-98.7043937890754,4,1,1,25,0,1
204952,332.409972299169,4,1,1,25,1,1
204952,-98.0078666210159,4,1,1,25,0,1
206281,329.760923330585,4,1,1,25,1,1
206281,-100.270487662108,4,1,1,25,0,1
207600,326.975476839237,4,1,1,25,1,1
207600,-99.4042914532431,4,1,1,25,0,1
208907,328.767123287671,4,1,1,25,1,1
208907,-100.255280019513,4,1,1,25,0,1
210222,327.958458595245,4,1,1,25,1,1
210222,-100.013925939048,4,1,1,25,0,1
211532,327.788248791281,4,1,1,25,1,0
211532,-99.9908363398036,4,1,1,25,0,0
231199,354.0906,4,1,1,25,1,0
231199,-92.5946219580572,4,1,1,25,0,0
232615,751.9088,4,1,1,25,1,0
232615,-43.6048696941725,4,1,1,25,0,0
235622,748.6787,4,1,1,25,1,0
235622,-43.7929985799003,4,1,1,25,0,0
238616,727.5307,4,1,1,25,1,0
238616,-45.0659817460647,4,1,1,25,0,0
241526,727.4252,4,1,1,25,1,0
241526,-45.0725177597664,4,1,1,25,0,0
244435,733.0117,4,1,1,25,1,0
244435,-44.7290067073986,4,1,1,25,0,0
247367,720.6176,4,1,1,25,1,0
247367,-45.4983131773379,4,1,1,25,0,0
250249,705.0665,4,1,1,25,1,0
250249,-46.5018338637584,4,1,1,25,0,0
253069,705.7523,4,1,1,25,1,0
253069,-46.4566466817064,4,1,1,25,0,0
255892,355.576626763067,4,1,1,25,1,0
255892,-92.5925925925926,4,1,1,25,0,0
256589,359.841176470589,4,1,1,25,1,0
256589,-90.9090909090909,4,1,1,25,0,0
257331,392.8,3,1,1,25,1,0
257331,-83.4696671229675,3,1,1,25,0,0
258509,391.5,3,1,1,25,1,0
258509,-83.746833322865,3,1,1,25,0,0
259683,397.6,3,1,1,25,1,0
259683,-82.4619850249035,3,1,1,25,0,0
260875,402.4,3,1,1,25,1,0
260875,-81.4783430564156,3,1,1,25,0,0
262082,421,3,1,1,25,1,0
262082,-77.8785872824267,3,1,1,25,0,0
263345,398.4,3,1,1,25,1,0
263345,-82.2963987095925,3,1,1,25,0,0
264540,396.8,3,1,1,25,1,0
264540,-82.6282390269699,3,1,1,25,0,0
265730,390.9,3,1,1,25,1,0
265730,-83.875377963422,3,1,1,25,0,0
266902,408,3,1,1,25,1,0
266902,-80.3600128576021,3,1,1,25,0,0
268126,418.4,3,1,1,25,1,0
268126,-78.3625364385795,3,1,1,25,0,0
269381,466.8,3,1,1,25,1,0
269381,-70.237543371683,3,1,1,25,0,0
270781,500,4,1,1,25,1,0
270781,-65.5737704918033,4,1,1,25,0,0
272781,315.3471,4,1,1,25,1,0
272781,-103.970784084907,4,1,1,25,0,0
274042,316.2576,4,1,1,25,1,0
274042,-103.67145404854,4,1,1,25,0,0
275307,325.024,4,1,1,25,1,0
275307,-100.875274582497,4,1,1,25,0,0
276607,354.505169867061,4,1,1,25,1,0
276607,-92.5925925925926,4,1,1,25,0,0
277670,418.118466898955,4,1,1,25,1,0
277670,-78.125,4,1,1,25,0,0
278088,407.193756362402,4,1,1,25,1,0
278088,-80.5191256830602,4,1,1,25,0,0
279716,399.773461705034,4,1,1,25,1,0
279716,-82.0136612021858,4,1,1,25,0,0
306900,390.480999999999,4,1,1,25,1,0
306900,-83.9653792269066,4,1,1,25,0,0
308461,387.8318,4,1,1,25,1,0
308461,-84.5389296233616,4,1,1,25,0,0
310012,382.9109,4,1,1,25,1,0
310012,-85.6253641405916,4,1,1,25,0,0
311543,378.2685,4,1,1,25,1,0
311543,-86.6762240205083,4,1,1,25,0,0
313056,372.3664,4,1,1,25,1,0
313056,-88.0500637165481,4,1,1,25,0,0
314545,367.7202,4,1,1,25,1,0
314545,-89.1625895066456,4,1,1,25,0,0
316015,364.4207,4,1,1,25,1,0
316015,-89.9698761511123,4,1,1,25,0,0
317472,363.0741,4,1,1,25,1,0
317472,-90.3035640545598,4,1,1,25,0,0
318924,365.1356,4,1,1,25,1,1
318924,-90.3035640545598,4,1,1,25,0,1
320384,363.1703,4,1,1,25,1,1
320384,-90.2796435884257,4,1,1,25,0,1
321836,364.072,4,1,1,25,1,1
321836,-90.0560472815862,4,1,1,25,0,1
323292,362.5079,4,1,1,25,1,1
323292,-90.4446089199757,4,1,1,25,0,1
324742,364.344,4,1,1,25,1,1
324742,-89.9888161899239,4,1,1,25,0,1
326199,363.373699999999,4,1,1,25,1,1
326199,-90.2291091675092,4,1,1,25,0,1
327652,364.86,4,1,1,25,1,1
327652,-89.8615503094382,4,1,1,25,0,1
329111,362.3438,4,1,1,25,1,1
329111,-90.4855699087487,4,1,1,25,0,1
330560,386.5369,4,1,1,25,1,1
330560,-84.8221353405112,4,1,1,25,0,0
332106,488.5329,4,1,1,25,1,0
332106,-67.1129523639076,4,1,1,25,0,0
334060,400,4,1,1,25,1,0
334060,-81.9672131147541,4,1,1,25,0,0
338860,-81.9672131147541,4,1,1,25,0,1
340451,405.7183,4,1,1,25,1,1
340451,-80.8119457414212,4,1,1,25,0,1
342073,419.4708,4,1,1,25,1,1
342073,-78.1624972367603,4,1,1,25,0,1
343750,417.5244,4,1,1,25,1,0
343750,-78.5268723118976,4,1,1,25,0,0
345420,541.9388,4,1,1,25,1,0
345420,-60.4992394822102,4,1,1,25,0,0
347587,397,3,1,1,25,1,0
347587,-82.5866127100797,3,1,1,25,0,0
348778,407.4,3,1,1,25,1,0
348778,-80.4783633920021,3,1,1,25,0,0
350000,404.448938321537,3,1,1,25,1,0
350000,-83.2154447865524,3,1,1,25,0,0
351213,412.371134020619,3,1,1,25,1,0
351213,-77.528695308351,3,1,1,25,0,0
352450,410.7,3,1,1,25,1,0
352450,-79.8317147453169,3,1,1,25,0,0
354914,399.0335,3,1,1,25,1,0
354914,-82.1657460987652,3,1,1,25,0,0
356111,399.1335,3,1,1,25,1,0
356111,-82.1451600677509,3,1,1,25,0,0
357308,398.9335,3,1,1,25,1,0
357308,-82.1863424503122,3,1,1,25,0,0
360896,381.6335,3,1,1,25,1,0
360896,-85.9119685402399,3,1,1,25,0,0
362040,400,3,1,1,25,1,0
362040,-81.9672131147541,3,1,1,25,0,0

[HitObjects]
329,192,324,5,0,0:0:0:0:
475,192,324,1,0,0:0:0:0:
36,192,324,1,0,0:0:0:0:
256,192,1485,1,0,0:0:0:0:
402,192,1872,1,0,0:0:0:0:
182,192,2259,1,0,0:0:0:0:
329,192,2646,1,0,0:0:0:0:
475,192,2646,1,0,0:0:0:0:
36,192,2646,1,0,0:0:0:0:
109,192,3807,1,0,0:0:0:0:
402,192,3807,1,0,0:0:0:0:
182,192,4194,1,0,0:0:0:0:
475,192,4581,1,0,0:0:0:0:
402,192,4968,1,0,0:0:0:0:
109,192,4968,1,0,0:0:0:0:
256,192,4968,1,0,0:0:0:0:
329,192,5355,1,0,0:0:0:0:
256,192,5742,1,0,0:0:0:0:
256,192,6129,1,0,0:0:0:0:
109,192,6129,1,0,0:0:0:0:
402,192,6129,1,0,0:0:0:0:
182,192,6516,1,0,0:0:0:0:
256,192,6903,1,0,0:0:0:0:
329,192,7290,1,0,0:0:0:0:
475,192,7290,1,0,0:0:0:0:
109,192,7290,1,0,0:0:0:0:
256,192,8451,1,0,0:0:0:0:
36,192,8451,1,0,0:0:0:0:
475,192,8451,1,0,0:0:0:0:
182,192,9612,1,0,0:0:0:0:
402,192,9612,1,0,0:0:0:0:
36,192,9612,1,0,0:0:0:0:
109,192,10773,1,0,0:0:0:0:
256,192,10773,1,0,0:0:0:0:
475,192,10773,1,0,0:0:0:0:
402,192,11160,1,0,0:0:0:0:
182,192,11547,1,0,0:0:0:0:
329,192,11935,1,0,0:0:0:0:
36,192,11935,1,0,0:0:0:0:
475,192,11935,1,0,0:0:0:0:
109,192,13096,1,0,0:0:0:0:
256,192,13096,1,0,0:0:0:0:
402,192,13096,1,0,0:0:0:0:
329,192,13483,1,0,0:0:0:0:
475,192,13870,1,0,0:0:0:0:
402,192,14257,1,0,0:0:0:0:
256,192,14257,1,0,0:0:0:0:
109,192,14257,1,0,0:0:0:0:
182,192,14644,1,0,0:0:0:0:
109,192,15031,1,0,0:0:0:0:
109,192,15418,1,0,0:0:0:0:
329,192,15418,1,0,0:0:0:0:
475,192,15418,1,0,0:0:0:0:
182,192,15805,1,0,0:0:0:0:
256,192,16192,1,0,0:0:0:0:
36,192,16579,128,0,18127:0:0:0:0:
256,192,16579,1,0,0:0:0:0:
109,192,16966,128,0,17740:0:0:0:0:
329,192,16966,1,0,0:0:0:0:
182,192,17353,128,0,18901:0:0:0:0:
475,192,17353,1,0,0:0:0:0:
256,192,17740,128,0,18514:0:0:0:0:
402,192,17740,1,0,0:0:0:0:
329,192,18127,128,0,18901:0:0:0:0:
109,192,18127,128,0,18901:0:0:0:0:
402,192,18514,128,0,18901:0:0:0:0:
36,192,18514,128,0,18901:0:0:0:0:
475,192,18901,1,0,0:0:0:0:
256,192,18901,1,0,0:0:0:0:
329,192,19288,1,0,0:0:0:0:
109,192,19288,1,0,0:0:0:0:
182,192,19675,1,0,0:0:0:0:
475,192,19675,1,0,0:0:0:0:
402,192,20062,1,0,0:0:0:0:
109,192,20062,1,0,0:0:0:0:
329,192,20449,1,0,0:0:0:0:
182,192,20449,1,0,0:0:0:0:
36,192,20836,1,0,0:0:0:0:
256,192,20836,1,0,0:0:0:0:
329,192,21030,1,0,0:0:0:0:
402,192,21223,1,0,0:0:0:0:
182,192,21223,1,0,0:0:0:0:
256,192,21610,1,0,0:0:0:0:
329,192,21997,1,0,0:0:0:0:
402,192,22384,1,0,0:0:0:0:
109,192,22384,1,0,0:0:0:0:
256,192,22771,1,0,0:0:0:0:
402,192,23159,1,0,0:0:0:0:
36,192,23546,1,0,0:0:0:0:
182,192,23546,1,0,0:0:0:0:
329,192,23933,1,0,0:0:0:0:
475,192,24320,1,0,0:0:0:0:
329,192,24707,1,0,0:0:0:0:
182,192,24707,1,0,0:0:0:0:
36,192,25094,1,0,0:0:0:0:
256,192,25481,1,0,0:0:0:0:
402,192,25674,1,0,0:0:0:0:
36,192,25868,1,0,0:0:0:0:
182,192,25868,128,0,26448:0:0:0:0:
475,192,25868,128,0,26448:0:0:0:0:
329,192,25868,1,0,0:0:0:0:
109,192,26448,128,0,27029:0:0:0:0:
402,192,26448,128,0,27029:0:0:0:0:
256,192,26448,1,0,0:0:0:0:
36,192,27029,128,0,27609:0:0:0:0:
329,192,27029,128,0,27609:0:0:0:0:
182,192,27029,1,0,0:0:0:0:
256,192,27609,128,0,28190:0:0:0:0:
475,192,27609,128,0,28190:0:0:0:0:
109,192,27609,1,0,0:0:0:0:
182,192,28190,128,0,29351:0:0:0:0:
402,192,28190,128,0,29351:0:0:0:0:
36,192,28190,1,0,0:0:0:0:
109,192,28577,1,0,0:0:0:0:
256,192,28964,1,0,0:0:0:0:
109,192,29351,128,0,30512:0:0:0:0:
329,192,29351,128,0,30512:0:0:0:0:
475,192,29351,1,0,0:0:0:0:
402,192,29738,1,0,0:0:0:0:
182,192,30125,1,0,0:0:0:0:
36,192,30512,128,0,31673:0:0:0:0:
256,192,30512,128,0,31673:0:0:0:0:
475,192,30512,1,0,0:0:0:0:
402,192,30899,1,0,0:0:0:0:
329,192,31286,1,0,0:0:0:0:
182,192,31673,128,0,32834:0:0:0:0:
475,192,31673,128,0,32834:0:0:0:0:
402,192,31673,1,0,0:0:0:0:
109,192,31673,128,0,32834:0:0:0:0:
329,192,32447,128,0,32834:0:0:0:0:
256,192,32834,128,0,35157:0:0:0:0:
402,192,32834,1,0,0:0:0:0:
36,192,32834,1,0,0:0:0:0:
109,192,33221,1,0,0:0:0:0:
475,192,33221,1,0,0:0:0:0:
402,192,33608,128,0,34383:0:0:0:0:
329,192,33995,128,0,34770:0:0:0:0:
109,192,34383,128,0,35157:0:0:0:0:
182,192,34770,128,0,35157:0:0:0:0:
402,192,34770,1,0,0:0:0:0:
475,192,35157,128,0,37479:0:0:0:0:
36,192,35157,1,0,0:0:0:0:
329,192,35157,1,0,0:0:0:0:
109,192,35544,1,0,0:0:0:0:
402,192,35544,1,0,0:0:0:0:
256,192,35931,128,0,36318:0:0:0:0:
182,192,36318,128,0,36705:0:0:0:0:
329,192,36705,128,0,37092:0:0:0:0:
256,192,37092,128,0,37479:0:0:0:0:
402,192,37092,128,0,37479:0:0:0:0:
36,192,37479,128,0,39810:0:0:0:0:
109,192,37479,128,0,39810:0:0:0:0:
329,192,37479,1,0,0:0:0:0:
182,192,37479,1,0,0:0:0:0:
402,192,37867,1,0,0:0:0:0:
256,192,37867,1,0,0:0:0:0:
402,192,39810,128,0,45507:0:0:0:0:
475,192,39810,128,0,45507:0:0:0:0:
256,192,40972,1,0,0:0:0:0:
36,192,41230,1,0,0:0:0:0:
109,192,41489,1,0,0:0:0:0:
182,192,41747,1,0,0:0:0:0:
256,192,42005,1,0,0:0:0:0:
329,192,42393,1,0,0:0:0:0:
182,192,42909,128,0,45507:0:0:0:0:
475,192,50245,1,0,0:0:0:0:
329,192,50245,1,0,0:0:0:0:
36,192,50398,1,0,0:0:0:0:
109,192,50551,1,0,0:0:0:0:
182,192,50704,1,0,0:0:0:0:
329,192,50704,1,0,0:0:0:0:
109,192,50858,1,0,0:0:0:0:
256,192,50858,1,0,0:0:0:0:
329,192,51011,1,0,0:0:0:0:
475,192,51011,1,0,0:0:0:0:
36,192,51164,1,0,0:0:0:0:
402,192,51164,128,0,51471:0:0:0:0:
256,192,51164,1,0,0:0:0:0:
182,192,51164,1,0,0:0:0:0:
329,192,51471,128,0,51777:0:0:0:0:
256,192,51624,1,0,0:0:0:0:
109,192,51624,1,0,0:0:0:0:
475,192,51624,1,0,0:0:0:0:
36,192,51624,1,0,0:0:0:0:
402,192,51777,128,0,52160:0:0:0:0:
329,192,52084,1,0,0:0:0:0:
182,192,52084,1,0,0:0:0:0:
475,192,52135,128,0,52390:0:0:0:0:
36,192,52237,1,0,0:0:0:0:
256,192,52390,128,0,53003:0:0:0:0:
109,192,52544,1,0,0:0:0:0:
329,192,52697,128,0,53003:0:0:0:0:
36,192,53003,1,0,0:0:0:0:
475,192,53003,1,0,0:0:0:0:
182,192,53003,1,0,0:0:0:0:
402,192,53003,1,0,0:0:0:0:
329,192,53310,128,0,53616:0:0:0:0:
36,192,53463,1,0,0:0:0:0:
182,192,53463,1,0,0:0:0:0:
256,192,53463,1,0,0:0:0:0:
475,192,53616,128,0,53923:0:0:0:0:
36,192,53923,1,0,0:0:0:0:
256,192,53923,1,0,0:0:0:0:
329,192,54000,128,0,54536:0:0:0:0:
109,192,54076,1,0,0:0:0:0:
182,192,54230,1,0,0:0:0:0:
256,192,54383,1,0,0:0:0:0:
109,192,54536,1,0,0:0:0:0:
36,192,54536,1,0,0:0:0:0:
402,192,54536,128,0,54843:0:0:0:0:
475,192,54536,1,0,0:0:0:0:
256,192,54843,128,0,55149:0:0:0:0:
36,192,54843,1,0,0:0:0:0:
109,192,54996,1,0,0:0:0:0:
329,192,55149,128,0,55456:0:0:0:0:
182,192,55149,1,0,0:0:0:0:
36,192,55302,1,0,0:0:0:0:
402,192,55456,128,0,55762:0:0:0:0:
109,192,55456,1,0,0:0:0:0:
256,192,55456,1,0,0:0:0:0:
329,192,55609,1,0,0:0:0:0:
256,192,55686,1,0,0:0:0:0:
475,192,55762,128,0,56375:0:0:0:0:
182,192,55762,1,0,0:0:0:0:
36,192,55762,1,0,0:0:0:0:
329,192,55916,1,0,0:0:0:0:
402,192,55992,1,0,0:0:0:0:
109,192,56069,1,0,0:0:0:0:
182,192,56222,1,0,0:0:0:0:
256,192,56375,128,0,56682:0:0:0:0:
36,192,56375,1,0,0:0:0:0:
402,192,56375,1,0,0:0:0:0:
329,192,56529,1,0,0:0:0:0:
475,192,56682,1,0,0:0:0:0:
182,192,56682,1,0,0:0:0:0:
36,192,56682,1,0,0:0:0:0:
256,192,56835,1,0,0:0:0:0:
329,192,56912,1,0,0:0:0:0:
402,192,56988,1,0,0:0:0:0:
109,192,56988,128,0,57295:0:0:0:0:
475,192,56988,1,0,0:0:0:0:
182,192,57142,1,0,0:0:0:0:
256,192,57218,1,0,0:0:0:0:
36,192,57295,128,0,57602:0:0:0:0:
329,192,57295,1,0,0:0:0:0:
475,192,57295,1,0,0:0:0:0:
109,192,57448,1,0,0:0:0:0:
182,192,57525,1,0,0:0:0:0:
402,192,57602,1,0,0:0:0:0:
475,192,57602,1,4,0:0:0:0:
256,192,57602,128,0,57908:0:0:0:0:
36,192,57755,1,0,0:0:0:0:
109,192,57831,1,0,0:0:0:0:
182,192,57908,1,0,0:0:0:0:
329,192,57908,1,0,0:0:0:0:
475,192,57908,1,0,0:0:0:0:
36,192,57985,1,0,0:0:0:0:
475,192,58010,1,0,0:0:0:0:
329,192,58010,1,0,0:0:0:0:
109,192,58061,1,0,0:0:0:0:
329,192,58112,1,0,0:0:0:0:
475,192,58112,1,0,0:0:0:0:
182,192,58138,1,0,0:0:0:0:
36,192,58215,128,0,58521:0:0:0:0:
475,192,58215,1,0,0:0:0:0:
329,192,58215,1,0,0:0:0:0:
109,192,58368,128,0,58674:0:0:0:0:
329,192,58368,1,0,0:0:0:0:
475,192,58368,1,0,0:0:0:0:
182,192,58521,128,0,58828:0:0:0:0:
475,192,58521,1,4,0:0:0:0:
402,192,58521,1,0,0:0:0:0:
256,192,58521,1,0,0:0:0:0:
329,192,58598,1,0,0:0:0:0:
36,192,58674,1,0,0:0:0:0:
256,192,58751,1,0,0:0:0:0:
109,192,58828,1,0,0:0:0:0:
329,192,58904,1,0,0:0:0:0:
182,192,58981,1,0,0:0:0:0:
402,192,59058,1,0,0:0:0:0:
256,192,59134,1,0,0:0:0:0:
475,192,59134,1,0,0:0:0:0:
36,192,59134,128,0,59441:0:0:0:0:
109,192,59211,1,0,0:0:0:0:
475,192,59288,1,0,0:0:0:0:
182,192,59288,128,0,59441:0:0:0:0:
256,192,59364,1,0,0:0:0:0:
475,192,59441,1,4,0:0:0:0:
109,192,59441,1,0,0:0:0:0:
402,192,59441,1,0,0:0:0:0:
329,192,59441,128,0,59747:0:0:0:0:
182,192,59517,1,0,0:0:0:0:
256,192,59594,1,0,0:0:0:0:
475,192,59671,1,0,0:0:0:0:
402,192,59747,128,0,60054:0:0:0:0:
36,192,59747,1,0,0:0:0:0:
182,192,59747,1,0,0:0:0:0:
36,192,59850,1,0,0:0:0:0:
182,192,59850,1,0,0:0:0:0:
182,192,59952,1,0,0:0:0:0:
36,192,59952,1,0,0:0:0:0:
475,192,60054,128,0,60360:0:0:0:0:
36,192,60054,1,0,0:0:0:0:
182,192,60054,1,0,0:0:0:0:
329,192,60207,128,0,60360:0:0:0:0:
182,192,60360,1,0,0:0:0:0:
109,192,60360,1,4,0:0:0:0:
256,192,60360,128,0,61280:0:0:0:0:
36,192,60360,128,0,61280:0:0:0:0:
475,192,60974,128,0,61280:0:0:0:0:
402,192,61280,128,0,61598:0:0:0:0:
109,192,61598,1,0,0:0:0:0:
109,192,61757,128,0,62870:0:0:0:0:
109,192,63188,128,0,64220:0:0:0:0:
256,192,63188,128,0,65511:0:0:0:0:
402,192,63188,128,0,65511:0:0:0:0:
475,192,63188,1,0,0:0:0:0:
36,192,63188,1,0,0:0:0:0:
329,192,63236,1,0,0:0:0:0:
182,192,63236,1,0,0:0:0:0:
182,192,64220,128,0,65511:0:0:0:0:
36,192,65511,128,0,68133:0:0:0:0:
109,192,65511,1,0,0:0:0:0:
475,192,65511,1,4,0:0:0:0:
329,192,65511,128,0,65838:0:0:0:0:
182,192,65674,1,0,0:0:0:0:
109,192,65756,1,0,0:0:0:0:
256,192,65838,1,0,0:0:0:0:
329,192,66002,128,0,66330:0:0:0:0:
182,192,66002,1,0,0:0:0:0:
109,192,66084,1,0,0:0:0:0:
182,192,66248,1,0,0:0:0:0:
256,192,66330,1,0,0:0:0:0:
329,192,66494,128,0,66822:0:0:0:0:
475,192,66494,1,0,0:0:0:0:
109,192,66658,1,0,0:0:0:0:
182,192,66740,1,0,0:0:0:0:
329,192,66986,128,0,67314:0:0:0:0:
109,192,66986,1,0,0:0:0:0:
182,192,67068,1,0,0:0:0:0:
256,192,67150,1,0,0:0:0:0:
475,192,67314,1,0,0:0:0:0:
402,192,67396,1,0,0:0:0:0:
329,192,67478,128,0,67642:0:0:0:0:
182,192,67560,1,0,0:0:0:0:
109,192,67642,1,0,0:0:0:0:
329,192,67806,128,0,67969:0:0:0:0:
475,192,67806,1,0,0:0:0:0:
109,192,67969,1,0,0:0:0:0:
182,192,68051,1,0,0:0:0:0:
402,192,68133,1,0,0:0:0:0:
475,192,68133,1,0,0:0:0:0:
256,192,68133,128,0,68461:0:0:0:0:
36,192,68297,1,0,0:0:0:0:
109,192,68379,1,0,0:0:0:0:
182,192,68461,1,0,0:0:0:0:
256,192,68625,128,0,68953:0:0:0:0:
475,192,68625,1,0,0:0:0:0:
402,192,68707,1,0,0:0:0:0:
329,192,68871,1,0,0:0:0:0:
402,192,68953,1,0,0:0:0:0:
256,192,69117,128,0,69445:0:0:0:0:
36,192,69117,1,0,0:0:0:0:
475,192,69281,1,0,0:0:0:0:
402,192,69363,1,0,0:0:0:0:
256,192,69609,128,0,69937:0:0:0:0:
36,192,69609,1,0,0:0:0:0:
109,192,69691,1,0,0:0:0:0:
182,192,69773,1,0,0:0:0:0:
475,192,69937,1,0,0:0:0:0:
402,192,70019,1,0,0:0:0:0:
256,192,70101,128,0,70265:0:0:0:0:
36,192,70183,1,0,0:0:0:0:
109,192,70265,1,0,0:0:0:0:
256,192,70428,128,0,70592:0:0:0:0:
475,192,70428,1,0,0:0:0:0:
182,192,70428,1,0,0:0:0:0:
402,192,70510,1,0,0:0:0:0:
109,192,70510,1,0,0:0:0:0:
329,192,70592,1,0,0:0:0:0:
36,192,70592,1,0,0:0:0:0:
256,192,70674,1,0,0:0:0:0:
475,192,70674,1,0,0:0:0:0:
182,192,70756,128,0,71084:0:0:0:0:
402,192,70756,1,0,0:0:0:0:
109,192,70756,1,0,0:0:0:0:
475,192,70920,1,0,0:0:0:0:
402,192,71002,1,0,0:0:0:0:
329,192,71084,1,0,0:0:0:0:
182,192,71248,128,0,71576:0:0:0:0:
402,192,71248,1,0,0:0:0:0:
475,192,71330,1,0,0:0:0:0:
329,192,71494,1,0,0:0:0:0:
402,192,71576,1,0,0:0:0:0:
182,192,71740,128,0,72068:0:0:0:0:
36,192,71740,1,0,0:0:0:0:
329,192,71904,1,0,0:0:0:0:
402,192,71986,1,0,0:0:0:0:
182,192,72232,128,0,72560:0:0:0:0:
329,192,72232,1,0,0:0:0:0:
402,192,72314,1,0,0:0:0:0:
475,192,72396,1,0,0:0:0:0:
109,192,72396,1,0,0:0:0:0:
256,192,72478,1,0,0:0:0:0:
36,192,72478,128,0,72723:0:0:0:0:
329,192,72560,1,0,0:0:0:0:
402,192,72642,1,0,0:0:0:0:
182,192,72723,128,0,72887:0:0:0:0:
475,192,72723,128,0,73051:0:0:0:0:
256,192,72805,1,0,0:0:0:0:
329,192,72887,1,0,0:0:0:0:
182,192,73051,128,0,73215:0:0:0:0:
329,192,73051,128,0,73379:0:0:0:0:
36,192,73051,1,0,0:0:0:0:
402,192,73215,1,0,0:0:0:0:
36,192,73297,1,0,0:0:0:0:
256,192,73379,128,0,73707:0:0:0:0:
475,192,73379,128,0,74691:0:0:0:0:
109,192,73379,1,0,0:0:0:0:
182,192,73461,1,0,0:0:0:0:
36,192,73543,1,0,0:0:0:0:
109,192,73625,1,0,0:0:0:0:
182,192,73707,1,0,0:0:0:0:
256,192,73871,128,0,74199:0:0:0:0:
109,192,73871,1,0,0:0:0:0:
36,192,73953,1,0,0:0:0:0:
329,192,74117,1,0,0:0:0:0:
402,192,74199,1,0,0:0:0:0:
256,192,74363,128,0,74691:0:0:0:0:
109,192,74363,1,0,0:0:0:0:
402,192,74527,1,0,0:0:0:0:
329,192,74609,1,0,0:0:0:0:
256,192,74855,128,0,75182:0:0:0:0:
36,192,74855,1,0,0:0:0:0:
109,192,74937,1,0,0:0:0:0:
182,192,75019,1,0,0:0:0:0:
475,192,75101,1,0,0:0:0:0:
402,192,75182,1,0,0:0:0:0:
329,192,75182,1,0,0:0:0:0:
109,192,75264,1,0,0:0:0:0:
182,192,75264,1,0,0:0:0:0:
256,192,75346,128,0,75510:0:0:0:0:
475,192,75346,1,0,0:0:0:0:
402,192,75428,1,0,0:0:0:0:
329,192,75428,1,0,0:0:0:0:
182,192,75510,1,0,0:0:0:0:
109,192,75510,1,0,0:0:0:0:
36,192,75592,1,0,0:0:0:0:
256,192,75674,128,0,75838:0:0:0:0:
475,192,75674,1,0,0:0:0:0:
402,192,75702,1,0,0:0:0:0:
329,192,75729,1,0,0:0:0:0:
182,192,75756,1,0,0:0:0:0:
109,192,75784,1,0,0:0:0:0:
36,192,75811,1,0,0:0:0:0:
475,192,75838,1,0,0:0:0:0:
402,192,75866,1,0,0:0:0:0:
329,192,75893,1,0,0:0:0:0:
256,192,75920,1,0,0:0:0:0:
182,192,75947,1,0,0:0:0:0:
109,192,75975,1,0,0:0:0:0:
36,192,76002,1,0,0:0:0:0:
329,192,76002,1,0,0:0:0:0:
402,192,76002,1,0,0:0:0:0:
475,192,76002,1,4,0:0:0:0:
182,192,76166,1,0,0:0:0:0:
182,192,76248,1,0,0:0:0:0:
402,192,76248,1,0,0:0:0:0:
256,192,76330,1,0,0:0:0:0:
475,192,76330,1,0,0:0:0:0:
36,192,76330,1,0,0:0:0:0:
329,192,76494,1,0,0:0:0:0:
402,192,76576,1,0,0:0:0:0:
475,192,76658,1,0,0:0:0:0:
182,192,76658,1,0,0:0:0:0:
36,192,76658,1,0,0:0:0:0:
329,192,76740,1,0,0:0:0:0:
402,192,76822,1,0,0:0:0:0:
109,192,76822,1,0,0:0:0:0:
256,192,76986,1,0,0:0:0:0:
475,192,76986,1,0,0:0:0:0:
36,192,76986,1,0,0:0:0:0:
329,192,77150,1,0,0:0:0:0:
256,192,77232,1,0,0:0:0:0:
182,192,77314,1,0,0:0:0:0:
36,192,77314,1,0,0:0:0:0:
402,192,77314,1,0,0:0:0:0:
256,192,77478,1,0,0:0:0:0:
109,192,77478,1,0,0:0:0:0:
329,192,77559,1,0,0:0:0:0:
402,192,77641,1,0,0:0:0:0:
182,192,77641,1,0,0:0:0:0:
36,192,77641,1,0,0:0:0:0:
475,192,77805,1,0,0:0:0:0:
402,192,77887,1,0,0:0:0:0:
329,192,77969,1,0,0:0:0:0:
182,192,77969,1,0,0:0:0:0:
36,192,77969,1,0,0:0:0:0:
475,192,78051,1,0,0:0:0:0:
402,192,78133,1,0,0:0:0:0:
256,192,78133,1,0,0:0:0:0:
329,192,78297,1,0,0:0:0:0:
475,192,78297,1,0,0:0:0:0:
109,192,78297,1,0,0:0:0:0:
182,192,78461,1,0,0:0:0:0:
36,192,78461,1,0,0:0:0:0:
36,192,78625,1,0,0:0:0:0:
256,192,78625,1,0,0:0:0:0:
475,192,78625,1,0,0:0:0:0:
329,192,78789,1,0,0:0:0:0:
329,192,78871,1,0,0:0:0:0:
475,192,78953,1,0,0:0:0:0:
36,192,78953,1,0,0:0:0:0:
182,192,78953,1,0,0:0:0:0:
329,192,79117,1,0,0:0:0:0:
256,192,79199,1,0,0:0:0:0:
182,192,79281,1,0,0:0:0:0:
36,192,79281,1,0,0:0:0:0:
475,192,79281,1,0,0:0:0:0:
402,192,79363,1,0,0:0:0:0:
329,192,79445,1,0,0:0:0:0:
109,192,79445,1,0,0:0:0:0:
256,192,79609,1,0,0:0:0:0:
475,192,79609,1,0,0:0:0:0:
36,192,79609,1,0,0:0:0:0:
182,192,79773,1,0,0:0:0:0:
256,192,79855,1,0,0:0:0:0:
329,192,79936,1,0,0:0:0:0:
475,192,79936,1,0,0:0:0:0:
36,192,79936,1,0,0:0:0:0:
256,192,80100,1,0,0:0:0:0:
402,192,80100,1,0,0:0:0:0:
475,192,80182,1,0,0:0:0:0:
329,192,80264,1,0,0:0:0:0:
182,192,80264,1,0,0:0:0:0:
36,192,80264,1,0,0:0:0:0:
402,192,80346,1,0,0:0:0:0:
475,192,80428,1,0,0:0:0:0:
256,192,80428,1,0,0:0:0:0:
109,192,80428,1,0,0:0:0:0:
329,192,80510,1,0,0:0:0:0:
402,192,80592,1,0,0:0:0:0:
182,192,80592,1,0,0:0:0:0:
36,192,80592,1,0,0:0:0:0:
475,192,80674,1,0,0:0:0:0:
329,192,80756,1,0,0:0:0:0:
109,192,80756,1,0,0:0:0:0:
256,192,80920,1,0,0:0:0:0:
475,192,80920,1,0,0:0:0:0:
36,192,80920,1,0,0:0:0:0:
402,192,81002,1,0,0:0:0:0:
182,192,81002,1,0,0:0:0:0:
329,192,81084,1,0,0:0:0:0:
109,192,81084,1,0,0:0:0:0:
182,192,81166,1,0,0:0:0:0:
402,192,81166,1,0,0:0:0:0:
256,192,81248,1,0,0:0:0:0:
475,192,81248,1,0,0:0:0:0:
36,192,81248,1,0,0:0:0:0:
36,192,81412,1,0,0:0:0:0:
402,192,81412,1,0,0:0:0:0:
402,192,81494,1,0,0:0:0:0:
36,192,81576,1,0,0:0:0:0:
475,192,81576,1,0,0:0:0:0:
256,192,81576,1,0,0:0:0:0:
182,192,81576,1,0,0:0:0:0:
36,192,81740,1,0,0:0:0:0:
329,192,81740,1,0,0:0:0:0:
475,192,81740,1,0,0:0:0:0:
256,192,81822,1,0,0:0:0:0:
36,192,81904,1,0,0:0:0:0:
182,192,81904,1,0,0:0:0:0:
402,192,81904,1,0,0:0:0:0:
329,192,81986,1,0,0:0:0:0:
36,192,82068,1,0,0:0:0:0:
256,192,82068,1,0,0:0:0:0:
475,192,82068,1,0,0:0:0:0:
36,192,82232,1,0,0:0:0:0:
475,192,82232,1,0,0:0:0:0:
329,192,82232,1,0,0:0:0:0:
182,192,82232,1,0,0:0:0:0:
36,192,82395,1,0,0:0:0:0:
256,192,82395,1,0,0:0:0:0:
329,192,82477,1,0,0:0:0:0:
36,192,82559,1,0,0:0:0:0:
475,192,82559,1,0,0:0:0:0:
182,192,82559,1,0,0:0:0:0:
475,192,82723,1,0,0:0:0:0:
256,192,82723,1,0,0:0:0:0:
182,192,82805,1,0,0:0:0:0:
475,192,82887,1,0,0:0:0:0:
109,192,82887,1,0,0:0:0:0:
36,192,82887,1,0,0:0:0:0:
329,192,82887,1,0,0:0:0:0:
182,192,82969,1,0,0:0:0:0:
475,192,83051,1,0,0:0:0:0:
256,192,83051,1,0,0:0:0:0:
36,192,83051,1,0,0:0:0:0:
109,192,83133,1,0,0:0:0:0:
475,192,83215,1,0,0:0:0:0:
182,192,83215,1,0,0:0:0:0:
329,192,83215,1,0,0:0:0:0:
109,192,83297,1,0,0:0:0:0:
475,192,83379,1,0,0:0:0:0:
36,192,83379,1,0,0:0:0:0:
256,192,83379,1,0,0:0:0:0:
329,192,83379,1,0,0:0:0:0:
475,192,83543,1,0,0:0:0:0:
109,192,83543,1,0,0:0:0:0:
256,192,83543,1,0,0:0:0:0:
402,192,83543,1,0,0:0:0:0:
475,192,83707,1,0,0:0:0:0:
182,192,83707,1,0,0:0:0:0:
329,192,83707,1,0,0:0:0:0:
109,192,83789,1,0,0:0:0:0:
475,192,83871,1,0,0:0:0:0:
36,192,83871,1,0,0:0:0:0:
256,192,83871,1,0,0:0:0:0:
402,192,83871,1,0,0:0:0:0:
182,192,83912,1,0,0:0:0:0:
109,192,83953,1,0,0:0:0:0:
329,192,83953,1,0,0:0:0:0:
36,192,84035,1,0,0:0:0:0:
475,192,84035,1,0,0:0:0:0:
256,192,84035,1,0,0:0:0:0:
182,192,84117,1,0,0:0:0:0:
402,192,84117,1,0,0:0:0:0:
329,192,84199,1,0,0:0:0:0:
109,192,84199,1,0,0:0:0:0:
36,192,84199,1,0,0:0:0:0:
182,192,84281,1,0,0:0:0:0:
402,192,84281,1,0,0:0:0:0:
256,192,84363,1,0,0:0:0:0:
475,192,84363,1,0,0:0:0:0:
36,192,84363,1,0,0:0:0:0:
182,192,84445,1,0,0:0:0:0:
329,192,84445,1,0,0:0:0:0:
109,192,84527,1,0,0:0:0:0:
402,192,84527,1,0,0:0:0:0:
475,192,84609,1,0,0:0:0:0:
182,192,84609,1,0,0:0:0:0:
36,192,84691,1,0,0:0:0:0:
256,192,84691,1,0,0:0:0:0:
109,192,84772,1,0,0:0:0:0:
329,192,84772,1,0,0:0:0:0:
182,192,84854,1,0,0:0:0:0:
402,192,84854,1,0,0:0:0:0:
475,192,84854,1,0,0:0:0:0:
329,192,84936,1,0,0:0:0:0:
109,192,84936,1,0,0:0:0:0:
256,192,85018,1,0,0:0:0:0:
36,192,85018,1,0,0:0:0:0:
475,192,85018,1,0,0:0:0:0:
329,192,85100,1,0,0:0:0:0:
182,192,85100,1,0,0:0:0:0:
402,192,85182,128,0,85223:0:0:0:0:
109,192,85182,128,0,85223:0:0:0:0:
329,192,85346,1,0,0:0:0:0:
182,192,85428,1,0,0:0:0:0:
329,192,85510,1,0,0:0:0:0:
256,192,85674,1,0,0:0:0:0:
109,192,85756,1,0,0:0:0:0:
256,192,85838,1,0,0:0:0:0:
182,192,86002,1,0,0:0:0:0:
402,192,86002,1,0,0:0:0:0:
36,192,86084,1,0,0:0:0:0:
182,192,86166,1,0,0:0:0:0:
329,192,86166,1,0,0:0:0:0:
475,192,86166,1,4,0:0:0:0:
256,192,86330,1,0,0:0:0:0:
256,192,86412,1,0,0:0:0:0:
402,192,86494,1,0,0:0:0:0:
109,192,86494,128,0,87805:0:0:0:0:
402,192,86658,1,0,0:0:0:0:
402,192,86986,1,0,0:0:0:0:
182,192,86986,1,0,0:0:0:0:
402,192,87149,1,0,0:0:0:0:
256,192,87149,1,0,0:0:0:0:
402,192,87313,1,0,0:0:0:0:
36,192,87313,1,0,0:0:0:0:
182,192,87477,1,0,0:0:0:0:
402,192,87641,1,0,0:0:0:0:
182,192,87641,1,0,0:0:0:0:
329,192,87805,1,0,0:0:0:0:
36,192,87805,128,0,89117:0:0:0:0:
329,192,87969,1,0,0:0:0:0:
182,192,87969,1,0,0:0:0:0:
329,192,88297,1,0,0:0:0:0:
109,192,88297,1,0,0:0:0:0:
329,192,88461,1,0,0:0:0:0:
329,192,88625,1,0,0:0:0:0:
475,192,88625,1,0,0:0:0:0:
109,192,88789,1,0,0:0:0:0:
329,192,88953,1,0,0:0:0:0:
182,192,88953,1,0,0:0:0:0:
256,192,89117,1,0,0:0:0:0:
475,192,89117,128,0,90428:0:0:0:0:
256,192,89281,1,0,0:0:0:0:
36,192,89281,1,0,0:0:0:0:
36,192,89445,128,0,90428:0:0:0:0:
256,192,89608,1,0,0:0:0:0:
256,192,89772,1,0,0:0:0:0:
256,192,89936,1,0,0:0:0:0:
256,192,90264,1,0,0:0:0:0:
182,192,90428,1,0,0:0:0:0:
402,192,90428,128,0,91740:0:0:0:0:
182,192,90592,1,0,0:0:0:0:
329,192,90756,1,0,0:0:0:0:
475,192,90838,128,0,91084:0:0:0:0:
182,192,90920,1,0,0:0:0:0:
182,192,91084,1,0,0:0:0:0:
329,192,91084,128,0,91412:0:0:0:0:
182,192,91248,1,0,0:0:0:0:
256,192,91412,128,0,91740:0:0:0:0:
182,192,91576,1,0,0:0:0:0:
36,192,91740,1,0,0:0:0:0:
329,192,91740,128,0,93051:0:0:0:0:
475,192,91740,128,0,92067:0:0:0:0:
36,192,91904,1,0,0:0:0:0:
36,192,92231,1,0,0:0:0:0:
182,192,92231,1,0,0:0:0:0:
36,192,92395,1,0,0:0:0:0:
256,192,92395,1,0,0:0:0:0:
36,192,92559,1,0,0:0:0:0:
475,192,92559,1,0,0:0:0:0:
36,192,92887,1,0,0:0:0:0:
402,192,92887,1,0,0:0:0:0:
475,192,92969,128,0,93379:0:0:0:0:
256,192,93051,1,0,0:0:0:0:
109,192,93051,128,0,94362:0:0:0:0:
256,192,93215,1,0,0:0:0:0:
402,192,93379,1,0,0:0:0:0:
256,192,93543,1,0,0:0:0:0:
256,192,93707,1,0,0:0:0:0:
36,192,93707,1,0,0:0:0:0:
256,192,93871,1,0,0:0:0:0:
402,192,93871,1,0,0:0:0:0:
182,192,94035,1,0,0:0:0:0:
256,192,94199,1,0,0:0:0:0:
475,192,94199,1,0,0:0:0:0:
329,192,94281,1,0,0:0:0:0:
402,192,94362,1,0,0:0:0:0:
182,192,94362,128,0,95674:0:0:0:0:
36,192,94362,128,0,95510:0:0:0:0:
402,192,94526,1,0,0:0:0:0:
256,192,94690,1,0,0:0:0:0:
402,192,94854,1,0,0:0:0:0:
109,192,94854,1,0,0:0:0:0:
402,192,95018,1,0,0:0:0:0:
402,192,95182,1,0,0:0:0:0:
256,192,95346,1,0,0:0:0:0:
402,192,95510,1,0,0:0:0:0:
109,192,95510,1,0,0:0:0:0:
402,192,95674,1,0,0:0:0:0:
36,192,95674,128,0,96985:0:0:0:0:
402,192,95838,1,0,0:0:0:0:
402,192,96166,1,0,0:0:0:0:
402,192,96330,1,0,0:0:0:0:
402,192,96494,1,0,0:0:0:0:
402,192,96821,1,0,0:0:0:0:
256,192,96985,1,0,0:0:0:0:
475,192,96985,128,0,98297:0:0:0:0:
256,192,97149,1,0,0:0:0:0:
256,192,97477,1,0,0:0:0:0:
36,192,97477,1,0,0:0:0:0:
256,192,97641,1,0,0:0:0:0:
109,192,97641,1,0,0:0:0:0:
256,192,97805,1,0,0:0:0:0:
402,192,97805,1,0,0:0:0:0:
329,192,97969,1,0,0:0:0:0:
256,192,98133,1,0,0:0:0:0:
36,192,98133,1,0,0:0:0:0:
109,192,98297,1,0,0:0:0:0:
402,192,98297,128,0,99608:0:0:0:0:
109,192,98461,1,0,0:0:0:0:
256,192,98461,1,0,0:0:0:0:
109,192,98789,1,0,0:0:0:0:
329,192,98789,1,0,0:0:0:0:
109,192,98953,1,0,0:0:0:0:
109,192,99117,1,0,0:0:0:0:
475,192,99117,1,0,0:0:0:0:
256,192,99280,1,0,0:0:0:0:
109,192,99444,1,0,0:0:0:0:
329,192,99444,1,0,0:0:0:0:
475,192,99608,1,0,0:0:0:0:
256,192,99608,128,0,100838:0:0:0:0:
475,192,99772,1,0,0:0:0:0:
475,192,100100,1,0,0:0:0:0:
36,192,100100,1,0,0:0:0:0:
475,192,100264,1,0,0:0:0:0:
109,192,100264,1,0,0:0:0:0:
475,192,100428,1,0,0:0:0:0:
182,192,100428,1,0,0:0:0:0:
329,192,100592,1,0,0:0:0:0:
182,192,100756,128,0,101084:0:0:0:0:
36,192,100920,1,0,0:0:0:0:
329,192,100920,128,0,102231:0:0:0:0:
475,192,100920,1,0,0:0:0:0:
109,192,101084,1,0,0:0:0:0:
402,192,101248,1,0,0:0:0:0:
475,192,101330,1,0,0:0:0:0:
182,192,101412,1,0,0:0:0:0:
36,192,101412,1,0,0:0:0:0:
182,192,101575,1,0,0:0:0:0:
182,192,101739,1,0,0:0:0:0:
402,192,101739,1,0,0:0:0:0:
36,192,101903,1,0,0:0:0:0:
182,192,102067,1,0,0:0:0:0:
475,192,102067,1,0,0:0:0:0:
402,192,102231,1,0,0:0:0:0:
109,192,102231,128,0,103379:0:0:0:0:
256,192,102231,128,0,102559:0:0:0:0:
402,192,102395,1,0,0:0:0:0:
182,192,102559,1,0,0:0:0:0:
402,192,102723,1,0,0:0:0:0:
182,192,102723,1,0,0:0:0:0:
402,192,102887,1,0,0:0:0:0:
402,192,103051,1,0,0:0:0:0:
256,192,103051,1,0,0:0:0:0:
182,192,103215,1,0,0:0:0:0:
402,192,103379,1,0,0:0:0:0:
36,192,103379,128,0,103707:0:0:0:0:
182,192,103543,1,0,0:0:0:0:
329,192,103543,128,0,104854:0:0:0:0:
182,192,103707,1,0,0:0:0:0:
475,192,103707,1,0,0:0:0:0:
475,192,103871,1,0,0:0:0:0:
182,192,104034,1,0,0:0:0:0:
182,192,104198,1,0,0:0:0:0:
402,192,104198,1,0,0:0:0:0:
182,192,104362,1,0,0:0:0:0:
475,192,104362,1,0,0:0:0:0:
36,192,104526,1,0,0:0:0:0:
109,192,104690,1,0,0:0:0:0:
182,192,104690,128,0,105018:0:0:0:0:
256,192,104854,1,0,0:0:0:0:
475,192,104854,128,0,106166:0:0:0:0:
36,192,104854,128,0,106166:0:0:0:0:
256,192,105018,1,0,0:0:0:0:
402,192,105018,128,0,106166:0:0:0:0:
109,192,105182,128,0,106166:0:0:0:0:
256,192,105346,1,0,0:0:0:0:
256,192,105510,1,0,0:0:0:0:
256,192,105674,1,0,0:0:0:0:
256,192,106002,1,0,0:0:0:0:
256,192,106166,1,0,0:0:0:0:
182,192,106330,1,0,0:0:0:0:
256,192,106411,1,0,0:0:0:0:
329,192,106493,1,0,0:0:0:0:
475,192,106493,1,0,0:0:0:0:
182,192,106575,1,0,0:0:0:0:
109,192,106657,1,0,0:0:0:0:
36,192,106739,1,0,0:0:0:0:
256,192,106821,1,0,0:0:0:0:
402,192,106821,1,0,0:0:0:0:
36,192,106985,1,0,0:0:0:0:
109,192,107149,1,0,0:0:0:0:
182,192,107313,1,0,0:0:0:0:
256,192,107477,1,0,0:0:0:0:
475,192,107477,1,0,0:0:0:0:
36,192,107477,1,0,0:0:0:0:
182,192,107641,1,0,0:0:0:0:
256,192,107723,1,0,0:0:0:0:
329,192,107805,1,0,0:0:0:0:
475,192,107805,1,0,0:0:0:0:
182,192,107969,1,0,0:0:0:0:
402,192,107969,1,0,0:0:0:0:
109,192,108051,1,0,0:0:0:0:
36,192,108133,1,0,0:0:0:0:
256,192,108133,1,0,0:0:0:0:
475,192,108133,1,0,0:0:0:0:
182,192,108297,1,0,0:0:0:0:
329,192,108297,1,0,0:0:0:0:
36,192,108297,1,0,0:0:0:0:
402,192,108379,1,0,0:0:0:0:
475,192,108461,1,0,0:0:0:0:
256,192,108461,1,0,0:0:0:0:
36,192,108461,1,0,0:0:0:0:
182,192,108625,1,0,0:0:0:0:
329,192,108625,1,0,0:0:0:0:
109,192,108707,1,0,0:0:0:0:
36,192,108788,1,0,0:0:0:0:
256,192,108788,1,0,0:0:0:0:
475,192,108788,1,0,0:0:0:0:
182,192,108952,1,0,0:0:0:0:
402,192,108952,1,0,0:0:0:0:
36,192,108952,1,0,0:0:0:0:
329,192,109116,1,0,0:0:0:0:
36,192,109280,1,0,0:0:0:0:
182,192,109280,1,0,0:0:0:0:
329,192,109335,1,0,0:0:0:0:
475,192,109390,1,0,0:0:0:0:
109,192,109444,1,0,0:0:0:0:
256,192,109444,1,0,0:0:0:0:
36,192,109444,1,0,0:0:0:0:
329,192,109526,1,0,0:0:0:0:
402,192,109608,1,0,0:0:0:0:
182,192,109608,1,0,0:0:0:0:
109,192,109690,1,0,0:0:0:0:
475,192,109772,1,0,0:0:0:0:
256,192,109772,1,0,0:0:0:0:
36,192,109772,1,0,0:0:0:0:
182,192,109936,1,0,0:0:0:0:
402,192,109936,1,0,0:0:0:0:
36,192,109936,1,0,0:0:0:0:
329,192,110018,1,0,0:0:0:0:
256,192,110100,1,0,0:0:0:0:
36,192,110100,1,0,0:0:0:0:
475,192,110100,1,0,0:0:0:0:
109,192,110264,1,0,0:0:0:0:
475,192,110264,1,0,0:0:0:0:
256,192,110346,1,0,0:0:0:0:
36,192,110428,1,0,0:0:0:0:
402,192,110428,1,0,0:0:0:0:
109,192,110592,1,0,0:0:0:0:
329,192,110592,1,0,0:0:0:0:
182,192,110674,1,0,0:0:0:0:
256,192,110756,1,0,0:0:0:0:
36,192,110756,1,0,0:0:0:0:
475,192,110756,1,0,0:0:0:0:
182,192,110920,1,0,0:0:0:0:
402,192,110920,1,0,0:0:0:0:
36,192,110920,1,0,0:0:0:0:
109,192,111084,1,0,0:0:0:0:
329,192,111084,1,0,0:0:0:0:
475,192,111084,1,0,0:0:0:0:
256,192,111247,1,0,0:0:0:0:
329,192,111329,1,0,0:0:0:0:
402,192,111411,1,0,0:0:0:0:
182,192,111411,1,0,0:0:0:0:
36,192,111411,1,0,0:0:0:0:
36,192,111575,1,0,0:0:0:0:
256,192,111575,1,0,0:0:0:0:
475,192,111575,1,0,0:0:0:0:
329,192,111739,1,0,0:0:0:0:
109,192,111739,1,0,0:0:0:0:
402,192,111821,1,0,0:0:0:0:
182,192,111903,1,0,0:0:0:0:
36,192,111903,1,0,0:0:0:0:
256,192,111958,1,0,0:0:0:0:
329,192,112012,1,0,0:0:0:0:
475,192,112067,1,0,0:0:0:0:
109,192,112067,1,0,0:0:0:0:
402,192,112067,1,0,0:0:0:0:
182,192,112149,1,0,0:0:0:0:
256,192,112231,1,0,0:0:0:0:
36,192,112231,1,0,0:0:0:0:
475,192,112231,1,0,0:0:0:0:
402,192,112313,1,0,0:0:0:0:
329,192,112395,1,0,0:0:0:0:
182,192,112395,1,0,0:0:0:0:
36,192,112395,1,0,0:0:0:0:
256,192,112559,1,0,0:0:0:0:
475,192,112559,1,0,0:0:0:0:
109,192,112559,1,0,0:0:0:0:
402,192,112641,1,0,0:0:0:0:
329,192,112723,1,0,0:0:0:0:
182,192,112723,1,0,0:0:0:0:
36,192,112723,1,0,0:0:0:0:
256,192,112887,1,0,0:0:0:0:
109,192,112887,1,0,0:0:0:0:
329,192,112969,1,0,0:0:0:0:
402,192,113051,1,0,0:0:0:0:
182,192,113051,1,0,0:0:0:0:
36,192,113051,1,0,0:0:0:0:
256,192,113215,1,0,0:0:0:0:
475,192,113215,1,0,0:0:0:0:
402,192,113297,1,0,0:0:0:0:
329,192,113379,1,0,0:0:0:0:
182,192,113379,1,0,0:0:0:0:
36,192,113379,1,0,0:0:0:0:
109,192,113542,1,0,0:0:0:0:
256,192,113542,1,0,0:0:0:0:
182,192,113706,1,0,0:0:0:0:
329,192,113706,1,0,0:0:0:0:
475,192,113706,1,0,0:0:0:0:
256,192,113870,1,0,0:0:0:0:
402,192,113870,1,0,0:0:0:0:
109,192,113952,1,0,0:0:0:0:
182,192,114034,1,0,0:0:0:0:
329,192,114034,1,0,0:0:0:0:
475,192,114034,1,0,0:0:0:0:
109,192,114198,1,0,0:0:0:0:
256,192,114198,1,0,0:0:0:0:
475,192,114198,1,0,0:0:0:0:
402,192,114362,1,0,0:0:0:0:
36,192,114526,1,0,0:0:0:0:
329,192,114526,1,0,0:0:0:0:
109,192,114581,1,0,0:0:0:0:
182,192,114635,1,0,0:0:0:0:
256,192,114690,1,0,0:0:0:0:
475,192,114690,1,0,0:0:0:0:
402,192,114690,1,0,0:0:0:0:
36,192,114772,1,0,0:0:0:0:
182,192,114854,1,0,0:0:0:0:
329,192,114854,1,0,0:0:0:0:
475,192,114854,1,0,0:0:0:0:
109,192,114936,1,0,0:0:0:0:
36,192,115018,1,0,0:0:0:0:
256,192,115018,1,0,0:0:0:0:
402,192,115018,1,0,0:0:0:0:
475,192,115182,1,0,0:0:0:0:
182,192,115182,1,0,0:0:0:0:
36,192,115182,1,0,0:0:0:0:
402,192,115264,1,0,0:0:0:0:
329,192,115346,1,0,0:0:0:0:
109,192,115346,1,0,0:0:0:0:
256,192,115346,1,0,0:0:0:0:
182,192,115510,1,0,0:0:0:0:
475,192,115510,1,0,0:0:0:0:
36,192,115510,1,0,0:0:0:0:
402,192,115592,1,0,0:0:0:0:
329,192,115674,1,0,0:0:0:0:
109,192,115674,1,0,0:0:0:0:
256,192,115838,1,0,0:0:0:0:
475,192,115838,1,0,0:0:0:0:
329,192,115920,1,0,0:0:0:0:
402,192,116001,1,0,0:0:0:0:
36,192,116001,1,0,0:0:0:0:
182,192,116001,1,0,0:0:0:0:
36,192,116165,1,0,0:0:0:0:
256,192,116165,1,0,0:0:0:0:
475,192,116165,1,0,0:0:0:0:
182,192,116329,1,0,0:0:0:0:
475,192,116329,1,0,0:0:0:0:
329,192,116329,1,0,0:0:0:0:
109,192,116493,1,0,0:0:0:0:
402,192,116493,1,0,0:0:0:0:
182,192,116575,1,0,0:0:0:0:
256,192,116657,1,0,0:0:0:0:
36,192,116657,1,0,0:0:0:0:
475,192,116657,1,0,0:0:0:0:
36,192,116821,1,0,0:0:0:0:
256,192,116821,1,0,0:0:0:0:
402,192,116821,1,0,0:0:0:0:
182,192,116985,1,0,0:0:0:0:
475,192,117149,1,0,0:0:0:0:
36,192,117149,1,0,0:0:0:0:
329,192,117204,1,0,0:0:0:0:
182,192,117231,1,0,0:0:0:0:
402,192,117258,1,0,0:0:0:0:
256,192,117313,1,0,0:0:0:0:
36,192,117313,1,0,0:0:0:0:
475,192,117313,1,0,0:0:0:0:
109,192,117395,1,0,0:0:0:0:
182,192,117477,1,0,0:0:0:0:
475,192,117477,1,0,0:0:0:0:
329,192,117477,1,0,0:0:0:0:
109,192,117559,1,0,0:0:0:0:
36,192,117641,1,0,0:0:0:0:
256,192,117641,1,0,0:0:0:0:
402,192,117641,1,0,0:0:0:0:
36,192,117805,1,0,0:0:0:0:
182,192,117805,1,0,0:0:0:0:
329,192,117805,1,0,0:0:0:0:
402,192,117887,1,0,0:0:0:0:
475,192,117969,1,0,0:0:0:0:
256,192,117969,1,0,0:0:0:0:
36,192,117969,1,0,0:0:0:0:
329,192,118051,1,0,0:0:0:0:
402,192,118133,1,0,0:0:0:0:
109,192,118133,1,0,0:0:0:0:
182,192,118133,1,0,0:0:0:0:
256,192,118215,1,0,0:0:0:0:
329,192,118297,1,0,0:0:0:0:
36,192,118297,1,0,0:0:0:0:
475,192,118297,1,0,0:0:0:0:
256,192,118460,1,0,0:0:0:0:
402,192,118460,1,0,0:0:0:0:
109,192,118542,1,0,0:0:0:0:
182,192,118624,1,0,0:0:0:0:
329,192,118624,1,0,0:0:0:0:
475,192,118624,1,0,0:0:0:0:
109,192,118788,1,0,0:0:0:0:
256,192,118788,1,0,0:0:0:0:
402,192,118788,1,0,0:0:0:0:
329,192,118952,1,0,0:0:0:0:
182,192,118952,1,0,0:0:0:0:
36,192,118952,1,0,0:0:0:0:
475,192,119116,1,0,0:0:0:0:
256,192,119116,1,0,0:0:0:0:
109,192,119198,1,0,0:0:0:0:
182,192,119280,1,0,0:0:0:0:
402,192,119280,1,0,0:0:0:0:
329,192,119280,1,0,0:0:0:0:
109,192,119444,1,0,0:0:0:0:
256,192,119444,1,0,0:0:0:0:
36,192,119608,1,0,0:0:0:0:
182,192,119608,1,0,0:0:0:0:
475,192,119608,1,0,0:0:0:0:
402,192,119772,1,0,0:0:0:0:
109,192,119772,1,0,0:0:0:0:
182,192,119827,1,0,0:0:0:0:
256,192,119881,1,0,0:0:0:0:
329,192,119936,1,0,0:0:0:0:
36,192,119936,1,0,0:0:0:0:
475,192,119936,1,0,0:0:0:0:
109,192,120018,1,0,0:0:0:0:
182,192,120100,1,0,0:0:0:0:
329,192,120100,1,0,0:0:0:0:
475,192,120100,1,0,0:0:0:0:
109,192,120182,1,0,0:0:0:0:
36,192,120264,1,0,0:0:0:0:
256,192,120264,1,0,0:0:0:0:
402,192,120264,1,0,0:0:0:0:
182,192,120428,1,0,0:0:0:0:
329,192,120428,1,0,0:0:0:0:
402,192,120510,1,0,0:0:0:0:
475,192,120592,1,0,0:0:0:0:
256,192,120592,1,0,0:0:0:0:
36,192,120592,1,0,0:0:0:0:
109,192,120755,1,0,0:0:0:0:
402,192,120755,1,0,0:0:0:0:
182,192,120837,1,0,0:0:0:0:
256,192,120919,1,0,0:0:0:0:
475,192,120919,1,0,0:0:0:0:
36,192,120919,1,0,0:0:0:0:
402,192,121083,1,0,0:0:0:0:
182,192,121083,1,0,0:0:0:0:
109,192,121165,1,0,0:0:0:0:
36,192,121247,1,0,0:0:0:0:
256,192,121247,1,0,0:0:0:0:
475,192,121247,1,0,0:0:0:0:
182,192,121411,1,0,0:0:0:0:
402,192,121411,1,0,0:0:0:0:
36,192,121411,1,0,0:0:0:0:
109,192,121575,1,0,0:0:0:0:
329,192,121575,1,0,0:0:0:0:
475,192,121575,1,0,0:0:0:0:
256,192,121739,1,0,0:0:0:0:
36,192,121739,1,0,0:0:0:0:
475,192,121794,1,0,0:0:0:0:
402,192,121848,1,0,0:0:0:0:
329,192,121903,1,0,0:0:0:0:
182,192,121903,1,0,0:0:0:0:
36,192,121903,1,0,0:0:0:0:
109,192,122067,1,0,0:0:0:0:
256,192,122067,1,0,0:0:0:0:
402,192,122067,1,0,0:0:0:0:
329,192,122231,1,0,0:0:0:0:
36,192,122395,1,0,0:0:0:0:
182,192,122395,1,0,0:0:0:0:
329,192,122449,1,0,0:0:0:0:
475,192,122504,1,0,0:0:0:0:
256,192,122559,1,0,0:0:0:0:
109,192,122559,1,0,0:0:0:0:
402,192,122559,1,0,0:0:0:0:
329,192,122641,1,0,0:0:0:0:
36,192,122723,1,0,0:0:0:0:
182,192,122723,1,0,0:0:0:0:
475,192,122723,1,0,0:0:0:0:
402,192,122805,1,0,0:0:0:0:
329,192,122887,1,0,0:0:0:0:
109,192,122887,1,0,0:0:0:0:
182,192,122969,1,0,0:0:0:0:
256,192,123051,1,0,0:0:0:0:
36,192,123133,1,0,0:0:0:0:
109,192,123214,1,0,0:0:0:0:
182,192,123214,1,0,0:0:0:0:
329,192,123214,1,0,0:0:0:0:
402,192,123214,1,0,0:0:0:0:
256,192,123378,1,0,0:0:0:0:
36,192,123378,1,0,0:0:0:0:
329,192,123460,1,0,0:0:0:0:
402,192,123542,1,0,0:0:0:0:
182,192,123542,1,0,0:0:0:0:
256,192,123706,1,0,0:0:0:0:
475,192,123706,1,0,0:0:0:0:
182,192,123788,1,0,0:0:0:0:
109,192,123870,1,0,0:0:0:0:
329,192,123870,1,0,0:0:0:0:
36,192,124034,1,0,0:0:0:0:
256,192,124034,1,0,0:0:0:0:
109,192,124116,1,0,0:0:0:0:
182,192,124198,1,0,0:0:0:0:
329,192,124198,1,0,0:0:0:0:
475,192,124362,1,0,0:0:0:0:
256,192,124362,1,0,0:0:0:0:
402,192,124444,1,0,0:0:0:0:
329,192,124526,1,0,0:0:0:0:
182,192,124526,1,0,0:0:0:0:
36,192,124526,1,0,0:0:0:0:
109,192,124690,1,0,0:0:0:0:
256,192,124690,1,0,0:0:0:0:
402,192,124772,1,0,0:0:0:0:
329,192,124854,1,0,0:0:0:0:
182,192,124854,1,0,0:0:0:0:
475,192,124854,1,0,0:0:0:0:
109,192,125018,1,0,0:0:0:0:
256,192,125018,1,0,0:0:0:0:
329,192,125100,1,0,0:0:0:0:
36,192,125182,1,0,0:0:0:0:
182,192,125182,1,0,0:0:0:0:
402,192,125182,1,0,0:0:0:0:
475,192,125346,1,0,0:0:0:0:
109,192,125346,1,0,0:0:0:0:
329,192,125428,1,0,0:0:0:0:
182,192,125510,1,0,0:0:0:0:
402,192,125510,1,0,0:0:0:0:
36,192,125510,1,0,0:0:0:0:
256,192,125673,1,0,0:0:0:0:
109,192,125673,1,0,0:0:0:0:
329,192,125755,1,0,0:0:0:0:
402,192,125837,1,0,0:0:0:0:
36,192,125837,1,0,0:0:0:0:
182,192,125837,1,0,0:0:0:0:
256,192,125892,1,0,0:0:0:0:
329,192,126001,1,0,0:0:0:0:
475,192,126001,1,0,0:0:0:0:
475,192,126165,1,0,0:0:0:0:
182,192,126165,1,0,0:0:0:0:
36,192,126165,1,0,0:0:0:0:
109,192,126329,1,0,0:0:0:0:
402,192,126329,1,0,0:0:0:0:
329,192,126411,1,0,0:0:0:0:
256,192,126493,1,0,0:0:0:0:
36,192,126493,1,0,0:0:0:0:
475,192,126493,1,0,0:0:0:0:
182,192,126657,1,0,0:0:0:0:
329,192,126657,1,0,0:0:0:0:
402,192,126739,1,0,0:0:0:0:
475,192,126821,1,0,0:0:0:0:
256,192,126821,1,0,0:0:0:0:
36,192,126821,1,0,0:0:0:0:
109,192,126985,1,0,0:0:0:0:
402,192,126985,1,0,0:0:0:0:
182,192,127067,1,0,0:0:0:0:
256,192,127149,1,0,0:0:0:0:
475,192,127149,1,0,0:0:0:0:
36,192,127149,1,0,0:0:0:0:
182,192,127313,1,0,0:0:0:0:
109,192,127395,1,0,0:0:0:0:
36,192,127477,1,0,0:0:0:0:
256,192,127477,1,0,0:0:0:0:
475,192,127477,1,0,0:0:0:0:
402,192,127559,1,0,0:0:0:0:
329,192,127641,1,0,0:0:0:0:
109,192,127641,1,0,0:0:0:0:
182,192,127723,1,0,0:0:0:0:
256,192,127805,1,0,0:0:0:0:
36,192,127805,1,0,0:0:0:0:
475,192,127805,1,0,0:0:0:0:
402,192,127887,1,0,0:0:0:0:
329,192,127968,1,0,0:0:0:0:
109,192,127968,1,0,0:0:0:0:
182,192,128050,1,0,0:0:0:0:
256,192,128132,1,0,0:0:0:0:
36,192,128132,1,0,0:0:0:0:
475,192,128132,1,0,0:0:0:0:
402,192,128160,1,0,0:0:0:0:
329,192,128187,1,0,0:0:0:0:
182,192,128214,1,0,0:0:0:0:
109,192,128242,1,0,0:0:0:0:
36,192,128269,1,0,0:0:0:0:
475,192,128296,1,0,0:0:0:0:
402,192,128324,1,0,0:0:0:0:
329,192,128351,1,0,0:0:0:0:
256,192,128378,1,0,0:0:0:0:
182,192,128406,1,0,0:0:0:0:
109,192,128433,1,0,0:0:0:0:
475,192,128460,1,0,0:0:0:0:
402,192,128460,1,0,0:0:0:0:
329,192,128460,1,0,0:0:0:0:
36,192,128460,128,0,129116:0:0:0:0:
109,192,128624,128,0,129116:0:0:0:0:
475,192,128624,1,0,0:0:0:0:
402,192,128706,1,0,0:0:0:0:
329,192,128788,1,0,0:0:0:0:
256,192,128788,1,0,0:0:0:0:
182,192,128788,128,0,129116:0:0:0:0:
475,192,128952,1,0,0:0:0:0:
402,192,129034,1,0,0:0:0:0:
329,192,129116,1,0,0:0:0:0:
256,192,129116,1,0,0:0:0:0:
475,192,129280,128,0,129936:0:0:0:0:
36,192,129280,1,0,0:0:0:0:
109,192,129362,1,0,0:0:0:0:
182,192,129444,1,0,0:0:0:0:
256,192,129444,1,0,0:0:0:0:
402,192,129444,128,0,129936:0:0:0:0:
256,192,129608,1,0,0:0:0:0:
329,192,129608,128,0,129936:0:0:0:0:
182,192,129690,1,0,0:0:0:0:
109,192,129772,1,0,0:0:0:0:
36,192,129772,1,0,0:0:0:0:
182,192,129936,1,0,0:0:0:0:
36,192,129936,128,0,130427:0:0:0:0:
256,192,130018,1,0,0:0:0:0:
329,192,130100,1,0,0:0:0:0:
402,192,130100,1,0,0:0:0:0:
475,192,130100,128,0,130591:0:0:0:0:
182,192,130264,128,0,130755:0:0:0:0:
329,192,130427,128,0,130919:0:0:0:0:
109,192,130427,1,0,0:0:0:0:
256,192,130427,1,0,0:0:0:0:
402,192,130427,1,0,0:0:0:0:
36,192,130591,128,0,131083:0:0:0:0:
475,192,130755,128,0,131083:0:0:0:0:
109,192,130755,1,0,0:0:0:0:
256,192,130755,1,0,0:0:0:0:
402,192,130755,1,0,0:0:0:0:
182,192,130919,128,0,131083:0:0:0:0:
402,192,131083,1,0,0:0:0:0:
329,192,131083,1,0,0:0:0:0:
109,192,131083,1,0,0:0:0:0:
182,192,131247,128,0,131411:0:0:0:0:
475,192,131247,1,0,0:0:0:0:
402,192,131329,1,0,0:0:0:0:
329,192,131411,128,0,131575:0:0:0:0:
36,192,131411,1,0,0:0:0:0:
109,192,131411,1,0,0:0:0:0:
256,192,131411,1,0,0:0:0:0:
182,192,131575,128,0,131903:0:0:0:0:
475,192,131575,1,0,0:0:0:0:
329,192,131657,1,0,0:0:0:0:
402,192,131739,1,0,0:0:0:0:
36,192,131739,1,0,0:0:0:0:
109,192,131739,1,0,0:0:0:0:
475,192,131739,128,0,131903:0:0:0:0:
329,192,131903,1,0,0:0:0:0:
402,192,131985,1,0,0:0:0:0:
475,192,132067,1,0,0:0:0:0:
256,192,132067,1,0,0:0:0:0:
36,192,132067,1,0,0:0:0:0:
182,192,132149,1,0,0:0:0:0:
109,192,132231,1,0,0:0:0:0:
329,192,132313,1,0,0:0:0:0:
256,192,132395,1,0,0:0:0:0:
182,192,132395,1,0,0:0:0:0:
36,192,132395,128,0,132436:0:0:0:0:
475,192,132395,128,0,132436:0:0:0:0:
109,192,132723,1,0,0:0:0:0:
256,192,132723,1,0,0:0:0:0:
402,192,132723,1,0,0:0:0:0:
475,192,132723,1,0,0:0:0:0:
182,192,133050,1,0,0:0:0:0:
36,192,133050,1,0,0:0:0:0:
402,192,133050,1,0,0:0:0:0:
329,192,133050,1,0,0:0:0:0:
36,192,133378,1,0,0:0:0:0:
109,192,133378,1,0,0:0:0:0:
256,192,133378,128,0,133419:0:0:0:0:
475,192,133378,128,0,133419:0:0:0:0:
36,192,133706,1,0,0:0:0:0:
182,192,133706,1,0,0:0:0:0:
329,192,133706,1,0,0:0:0:0:
256,192,133875,1,0,0:0:0:0:
402,192,133875,1,0,0:0:0:0:
182,192,133960,1,0,0:0:0:0:
329,192,134045,1,0,0:0:0:0:
475,192,134045,1,0,0:0:0:0:
109,192,134045,1,0,0:0:0:0:
36,192,134214,1,0,0:0:0:0:
256,192,134214,1,0,0:0:0:0:
475,192,134214,1,0,0:0:0:0:
402,192,134299,1,0,0:0:0:0:
109,192,134384,1,0,0:0:0:0:
329,192,134384,1,0,0:0:0:0:
182,192,134384,1,0,0:0:0:0:
256,192,134554,1,0,0:0:0:0:
402,192,134554,1,0,0:0:0:0:
182,192,134638,1,0,0:0:0:0:
329,192,134723,1,0,0:0:0:0:
109,192,134723,1,0,0:0:0:0:
475,192,134723,1,0,0:0:0:0:
36,192,134893,1,0,0:0:0:0:
182,192,134893,1,0,0:0:0:0:
256,192,134978,1,0,0:0:0:0:
329,192,135062,1,0,0:0:0:0:
475,192,135062,1,0,0:0:0:0:
109,192,135062,1,0,0:0:0:0:
256,192,135237,1,0,0:0:0:0:
402,192,135237,1,0,0:0:0:0:
182,192,135324,1,0,0:0:0:0:
109,192,135412,1,0,0:0:0:0:
329,192,135412,1,0,0:0:0:0:
475,192,135412,1,0,0:0:0:0:
36,192,135587,1,0,0:0:0:0:
182,192,135587,1,0,0:0:0:0:
256,192,135675,1,0,0:0:0:0:
329,192,135763,1,0,0:0:0:0:
109,192,135763,1,0,0:0:0:0:
475,192,135763,1,0,0:0:0:0:
402,192,135938,1,0,0:0:0:0:
182,192,135938,1,0,0:0:0:0:
36,192,136026,1,0,0:0:0:0:
329,192,136113,1,0,0:0:0:0:
109,192,136113,1,0,0:0:0:0:
475,192,136113,1,0,0:0:0:0:
36,192,136288,1,0,0:0:0:0:
256,192,136288,1,0,0:0:0:0:
182,192,136464,1,0,0:0:0:0:
329,192,136464,1,0,0:0:0:0:
475,192,136464,1,0,0:0:0:0:
109,192,136653,1,0,0:0:0:0:
182,192,136748,1,0,0:0:0:0:
36,192,136843,1,0,0:0:0:0:
402,192,136843,1,0,0:0:0:0:
475,192,136843,1,0,0:0:0:0:
256,192,136937,1,0,0:0:0:0:
109,192,137032,1,0,0:0:0:0:
329,192,137127,1,0,0:0:0:0:
182,192,137222,1,0,0:0:0:0:
475,192,137222,1,0,0:0:0:0:
36,192,137222,1,0,0:0:0:0:
402,192,137316,1,0,0:0:0:0:
329,192,137411,1,0,0:0:0:0:
109,192,137506,1,0,0:0:0:0:
256,192,137506,1,0,0:0:0:0:
182,192,137601,1,0,0:0:0:0:
329,192,137601,1,0,0:0:0:0:
475,192,137601,1,0,0:0:0:0:
36,192,137695,1,0,0:0:0:0:
109,192,137790,1,0,0:0:0:0:
329,192,137885,1,0,0:0:0:0:
182,192,137980,1,0,0:0:0:0:
36,192,137980,1,0,0:0:0:0:
475,192,137980,1,0,0:0:0:0:
402,192,137980,1,0,0:0:0:0:
109,192,138183,1,0,0:0:0:0:
256,192,138183,1,0,0:0:0:0:
182,192,138285,1,0,0:0:0:0:
329,192,138285,1,0,0:0:0:0:
256,192,138387,1,0,0:0:0:0:
402,192,138387,1,0,0:0:0:0:
475,192,138387,1,0,0:0:0:0:
182,192,138591,1,0,0:0:0:0:
329,192,138591,1,0,0:0:0:0:
256,192,138693,1,0,0:0:0:0:
109,192,138693,1,0,0:0:0:0:
36,192,138795,1,0,0:0:0:0:
182,192,138795,1,0,0:0:0:0:
475,192,138795,1,0,0:0:0:0:
402,192,138795,1,0,0:0:0:0:
329,192,138863,1,0,0:0:0:0:
256,192,138931,1,0,0:0:0:0:
182,192,138999,1,0,0:0:0:0:
36,192,139067,1,0,0:0:0:0:
109,192,139135,1,0,0:0:0:0:
182,192,139203,1,0,0:0:0:0:
475,192,139271,1,0,0:0:0:0:
402,192,139339,1,0,0:0:0:0:
329,192,139407,1,0,0:0:0:0:
109,192,139475,1,0,0:0:0:0:
182,192,139543,1,0,0:0:0:0:
256,192,139611,1,0,0:0:0:0:
402,192,139611,1,0,0:0:0:0:
475,192,139611,1,0,0:0:0:0:
36,192,139611,1,0,0:0:0:0:
109,192,139832,1,0,0:0:0:0:
182,192,139832,1,0,0:0:0:0:
182,192,140053,1,0,0:0:0:0:
256,192,140053,1,0,0:0:0:0:
402,192,140275,1,0,0:0:0:0:
475,192,140275,1,0,0:0:0:0:
329,192,140496,1,0,0:0:0:0:
402,192,140496,1,0,0:0:0:0:
36,192,140496,1,0,0:0:0:0:
109,192,140718,1,0,0:0:0:0:
256,192,140718,1,0,0:0:0:0:
329,192,140718,1,0,0:0:0:0:
182,192,140939,1,0,0:0:0:0:
36,192,140939,1,0,0:0:0:0:
402,192,140939,1,0,0:0:0:0:
475,192,141160,1,0,0:0:0:0:
109,192,141160,1,0,0:0:0:0:
256,192,141160,1,0,0:0:0:0:
329,192,141382,1,0,0:0:0:0:
182,192,141382,1,0,0:0:0:0:
475,192,141382,1,0,0:0:0:0:
109,192,141605,1,0,0:0:0:0:
402,192,141605,1,0,0:0:0:0:
36,192,141828,1,0,0:0:0:0:
256,192,142051,1,0,0:0:0:0:
109,192,142274,1,0,0:0:0:0:
402,192,142274,1,0,0:0:0:0:
182,192,142720,1,0,0:0:0:0:
475,192,142720,1,0,0:0:0:0:
329,192,143166,1,0,0:0:0:0:
36,192,143387,1,0,0:0:0:0:
182,192,143387,1,0,0:0:0:0:
109,192,143609,1,0,0:0:0:0:
256,192,143609,1,0,0:0:0:0:
182,192,143831,1,0,0:0:0:0:
329,192,143831,1,0,0:0:0:0:
256,192,144053,1,0,0:0:0:0:
475,192,144053,1,0,0:0:0:0:
36,192,144274,1,0,0:0:0:0:
182,192,144274,1,0,0:0:0:0:
256,192,144496,1,0,0:0:0:0:
402,192,144496,1,0,0:0:0:0:
329,192,144718,1,0,0:0:0:0:
182,192,144718,1,0,0:0:0:0:
256,192,144940,1,0,0:0:0:0:
109,192,144940,1,0,0:0:0:0:
329,192,145162,1,0,0:0:0:0:
402,192,145385,1,0,0:0:0:0:
475,192,145608,1,0,0:0:0:0:
36,192,145831,1,0,0:0:0:0:
256,192,145831,1,0,0:0:0:0:
182,192,146054,1,0,0:0:0:0:
475,192,146054,1,0,0:0:0:0:
402,192,146277,1,0,0:0:0:0:
109,192,146277,1,0,0:0:0:0:
36,192,146500,1,0,0:0:0:0:
329,192,146500,1,0,0:0:0:0:
109,192,146723,1,0,0:0:0:0:
256,192,146723,1,0,0:0:0:0:
182,192,146944,1,0,0:0:0:0:
329,192,146944,1,0,0:0:0:0:
256,192,147166,1,0,0:0:0:0:
402,192,147166,1,0,0:0:0:0:
109,192,147388,1,0,0:0:0:0:
329,192,147609,1,0,0:0:0:0:
475,192,147609,1,0,0:0:0:0:
182,192,147831,1,0,0:0:0:0:
402,192,147831,1,0,0:0:0:0:
36,192,148053,1,0,0:0:0:0:
329,192,148053,1,0,0:0:0:0:
402,192,148274,1,0,0:0:0:0:
256,192,148274,1,0,0:0:0:0:
475,192,148496,1,0,0:0:0:0:
182,192,148496,1,0,0:0:0:0:
36,192,148718,1,0,0:0:0:0:
256,192,148718,1,0,0:0:0:0:
329,192,148940,1,0,0:0:0:0:
109,192,148940,1,0,0:0:0:0:
402,192,149162,1,0,0:0:0:0:
182,192,149162,1,0,0:0:0:0:
475,192,149384,1,0,0:0:0:0:
256,192,149384,1,0,0:0:0:0:
402,192,149828,1,0,0:0:0:0:
329,192,150272,1,0,0:0:0:0:
36,192,150272,1,0,0:0:0:0:
182,192,150502,1,0,0:0:0:0:
475,192,150733,1,0,0:0:0:0:
36,192,150733,1,0,0:0:0:0:
256,192,150963,1,0,0:0:0:0:
109,192,151194,1,0,0:0:0:0:
402,192,151194,1,0,0:0:0:0:
109,192,151655,1,0,0:0:0:0:
329,192,151655,1,0,0:0:0:0:
256,192,152116,1,0,0:0:0:0:
475,192,152116,1,0,0:0:0:0:
36,192,152116,128,0,153960:0:0:0:0:
109,192,152346,128,0,153960:0:0:0:0:
182,192,152577,128,0,153960:0:0:0:0:
256,192,152807,128,0,153960:0:0:0:0:
475,192,153960,128,0,155815:0:0:0:0:
402,192,154191,128,0,155815:0:0:0:0:
329,192,154423,128,0,155815:0:0:0:0:
256,192,154655,128,0,155815:0:0:0:0:
109,192,155815,128,0,157658:0:0:0:0:
182,192,156045,128,0,157658:0:0:0:0:
256,192,156275,128,0,157658:0:0:0:0:
329,192,156506,128,0,157658:0:0:0:0:
402,192,157658,128,0,159504:0:0:0:0:
329,192,157888,128,0,159504:0:0:0:0:
256,192,158119,128,0,159504:0:0:0:0:
182,192,158350,128,0,159504:0:0:0:0:
36,192,159504,128,0,161347:0:0:0:0:
475,192,159504,1,0,0:0:0:0:
109,192,159734,128,0,161347:0:0:0:0:
329,192,159734,1,0,0:0:0:0:
402,192,159849,1,0,0:0:0:0:
182,192,159964,128,0,161347:0:0:0:0:
475,192,159964,1,0,0:0:0:0:
256,192,160195,128,0,161347:0:0:0:0:
402,192,160195,1,0,0:0:0:0:
329,192,160425,1,0,0:0:0:0:
402,192,160655,1,0,0:0:0:0:
475,192,160732,1,0,0:0:0:0:
402,192,160809,1,0,0:0:0:0:
329,192,160886,1,0,0:0:0:0:
402,192,161116,1,0,0:0:0:0:
329,192,161347,1,0,0:0:0:0:
475,192,161347,128,0,163189:0:0:0:0:
402,192,161577,128,0,163189:0:0:0:0:
36,192,161577,1,0,0:0:0:0:
109,192,161692,1,0,0:0:0:0:
329,192,161807,128,0,163189:0:0:0:0:
182,192,161807,1,0,0:0:0:0:
182,192,162037,1,0,0:0:0:0:
109,192,162153,1,0,0:0:0:0:
256,192,162268,128,0,163189:0:0:0:0:
36,192,162268,1,0,0:0:0:0:
36,192,162498,1,0,0:0:0:0:
109,192,162613,1,0,0:0:0:0:
182,192,162728,1,0,0:0:0:0:
109,192,162959,1,0,0:0:0:0:
36,192,163189,128,0,165040:0:0:0:0:
182,192,163189,128,0,163420:0:0:0:0:
109,192,163420,128,0,165040:0:0:0:0:
256,192,163651,128,0,164809:0:0:0:0:
182,192,163651,128,0,163883:0:0:0:0:
329,192,163883,128,0,165040:0:0:0:0:
182,192,164114,128,0,164346:0:0:0:0:
182,192,164577,128,0,164809:0:0:0:0:
256,192,165040,128,0,166893:0:0:0:0:
182,192,165271,128,0,166893:0:0:0:0:
109,192,165503,128,0,166893:0:0:0:0:
36,192,165735,128,0,166893:0:0:0:0:
475,192,166893,128,0,168734:0:0:0:0:
329,192,166893,1,0,0:0:0:0:
402,192,167123,128,0,168734:0:0:0:0:
182,192,167123,1,0,0:0:0:0:
256,192,167238,1,0,0:0:0:0:
329,192,167353,128,0,168734:0:0:0:0:
36,192,167353,1,0,0:0:0:0:
256,192,167583,128,0,168734:0:0:0:0:
109,192,167583,1,0,0:0:0:0:
182,192,167813,1,0,0:0:0:0:
36,192,168043,1,0,0:0:0:0:
109,192,168120,1,0,0:0:0:0:
182,192,168197,1,0,0:0:0:0:
36,192,168273,1,0,0:0:0:0:
109,192,168504,1,0,0:0:0:0:
182,192,168734,1,0,0:0:0:0:
36,192,168734,128,0,170583:0:0:0:0:
109,192,168965,128,0,170583:0:0:0:0:
475,192,168965,1,0,0:0:0:0:
402,192,169080,1,0,0:0:0:0:
182,192,169196,128,0,170583:0:0:0:0:
329,192,169196,1,0,0:0:0:0:
256,192,169427,128,0,170583:0:0:0:0:
329,192,169427,1,0,0:0:0:0:
402,192,169543,1,0,0:0:0:0:
475,192,169658,1,0,0:0:0:0:
475,192,169890,1,0,0:0:0:0:
402,192,170005,1,0,0:0:0:0:
329,192,170121,1,0,0:0:0:0:
402,192,170352,1,0,0:0:0:0:
475,192,170583,128,0,172421:0:0:0:0:
329,192,170583,128,0,170812:0:0:0:0:
402,192,170812,128,0,172421:0:0:0:0:
329,192,171042,128,0,171272:0:0:0:0:
256,192,171042,128,0,172191:0:0:0:0:
182,192,171272,128,0,172421:0:0:0:0:
329,192,171502,128,0,171731:0:0:0:0:
329,192,171961,128,0,172191:0:0:0:0:
256,192,172421,128,0,173923:0:0:0:0:
329,192,172652,128,0,174270:0:0:0:0:
402,192,172883,128,0,174270:0:0:0:0:
182,192,172883,1,0,0:0:0:0:
36,192,172960,128,0,174270:0:0:0:0:
475,192,173114,128,0,174270:0:0:0:0:
109,192,173345,128,0,174270:0:0:0:0:
182,192,173923,128,0,174270:0:0:0:0:
256,192,174270,128,0,175418:0:0:0:0:
182,192,174499,128,0,175647:0:0:0:0:
329,192,174729,128,0,175188:0:0:0:0:
109,192,174958,128,0,175877:0:0:0:0:
475,192,174958,128,0,176107:0:0:0:0:
402,192,175188,128,0,176107:0:0:0:0:
329,192,175418,128,0,176107:0:0:0:0:
256,192,175647,128,0,176107:0:0:0:0:
182,192,175877,128,0,176107:0:0:0:0:
109,192,176107,128,0,176571:0:0:0:0:
36,192,176107,128,0,177964:0:0:0:0:
329,192,176339,128,0,177964:0:0:0:0:
182,192,176571,128,0,177964:0:0:0:0:
256,192,176571,128,0,176919:0:0:0:0:
475,192,176803,128,0,177964:0:0:0:0:
402,192,177035,128,0,177384:0:0:0:0:
109,192,177500,128,0,177848:0:0:0:0:
256,192,177964,1,0,0:0:0:0:
402,192,177964,128,0,179811:0:0:0:0:
329,192,178040,128,0,178656:0:0:0:0:
182,192,178194,128,0,179811:0:0:0:0:
109,192,178425,128,0,179811:0:0:0:0:
36,192,178656,128,0,179811:0:0:0:0:
256,192,178656,128,0,179811:0:0:0:0:
329,192,178887,128,0,179811:0:0:0:0:
475,192,179811,128,0,181655:0:0:0:0:
402,192,180041,128,0,181655:0:0:0:0:
329,192,180272,128,0,181655:0:0:0:0:
36,192,180272,128,0,181655:0:0:0:0:
256,192,180502,128,0,181194:0:0:0:0:
182,192,180733,1,0,0:0:0:0:
109,192,180848,128,0,181655:0:0:0:0:
182,192,181194,128,0,181655:0:0:0:0:
256,192,181655,128,0,183504:0:0:0:0:
329,192,181886,128,0,183504:0:0:0:0:
182,192,182117,128,0,183041:0:0:0:0:
36,192,182117,1,0,0:0:0:0:
402,192,182348,128,0,183504:0:0:0:0:
36,192,182348,128,0,182579:0:0:0:0:
36,192,182810,128,0,183041:0:0:0:0:
475,192,183041,128,0,183504:0:0:0:0:
182,192,183388,1,0,0:0:0:0:
109,192,183446,1,0,0:0:0:0:
36,192,183504,128,0,185343:0:0:0:0:
109,192,183733,128,0,185343:0:0:0:0:
182,192,183963,128,0,185343:0:0:0:0:
256,192,184193,128,0,184883:0:0:0:0:
475,192,184423,128,0,185343:0:0:0:0:
402,192,184768,128,0,185343:0:0:0:0:
256,192,185113,128,0,185343:0:0:0:0:
329,192,185343,128,0,187193:0:0:0:0:
256,192,185574,128,0,187193:0:0:0:0:
475,192,185805,128,0,187193:0:0:0:0:
182,192,185805,128,0,187193:0:0:0:0:
402,192,186036,128,0,187193:0:0:0:0:
109,192,186036,128,0,187193:0:0:0:0:
36,192,187193,128,0,189243:0:0:0:0:
109,192,187944,128,0,189243:0:0:0:0:
256,192,188218,128,0,189243:0:0:0:0:
182,192,188218,128,0,189243:0:0:0:0:
329,192,188628,128,0,189243:0:0:0:0:
475,192,189106,128,0,189243:0:0:0:0:
109,192,189380,1,0,0:0:0:0:
182,192,189380,1,0,0:0:0:0:
329,192,189380,1,0,0:0:0:0:
402,192,189380,1,4,0:0:0:0:
36,192,189380,128,2,189661:2:2:0:0:
475,192,189380,128,2,189661:2:2:0:0:
256,192,189473,1,0,0:0:0:0:
182,192,189567,1,0,0:0:0:0:
329,192,189661,1,0,0:0:0:0:
475,192,189755,1,0,0:0:0:0:
36,192,189755,1,0,0:0:0:0:
182,192,189755,1,0,0:0:0:0:
36,192,189943,128,2,190224:2:2:0:0:
475,192,189943,128,2,190224:2:2:0:0:
256,192,189943,1,0,0:0:0:0:
109,192,189943,1,0,0:0:0:0:
402,192,190037,1,0,0:0:0:0:
329,192,190131,128,0,190224:0:0:0:0:
182,192,190131,128,0,190224:0:0:0:0:
109,192,190131,1,0,0:0:0:0:
256,192,190131,1,0,0:0:0:0:
402,192,190224,1,0,0:0:0:0:
329,192,190318,1,0,0:0:0:0:
182,192,190318,1,0,0:0:0:0:
36,192,190506,128,2,190788:2:2:0:0:
475,192,190506,128,2,190788:2:2:0:0:
182,192,190506,1,0,0:0:0:0:
329,192,190506,1,0,0:0:0:0:
109,192,190694,128,0,190788:0:0:0:0:
402,192,190694,128,0,190788:0:0:0:0:
329,192,190694,1,0,0:0:0:0:
256,192,190788,1,0,0:0:0:0:
182,192,190882,1,0,0:0:0:0:
109,192,190882,1,0,0:0:0:0:
402,192,190882,1,0,0:0:0:0:
475,192,191068,128,2,191347:2:2:0:0:
36,192,191068,128,2,191347:2:2:0:0:
256,192,191068,1,0,0:0:0:0:
182,192,191068,1,0,0:0:0:0:
329,192,191161,1,0,0:0:0:0:
402,192,191254,1,0,0:0:0:0:
109,192,191254,1,0,0:0:0:0:
256,192,191254,128,0,191347:0:0:0:0:
182,192,191347,1,0,0:0:0:0:
402,192,191440,1,0,0:0:0:0:
256,192,191440,1,0,0:0:0:0:
109,192,191502,1,0,0:0:0:0:
329,192,191565,1,0,0:0:0:0:
36,192,191627,128,2,191906:2:2:0:0:
475,192,191627,128,2,191906:2:2:0:0:
182,192,191627,1,0,0:0:0:0:
256,192,191627,1,0,0:0:0:0:
402,192,191720,1,0,0:0:0:0:
329,192,191813,128,0,191906:0:0:0:0:
182,192,191813,128,0,191906:0:0:0:0:
109,192,191906,1,0,0:0:0:0:
36,192,191999,128,2,192279:2:2:0:0:
475,192,191999,128,2,192279:2:2:0:0:
256,192,191999,1,0,0:0:0:0:
402,192,191999,1,0,0:0:0:0:
109,192,192092,1,0,0:0:0:0:
182,192,192185,128,0,192279:0:0:0:0:
329,192,192185,128,0,192279:0:0:0:0:
402,192,192279,1,0,0:0:0:0:
256,192,192372,1,0,0:0:0:0:
475,192,192372,1,0,0:0:0:0:
182,192,192372,128,2,192646:2:2:0:0:
36,192,192372,128,2,192646:2:2:0:0:
109,192,192372,1,0,0:0:0:0:
256,192,192554,128,0,192646:0:0:0:0:
475,192,192554,128,0,192646:0:0:0:0:
402,192,192646,1,0,0:0:0:0:
329,192,192737,1,0,0:0:0:0:
36,192,192920,128,2,193195:2:2:0:0:
182,192,192920,128,2,193195:2:2:0:0:
256,192,192920,1,0,0:0:0:0:
475,192,192920,1,0,0:0:0:0:
402,192,192920,1,0,0:0:0:0:
329,192,193012,1,0,0:0:0:0:
475,192,193103,1,0,0:0:0:0:
256,192,193195,1,0,0:0:0:0:
329,192,193286,1,0,0:0:0:0:
475,192,193286,1,0,0:0:0:0:
182,192,193286,1,0,0:0:0:0:
36,192,193286,1,0,0:0:0:0:
182,192,193469,128,2,193744:2:2:0:0:
36,192,193469,128,2,193744:2:2:0:0:
256,192,193469,1,0,0:0:0:0:
402,192,193469,1,0,0:0:0:0:
329,192,193652,128,0,193744:0:0:0:0:
475,192,193652,128,0,193744:0:0:0:0:
256,192,193744,1,0,0:0:0:0:
402,192,193835,1,0,0:0:0:0:
109,192,193835,1,0,0:0:0:0:
182,192,193835,1,0,0:0:0:0:
475,192,193835,1,0,0:0:0:0:
36,192,194016,128,2,194287:2:2:0:0:
182,192,194016,128,2,194287:2:2:0:0:
329,192,194016,1,0,0:0:0:0:
402,192,194016,1,0,0:0:0:0:
256,192,194106,1,0,0:0:0:0:
402,192,194197,128,0,194287:0:0:0:0:
475,192,194197,128,0,194287:0:0:0:0:
329,192,194287,1,0,0:0:0:0:
256,192,194378,1,0,0:0:0:0:
182,192,194378,1,0,0:0:0:0:
36,192,194378,1,0,0:0:0:0:
109,192,194378,1,0,0:0:0:0:
329,192,194438,1,0,0:0:0:0:
402,192,194498,1,0,0:0:0:0:
36,192,194559,128,2,194830:2:2:0:0:
182,192,194559,128,2,194830:2:2:0:0:
475,192,194559,1,0,0:0:0:0:
256,192,194559,1,0,0:0:0:0:
109,192,194559,1,0,0:0:0:0:
329,192,194649,1,0,0:0:0:0:
402,192,194740,128,0,194830:0:0:0:0:
475,192,194740,128,0,194830:0:0:0:0:
256,192,194830,1,0,0:0:0:0:
182,192,194921,128,2,195192:2:2:0:0:
36,192,194921,128,2,195192:2:2:0:0:
329,192,194921,1,0,0:0:0:0:
402,192,194921,1,0,0:0:0:0:
475,192,194921,1,0,0:0:0:0:
256,192,195011,1,0,0:0:0:0:
329,192,195102,128,0,195192:0:0:0:0:
475,192,195102,128,0,195192:0:0:0:0:
256,192,195192,1,0,0:0:0:0:
329,192,195283,128,2,195547:2:2:0:0:
475,192,195283,128,2,195547:2:2:0:0:
182,192,195283,1,0,0:0:0:0:
109,192,195283,1,0,0:0:0:0:
36,192,195283,1,0,0:0:0:0:
36,192,195459,128,0,195547:0:0:0:0:
182,192,195459,128,0,195547:0:0:0:0:
256,192,195547,1,0,0:0:0:0:
475,192,195635,1,0,0:0:0:0:
329,192,195635,1,0,0:0:0:0:
475,192,195811,128,2,196075:2:2:0:0:
329,192,195811,128,2,196075:2:2:0:0:
36,192,195811,1,0,0:0:0:0:
109,192,195811,1,0,0:0:0:0:
182,192,195899,1,0,0:0:0:0:
256,192,195987,1,0,0:0:0:0:
36,192,195987,1,0,0:0:0:0:
109,192,196075,1,0,0:0:0:0:
182,192,196163,1,0,0:0:0:0:
256,192,196163,1,0,0:0:0:0:
402,192,196163,1,0,0:0:0:0:
475,192,196163,1,0,0:0:0:0:
329,192,196339,128,2,196604:2:2:0:0:
475,192,196339,128,2,196604:2:2:0:0:
109,192,196339,1,0,0:0:0:0:
182,192,196339,1,0,0:0:0:0:
36,192,196516,128,0,196604:0:0:0:0:
109,192,196516,128,0,196604:0:0:0:0:
256,192,196604,1,0,0:0:0:0:
182,192,196692,1,0,0:0:0:0:
109,192,196692,1,0,0:0:0:0:
329,192,196692,1,0,0:0:0:0:
402,192,196692,1,0,0:0:0:0:
475,192,196869,128,2,197136:2:2:0:0:
329,192,196869,128,2,197136:2:2:0:0:
36,192,196869,1,0,0:0:0:0:
256,192,196869,1,0,0:0:0:0:
109,192,196958,1,0,0:0:0:0:
256,192,197047,1,0,0:0:0:0:
182,192,197136,1,0,0:0:0:0:
36,192,197225,1,0,0:0:0:0:
329,192,197225,1,0,0:0:0:0:
475,192,197225,1,0,0:0:0:0:
109,192,197225,1,0,0:0:0:0:
182,192,197284,1,0,0:0:0:0:
256,192,197343,1,0,0:0:0:0:
329,192,197403,128,2,197669:2:2:0:0:
475,192,197403,128,2,197669:2:2:0:0:
36,192,197403,1,0,0:0:0:0:
402,192,197403,1,0,0:0:0:0:
109,192,197403,1,0,0:0:0:0:
182,192,197492,1,0,0:0:0:0:
256,192,197580,128,0,197669:0:0:0:0:
36,192,197580,128,0,197669:0:0:0:0:
109,192,197669,1,0,0:0:0:0:
475,192,197758,128,2,198025:2:2:0:0:
329,192,197758,128,2,198025:2:2:0:0:
36,192,197758,1,0,0:0:0:0:
182,192,197758,1,0,0:0:0:0:
256,192,197758,1,0,0:0:0:0:
36,192,197936,128,0,198025:0:0:0:0:
182,192,197936,128,0,198025:0:0:0:0:
256,192,198025,1,0,0:0:0:0:
36,192,198114,128,0,199499:0:0:0:0:
475,192,198114,128,0,199499:0:0:0:0:
329,192,198114,1,0,0:0:0:0:
402,192,198114,128,2,198373:2:2:0:0:
109,192,198114,128,2,198373:2:2:0:0:
182,192,198171,1,0,0:0:0:0:
256,192,198287,1,0,0:0:0:0:
329,192,198373,1,0,0:0:0:0:
256,192,198460,1,0,0:0:0:0:
109,192,198633,128,2,198893:2:2:0:0:
402,192,198633,128,2,198893:2:2:0:0:
329,192,198633,1,0,0:0:0:0:
182,192,198633,1,0,0:0:0:0:
256,192,198719,1,0,0:0:0:0:
329,192,198806,1,0,0:0:0:0:
182,192,198806,1,0,0:0:0:0:
256,192,198893,1,0,0:0:0:0:
109,192,198979,1,0,0:0:0:0:
402,192,198979,1,0,0:0:0:0:
109,192,199152,128,2,199412:2:2:0:0:
402,192,199152,128,2,199412:2:2:0:0:
182,192,199152,1,0,0:0:0:0:
329,192,199152,1,0,0:0:0:0:
182,192,199325,1,0,0:0:0:0:
256,192,199325,1,0,0:0:0:0:
329,192,199412,1,0,0:0:0:0:
402,192,199499,1,0,0:0:0:0:
109,192,199499,1,0,0:0:0:0:
182,192,199499,1,0,0:0:0:0:
109,192,199673,128,2,199934:2:2:0:0:
402,192,199673,128,2,199934:2:2:0:0:
475,192,199673,1,0,0:0:0:0:
36,192,199673,1,0,0:0:0:0:
182,192,199760,1,0,0:0:0:0:
329,192,199760,1,0,0:0:0:0:
256,192,199847,128,0,199934:0:0:0:0:
475,192,199934,1,0,0:0:0:0:
329,192,200021,1,0,0:0:0:0:
256,192,200079,1,0,0:0:0:0:
182,192,200137,1,0,0:0:0:0:
109,192,200195,128,2,200456:2:2:0:0:
402,192,200195,128,2,200456:2:2:0:0:
36,192,200195,1,0,0:0:0:0:
329,192,200195,1,0,0:0:0:0:
475,192,200195,1,0,0:0:0:0:
256,192,200282,1,0,0:0:0:0:
182,192,200369,1,0,0:0:0:0:
475,192,200369,1,0,0:0:0:0:
329,192,200456,1,0,0:0:0:0:
256,192,200543,128,2,200717:2:2:0:0:
36,192,200543,1,2,2:2:0:0:
475,192,200543,1,0,0:0:0:0:
402,192,200572,1,0,0:0:0:0:
329,192,200601,1,0,0:0:0:0:
182,192,200630,1,0,0:0:0:0:
109,192,200659,1,0,0:0:0:0:
36,192,200688,1,0,0:0:0:0:
475,192,200717,1,0,0:0:0:0:
402,192,200746,1,0,0:0:0:0:
329,192,200775,1,0,0:0:0:0:
256,192,200804,1,0,0:0:0:0:
182,192,200834,1,0,0:0:0:0:
109,192,200863,1,0,0:0:0:0:
36,192,200892,1,4,0:0:0:0:
329,192,200892,1,4,0:0:0:0:
402,192,200892,128,2,201149:2:2:0:0:
475,192,200892,128,2,201149:2:2:0:0:
182,192,201063,1,0,0:0:0:0:
256,192,201149,1,0,0:0:0:0:
329,192,201235,1,0,0:0:0:0:
402,192,201235,1,0,0:0:0:0:
36,192,201235,1,0,0:0:0:0:
109,192,201235,1,0,0:0:0:0:
475,192,201407,128,2,201665:2:2:0:0:
402,192,201407,128,2,201665:2:2:0:0:
182,192,201407,1,0,0:0:0:0:
329,192,201407,1,0,0:0:0:0:
109,192,201493,1,0,0:0:0:0:
36,192,201579,1,0,0:0:0:0:
256,192,201579,1,0,0:0:0:0:
109,192,201751,1,0,0:0:0:0:
182,192,201837,1,0,0:0:0:0:
402,192,201923,128,2,202181:2:2:0:0:
475,192,201923,128,2,202181:2:2:0:0:
256,192,201923,1,0,0:0:0:0:
329,192,201923,1,0,0:0:0:0:
36,192,201923,1,0,0:0:0:0:
109,192,201923,1,0,0:0:0:0:
182,192,202095,1,0,0:0:0:0:
109,192,202181,1,0,0:0:0:0:
36,192,202267,1,0,0:0:0:0:
329,192,202267,1,0,0:0:0:0:
402,192,202435,128,2,202688:2:2:0:0:
475,192,202435,128,2,202688:2:2:0:0:
182,192,202435,1,0,0:0:0:0:
256,192,202435,1,0,0:0:0:0:
109,192,202519,1,0,0:0:0:0:
36,192,202604,1,0,0:0:0:0:
329,192,202604,1,0,0:0:0:0:
256,192,202604,1,0,0:0:0:0:
182,192,202688,1,0,0:0:0:0:
109,192,202772,1,0,0:0:0:0:
36,192,202772,1,0,0:0:0:0:
402,192,202772,1,0,0:0:0:0:
329,192,202828,1,0,0:0:0:0:
256,192,202884,1,0,0:0:0:0:
475,192,202941,128,2,203193:2:2:0:0:
402,192,202941,128,2,203193:2:2:0:0:
182,192,202941,1,0,0:0:0:0:
109,192,202941,1,0,0:0:0:0:
36,192,203025,1,0,0:0:0:0:
182,192,203109,1,0,0:0:0:0:
256,192,203109,1,0,0:0:0:0:
329,192,203193,1,0,0:0:0:0:
402,192,203278,128,2,203531:2:2:0:0:
475,192,203278,128,2,203531:2:2:0:0:
109,192,203278,1,0,0:0:0:0:
36,192,203278,1,0,0:0:0:0:
182,192,203278,1,0,0:0:0:0:
182,192,203446,1,0,0:0:0:0:
256,192,203446,1,0,0:0:0:0:
329,192,203531,1,0,0:0:0:0:
109,192,203615,128,2,203865:2:2:0:0:
36,192,203615,128,2,203865:2:2:0:0:
402,192,203615,1,0,0:0:0:0:
475,192,203615,1,0,0:0:0:0:
182,192,203615,1,0,0:0:0:0:
329,192,203782,1,0,0:0:0:0:
256,192,203865,1,0,0:0:0:0:
182,192,203949,1,0,0:0:0:0:
402,192,203949,1,0,0:0:0:0:
475,192,203949,1,0,0:0:0:0:
109,192,203949,1,0,0:0:0:0:
109,192,204116,128,2,204367:2:2:0:0:
36,192,204116,128,2,204367:2:2:0:0:
329,192,204116,1,0,0:0:0:0:
402,192,204116,1,0,0:0:0:0:
256,192,204199,1,0,0:0:0:0:
182,192,204283,1,0,0:0:0:0:
475,192,204283,1,0,0:0:0:0:
256,192,204450,1,0,0:0:0:0:
329,192,204534,1,0,0:0:0:0:
109,192,204617,128,2,204868:2:2:0:0:
36,192,204617,128,2,204868:2:2:0:0:
402,192,204617,1,0,0:0:0:0:
475,192,204617,1,0,0:0:0:0:
182,192,204617,1,0,0:0:0:0:
256,192,204617,1,0,0:0:0:0:
329,192,204784,1,0,0:0:0:0:
402,192,204784,1,0,0:0:0:0:
256,192,204868,1,0,0:0:0:0:
182,192,204952,1,0,0:0:0:0:
475,192,204952,1,0,0:0:0:0:
402,192,204952,1,0,0:0:0:0:
109,192,205118,128,2,205367:2:2:0:0:
36,192,205118,128,2,205367:2:2:0:0:
182,192,205118,1,0,0:0:0:0:
475,192,205118,1,0,0:0:0:0:
256,192,205201,1,0,0:0:0:0:
329,192,205284,1,0,0:0:0:0:
475,192,205284,1,0,0:0:0:0:
182,192,205284,1,0,0:0:0:0:
402,192,205367,1,0,0:0:0:0:
256,192,205450,1,0,0:0:0:0:
329,192,205506,1,0,0:0:0:0:
402,192,205561,1,0,0:0:0:0:
36,192,205616,128,2,205866:2:2:0:0:
109,192,205616,128,2,205866:2:2:0:0:
475,192,205616,1,0,0:0:0:0:
182,192,205616,1,0,0:0:0:0:
256,192,205616,1,0,0:0:0:0:
329,192,205699,1,0,0:0:0:0:
402,192,205783,1,0,0:0:0:0:
475,192,205783,1,0,0:0:0:0:
256,192,205866,1,0,0:0:0:0:
109,192,205949,128,2,206198:2:2:0:0:
36,192,205949,128,2,206198:2:2:0:0:
329,192,205949,1,0,0:0:0:0:
402,192,205949,1,0,0:0:0:0:
475,192,205949,1,0,0:0:0:0:
182,192,206032,1,0,0:0:0:0:
256,192,206115,1,0,0:0:0:0:
475,192,206198,1,0,0:0:0:0:
402,192,206281,128,2,206528:2:2:0:0:
329,192,206281,128,2,206528:2:2:0:0:
182,192,206281,1,0,0:0:0:0:
36,192,206281,1,0,0:0:0:0:
109,192,206281,1,0,0:0:0:0:
256,192,206445,1,0,0:0:0:0:
182,192,206528,1,0,0:0:0:0:
109,192,206610,1,0,0:0:0:0:
36,192,206610,1,0,0:0:0:0:
475,192,206610,1,0,0:0:0:0:
402,192,206610,1,0,0:0:0:0:
329,192,206775,128,2,207022:2:2:0:0:
402,192,206775,128,2,207022:2:2:0:0:
182,192,206775,1,0,0:0:0:0:
256,192,206858,1,0,0:0:0:0:
36,192,206940,1,0,0:0:0:0:
109,192,206940,1,0,0:0:0:0:
475,192,206940,1,0,0:0:0:0:
256,192,207105,1,0,0:0:0:0:
182,192,207187,1,0,0:0:0:0:
402,192,207270,128,2,207517:2:2:0:0:
329,192,207270,128,2,207517:2:2:0:0:
109,192,207270,1,0,0:0:0:0:
36,192,207270,1,0,0:0:0:0:
475,192,207270,1,0,0:0:0:0:
256,192,207435,1,0,0:0:0:0:
36,192,207435,1,0,0:0:0:0:
109,192,207517,1,0,0:0:0:0:
182,192,207600,1,0,0:0:0:0:
256,192,207600,1,0,0:0:0:0:
475,192,207600,1,0,0:0:0:0:
329,192,207763,128,2,208008:2:2:0:0:
402,192,207763,128,2,208008:2:2:0:0:
36,192,207763,1,0,0:0:0:0:
182,192,207763,1,0,0:0:0:0:
256,192,207845,1,0,0:0:0:0:
475,192,207926,1,0,0:0:0:0:
109,192,207926,1,0,0:0:0:0:
36,192,207926,1,0,0:0:0:0:
182,192,208008,1,0,0:0:0:0:
256,192,208008,1,0,0:0:0:0:
329,192,208090,1,0,0:0:0:0:
402,192,208090,1,0,0:0:0:0:
36,192,208144,1,0,0:0:0:0:
109,192,208199,1,0,0:0:0:0:
402,192,208253,128,2,208499:2:2:0:0:
329,192,208253,128,2,208499:2:2:0:0:
182,192,208253,1,0,0:0:0:0:
256,192,208253,1,0,0:0:0:0:
475,192,208253,1,0,0:0:0:0:
36,192,208335,1,0,0:0:0:0:
109,192,208417,1,0,0:0:0:0:
182,192,208417,1,0,0:0:0:0:
256,192,208499,1,0,0:0:0:0:
329,192,208580,128,2,208826:2:2:0:0:
402,192,208580,128,2,208826:2:2:0:0:
475,192,208580,1,0,0:0:0:0:
36,192,208580,1,0,0:0:0:0:
109,192,208580,1,0,0:0:0:0:
182,192,208662,1,0,0:0:0:0:
256,192,208744,1,0,0:0:0:0:
36,192,208744,1,0,0:0:0:0:
475,192,208826,1,0,0:0:0:0:
182,192,208907,128,2,209153:2:2:0:0:
109,192,208907,128,2,209153:2:2:0:0:
402,192,208907,1,0,0:0:0:0:
329,192,208907,1,0,0:0:0:0:
256,192,208907,1,0,0:0:0:0:
475,192,208961,1,0,0:0:0:0:
256,192,209071,1,0,0:0:0:0:
329,192,209153,1,0,0:0:0:0:
402,192,209235,1,0,0:0:0:0:
475,192,209235,1,0,0:0:0:0:
109,192,209235,1,0,0:0:0:0:
36,192,209235,1,0,0:0:0:0:
182,192,209400,128,2,209646:2:2:0:0:
109,192,209400,128,2,209646:2:2:0:0:
256,192,209400,1,0,0:0:0:0:
475,192,209400,1,0,0:0:0:0:
402,192,209482,1,0,0:0:0:0:
329,192,209564,1,0,0:0:0:0:
256,192,209564,1,0,0:0:0:0:
402,192,209646,1,0,0:0:0:0:
475,192,209728,1,0,0:0:0:0:
36,192,209728,1,0,0:0:0:0:
109,192,209893,128,2,210139:2:2:0:0:
182,192,209893,128,2,210139:2:2:0:0:
256,192,209893,1,0,0:0:0:0:
402,192,209893,1,0,0:0:0:0:
475,192,209893,1,0,0:0:0:0:
329,192,209975,1,0,0:0:0:0:
475,192,210057,1,0,0:0:0:0:
402,192,210139,1,0,0:0:0:0:
329,192,210222,1,0,0:0:0:0:
256,192,210222,1,0,0:0:0:0:
36,192,210222,1,0,0:0:0:0:
109,192,210222,1,0,0:0:0:0:
402,192,210303,1,0,0:0:0:0:
475,192,210385,1,0,0:0:0:0:
256,192,210385,1,0,0:0:0:0:
182,192,210467,128,2,210713:2:2:0:0:
109,192,210467,128,2,210713:2:2:0:0:
329,192,210467,1,0,0:0:0:0:
402,192,210549,1,0,0:0:0:0:
475,192,210549,1,0,0:0:0:0:
36,192,210549,1,0,0:0:0:0:
256,192,210631,1,0,0:0:0:0:
329,192,210713,1,0,0:0:0:0:
402,192,210713,1,0,0:0:0:0:
36,192,210795,1,0,0:0:0:0:
109,192,210877,128,2,211123:2:2:0:0:
182,192,210877,128,2,211123:2:2:0:0:
256,192,210877,1,0,0:0:0:0:
329,192,210877,1,0,0:0:0:0:
475,192,210877,1,0,0:0:0:0:
402,192,210959,1,0,0:0:0:0:
256,192,211041,1,0,0:0:0:0:
329,192,211123,1,0,0:0:0:0:
36,192,211205,128,2,211369:2:2:0:0:
475,192,211205,128,2,211369:2:2:0:0:
402,192,211233,1,0,0:0:0:0:
329,192,211260,1,0,0:0:0:0:
256,192,211287,1,0,0:0:0:0:
182,192,211315,1,0,0:0:0:0:
109,192,211342,1,0,0:0:0:0:
402,192,211369,1,0,0:0:0:0:
329,192,211397,1,0,0:0:0:0:
256,192,211424,1,0,0:0:0:0:
182,192,211451,1,0,0:0:0:0:
109,192,211479,1,0,0:0:0:0:
36,192,211506,1,0,0:0:0:0:
329,192,211532,1,0,0:0:0:0:
402,192,211532,1,0,0:0:0:0:
475,192,211532,1,0,0:0:0:0:
256,192,211532,1,0,0:0:0:0:
182,192,211695,1,0,0:0:0:0:
182,192,211777,1,0,0:0:0:0:
36,192,211859,1,0,0:0:0:0:
329,192,211859,1,0,0:0:0:0:
475,192,211859,1,0,0:0:0:0:
402,192,211859,1,0,0:0:0:0:
109,192,211859,1,0,0:0:0:0:
182,192,212023,1,0,0:0:0:0:
256,192,212105,1,0,0:0:0:0:
36,192,212187,1,0,0:0:0:0:
329,192,212187,1,0,0:0:0:0:
475,192,212187,1,0,0:0:0:0:
109,192,212269,1,0,0:0:0:0:
182,192,212351,1,0,0:0:0:0:
36,192,212515,1,0,0:0:0:0:
329,192,212515,1,0,0:0:0:0:
475,192,212515,1,0,0:0:0:0:
109,192,212515,1,0,0:0:0:0:
182,192,212515,1,0,0:0:0:0:
256,192,212679,1,0,0:0:0:0:
402,192,212679,1,0,0:0:0:0:
182,192,212761,1,0,0:0:0:0:
36,192,212843,1,0,0:0:0:0:
109,192,212843,1,0,0:0:0:0:
329,192,212843,1,0,0:0:0:0:
256,192,213007,1,0,0:0:0:0:
402,192,213007,1,0,0:0:0:0:
36,192,213170,1,0,0:0:0:0:
329,192,213170,1,0,0:0:0:0:
475,192,213170,1,0,0:0:0:0:
182,192,213170,1,0,0:0:0:0:
109,192,213334,1,0,0:0:0:0:
182,192,213389,1,0,0:0:0:0:
256,192,213444,1,0,0:0:0:0:
36,192,213498,1,0,0:0:0:0:
329,192,213498,1,0,0:0:0:0:
402,192,213498,1,0,0:0:0:0:
109,192,213498,1,0,0:0:0:0:
182,192,213580,1,0,0:0:0:0:
256,192,213662,1,0,0:0:0:0:
475,192,213662,1,0,0:0:0:0:
402,192,213744,1,0,0:0:0:0:
36,192,213826,1,0,0:0:0:0:
329,192,213826,1,0,0:0:0:0:
182,192,213826,1,0,0:0:0:0:
109,192,213826,1,0,0:0:0:0:
256,192,213990,1,0,0:0:0:0:
402,192,213990,1,0,0:0:0:0:
475,192,214072,1,0,0:0:0:0:
36,192,214154,1,0,0:0:0:0:
329,192,214154,1,0,0:0:0:0:
182,192,214154,1,0,0:0:0:0:
256,192,214318,1,0,0:0:0:0:
402,192,214318,1,0,0:0:0:0:
402,192,214400,1,0,0:0:0:0:
36,192,214482,1,0,0:0:0:0:
329,192,214482,1,0,0:0:0:0:
475,192,214482,1,0,0:0:0:0:
182,192,214482,1,0,0:0:0:0:
109,192,214482,1,0,0:0:0:0:
256,192,214645,1,0,0:0:0:0:
182,192,214727,1,0,0:0:0:0:
36,192,214809,1,0,0:0:0:0:
109,192,214809,1,0,0:0:0:0:
329,192,214809,1,0,0:0:0:0:
475,192,214809,1,0,0:0:0:0:
182,192,214973,1,0,0:0:0:0:
402,192,214973,1,0,0:0:0:0:
36,192,215137,1,0,0:0:0:0:
256,192,215137,1,0,0:0:0:0:
475,192,215137,1,0,0:0:0:0:
329,192,215137,1,0,0:0:0:0:
109,192,215137,1,0,0:0:0:0:
402,192,215301,1,0,0:0:0:0:
329,192,215383,1,0,0:0:0:0:
36,192,215465,1,0,0:0:0:0:
256,192,215465,1,0,0:0:0:0:
182,192,215465,1,0,0:0:0:0:
475,192,215465,1,0,0:0:0:0:
256,192,215629,1,0,0:0:0:0:
402,192,215629,1,0,0:0:0:0:
36,192,215793,1,0,0:0:0:0:
329,192,215793,1,0,0:0:0:0:
475,192,215793,1,0,0:0:0:0:
109,192,215793,1,0,0:0:0:0:
182,192,215793,1,0,0:0:0:0:
256,192,215875,1,0,0:0:0:0:
402,192,215957,1,0,0:0:0:0:
329,192,216011,1,0,0:0:0:0:
256,192,216066,1,0,0:0:0:0:
36,192,216121,1,0,0:0:0:0:
182,192,216121,1,0,0:0:0:0:
109,192,216121,1,0,0:0:0:0:
402,192,216121,1,0,0:0:0:0:
475,192,216121,1,0,0:0:0:0:
329,192,216202,1,0,0:0:0:0:
256,192,216284,1,0,0:0:0:0:
109,192,216284,1,0,0:0:0:0:
475,192,216366,1,0,0:0:0:0:
36,192,216448,1,0,0:0:0:0:
402,192,216448,1,0,0:0:0:0:
329,192,216448,1,0,0:0:0:0:
182,192,216448,1,0,0:0:0:0:
256,192,216612,1,0,0:0:0:0:
329,192,216694,1,0,0:0:0:0:
36,192,216776,1,0,0:0:0:0:
402,192,216776,1,0,0:0:0:0:
475,192,216776,1,0,0:0:0:0:
182,192,216776,1,0,0:0:0:0:
256,192,216940,1,0,0:0:0:0:
109,192,216940,1,0,0:0:0:0:
256,192,217022,1,0,0:0:0:0:
36,192,217104,1,0,0:0:0:0:
182,192,217104,1,0,0:0:0:0:
329,192,217104,1,0,0:0:0:0:
475,192,217104,1,0,0:0:0:0:
256,192,217268,1,0,0:0:0:0:
402,192,217268,1,0,0:0:0:0:
182,192,217350,1,0,0:0:0:0:
36,192,217432,1,0,0:0:0:0:
109,192,217432,1,0,0:0:0:0:
329,192,217432,1,0,0:0:0:0:
475,192,217432,1,0,0:0:0:0:
182,192,217596,1,0,0:0:0:0:
402,192,217596,1,0,0:0:0:0:
36,192,217759,1,0,0:0:0:0:
256,192,217759,1,0,0:0:0:0:
475,192,217759,1,0,0:0:0:0:
329,192,217759,1,0,0:0:0:0:
182,192,217923,1,0,0:0:0:0:
329,192,218005,1,0,0:0:0:0:
36,192,218087,1,0,0:0:0:0:
475,192,218087,1,0,0:0:0:0:
402,192,218087,1,0,0:0:0:0:
256,192,218087,1,0,0:0:0:0:
109,192,218087,1,0,0:0:0:0:
182,192,218251,1,0,0:0:0:0:
329,192,218251,1,0,0:0:0:0:
36,192,218415,1,0,0:0:0:0:
256,192,218415,1,0,0:0:0:0:
109,192,218415,1,0,0:0:0:0:
475,192,218415,1,0,0:0:0:0:
182,192,218579,1,0,0:0:0:0:
402,192,218634,1,0,0:0:0:0:
109,192,218688,1,0,0:0:0:0:
36,192,218743,1,0,0:0:0:0:
256,192,218743,1,0,0:0:0:0:
329,192,218743,1,0,0:0:0:0:
475,192,218743,1,0,0:0:0:0:
182,192,218743,1,0,0:0:0:0:
402,192,218825,1,0,0:0:0:0:
109,192,218907,1,0,0:0:0:0:
182,192,218907,1,0,0:0:0:0:
256,192,218989,1,0,0:0:0:0:
36,192,219071,1,0,0:0:0:0:
329,192,219071,1,0,0:0:0:0:
475,192,219071,1,0,0:0:0:0:
402,192,219071,1,0,0:0:0:0:
109,192,219071,1,0,0:0:0:0:
256,192,219235,1,0,0:0:0:0:
329,192,219235,1,0,0:0:0:0:
182,192,219316,1,0,0:0:0:0:
36,192,219398,1,0,0:0:0:0:
109,192,219398,1,0,0:0:0:0:
402,192,219398,1,0,0:0:0:0:
475,192,219398,1,0,0:0:0:0:
329,192,219562,1,0,0:0:0:0:
182,192,219562,1,0,0:0:0:0:
329,192,219644,1,0,0:0:0:0:
36,192,219726,1,0,0:0:0:0:
256,192,219726,1,0,0:0:0:0:
109,192,219726,1,0,0:0:0:0:
402,192,219726,1,0,0:0:0:0:
475,192,219726,1,0,0:0:0:0:
182,192,219890,1,0,0:0:0:0:
109,192,219972,1,0,0:0:0:0:
36,192,220054,1,0,0:0:0:0:
256,192,220054,1,0,0:0:0:0:
402,192,220054,1,0,0:0:0:0:
475,192,220054,1,0,0:0:0:0:
182,192,220218,1,0,0:0:0:0:
329,192,220218,1,0,0:0:0:0:
402,192,220218,1,0,0:0:0:0:
36,192,220382,1,0,0:0:0:0:
109,192,220382,1,0,0:0:0:0:
256,192,220382,1,0,0:0:0:0:
329,192,220382,1,0,0:0:0:0:
182,192,220546,1,0,0:0:0:0:
256,192,220546,1,0,0:0:0:0:
329,192,220628,1,0,0:0:0:0:
36,192,220710,1,0,0:0:0:0:
402,192,220710,1,0,0:0:0:0:
475,192,220710,1,0,0:0:0:0:
109,192,220710,1,0,0:0:0:0:
182,192,220710,1,0,0:0:0:0:
256,192,220873,1,0,0:0:0:0:
36,192,221037,1,0,0:0:0:0:
329,192,221037,1,0,0:0:0:0:
475,192,221037,1,0,0:0:0:0:
182,192,221037,1,0,0:0:0:0:
402,192,221037,1,0,0:0:0:0:
256,192,221201,1,0,0:0:0:0:
475,192,221201,1,0,0:0:0:0:
402,192,221242,1,0,0:0:0:0:
329,192,221283,1,0,0:0:0:0:
182,192,221324,1,0,0:0:0:0:
36,192,221365,1,0,0:0:0:0:
256,192,221365,1,0,0:0:0:0:
109,192,221365,1,0,0:0:0:0:
402,192,221365,1,0,0:0:0:0:
475,192,221365,1,0,0:0:0:0:
329,192,221447,1,0,0:0:0:0:
182,192,221529,1,0,0:0:0:0:
256,192,221611,1,0,0:0:0:0:
36,192,221693,1,0,0:0:0:0:
329,192,221693,1,0,0:0:0:0:
475,192,221693,1,0,0:0:0:0:
402,192,221693,1,0,0:0:0:0:
109,192,221693,1,0,0:0:0:0:
256,192,221857,1,0,0:0:0:0:
182,192,221939,1,0,0:0:0:0:
36,192,222021,1,0,0:0:0:0:
109,192,222021,1,0,0:0:0:0:
402,192,222021,1,0,0:0:0:0:
475,192,222021,1,0,0:0:0:0:
182,192,222185,1,0,0:0:0:0:
329,192,222185,1,0,0:0:0:0:
182,192,222267,1,0,0:0:0:0:
36,192,222349,1,0,0:0:0:0:
109,192,222349,1,0,0:0:0:0:
329,192,222349,1,0,0:0:0:0:
475,192,222349,1,0,0:0:0:0:
402,192,222349,1,0,0:0:0:0:
256,192,222512,1,0,0:0:0:0:
329,192,222512,1,0,0:0:0:0:
109,192,222594,1,0,0:0:0:0:
36,192,222676,1,0,0:0:0:0:
182,192,222676,1,0,0:0:0:0:
256,192,222676,1,0,0:0:0:0:
402,192,222676,1,0,0:0:0:0:
329,192,222840,1,0,0:0:0:0:
475,192,222840,1,0,0:0:0:0:
182,192,222922,1,0,0:0:0:0:
36,192,223004,1,0,0:0:0:0:
256,192,223004,1,0,0:0:0:0:
402,192,223004,1,0,0:0:0:0:
109,192,223004,1,0,0:0:0:0:
475,192,223004,1,0,0:0:0:0:
329,192,223168,1,0,0:0:0:0:
256,192,223250,1,0,0:0:0:0:
36,192,223332,1,0,0:0:0:0:
182,192,223332,1,0,0:0:0:0:
109,192,223332,1,0,0:0:0:0:
402,192,223332,1,0,0:0:0:0:
329,192,223496,1,0,0:0:0:0:
402,192,223578,1,0,0:0:0:0:
36,192,223660,1,0,0:0:0:0:
475,192,223660,1,0,0:0:0:0:
256,192,223660,1,0,0:0:0:0:
182,192,223660,1,0,0:0:0:0:
109,192,223660,1,0,0:0:0:0:
475,192,223824,1,0,0:0:0:0:
402,192,223878,1,0,0:0:0:0:
329,192,223933,1,0,0:0:0:0:
36,192,223987,1,0,0:0:0:0:
256,192,223987,1,0,0:0:0:0:
182,192,223987,1,0,0:0:0:0:
475,192,223987,1,0,0:0:0:0:
402,192,224069,1,0,0:0:0:0:
329,192,224151,1,0,0:0:0:0:
182,192,224233,1,0,0:0:0:0:
36,192,224315,1,0,0:0:0:0:
256,192,224315,1,0,0:0:0:0:
402,192,224315,1,0,0:0:0:0:
475,192,224315,1,0,0:0:0:0:
109,192,224315,1,0,0:0:0:0:
329,192,224479,1,0,0:0:0:0:
256,192,224561,1,0,0:0:0:0:
36,192,224643,1,0,0:0:0:0:
182,192,224643,1,0,0:0:0:0:
109,192,224643,1,0,0:0:0:0:
402,192,224643,1,0,0:0:0:0:
109,192,224807,1,0,0:0:0:0:
329,192,224807,1,0,0:0:0:0:
109,192,224889,1,0,0:0:0:0:
36,192,224971,1,0,0:0:0:0:
182,192,224971,1,0,0:0:0:0:
475,192,224971,1,0,0:0:0:0:
256,192,224971,1,0,0:0:0:0:
402,192,225135,1,0,0:0:0:0:
109,192,225135,1,0,0:0:0:0:
329,192,225217,1,0,0:0:0:0:
36,192,225299,1,0,0:0:0:0:
256,192,225299,1,0,0:0:0:0:
182,192,225299,1,0,0:0:0:0:
475,192,225299,1,0,0:0:0:0:
329,192,225463,1,0,0:0:0:0:
109,192,225463,1,0,0:0:0:0:
402,192,225544,1,0,0:0:0:0:
36,192,225626,1,0,0:0:0:0:
475,192,225626,1,0,0:0:0:0:
256,192,225626,1,0,0:0:0:0:
182,192,225626,1,0,0:0:0:0:
329,192,225790,1,0,0:0:0:0:
109,192,225790,1,0,0:0:0:0:
475,192,225845,1,0,0:0:0:0:
256,192,225900,1,0,0:0:0:0:
36,192,225954,1,0,0:0:0:0:
402,192,225954,1,0,0:0:0:0:
182,192,225954,1,0,0:0:0:0:
109,192,225954,1,0,0:0:0:0:
329,192,225954,1,0,0:0:0:0:
256,192,226118,1,0,0:0:0:0:
329,192,226200,1,0,0:0:0:0:
36,192,226282,1,0,0:0:0:0:
402,192,226282,1,0,0:0:0:0:
475,192,226282,1,0,0:0:0:0:
109,192,226282,1,0,0:0:0:0:
182,192,226282,1,0,0:0:0:0:
329,192,226446,1,0,0:0:0:0:
256,192,226487,1,0,0:0:0:0:
182,192,226528,1,0,0:0:0:0:
109,192,226569,1,0,0:0:0:0:
36,192,226610,1,0,0:0:0:0:
329,192,226610,1,0,0:0:0:0:
402,192,226610,1,0,0:0:0:0:
475,192,226610,1,0,0:0:0:0:
256,192,226692,1,0,0:0:0:0:
182,192,226774,1,0,0:0:0:0:
402,192,226856,1,0,0:0:0:0:
36,192,226938,1,0,0:0:0:0:
329,192,226938,1,0,0:0:0:0:
256,192,226938,1,0,0:0:0:0:
109,192,226938,1,0,0:0:0:0:
475,192,226938,1,0,0:0:0:0:
182,192,227019,1,0,0:0:0:0:
402,192,227101,1,0,0:0:0:0:
109,192,227183,1,0,0:0:0:0:
36,192,227265,1,0,0:0:0:0:
329,192,227265,1,0,0:0:0:0:
475,192,227265,1,0,0:0:0:0:
256,192,227265,1,0,0:0:0:0:
182,192,227429,1,0,0:0:0:0:
256,192,227511,1,0,0:0:0:0:
36,192,227593,1,0,0:0:0:0:
329,192,227593,1,0,0:0:0:0:
402,192,227593,1,0,0:0:0:0:
475,192,227593,1,0,0:0:0:0:
109,192,227593,1,0,0:0:0:0:
256,192,227757,1,0,0:0:0:0:
329,192,227757,1,0,0:0:0:0:
109,192,227839,1,0,0:0:0:0:
36,192,227921,1,0,0:0:0:0:
182,192,227921,1,0,0:0:0:0:
256,192,227921,1,0,0:0:0:0:
475,192,227921,1,0,0:0:0:0:
109,192,228085,1,0,0:0:0:0:
182,192,228085,1,0,0:0:0:0:
402,192,228085,1,0,0:0:0:0:
402,192,228167,1,0,0:0:0:0:
36,192,228249,1,0,0:0:0:0:
109,192,228249,1,0,0:0:0:0:
475,192,228249,1,0,0:0:0:0:
256,192,228249,1,0,0:0:0:0:
329,192,228249,1,0,0:0:0:0:
182,192,228413,1,0,0:0:0:0:
256,192,228495,1,0,0:0:0:0:
36,192,228576,1,0,0:0:0:0:
329,192,228576,1,0,0:0:0:0:
475,192,228576,1,0,0:0:0:0:
109,192,228576,1,0,0:0:0:0:
256,192,228740,1,0,0:0:0:0:
402,192,228740,1,0,0:0:0:0:
109,192,228822,1,0,0:0:0:0:
36,192,228904,1,0,0:0:0:0:
182,192,228904,1,0,0:0:0:0:
329,192,228904,1,0,0:0:0:0:
475,192,228904,1,0,0:0:0:0:
402,192,228904,1,0,0:0:0:0:
256,192,229068,1,0,0:0:0:0:
182,192,229150,1,0,0:0:0:0:
36,192,229232,1,0,0:0:0:0:
109,192,229232,1,0,0:0:0:0:
329,192,229232,1,0,0:0:0:0:
475,192,229232,1,0,0:0:0:0:
182,192,229396,1,0,0:0:0:0:
329,192,229396,1,0,0:0:0:0:
256,192,229478,1,0,0:0:0:0:
402,192,229478,1,0,0:0:0:0:
36,192,229560,1,0,0:0:0:0:
329,192,229560,1,0,0:0:0:0:
475,192,229560,1,0,0:0:0:0:
109,192,229560,1,0,0:0:0:0:
402,192,229724,1,0,0:0:0:0:
256,192,229806,1,0,0:0:0:0:
36,192,229888,1,0,0:0:0:0:
109,192,229888,1,0,0:0:0:0:
329,192,229888,1,0,0:0:0:0:
475,192,229888,1,0,0:0:0:0:
182,192,229888,1,0,0:0:0:0:
256,192,230052,1,0,0:0:0:0:
329,192,230133,1,0,0:0:0:0:
36,192,230215,1,0,0:0:0:0:
402,192,230215,1,0,0:0:0:0:
475,192,230215,1,0,0:0:0:0:
109,192,230215,1,0,0:0:0:0:
182,192,230215,1,0,0:0:0:0:
256,192,230297,1,0,0:0:0:0:
329,192,230379,1,0,0:0:0:0:
475,192,230461,1,0,0:0:0:0:
36,192,230543,1,0,0:0:0:0:
402,192,230543,1,0,0:0:0:0:
256,192,230543,1,0,0:0:0:0:
109,192,230625,1,0,0:0:0:0:
182,192,230707,1,0,0:0:0:0:
329,192,230789,1,0,0:0:0:0:
36,192,230871,1,0,0:0:0:0:
256,192,230871,1,0,0:0:0:0:
109,192,230871,1,0,0:0:0:0:
402,192,230871,1,0,0:0:0:0:
475,192,230871,1,0,0:0:0:0:
182,192,230953,1,0,0:0:0:0:
329,192,231035,1,0,0:0:0:0:
109,192,231117,1,0,0:0:0:0:
256,192,231199,1,0,0:0:0:0:
402,192,231199,1,0,0:0:0:0:
475,192,231199,1,0,0:0:0:0:
36,192,231199,1,0,0:0:0:0:
182,192,231287,1,0,0:0:0:0:
329,192,231376,1,0,0:0:0:0:
109,192,231464,1,0,0:0:0:0:
256,192,231553,1,0,0:0:0:0:
475,192,231553,1,0,0:0:0:0:
402,192,231553,1,0,0:0:0:0:
36,192,231553,1,0,0:0:0:0:
182,192,231641,1,0,0:0:0:0:
109,192,231730,1,0,0:0:0:0:
329,192,231818,1,0,0:0:0:0:
256,192,231907,1,0,0:0:0:0:
182,192,231907,1,0,0:0:0:0:
36,192,231907,1,0,0:0:0:0:
475,192,231907,1,0,0:0:0:0:
402,192,231907,1,0,0:0:0:0:
109,192,231966,1,0,0:0:0:0:
329,192,232025,1,0,0:0:0:0:
182,192,232084,1,0,0:0:0:0:
36,192,232084,1,0,0:0:0:0:
402,192,232143,1,0,0:0:0:0:
256,192,232202,1,0,0:0:0:0:
475,192,232261,1,0,0:0:0:0:
329,192,232261,1,0,0:0:0:0:
109,192,232261,1,0,0:0:0:0:
36,192,232261,1,0,0:0:0:0:
182,192,232320,1,0,0:0:0:0:
402,192,232379,1,0,0:0:0:0:
256,192,232438,1,0,0:0:0:0:
36,192,232497,1,0,0:0:0:0:
182,192,232556,1,0,0:0:0:0:
475,192,232615,1,0,0:0:0:0:
109,192,232615,1,0,0:0:0:0:
329,192,232615,128,0,232990:0:0:0:0:
402,192,232615,1,0,0:0:0:0:
182,192,232740,128,0,233116:0:0:0:0:
256,192,232740,1,0,0:0:0:0:
36,192,232865,128,0,233241:0:0:0:0:
109,192,232865,1,0,0:0:0:0:
402,192,232990,128,0,233366:0:0:0:0:
475,192,232990,1,0,0:0:0:0:
256,192,233116,128,0,233366:0:0:0:0:
329,192,233116,1,0,0:0:0:0:
109,192,233241,128,0,233366:0:0:0:0:
182,192,233241,1,0,0:0:0:0:
475,192,233366,1,0,0:0:0:0:
36,192,233366,128,0,234118:0:0:0:0:
329,192,233366,128,0,233617:0:0:0:0:
402,192,233492,128,0,233742:0:0:0:0:
109,192,233617,128,0,234118:0:0:0:0:
475,192,233617,128,0,233868:0:0:0:0:
256,192,233617,128,0,233742:0:0:0:0:
329,192,233742,128,0,233868:0:0:0:0:
182,192,233868,128,0,234118:0:0:0:0:
402,192,233868,128,0,233993:0:0:0:0:
475,192,233993,128,0,234118:0:0:0:0:
329,192,234118,128,0,234494:0:0:0:0:
402,192,234118,1,0,0:0:0:0:
182,192,234244,128,0,234620:0:0:0:0:
256,192,234244,1,0,0:0:0:0:
36,192,234369,128,0,234745:0:0:0:0:
109,192,234369,1,0,0:0:0:0:
402,192,234494,128,0,234870:0:0:0:0:
475,192,234494,1,0,0:0:0:0:
256,192,234620,128,0,234870:0:0:0:0:
329,192,234620,1,0,0:0:0:0:
109,192,234745,128,0,234870:0:0:0:0:
182,192,234745,1,0,0:0:0:0:
475,192,234870,128,0,235246:0:0:0:0:
329,192,234964,128,0,235246:0:0:0:0:
182,192,234996,128,0,235246:0:0:0:0:
36,192,235121,128,0,235246:0:0:0:0:
256,192,235246,128,0,235622:0:0:0:0:
402,192,235309,1,0,0:0:0:0:
109,192,235371,1,0,0:0:0:0:
329,192,235434,1,0,0:0:0:0:
182,192,235497,1,0,0:0:0:0:
36,192,235559,1,0,0:0:0:0:
475,192,235622,1,0,0:0:0:0:
109,192,235622,1,0,0:0:0:0:
402,192,235622,128,0,235996:0:0:0:0:
329,192,235746,128,0,236121:0:0:0:0:
182,192,235871,128,0,236245:0:0:0:0:
109,192,235996,128,0,236370:0:0:0:0:
475,192,235996,128,0,236495:0:0:0:0:
36,192,236245,128,0,236620:0:0:0:0:
256,192,236245,128,0,236620:0:0:0:0:
329,192,236370,128,0,236620:0:0:0:0:
402,192,236495,128,0,236620:0:0:0:0:
182,192,236620,128,0,236745:0:0:0:0:
475,192,236620,128,0,237493:0:0:0:0:
36,192,236745,128,0,236869:0:0:0:0:
256,192,236869,128,0,236994:0:0:0:0:
402,192,236869,128,0,237493:0:0:0:0:
109,192,236994,128,0,237119:0:0:0:0:
329,192,237119,128,0,237493:0:0:0:0:
36,192,237119,128,0,237244:0:0:0:0:
182,192,237244,128,0,237368:0:0:0:0:
109,192,237368,128,0,237493:0:0:0:0:
256,192,237493,128,0,237618:0:0:0:0:
36,192,237493,128,0,237868:0:0:0:0:
182,192,237618,128,0,237743:0:0:0:0:
109,192,237743,128,0,237868:0:0:0:0:
475,192,237868,128,0,238616:0:0:0:0:
402,192,237868,1,0,0:0:0:0:
329,192,237930,1,0,0:0:0:0:
256,192,237992,1,0,0:0:0:0:
109,192,238055,1,0,0:0:0:0:
182,192,238117,1,0,0:0:0:0:
256,192,238179,1,0,0:0:0:0:
36,192,238242,128,0,238616:0:0:0:0:
329,192,238242,1,0,0:0:0:0:
402,192,238242,1,0,0:0:0:0:
109,192,238242,1,0,0:0:0:0:
182,192,238304,1,0,0:0:0:0:
256,192,238367,1,0,0:0:0:0:
402,192,238429,1,0,0:0:0:0:
329,192,238491,1,0,0:0:0:0:
256,192,238554,1,0,0:0:0:0:
182,192,238616,1,0,0:0:0:0:
402,192,238616,1,0,0:0:0:0:
109,192,238616,128,0,238979:0:0:0:0:
329,192,238737,128,0,239101:0:0:0:0:
475,192,238858,128,0,239222:0:0:0:0:
36,192,238979,128,0,239343:0:0:0:0:
256,192,239101,128,0,239343:0:0:0:0:
402,192,239222,128,0,239343:0:0:0:0:
109,192,239343,128,0,239707:0:0:0:0:
329,192,239464,128,0,239707:0:0:0:0:
475,192,239586,128,0,239707:0:0:0:0:
402,192,239707,128,0,240010:0:0:0:0:
182,192,239828,128,0,240010:0:0:0:0:
36,192,239949,128,0,240010:0:0:0:0:
475,192,240071,128,0,240434:0:0:0:0:
109,192,240071,1,0,0:0:0:0:
182,192,240071,1,0,0:0:0:0:
256,192,240071,1,0,0:0:0:0:
329,192,240192,128,0,240434:0:0:0:0:
182,192,240313,128,0,240434:0:0:0:0:
36,192,240434,128,0,240798:0:0:0:0:
182,192,240556,128,0,240798:0:0:0:0:
329,192,240677,128,0,240798:0:0:0:0:
402,192,240798,128,0,241404:0:0:0:0:
256,192,240919,128,0,241404:0:0:0:0:
109,192,241041,128,0,241404:0:0:0:0:
475,192,241162,128,0,241404:0:0:0:0:
329,192,241283,128,0,241404:0:0:0:0:
182,192,241404,1,0,0:0:0:0:
36,192,241526,128,0,242132:0:0:0:0:
402,192,241526,1,0,0:0:0:0:
475,192,241526,1,0,0:0:0:0:
329,192,241526,1,0,0:0:0:0:
182,192,241647,128,0,242132:0:0:0:0:
329,192,241768,128,0,242132:0:0:0:0:
475,192,241889,128,0,242132:0:0:0:0:
109,192,241889,128,0,242132:0:0:0:0:
256,192,242010,128,0,242132:0:0:0:0:
402,192,242132,1,0,0:0:0:0:
475,192,242253,128,0,242859:0:0:0:0:
36,192,242253,1,0,0:0:0:0:
109,192,242253,1,0,0:0:0:0:
182,192,242253,1,0,0:0:0:0:
329,192,242374,128,0,242859:0:0:0:0:
182,192,242495,128,0,242859:0:0:0:0:
36,192,242617,128,0,242859:0:0:0:0:
402,192,242617,128,0,242859:0:0:0:0:
256,192,242738,128,0,242859:0:0:0:0:
109,192,242859,1,0,0:0:0:0:
475,192,242980,1,0,0:0:0:0:
329,192,242980,1,0,0:0:0:0:
402,192,242980,1,0,0:0:0:0:
256,192,243041,1,0,0:0:0:0:
36,192,243102,1,0,0:0:0:0:
109,192,243223,1,0,0:0:0:0:
182,192,243344,1,0,0:0:0:0:
329,192,243344,1,0,0:0:0:0:
475,192,243465,1,0,0:0:0:0:
402,192,243587,1,0,0:0:0:0:
329,192,243587,1,0,0:0:0:0:
109,192,243708,1,0,0:0:0:0:
182,192,243708,1,0,0:0:0:0:
256,192,243829,1,0,0:0:0:0:
329,192,243890,1,0,0:0:0:0:
402,192,243950,1,0,0:0:0:0:
182,192,244071,1,0,0:0:0:0:
256,192,244132,1,0,0:0:0:0:
329,192,244193,1,0,0:0:0:0:
402,192,244253,1,0,0:0:0:0:
475,192,244314,1,0,0:0:0:0:
36,192,244375,1,0,0:0:0:0:
182,192,244435,1,0,0:0:0:0:
256,192,244435,1,4,0:0:0:0:
329,192,244435,1,4,0:0:0:0:
109,192,244435,1,0,0:0:0:0:
36,192,244679,1,0,0:0:0:0:
109,192,244740,1,0,0:0:0:0:
182,192,244801,1,0,0:0:0:0:
329,192,244801,1,0,0:0:0:0:
475,192,244801,1,0,0:0:0:0:
475,192,244923,1,0,0:0:0:0:
329,192,244923,1,0,0:0:0:0:
182,192,244923,1,0,0:0:0:0:
475,192,245045,1,0,0:0:0:0:
329,192,245045,1,0,0:0:0:0:
182,192,245045,1,0,0:0:0:0:
475,192,245168,1,0,0:0:0:0:
329,192,245168,1,0,0:0:0:0:
182,192,245168,1,0,0:0:0:0:
36,192,245168,1,4,0:0:0:0:
109,192,245168,1,4,0:0:0:0:
402,192,245351,1,0,0:0:0:0:
475,192,245412,1,0,0:0:0:0:
256,192,245412,1,0,0:0:0:0:
329,192,245534,1,0,0:0:0:0:
182,192,245534,1,0,0:0:0:0:
36,192,245534,1,0,0:0:0:0:
402,192,245595,1,0,0:0:0:0:
182,192,245656,1,0,0:0:0:0:
36,192,245656,1,0,0:0:0:0:
256,192,245656,1,0,0:0:0:0:
475,192,245717,1,0,0:0:0:0:
36,192,245778,1,0,0:0:0:0:
182,192,245778,1,0,0:0:0:0:
256,192,245778,1,0,0:0:0:0:
402,192,245839,1,0,0:0:0:0:
329,192,245901,1,0,0:0:0:0:
256,192,245901,1,0,0:0:0:0:
36,192,245901,1,0,0:0:0:0:
109,192,245901,1,0,0:0:0:0:
475,192,246145,1,0,0:0:0:0:
402,192,246206,1,0,0:0:0:0:
329,192,246267,1,0,0:0:0:0:
182,192,246267,1,0,0:0:0:0:
36,192,246267,1,0,0:0:0:0:
36,192,246389,1,0,0:0:0:0:
182,192,246389,1,0,0:0:0:0:
329,192,246389,1,0,0:0:0:0:
329,192,246511,1,0,0:0:0:0:
182,192,246511,1,0,0:0:0:0:
36,192,246511,1,0,0:0:0:0:
36,192,246634,1,0,0:0:0:0:
182,192,246634,1,0,0:0:0:0:
329,192,246634,1,0,0:0:0:0:
402,192,246634,1,4,0:0:0:0:
475,192,246634,1,4,0:0:0:0:
109,192,247000,1,0,0:0:0:0:
402,192,247000,1,0,0:0:0:0:
256,192,247000,1,0,0:0:0:0:
402,192,247122,1,0,0:0:0:0:
109,192,247122,1,0,0:0:0:0:
256,192,247122,1,0,0:0:0:0:
109,192,247244,1,0,0:0:0:0:
402,192,247244,1,0,0:0:0:0:
256,192,247244,1,0,0:0:0:0:
402,192,247367,1,0,0:0:0:0:
109,192,247367,1,0,0:0:0:0:
256,192,247367,1,0,0:0:0:0:
475,192,247367,1,0,0:0:0:0:
36,192,247367,1,0,0:0:0:0:
329,192,247427,1,0,0:0:0:0:
109,192,247607,1,0,0:0:0:0:
182,192,247667,1,0,0:0:0:0:
256,192,247727,1,0,0:0:0:0:
475,192,247727,1,0,0:0:0:0:
36,192,247727,1,0,0:0:0:0:
36,192,247847,1,0,0:0:0:0:
475,192,247847,1,0,0:0:0:0:
256,192,247847,1,0,0:0:0:0:
36,192,247967,1,0,0:0:0:0:
475,192,247967,1,0,0:0:0:0:
256,192,247967,1,0,0:0:0:0:
475,192,248087,1,4,0:0:0:0:
256,192,248087,1,0,0:0:0:0:
36,192,248087,1,0,0:0:0:0:
109,192,248087,1,0,0:0:0:0:
402,192,248087,1,4,0:0:0:0:
182,192,248267,1,0,0:0:0:0:
329,192,248447,1,0,0:0:0:0:
475,192,248447,1,0,0:0:0:0:
36,192,248447,1,0,0:0:0:0:
36,192,248568,1,0,0:0:0:0:
329,192,248568,1,0,0:0:0:0:
475,192,248568,1,0,0:0:0:0:
36,192,248688,1,0,0:0:0:0:
329,192,248688,1,0,0:0:0:0:
475,192,248688,1,0,0:0:0:0:
36,192,248808,1,0,0:0:0:0:
329,192,248808,1,0,0:0:0:0:
475,192,248808,1,0,0:0:0:0:
182,192,248808,1,0,0:0:0:0:
256,192,249048,1,0,0:0:0:0:
329,192,249108,1,0,0:0:0:0:
402,192,249168,1,0,0:0:0:0:
475,192,249168,1,0,0:0:0:0:
109,192,249168,1,0,0:0:0:0:
36,192,249168,1,0,0:0:0:0:
475,192,249288,1,0,0:0:0:0:
36,192,249288,1,0,0:0:0:0:
109,192,249288,1,0,0:0:0:0:
402,192,249288,1,0,0:0:0:0:
475,192,249408,1,0,0:0:0:0:
36,192,249408,1,0,0:0:0:0:
109,192,249408,1,0,0:0:0:0:
402,192,249408,1,0,0:0:0:0:
475,192,249528,1,0,0:0:0:0:
36,192,249528,1,4,0:0:0:0:
109,192,249528,1,4,0:0:0:0:
402,192,249528,1,0,0:0:0:0:
256,192,249528,1,0,0:0:0:0:
182,192,249889,1,0,0:0:0:0:
182,192,250009,1,0,0:0:0:0:
182,192,250129,1,0,0:0:0:0:
182,192,250249,1,0,0:0:0:0:
36,192,250249,1,0,0:0:0:0:
329,192,250249,128,0,250601:0:0:0:0:
475,192,250601,128,0,251306:0:0:0:0:
182,192,250601,1,0,0:0:0:0:
182,192,250719,1,0,0:0:0:0:
182,192,250836,1,0,0:0:0:0:
182,192,250954,1,0,0:0:0:0:
182,192,251306,128,0,251659:0:0:0:0:
36,192,251306,1,0,0:0:0:0:
36,192,251424,1,0,0:0:0:0:
36,192,251541,1,0,0:0:0:0:
329,192,251659,128,0,252011:0:0:0:0:
36,192,251659,1,0,0:0:0:0:
475,192,251659,1,0,0:0:0:0:
36,192,252011,128,0,252364:0:0:0:0:
475,192,252011,1,0,0:0:0:0:
475,192,252129,1,0,0:0:0:0:
475,192,252246,1,0,0:0:0:0:
182,192,252364,128,0,252716:0:0:0:0:
475,192,252364,1,0,0:0:0:0:
329,192,252364,1,0,0:0:0:0:
475,192,252716,128,0,253069:0:0:0:0:
36,192,252716,1,0,0:0:0:0:
36,192,252834,1,0,0:0:0:0:
36,192,252951,1,0,0:0:0:0:
329,192,253069,128,0,253539:0:0:0:0:
36,192,253069,1,0,0:0:0:0:
182,192,253069,1,0,0:0:0:0:
182,192,253421,1,0,0:0:0:0:
475,192,253539,128,0,253657:0:0:0:0:
182,192,253539,1,0,0:0:0:0:
402,192,253657,128,0,253774:0:0:0:0:
182,192,253657,1,0,0:0:0:0:
329,192,253774,128,0,254245:0:0:0:0:
182,192,253774,1,0,0:0:0:0:
36,192,253774,1,0,0:0:0:0:
475,192,254127,1,0,0:0:0:0:
36,192,254245,128,0,254480:0:0:0:0:
475,192,254245,1,0,0:0:0:0:
475,192,254362,1,0,0:0:0:0:
256,192,254480,128,0,255892:0:0:0:0:
475,192,254480,1,0,0:0:0:0:
182,192,254480,1,0,0:0:0:0:
402,192,254833,1,0,0:0:0:0:
402,192,254951,1,0,0:0:0:0:
402,192,255068,1,0,0:0:0:0:
402,192,255186,1,0,0:0:0:0:
109,192,255539,1,0,0:0:0:0:
109,192,255656,1,0,0:0:0:0:
109,192,255774,1,0,0:0:0:0:
36,192,256069,1,0,0:0:0:0:
182,192,256158,1,0,0:0:0:0:
475,192,256247,1,0,0:0:0:0:
329,192,256336,1,0,0:0:0:0:
109,192,256425,1,0,0:0:0:0:
256,192,256514,1,0,0:0:0:0:
402,192,256589,1,0,0:0:0:0:
475,192,257331,1,0,0:0:0:0:
36,192,257331,1,0,0:0:0:0:
329,192,257748,1,0,0:0:0:0:
109,192,257920,1,0,0:0:0:0:
256,192,258116,1,0,0:0:0:0:
402,192,258313,1,0,0:0:0:0:
36,192,258509,1,0,0:0:0:0:
182,192,258509,1,0,0:0:0:0:
329,192,258900,1,0,0:0:0:0:
475,192,258900,1,0,0:0:0:0:
182,192,259292,1,0,0:0:0:0:
402,192,259683,1,0,0:0:0:0:
256,192,259683,1,0,0:0:0:0:
475,192,259782,1,0,0:0:0:0:
182,192,260080,1,0,0:0:0:0:
329,192,260080,1,0,0:0:0:0:
329,192,260478,1,0,0:0:0:0:
36,192,260875,1,0,0:0:0:0:
256,192,261277,1,0,0:0:0:0:
109,192,261277,1,0,0:0:0:0:
329,192,261679,1,0,0:0:0:0:
475,192,261679,1,0,0:0:0:0:
256,192,262082,1,0,0:0:0:0:
402,192,262082,1,0,0:0:0:0:
182,192,262187,1,0,0:0:0:0:
329,192,262476,1,0,0:0:0:0:
182,192,262950,1,0,0:0:0:0:
36,192,263345,1,0,0:0:0:0:
475,192,263345,1,0,0:0:0:0:
402,192,263743,1,0,0:0:0:0:
256,192,263743,1,0,0:0:0:0:
182,192,264141,1,0,0:0:0:0:
329,192,264141,1,0,0:0:0:0:
329,192,264341,1,0,0:0:0:0:
256,192,264440,1,0,0:0:0:0:
182,192,264540,1,0,0:0:0:0:
36,192,264540,1,0,0:0:0:0:
329,192,264936,1,0,0:0:0:0:
329,192,265333,1,0,0:0:0:0:
475,192,265730,1,0,0:0:0:0:
182,192,265730,1,0,0:0:0:0:
329,192,266120,1,0,0:0:0:0:
475,192,266120,1,0,0:0:0:0:
182,192,266218,1,0,0:0:0:0:
256,192,266511,1,0,0:0:0:0:
402,192,266511,1,0,0:0:0:0:
329,192,266902,1,0,0:0:0:0:
182,192,266902,1,0,0:0:0:0:
256,192,267310,1,0,0:0:0:0:
36,192,267718,1,0,0:0:0:0:
182,192,267718,1,0,0:0:0:0:
256,192,267922,1,0,0:0:0:0:
329,192,268126,1,0,0:0:0:0:
475,192,268126,1,0,0:0:0:0:
36,192,268518,1,0,0:0:0:0:
36,192,268962,1,0,0:0:0:0:
182,192,268962,1,0,0:0:0:0:
256,192,269172,1,0,0:0:0:0:
329,192,269381,1,0,0:0:0:0:
402,192,269381,1,0,0:0:0:0:
256,192,269808,1,0,0:0:0:0:
402,192,269808,1,0,0:0:0:0:
182,192,270314,1,0,0:0:0:0:
475,192,270314,1,0,0:0:0:0:
109,192,270781,1,0,0:0:0:0:
402,192,270781,1,0,0:0:0:0:
475,192,270947,1,0,0:0:0:0:
475,192,272114,128,0,272781:0:0:0:0:
329,192,272114,128,0,272781:0:0:0:0:
36,192,272781,1,0,0:0:0:0:
182,192,272781,1,4,0:0:0:0:
256,192,272781,1,4,0:0:0:0:
402,192,272781,1,0,0:0:0:0:
329,192,272938,1,0,0:0:0:0:
329,192,273096,1,0,0:0:0:0:
402,192,273096,1,0,0:0:0:0:
256,192,273096,1,0,0:0:0:0:
36,192,273096,1,0,0:0:0:0:
109,192,273096,1,0,0:0:0:0:
182,192,273254,1,0,0:0:0:0:
182,192,273411,1,0,0:0:0:0:
109,192,273411,1,0,0:0:0:0:
256,192,273411,1,0,0:0:0:0:
402,192,273411,1,0,0:0:0:0:
475,192,273411,1,0,0:0:0:0:
329,192,273569,1,0,0:0:0:0:
475,192,273727,1,0,0:0:0:0:
402,192,273727,1,0,0:0:0:0:
36,192,273727,1,0,0:0:0:0:
256,192,273727,1,0,0:0:0:0:
109,192,273727,1,0,0:0:0:0:
182,192,273884,1,0,0:0:0:0:
36,192,274042,1,0,0:0:0:0:
109,192,274042,1,0,0:0:0:0:
256,192,274042,1,0,0:0:0:0:
402,192,274042,1,0,0:0:0:0:
475,192,274042,1,0,0:0:0:0:
182,192,274200,1,0,0:0:0:0:
256,192,274358,1,0,0:0:0:0:
402,192,274358,1,0,0:0:0:0:
475,192,274358,1,0,0:0:0:0:
36,192,274358,1,0,0:0:0:0:
329,192,274358,1,0,0:0:0:0:
109,192,274516,1,0,0:0:0:0:
182,192,274674,1,0,0:0:0:0:
256,192,274674,1,0,0:0:0:0:
402,192,274674,1,0,0:0:0:0:
475,192,274674,1,0,0:0:0:0:
36,192,274674,1,0,0:0:0:0:
329,192,274832,1,0,0:0:0:0:
256,192,274990,1,0,0:0:0:0:
182,192,274990,1,0,0:0:0:0:
36,192,274990,1,0,0:0:0:0:
475,192,274990,1,0,0:0:0:0:
109,192,274990,1,0,0:0:0:0:
402,192,275148,1,0,0:0:0:0:
329,192,275307,1,0,0:0:0:0:
256,192,275307,1,0,0:0:0:0:
36,192,275307,1,0,0:0:0:0:
109,192,275307,1,0,0:0:0:0:
475,192,275307,1,0,0:0:0:0:
182,192,275469,1,0,0:0:0:0:
256,192,275469,1,0,0:0:0:0:
402,192,275550,1,0,0:0:0:0:
109,192,275632,1,0,0:0:0:0:
182,192,275632,1,0,0:0:0:0:
475,192,275713,1,0,0:0:0:0:
36,192,275794,1,0,0:0:0:0:
109,192,275794,1,0,0:0:0:0:
402,192,275875,1,0,0:0:0:0:
109,192,275957,1,0,0:0:0:0:
182,192,275957,1,0,0:0:0:0:
256,192,275957,1,0,0:0:0:0:
36,192,275957,1,0,0:0:0:0:
329,192,276065,1,0,0:0:0:0:
402,192,276065,1,0,0:0:0:0:
475,192,276065,1,0,0:0:0:0:
36,192,276173,1,0,0:0:0:0:
109,192,276173,1,0,0:0:0:0:
182,192,276173,1,0,0:0:0:0:
256,192,276282,1,0,0:0:0:0:
329,192,276282,1,0,0:0:0:0:
402,192,276282,1,0,0:0:0:0:
36,192,276390,1,0,0:0:0:0:
109,192,276390,1,0,0:0:0:0:
182,192,276498,1,0,0:0:0:0:
256,192,276498,1,0,0:0:0:0:
329,192,276607,1,0,0:0:0:0:
402,192,276607,1,0,0:0:0:0:
475,192,276607,1,0,0:0:0:0:
36,192,276666,1,0,0:0:0:0:
109,192,276666,1,0,0:0:0:0:
182,192,276725,1,0,0:0:0:0:
256,192,276725,1,0,0:0:0:0:
329,192,276784,1,0,0:0:0:0:
402,192,276784,1,0,0:0:0:0:
109,192,276843,1,0,0:0:0:0:
182,192,276843,1,0,0:0:0:0:
256,192,276902,1,0,0:0:0:0:
329,192,276902,1,0,0:0:0:0:
402,192,276961,1,0,0:0:0:0:
475,192,276961,1,0,0:0:0:0:
36,192,276961,1,0,0:0:0:0:
109,192,276961,1,0,0:0:0:0:
182,192,277020,1,0,0:0:0:0:
256,192,277020,1,0,0:0:0:0:
329,192,277079,1,0,0:0:0:0:
402,192,277079,1,0,0:0:0:0:
109,192,277138,1,0,0:0:0:0:
182,192,277138,1,0,0:0:0:0:
256,192,277197,1,0,0:0:0:0:
329,192,277197,1,0,0:0:0:0:
402,192,277256,1,0,0:0:0:0:
475,192,277256,1,0,0:0:0:0:
256,192,277316,1,0,0:0:0:0:
182,192,277316,1,0,0:0:0:0:
109,192,277316,1,0,0:0:0:0:
36,192,277316,1,0,0:0:0:0:
475,192,277375,1,0,0:0:0:0:
329,192,277375,1,0,0:0:0:0:
402,192,277434,1,0,0:0:0:0:
256,192,277434,1,0,0:0:0:0:
329,192,277493,1,0,0:0:0:0:
182,192,277493,1,0,0:0:0:0:
109,192,277552,1,0,0:0:0:0:
256,192,277552,1,0,0:0:0:0:
402,192,277611,1,0,0:0:0:0:
329,192,277611,1,0,0:0:0:0:
475,192,277611,1,0,0:0:0:0:
36,192,277670,1,0,0:0:0:0:
109,192,277670,1,0,0:0:0:0:
182,192,277670,1,0,0:0:0:0:
256,192,277670,1,0,0:0:0:0:
475,192,277739,1,0,0:0:0:0:
402,192,277809,1,0,0:0:0:0:
329,192,277809,1,0,0:0:0:0:
256,192,277809,1,0,0:0:0:0:
182,192,277879,1,0,0:0:0:0:
109,192,277879,1,0,0:0:0:0:
36,192,277879,1,0,0:0:0:0:
475,192,277879,1,0,0:0:0:0:
329,192,277948,1,0,0:0:0:0:
402,192,277948,1,0,0:0:0:0:
182,192,278018,1,0,0:0:0:0:
256,192,278018,1,0,0:0:0:0:
36,192,278088,1,0,0:0:0:0:
109,192,278088,1,0,0:0:0:0:
109,192,278495,1,0,0:0:0:0:
182,192,278630,1,0,0:0:0:0:
329,192,278766,1,0,0:0:0:0:
256,192,278834,1,0,0:0:0:0:
182,192,278902,1,0,0:0:0:0:
36,192,278902,1,0,0:0:0:0:
402,192,278902,1,0,0:0:0:0:
475,192,278902,1,0,0:0:0:0:
109,192,279173,1,0,0:0:0:0:
256,192,279241,1,0,0:0:0:0:
475,192,279309,1,0,0:0:0:0:
36,192,279445,1,0,0:0:0:0:
182,192,279581,1,0,0:0:0:0:
329,192,279716,1,0,0:0:0:0:
475,192,279716,1,0,0:0:0:0:
36,192,279982,1,0,0:0:0:0:
182,192,280049,1,0,0:0:0:0:
329,192,280115,1,0,0:0:0:0:
475,192,280382,1,0,0:0:0:0:
329,192,280448,1,0,0:0:0:0:
182,192,280515,1,0,0:0:0:0:
36,192,280515,1,0,0:0:0:0:
402,192,280782,1,0,0:0:0:0:
256,192,280848,1,0,0:0:0:0:
109,192,280915,1,0,0:0:0:0:
475,192,281048,1,0,0:0:0:0:
329,192,281181,1,0,0:0:0:0:
182,192,281315,1,0,0:0:0:0:
36,192,281315,1,0,0:0:0:0:
109,192,281581,1,0,0:0:0:0:
256,192,281648,1,0,0:0:0:0:
402,192,281714,1,0,0:0:0:0:
36,192,281981,1,0,0:0:0:0:
182,192,282048,1,0,0:0:0:0:
329,192,282114,1,0,0:0:0:0:
475,192,282114,1,0,0:0:0:0:
36,192,282381,1,0,0:0:0:0:
182,192,282447,1,0,0:0:0:0:
329,192,282514,1,0,0:0:0:0:
475,192,282647,1,0,0:0:0:0:
329,192,282780,1,0,0:0:0:0:
182,192,282914,1,0,0:0:0:0:
36,192,282914,1,0,0:0:0:0:
402,192,283180,1,0,0:0:0:0:
256,192,283247,1,0,0:0:0:0:
109,192,283313,1,0,0:0:0:0:
475,192,283580,1,0,0:0:0:0:
329,192,283647,1,0,0:0:0:0:
182,192,283713,1,0,0:0:0:0:
36,192,283713,1,0,0:0:0:0:
329,192,283980,1,0,0:0:0:0:
182,192,284046,1,0,0:0:0:0:
36,192,284113,1,0,0:0:0:0:
475,192,284246,1,0,0:0:0:0:
329,192,284380,1,0,0:0:0:0:
182,192,284513,1,0,0:0:0:0:
36,192,284513,1,0,0:0:0:0:
109,192,284779,1,0,0:0:0:0:
256,192,284846,1,0,0:0:0:0:
402,192,284913,1,0,0:0:0:0:
36,192,285046,1,0,0:0:0:0:
182,192,285179,1,0,0:0:0:0:
475,192,285246,1,0,0:0:0:0:
329,192,285312,1,0,0:0:0:0:
36,192,285312,1,0,0:0:0:0:
182,192,285579,1,0,0:0:0:0:
329,192,285645,1,0,0:0:0:0:
475,192,285712,1,0,0:0:0:0:
36,192,285845,1,0,0:0:0:0:
182,192,285979,1,0,0:0:0:0:
329,192,286112,1,0,0:0:0:0:
475,192,286112,1,0,0:0:0:0:
109,192,286378,1,0,0:0:0:0:
256,192,286445,1,0,0:0:0:0:
402,192,286512,1,0,0:0:0:0:
36,192,286645,1,0,0:0:0:0:
475,192,286712,1,0,0:0:0:0:
182,192,286778,1,0,0:0:0:0:
329,192,286845,1,0,0:0:0:0:
36,192,286911,1,0,0:0:0:0:
475,192,286911,1,0,0:0:0:0:
402,192,287178,1,0,0:0:0:0:
256,192,287245,1,0,0:0:0:0:
109,192,287311,1,0,0:0:0:0:
475,192,287444,1,0,0:0:0:0:
329,192,287578,1,0,0:0:0:0:
182,192,287711,1,0,0:0:0:0:
36,192,287711,1,0,0:0:0:0:
402,192,287977,1,0,0:0:0:0:
256,192,288044,1,0,0:0:0:0:
109,192,288111,1,0,0:0:0:0:
36,192,288377,1,0,0:0:0:0:
182,192,288444,1,0,0:0:0:0:
329,192,288511,1,0,0:0:0:0:
475,192,288511,1,0,0:0:0:0:
109,192,288777,1,0,0:0:0:0:
256,192,288844,1,0,0:0:0:0:
402,192,288910,1,0,0:0:0:0:
36,192,289044,1,0,0:0:0:0:
182,192,289177,1,0,0:0:0:0:
329,192,289310,1,0,0:0:0:0:
475,192,289310,1,0,0:0:0:0:
182,192,289577,1,0,0:0:0:0:
329,192,289643,1,0,0:0:0:0:
475,192,289710,1,0,0:0:0:0:
36,192,289843,1,0,0:0:0:0:
329,192,289976,1,0,0:0:0:0:
182,192,290043,1,0,0:0:0:0:
475,192,290110,1,0,0:0:0:0:
36,192,290110,1,0,0:0:0:0:
329,192,290376,1,0,0:0:0:0:
475,192,290376,1,0,0:0:0:0:
182,192,290443,1,0,0:0:0:0:
36,192,290509,1,0,0:0:0:0:
182,192,290643,1,0,0:0:0:0:
329,192,290643,1,0,0:0:0:0:
36,192,290776,1,0,0:0:0:0:
329,192,290909,1,0,0:0:0:0:
475,192,290909,1,4,0:0:0:0:
182,192,290909,1,0,0:0:0:0:
402,192,290909,1,0,0:0:0:0:
36,192,291176,1,0,0:0:0:0:
109,192,291242,1,0,0:0:0:0:
182,192,291309,1,0,0:0:0:0:
329,192,291309,1,0,0:0:0:0:
475,192,291309,1,0,0:0:0:0:
256,192,291442,1,0,0:0:0:0:
402,192,291442,1,0,0:0:0:0:
329,192,291575,1,0,0:0:0:0:
182,192,291575,1,0,0:0:0:0:
36,192,291642,1,0,0:0:0:0:
109,192,291709,1,0,0:0:0:0:
256,192,291709,1,0,0:0:0:0:
402,192,291709,1,0,0:0:0:0:
475,192,291709,1,4,0:0:0:0:
182,192,291975,1,0,0:0:0:0:
329,192,291975,1,0,0:0:0:0:
475,192,292042,1,0,0:0:0:0:
402,192,292108,1,0,0:0:0:0:
256,192,292108,1,0,0:0:0:0:
109,192,292108,1,0,0:0:0:0:
36,192,292242,1,0,0:0:0:0:
182,192,292242,1,0,0:0:0:0:
475,192,292375,1,0,0:0:0:0:
329,192,292375,1,0,0:0:0:0:
402,192,292508,1,0,0:0:0:0:
256,192,292508,1,0,0:0:0:0:
109,192,292508,1,0,0:0:0:0:
36,192,292775,1,0,0:0:0:0:
182,192,292775,1,0,0:0:0:0:
329,192,292841,1,0,0:0:0:0:
109,192,292908,1,0,0:0:0:0:
256,192,292908,1,0,0:0:0:0:
475,192,292908,1,0,0:0:0:0:
182,192,293041,1,0,0:0:0:0:
402,192,293041,1,0,0:0:0:0:
329,192,293175,1,0,0:0:0:0:
109,192,293175,1,0,0:0:0:0:
182,192,293241,1,0,0:0:0:0:
256,192,293308,1,0,0:0:0:0:
36,192,293308,1,0,0:0:0:0:
402,192,293308,1,0,0:0:0:0:
475,192,293308,1,4,0:0:0:0:
109,192,293574,1,0,0:0:0:0:
329,192,293574,1,0,0:0:0:0:
256,192,293641,1,0,0:0:0:0:
182,192,293708,1,0,0:0:0:0:
36,192,293708,1,0,0:0:0:0:
475,192,293708,1,0,0:0:0:0:
109,192,293841,1,0,0:0:0:0:
256,192,293841,1,0,0:0:0:0:
182,192,293974,1,0,0:0:0:0:
329,192,293974,1,0,0:0:0:0:
256,192,294107,1,0,0:0:0:0:
402,192,294107,1,0,0:0:0:0:
36,192,294107,1,0,0:0:0:0:
109,192,294241,1,0,0:0:0:0:
329,192,294374,1,0,0:0:0:0:
256,192,294440,1,0,0:0:0:0:
182,192,294507,1,0,0:0:0:0:
36,192,294507,1,0,0:0:0:0:
475,192,294507,1,0,0:0:0:0:
256,192,294774,1,0,0:0:0:0:
329,192,294840,1,0,0:0:0:0:
475,192,294907,1,0,0:0:0:0:
36,192,294907,1,4,0:0:0:0:
182,192,294907,1,0,0:0:0:0:
256,192,295040,1,0,0:0:0:0:
402,192,295040,1,0,0:0:0:0:
182,192,295173,1,0,0:0:0:0:
329,192,295173,1,0,0:0:0:0:
109,192,295240,1,0,0:0:0:0:
256,192,295307,1,0,0:0:0:0:
402,192,295307,1,0,0:0:0:0:
182,192,295440,1,0,0:0:0:0:
329,192,295440,1,0,0:0:0:0:
109,192,295573,1,0,0:0:0:0:
256,192,295573,1,0,0:0:0:0:
329,192,295640,1,0,0:0:0:0:
475,192,295640,1,0,0:0:0:0:
36,192,295706,1,0,0:0:0:0:
182,192,295706,1,0,0:0:0:0:
109,192,295706,1,0,0:0:0:0:
402,192,295706,1,0,0:0:0:0:
256,192,295840,1,0,0:0:0:0:
182,192,295973,1,0,0:0:0:0:
329,192,295973,1,0,0:0:0:0:
475,192,295973,1,0,0:0:0:0:
109,192,296040,1,0,0:0:0:0:
36,192,296106,1,0,0:0:0:0:
256,192,296106,1,0,0:0:0:0:
402,192,296106,1,0,0:0:0:0:
182,192,296239,1,0,0:0:0:0:
329,192,296239,1,0,0:0:0:0:
475,192,296239,1,0,0:0:0:0:
109,192,296373,1,0,0:0:0:0:
182,192,296439,1,0,0:0:0:0:
256,192,296506,1,0,0:0:0:0:
402,192,296506,1,0,0:0:0:0:
36,192,296506,1,0,0:0:0:0:
475,192,296506,1,4,0:0:0:0:
109,192,296639,1,0,0:0:0:0:
329,192,296639,1,0,0:0:0:0:
182,192,296773,1,0,0:0:0:0:
402,192,296773,1,0,0:0:0:0:
256,192,296839,1,0,0:0:0:0:
329,192,296906,1,0,0:0:0:0:
475,192,296906,1,0,0:0:0:0:
36,192,296906,1,0,0:0:0:0:
109,192,297039,1,0,0:0:0:0:
256,192,297039,1,0,0:0:0:0:
182,192,297172,1,0,0:0:0:0:
329,192,297172,1,0,0:0:0:0:
402,192,297306,1,0,0:0:0:0:
475,192,297306,1,4,0:0:0:0:
36,192,297306,1,0,0:0:0:0:
109,192,297306,1,0,0:0:0:0:
256,192,297306,128,0,297572:0:0:0:0:
109,192,297572,128,0,297705:0:0:0:0:
329,192,297572,1,0,0:0:0:0:
402,192,297705,128,0,297839:0:0:0:0:
475,192,297705,1,0,0:0:0:0:
36,192,297705,1,0,0:0:0:0:
182,192,297839,128,0,297972:0:0:0:0:
256,192,297839,1,0,0:0:0:0:
329,192,297972,128,0,298105:0:0:0:0:
109,192,297972,1,0,0:0:0:0:
36,192,297972,1,0,0:0:0:0:
256,192,298105,128,0,298505:0:0:0:0:
36,192,298105,1,0,0:0:0:0:
402,192,298105,1,0,0:0:0:0:
475,192,298105,1,4,0:0:0:0:
182,192,298105,1,0,0:0:0:0:
182,192,298372,1,0,0:0:0:0:
329,192,298505,128,0,298638:0:0:0:0:
475,192,298505,1,0,0:0:0:0:
36,192,298505,1,0,0:0:0:0:
182,192,298638,128,0,298771:0:0:0:0:
256,192,298638,1,0,0:0:0:0:
402,192,298771,128,0,298905:0:0:0:0:
329,192,298771,1,0,0:0:0:0:
109,192,298905,128,0,299238:0:0:0:0:
256,192,298905,1,0,0:0:0:0:
475,192,298905,1,0,0:0:0:0:
36,192,298905,1,0,0:0:0:0:
329,192,299171,1,0,0:0:0:0:
256,192,299238,1,0,0:0:0:0:
475,192,299304,128,0,299438:0:0:0:0:
182,192,299304,1,0,0:0:0:0:
36,192,299304,1,0,0:0:0:0:
402,192,299438,128,0,299571:0:0:0:0:
109,192,299438,1,0,0:0:0:0:
329,192,299571,128,0,299704:0:0:0:0:
109,192,299571,1,0,0:0:0:0:
256,192,299704,128,0,299971:0:0:0:0:
36,192,299704,1,0,0:0:0:0:
182,192,299704,1,0,0:0:0:0:
475,192,299704,1,4,0:0:0:0:
402,192,299704,1,0,0:0:0:0:
109,192,299971,128,0,300104:0:0:0:0:
329,192,299971,1,0,0:0:0:0:
402,192,300104,128,0,300237:0:0:0:0:
256,192,300104,1,0,0:0:0:0:
475,192,300104,1,0,0:0:0:0:
182,192,300237,128,0,300370:0:0:0:0:
36,192,300237,1,0,0:0:0:0:
329,192,300370,128,0,300504:0:0:0:0:
475,192,300370,1,0,0:0:0:0:
256,192,300504,128,0,300903:0:0:0:0:
36,192,300504,1,0,0:0:0:0:
182,192,300504,1,0,0:0:0:0:
109,192,300504,1,0,0:0:0:0:
329,192,300770,1,0,0:0:0:0:
402,192,300770,1,0,0:0:0:0:
475,192,300837,1,0,0:0:0:0:
329,192,300903,1,0,0:0:0:0:
402,192,300903,1,0,0:0:0:0:
182,192,301037,1,0,0:0:0:0:
402,192,301170,1,0,0:0:0:0:
109,192,301170,1,0,0:0:0:0:
329,192,301237,1,0,0:0:0:0:
256,192,301303,1,4,0:0:0:0:
36,192,301303,1,0,0:0:0:0:
475,192,301303,1,0,0:0:0:0:
182,192,301303,1,0,0:0:0:0:
109,192,301437,1,0,0:0:0:0:
182,192,301570,1,0,0:0:0:0:
256,192,301703,1,0,0:0:0:0:
402,192,301703,1,0,0:0:0:0:
475,192,301703,1,0,0:0:0:0:
182,192,301836,1,0,0:0:0:0:
109,192,301970,1,0,0:0:0:0:
256,192,302103,128,0,302436:0:0:0:0:
36,192,302103,1,0,0:0:0:0:
329,192,302103,1,0,0:0:0:0:
475,192,302103,1,0,0:0:0:0:
36,192,302369,1,0,0:0:0:0:
109,192,302369,1,0,0:0:0:0:
182,192,302436,1,0,0:0:0:0:
36,192,302503,1,0,0:0:0:0:
109,192,302503,1,0,0:0:0:0:
402,192,302636,1,0,0:0:0:0:
256,192,302769,1,0,0:0:0:0:
109,192,302836,1,0,0:0:0:0:
182,192,302902,1,0,0:0:0:0:
475,192,302902,1,4,0:0:0:0:
329,192,302902,1,0,0:0:0:0:
36,192,302902,1,0,0:0:0:0:
475,192,303302,128,0,303702:0:0:0:0:
329,192,303302,1,0,0:0:0:0:
256,192,303702,128,0,304901:0:0:0:0:
402,192,303702,128,0,304901:0:0:0:0:
36,192,303702,1,0,0:0:0:0:
109,192,303902,1,0,0:0:0:0:
109,192,304102,128,0,304901:0:0:0:0:
36,192,305301,1,0,0:0:0:0:
182,192,305301,1,0,0:0:0:0:
329,192,305301,1,0,0:0:0:0:
475,192,305301,1,0,0:0:0:0:
256,192,305301,128,0,306800:0:0:0:0:
402,192,305501,1,0,0:0:0:0:
109,192,305601,1,0,0:0:0:0:
475,192,305701,1,0,0:0:0:0:
329,192,305801,1,0,0:0:0:0:
36,192,305901,1,0,0:0:0:0:
182,192,306001,1,0,0:0:0:0:
329,192,306101,1,0,0:0:0:0:
36,192,306101,128,0,306800:0:0:0:0:
475,192,306101,128,0,306800:0:0:0:0:
109,192,306151,1,0,0:0:0:0:
182,192,306200,1,0,0:0:0:0:
402,192,306250,1,0,0:0:0:0:
329,192,306300,1,0,0:0:0:0:
109,192,306350,1,0,0:0:0:0:
182,192,306400,1,0,0:0:0:0:
402,192,306450,1,0,0:0:0:0:
329,192,306500,1,0,0:0:0:0:
109,192,306550,1,0,0:0:0:0:
182,192,306600,1,0,0:0:0:0:
402,192,306650,1,0,0:0:0:0:
329,192,306700,1,0,0:0:0:0:
109,192,306750,1,0,0:0:0:0:
182,192,306800,1,0,0:0:0:0:
402,192,306850,1,0,0:0:0:0:
182,192,306900,1,0,0:0:0:0:
329,192,306900,1,0,0:0:0:0:
109,192,306900,1,4,0:0:0:0:
475,192,306900,1,0,0:0:0:0:
36,192,306900,1,4,0:0:0:0:
36,192,307160,1,0,0:0:0:0:
182,192,307160,1,0,0:0:0:0:
256,192,307225,1,0,0:0:0:0:
329,192,307290,1,0,0:0:0:0:
475,192,307290,1,0,0:0:0:0:
109,192,307290,1,0,0:0:0:0:
402,192,307290,1,0,0:0:0:0:
402,192,307420,1,0,0:0:0:0:
182,192,307420,1,0,0:0:0:0:
329,192,307550,1,0,0:0:0:0:
475,192,307550,1,0,0:0:0:0:
256,192,307615,1,0,0:0:0:0:
182,192,307680,1,0,0:0:0:0:
36,192,307680,1,4,0:0:0:0:
402,192,307680,1,0,0:0:0:0:
109,192,307680,1,4,0:0:0:0:
475,192,307680,1,0,0:0:0:0:
256,192,307941,1,0,0:0:0:0:
475,192,307941,1,0,0:0:0:0:
109,192,308071,1,0,0:0:0:0:
329,192,308071,1,0,0:0:0:0:
182,192,308201,1,0,0:0:0:0:
402,192,308201,1,0,0:0:0:0:
256,192,308331,1,0,0:0:0:0:
475,192,308331,1,0,0:0:0:0:
475,192,308461,1,0,0:0:0:0:
329,192,308461,1,0,0:0:0:0:
36,192,308461,1,0,0:0:0:0:
109,192,308461,1,0,0:0:0:0:
329,192,308719,1,0,0:0:0:0:
182,192,308719,1,0,0:0:0:0:
402,192,308784,1,0,0:0:0:0:
475,192,308848,1,0,0:0:0:0:
256,192,308848,1,0,0:0:0:0:
36,192,308848,1,0,0:0:0:0:
109,192,308848,1,0,0:0:0:0:
109,192,308978,1,0,0:0:0:0:
182,192,308978,1,0,0:0:0:0:
182,192,309107,1,0,0:0:0:0:
256,192,309107,1,0,0:0:0:0:
402,192,309172,1,0,0:0:0:0:
256,192,309236,1,0,0:0:0:0:
329,192,309236,1,0,0:0:0:0:
109,192,309236,1,4,0:0:0:0:
36,192,309236,1,4,0:0:0:0:
475,192,309236,1,0,0:0:0:0:
182,192,309495,1,0,0:0:0:0:
475,192,309495,1,0,0:0:0:0:
402,192,309559,1,0,0:0:0:0:
329,192,309624,1,0,0:0:0:0:
109,192,309624,1,0,0:0:0:0:
36,192,309624,1,0,0:0:0:0:
36,192,309753,1,0,0:0:0:0:
182,192,309753,1,0,0:0:0:0:
109,192,309883,1,0,0:0:0:0:
256,192,309883,1,0,0:0:0:0:
182,192,310012,1,0,0:0:0:0:
329,192,310012,1,0,0:0:0:0:
475,192,310012,1,0,0:0:0:0:
402,192,310012,1,0,0:0:0:0:
256,192,310267,1,0,0:0:0:0:
402,192,310267,1,0,0:0:0:0:
182,192,310331,1,0,0:0:0:0:
109,192,310394,1,0,0:0:0:0:
36,192,310394,1,0,0:0:0:0:
329,192,310394,1,0,0:0:0:0:
475,192,310394,1,0,0:0:0:0:
256,192,310522,1,0,0:0:0:0:
402,192,310522,1,0,0:0:0:0:
329,192,310650,1,0,0:0:0:0:
182,192,310650,1,0,0:0:0:0:
402,192,310714,1,0,0:0:0:0:
475,192,310777,1,0,0:0:0:0:
256,192,310777,1,0,0:0:0:0:
109,192,310777,1,4,0:0:0:0:
36,192,310777,1,0,0:0:0:0:
182,192,310777,1,4,0:0:0:0:
329,192,311033,1,0,0:0:0:0:
475,192,311033,1,0,0:0:0:0:
256,192,311096,1,0,0:0:0:0:
182,192,311160,1,0,0:0:0:0:
402,192,311160,1,0,0:0:0:0:
36,192,311160,1,0,0:0:0:0:
109,192,311288,1,0,0:0:0:0:
256,192,311288,1,0,0:0:0:0:
475,192,311416,1,0,0:0:0:0:
329,192,311416,1,0,0:0:0:0:
402,192,311543,1,0,0:0:0:0:
256,192,311543,1,0,0:0:0:0:
36,192,311543,1,0,0:0:0:0:
109,192,311543,1,0,0:0:0:0:
182,192,311795,1,0,0:0:0:0:
475,192,311795,1,0,0:0:0:0:
402,192,311858,1,0,0:0:0:0:
329,192,311921,1,0,0:0:0:0:
256,192,311921,1,0,0:0:0:0:
36,192,311921,1,0,0:0:0:0:
109,192,312047,1,0,0:0:0:0:
475,192,312173,1,0,0:0:0:0:
402,192,312173,1,0,0:0:0:0:
329,192,312236,1,0,0:0:0:0:
256,192,312299,1,0,0:0:0:0:
182,192,312299,1,0,0:0:0:0:
36,192,312299,1,4,0:0:0:0:
109,192,312299,1,4,0:0:0:0:
402,192,312425,1,0,0:0:0:0:
256,192,312551,1,0,0:0:0:0:
109,192,312551,1,0,0:0:0:0:
475,192,312551,1,0,0:0:0:0:
329,192,312677,1,0,0:0:0:0:
182,192,312677,1,0,0:0:0:0:
36,192,312677,1,0,0:0:0:0:
109,192,312803,1,0,0:0:0:0:
402,192,312803,1,0,0:0:0:0:
182,192,312929,1,0,0:0:0:0:
256,192,312929,1,0,0:0:0:0:
329,192,313056,1,0,0:0:0:0:
402,192,313056,1,4,0:0:0:0:
475,192,313056,1,4,0:0:0:0:
109,192,313056,1,0,0:0:0:0:
36,192,313056,1,0,0:0:0:0:
109,192,313304,1,0,0:0:0:0:
329,192,313304,1,0,0:0:0:0:
256,192,313366,1,0,0:0:0:0:
182,192,313428,1,0,0:0:0:0:
36,192,313428,1,0,0:0:0:0:
402,192,313428,1,0,0:0:0:0:
475,192,313428,1,0,0:0:0:0:
109,192,313552,1,0,0:0:0:0:
256,192,313552,1,0,0:0:0:0:
182,192,313676,1,0,0:0:0:0:
329,192,313676,1,0,0:0:0:0:
475,192,313738,1,0,0:0:0:0:
402,192,313800,1,0,0:0:0:0:
256,192,313800,1,0,0:0:0:0:
109,192,313800,1,4,0:0:0:0:
36,192,313800,1,4,0:0:0:0:
182,192,314048,1,0,0:0:0:0:
256,192,314111,1,0,0:0:0:0:
329,192,314173,1,0,0:0:0:0:
475,192,314173,1,0,0:0:0:0:
36,192,314173,1,0,0:0:0:0:
109,192,314297,1,0,0:0:0:0:
256,192,314297,1,0,0:0:0:0:
475,192,314421,1,0,0:0:0:0:
182,192,314421,1,0,0:0:0:0:
402,192,314545,1,0,0:0:0:0:
256,192,314545,1,0,0:0:0:0:
36,192,314545,1,0,0:0:0:0:
109,192,314545,1,0,0:0:0:0:
182,192,314790,1,0,0:0:0:0:
402,192,314790,1,0,0:0:0:0:
256,192,314851,1,0,0:0:0:0:
329,192,314912,1,0,0:0:0:0:
475,192,314912,1,0,0:0:0:0:
36,192,314912,1,0,0:0:0:0:
109,192,315035,1,0,0:0:0:0:
256,192,315035,1,0,0:0:0:0:
182,192,315157,1,0,0:0:0:0:
475,192,315157,1,0,0:0:0:0:
329,192,315219,1,0,0:0:0:0:
402,192,315280,1,0,0:0:0:0:
256,192,315280,1,0,0:0:0:0:
36,192,315280,1,4,0:0:0:0:
109,192,315280,1,4,0:0:0:0:
475,192,315280,1,0,0:0:0:0:
182,192,315525,1,0,0:0:0:0:
256,192,315586,1,0,0:0:0:0:
329,192,315648,1,0,0:0:0:0:
475,192,315648,1,0,0:0:0:0:
36,192,315648,1,0,0:0:0:0:
109,192,315648,1,0,0:0:0:0:
109,192,315770,1,0,0:0:0:0:
182,192,315770,1,0,0:0:0:0:
329,192,315893,1,0,0:0:0:0:
475,192,315893,1,0,0:0:0:0:
256,192,316015,1,0,0:0:0:0:
402,192,316015,1,0,0:0:0:0:
109,192,316015,1,0,0:0:0:0:
36,192,316015,1,0,0:0:0:0:
182,192,316015,1,0,0:0:0:0:
329,192,316257,1,0,0:0:0:0:
256,192,316257,1,0,0:0:0:0:
182,192,316318,1,0,0:0:0:0:
109,192,316379,1,0,0:0:0:0:
36,192,316379,1,0,0:0:0:0:
402,192,316379,1,0,0:0:0:0:
475,192,316379,1,0,0:0:0:0:
329,192,316500,1,0,0:0:0:0:
402,192,316500,1,0,0:0:0:0:
256,192,316622,1,0,0:0:0:0:
329,192,316622,1,0,0:0:0:0:
109,192,316683,1,0,0:0:0:0:
182,192,316743,1,0,0:0:0:0:
256,192,316743,1,0,0:0:0:0:
402,192,316743,1,4,0:0:0:0:
475,192,316743,1,4,0:0:0:0:
36,192,316743,1,0,0:0:0:0:
109,192,316986,1,0,0:0:0:0:
329,192,316986,1,0,0:0:0:0:
182,192,317047,1,0,0:0:0:0:
256,192,317108,1,0,0:0:0:0:
402,192,317108,1,0,0:0:0:0:
475,192,317108,1,0,0:0:0:0:
36,192,317108,1,0,0:0:0:0:
109,192,317229,1,0,0:0:0:0:
329,192,317229,1,0,0:0:0:0:
182,192,317351,1,0,0:0:0:0:
402,192,317351,1,0,0:0:0:0:
475,192,317472,1,0,0:0:0:0:
36,192,317472,1,0,0:0:0:0:
109,192,317472,1,0,0:0:0:0:
329,192,317472,1,0,0:0:0:0:
256,192,317532,1,0,0:0:0:0:
182,192,317593,1,0,0:0:0:0:
329,192,317653,1,0,0:0:0:0:
402,192,317714,1,0,0:0:0:0:
475,192,317774,1,0,0:0:0:0:
182,192,317835,1,0,0:0:0:0:
256,192,317835,1,0,0:0:0:0:
36,192,317835,1,0,0:0:0:0:
109,192,317835,1,0,0:0:0:0:
329,192,317895,1,0,0:0:0:0:
36,192,317956,1,0,0:0:0:0:
182,192,317956,1,0,0:0:0:0:
402,192,318016,1,0,0:0:0:0:
182,192,318077,1,0,0:0:0:0:
36,192,318077,1,0,0:0:0:0:
475,192,318137,1,0,0:0:0:0:
36,192,318198,1,0,0:0:0:0:
182,192,318198,1,0,0:0:0:0:
329,192,318198,1,4,0:0:0:0:
402,192,318198,1,4,0:0:0:0:
256,192,318198,1,0,0:0:0:0:
109,192,318258,1,0,0:0:0:0:
475,192,318319,1,0,0:0:0:0:
182,192,318379,1,0,0:0:0:0:
402,192,318440,1,0,0:0:0:0:
36,192,318440,1,0,0:0:0:0:
256,192,318440,1,0,0:0:0:0:
109,192,318500,1,0,0:0:0:0:
182,192,318561,1,0,0:0:0:0:
475,192,318621,1,0,0:0:0:0:
402,192,318682,1,0,0:0:0:0:
329,192,318742,1,0,0:0:0:0:
36,192,318742,1,0,0:0:0:0:
109,192,318742,1,0,0:0:0:0:
182,192,318803,1,0,0:0:0:0:
256,192,318863,1,0,0:0:0:0:
329,192,318924,1,0,0:0:0:0:
475,192,318924,1,0,0:0:0:0:
402,192,318924,1,0,0:0:0:0:
36,192,318924,1,4,0:0:0:0:
109,192,318924,1,4,0:0:0:0:
182,192,318984,1,0,0:0:0:0:
256,192,319045,1,0,0:0:0:0:
329,192,319106,1,0,0:0:0:0:
475,192,319167,1,0,0:0:0:0:
402,192,319228,1,0,0:0:0:0:
329,192,319289,1,0,0:0:0:0:
182,192,319289,1,0,0:0:0:0:
36,192,319289,1,0,0:0:0:0:
475,192,319349,1,0,0:0:0:0:
109,192,319410,1,0,0:0:0:0:
256,192,319410,1,0,0:0:0:0:
402,192,319471,1,0,0:0:0:0:
182,192,319532,1,0,0:0:0:0:
329,192,319532,1,0,0:0:0:0:
475,192,319593,1,0,0:0:0:0:
402,192,319654,1,0,0:0:0:0:
36,192,319654,1,4,0:0:0:0:
109,192,319654,1,4,0:0:0:0:
256,192,319654,1,0,0:0:0:0:
182,192,319715,1,0,0:0:0:0:
329,192,319775,1,0,0:0:0:0:
109,192,319836,1,0,0:0:0:0:
256,192,319897,1,0,0:0:0:0:
402,192,319897,1,0,0:0:0:0:
475,192,319897,1,0,0:0:0:0:
36,192,319958,1,0,0:0:0:0:
182,192,320019,1,0,0:0:0:0:
329,192,320080,1,0,0:0:0:0:
475,192,320141,1,0,0:0:0:0:
36,192,320141,1,0,0:0:0:0:
109,192,320141,1,0,0:0:0:0:
256,192,320201,1,0,0:0:0:0:
109,192,320262,1,0,0:0:0:0:
182,192,320262,1,0,0:0:0:0:
329,192,320323,1,0,0:0:0:0:
182,192,320384,1,0,0:0:0:0:
256,192,320384,1,0,0:0:0:0:
475,192,320384,1,0,0:0:0:0:
402,192,320384,1,0,0:0:0:0:
36,192,320444,1,0,0:0:0:0:
109,192,320505,1,0,0:0:0:0:
329,192,320565,1,0,0:0:0:0:
256,192,320626,1,0,0:0:0:0:
182,192,320626,1,0,0:0:0:0:
36,192,320626,1,0,0:0:0:0:
402,192,320686,1,0,0:0:0:0:
256,192,320747,1,0,0:0:0:0:
329,192,320747,1,0,0:0:0:0:
109,192,320807,1,0,0:0:0:0:
182,192,320868,1,0,0:0:0:0:
402,192,320868,1,0,0:0:0:0:
475,192,320868,1,0,0:0:0:0:
256,192,320928,1,0,0:0:0:0:
329,192,320989,1,0,0:0:0:0:
402,192,320989,1,0,0:0:0:0:
36,192,320989,1,0,0:0:0:0:
109,192,321049,1,0,0:0:0:0:
256,192,321110,1,4,0:0:0:0:
329,192,321110,1,0,0:0:0:0:
475,192,321110,1,0,0:0:0:0:
182,192,321110,1,4,0:0:0:0:
36,192,321110,1,0,0:0:0:0:
402,192,321170,1,0,0:0:0:0:
109,192,321231,1,0,0:0:0:0:
329,192,321291,1,0,0:0:0:0:
182,192,321352,1,0,0:0:0:0:
36,192,321352,1,0,0:0:0:0:
256,192,321352,1,0,0:0:0:0:
475,192,321412,1,0,0:0:0:0:
402,192,321473,1,0,0:0:0:0:
182,192,321534,1,0,0:0:0:0:
109,192,321594,1,0,0:0:0:0:
256,192,321594,1,0,0:0:0:0:
329,192,321594,1,0,0:0:0:0:
402,192,321655,1,0,0:0:0:0:
475,192,321715,1,0,0:0:0:0:
182,192,321776,1,0,0:0:0:0:
402,192,321836,1,0,0:0:0:0:
329,192,321836,1,0,0:0:0:0:
36,192,321836,1,0,0:0:0:0:
109,192,321836,1,0,0:0:0:0:
256,192,321896,1,0,0:0:0:0:
182,192,321957,1,0,0:0:0:0:
475,192,322018,1,0,0:0:0:0:
402,192,322078,1,0,0:0:0:0:
109,192,322078,1,0,0:0:0:0:
256,192,322078,1,0,0:0:0:0:
329,192,322139,1,0,0:0:0:0:
36,192,322200,1,0,0:0:0:0:
182,192,322200,1,0,0:0:0:0:
475,192,322200,1,0,0:0:0:0:
402,192,322260,1,0,0:0:0:0:
329,192,322321,1,0,0:0:0:0:
109,192,322321,1,0,0:0:0:0:
256,192,322382,1,0,0:0:0:0:
36,192,322442,1,0,0:0:0:0:
182,192,322442,1,0,0:0:0:0:
329,192,322503,1,0,0:0:0:0:
256,192,322564,1,0,0:0:0:0:
109,192,322564,1,0,0:0:0:0:
36,192,322564,1,0,0:0:0:0:
402,192,322564,1,4,0:0:0:0:
475,192,322564,1,4,0:0:0:0:
182,192,322624,1,0,0:0:0:0:
329,192,322685,1,0,0:0:0:0:
256,192,322746,1,0,0:0:0:0:
182,192,322806,1,0,0:0:0:0:
36,192,322806,1,0,0:0:0:0:
109,192,322806,1,0,0:0:0:0:
329,192,322867,1,0,0:0:0:0:
256,192,322928,1,0,0:0:0:0:
182,192,322988,1,0,0:0:0:0:
329,192,323049,1,0,0:0:0:0:
402,192,323049,1,0,0:0:0:0:
475,192,323049,1,0,0:0:0:0:
256,192,323110,1,0,0:0:0:0:
182,192,323170,1,0,0:0:0:0:
36,192,323231,1,0,0:0:0:0:
109,192,323292,1,0,0:0:0:0:
329,192,323292,1,0,0:0:0:0:
475,192,323292,1,0,0:0:0:0:
256,192,323292,1,0,0:0:0:0:
182,192,323352,1,0,0:0:0:0:
402,192,323412,1,0,0:0:0:0:
329,192,323473,1,0,0:0:0:0:
256,192,323533,1,0,0:0:0:0:
182,192,323533,1,0,0:0:0:0:
36,192,323533,1,0,0:0:0:0:
402,192,323594,1,0,0:0:0:0:
109,192,323654,1,0,0:0:0:0:
329,192,323654,1,0,0:0:0:0:
256,192,323654,1,0,0:0:0:0:
475,192,323714,1,0,0:0:0:0:
402,192,323775,1,0,0:0:0:0:
329,192,323775,1,0,0:0:0:0:
182,192,323775,1,0,0:0:0:0:
36,192,323835,1,0,0:0:0:0:
109,192,323896,1,0,0:0:0:0:
256,192,323956,1,0,0:0:0:0:
182,192,324017,1,0,0:0:0:0:
36,192,324017,1,0,0:0:0:0:
329,192,324017,1,0,0:0:0:0:
402,192,324017,1,4,0:0:0:0:
475,192,324017,1,4,0:0:0:0:
109,192,324077,1,0,0:0:0:0:
256,192,324137,1,0,0:0:0:0:
182,192,324198,1,0,0:0:0:0:
36,192,324258,1,0,0:0:0:0:
109,192,324258,1,0,0:0:0:0:
402,192,324258,1,0,0:0:0:0:
329,192,324319,1,0,0:0:0:0:
182,192,324379,1,0,0:0:0:0:
256,192,324379,1,0,0:0:0:0:
475,192,324379,1,0,0:0:0:0:
402,192,324439,1,0,0:0:0:0:
36,192,324500,1,0,0:0:0:0:
109,192,324500,1,0,0:0:0:0:
329,192,324500,1,0,0:0:0:0:
182,192,324560,1,0,0:0:0:0:
256,192,324621,1,0,0:0:0:0:
329,192,324681,1,0,0:0:0:0:
402,192,324742,1,0,0:0:0:0:
475,192,324742,1,0,0:0:0:0:
109,192,324742,1,0,0:0:0:0:
182,192,324742,1,0,0:0:0:0:
36,192,324742,1,0,0:0:0:0:
256,192,324802,1,0,0:0:0:0:
329,192,324863,1,0,0:0:0:0:
36,192,324863,1,0,0:0:0:0:
475,192,324924,1,0,0:0:0:0:
402,192,324984,1,0,0:0:0:0:
182,192,324984,1,0,0:0:0:0:
329,192,325045,1,0,0:0:0:0:
256,192,325106,1,0,0:0:0:0:
109,192,325106,1,0,0:0:0:0:
36,192,325106,1,0,0:0:0:0:
475,192,325167,1,0,0:0:0:0:
402,192,325227,1,0,0:0:0:0:
182,192,325227,1,0,0:0:0:0:
36,192,325288,1,0,0:0:0:0:
256,192,325349,1,0,0:0:0:0:
109,192,325409,1,0,0:0:0:0:
329,192,325470,1,4,0:0:0:0:
402,192,325470,1,4,0:0:0:0:
475,192,325470,1,0,0:0:0:0:
36,192,325470,1,0,0:0:0:0:
182,192,325531,1,0,0:0:0:0:
109,192,325592,1,0,0:0:0:0:
36,192,325652,1,0,0:0:0:0:
256,192,325652,1,0,0:0:0:0:
329,192,325713,1,0,0:0:0:0:
402,192,325774,1,0,0:0:0:0:
475,192,325835,1,0,0:0:0:0:
36,192,325835,1,0,0:0:0:0:
182,192,325835,1,0,0:0:0:0:
256,192,325895,1,0,0:0:0:0:
329,192,325956,1,0,0:0:0:0:
109,192,325956,1,0,0:0:0:0:
475,192,326017,1,0,0:0:0:0:
402,192,326077,1,0,0:0:0:0:
182,192,326077,1,0,0:0:0:0:
329,192,326138,1,0,0:0:0:0:
109,192,326199,1,0,0:0:0:0:
256,192,326199,1,0,0:0:0:0:
475,192,326199,1,0,0:0:0:0:
36,192,326199,1,0,0:0:0:0:
182,192,326259,1,0,0:0:0:0:
329,192,326320,1,0,0:0:0:0:
402,192,326380,1,0,0:0:0:0:
475,192,326441,1,0,0:0:0:0:
109,192,326441,1,0,0:0:0:0:
182,192,326441,1,0,0:0:0:0:
329,192,326501,1,0,0:0:0:0:
36,192,326562,1,0,0:0:0:0:
109,192,326622,1,0,0:0:0:0:
182,192,326683,1,0,0:0:0:0:
256,192,326683,1,0,0:0:0:0:
402,192,326744,1,0,0:0:0:0:
329,192,326804,1,0,0:0:0:0:
256,192,326865,1,0,0:0:0:0:
329,192,326925,1,0,0:0:0:0:
402,192,326925,1,0,0:0:0:0:
475,192,326925,1,0,0:0:0:0:
36,192,326925,1,4,0:0:0:0:
109,192,326925,1,4,0:0:0:0:
182,192,326986,1,0,0:0:0:0:
256,192,327046,1,0,0:0:0:0:
402,192,327107,1,0,0:0:0:0:
329,192,327167,1,0,0:0:0:0:
256,192,327228,1,0,0:0:0:0:
182,192,327289,1,0,0:0:0:0:
36,192,327289,1,0,0:0:0:0:
475,192,327289,1,0,0:0:0:0:
402,192,327349,1,0,0:0:0:0:
329,192,327410,1,0,0:0:0:0:
182,192,327470,1,0,0:0:0:0:
256,192,327531,1,0,0:0:0:0:
329,192,327591,1,0,0:0:0:0:
402,192,327652,1,0,0:0:0:0:
475,192,327652,1,0,0:0:0:0:
182,192,327652,1,0,0:0:0:0:
109,192,327652,1,0,0:0:0:0:
36,192,327652,1,0,0:0:0:0:
182,192,327895,1,0,0:0:0:0:
329,192,327895,1,0,0:0:0:0:
256,192,327956,1,0,0:0:0:0:
109,192,328016,1,0,0:0:0:0:
402,192,328016,1,0,0:0:0:0:
109,192,328138,1,0,0:0:0:0:
402,192,328138,1,0,0:0:0:0:
109,192,328260,1,0,0:0:0:0:
402,192,328260,1,0,0:0:0:0:
109,192,328381,1,0,0:0:0:0:
256,192,328381,1,4,0:0:0:0:
402,192,328381,1,0,0:0:0:0:
36,192,328381,128,0,328746:0:0:0:0:
475,192,328381,128,0,328746:0:0:0:0:
256,192,328746,128,0,329111:0:0:0:0:
109,192,329111,128,0,329231:0:0:0:0:
402,192,329111,128,0,329231:0:0:0:0:
182,192,329352,1,0,0:0:0:0:
329,192,329352,1,0,0:0:0:0:
256,192,329412,1,0,0:0:0:0:
475,192,329473,1,0,0:0:0:0:
36,192,329473,1,0,0:0:0:0:
475,192,329594,1,0,0:0:0:0:
36,192,329594,1,0,0:0:0:0:
475,192,329714,1,0,0:0:0:0:
36,192,329714,1,0,0:0:0:0:
36,192,329835,1,0,0:0:0:0:
475,192,329835,1,0,0:0:0:0:
256,192,329835,1,4,0:0:0:0:
182,192,329835,128,0,330198:0:0:0:0:
329,192,329835,128,0,330198:0:0:0:0:
256,192,330198,128,0,330560:0:0:0:0:
475,192,330560,128,0,330817:0:0:0:0:
109,192,330560,128,0,332106:0:0:0:0:
329,192,330817,1,0,0:0:0:0:
329,192,330946,128,0,331333:0:0:0:0:
256,192,331590,128,0,331848:0:0:0:0:
402,192,331848,1,0,0:0:0:0:
402,192,332106,128,0,334060:0:0:0:0:
256,192,332106,128,0,334060:0:0:0:0:
36,192,332106,128,0,334060:0:0:0:0:
182,192,332960,128,0,334060:0:0:0:0:
109,192,334060,1,0,0:0:0:0:
475,192,334060,1,0,0:0:0:0:
36,192,334460,1,0,0:0:0:0:
182,192,334460,1,0,0:0:0:0:
109,192,334593,1,0,0:0:0:0:
256,192,334593,1,0,0:0:0:0:
475,192,334726,1,0,0:0:0:0:
329,192,334726,1,0,0:0:0:0:
402,192,334860,1,0,0:0:0:0:
256,192,334860,1,0,0:0:0:0:
109,192,334860,1,0,0:0:0:0:
329,192,335126,1,0,0:0:0:0:
475,192,335126,1,0,0:0:0:0:
182,192,335260,1,0,0:0:0:0:
36,192,335260,1,0,0:0:0:0:
256,192,335393,1,0,0:0:0:0:
402,192,335393,1,0,0:0:0:0:
109,192,335526,1,0,0:0:0:0:
475,192,335526,1,0,0:0:0:0:
182,192,335660,1,0,0:0:0:0:
329,192,335660,1,0,0:0:0:0:
36,192,335660,1,0,0:0:0:0:
256,192,335926,1,0,0:0:0:0:
182,192,336060,1,0,0:0:0:0:
36,192,336060,1,0,0:0:0:0:
475,192,336193,1,0,0:0:0:0:
329,192,336193,1,0,0:0:0:0:
256,192,336326,1,0,0:0:0:0:
109,192,336326,1,0,0:0:0:0:
182,192,336460,1,0,0:0:0:0:
329,192,336460,1,0,0:0:0:0:
36,192,336726,1,0,0:0:0:0:
182,192,336726,1,0,0:0:0:0:
109,192,336860,1,0,0:0:0:0:
256,192,336860,1,0,0:0:0:0:
475,192,336993,1,0,0:0:0:0:
182,192,337126,1,0,0:0:0:0:
329,192,337126,1,0,0:0:0:0:
256,192,337260,1,0,0:0:0:0:
402,192,337260,1,0,0:0:0:0:
109,192,337326,1,0,0:0:0:0:
329,192,337526,1,0,0:0:0:0:
475,192,337526,1,0,0:0:0:0:
402,192,337660,1,0,0:0:0:0:
256,192,337660,1,0,0:0:0:0:
36,192,337660,1,0,0:0:0:0:
109,192,337926,1,0,0:0:0:0:
329,192,337926,1,0,0:0:0:0:
182,192,338060,1,0,0:0:0:0:
402,192,338060,1,0,0:0:0:0:
475,192,338060,1,0,0:0:0:0:
36,192,338193,1,0,0:0:0:0:
256,192,338193,1,0,0:0:0:0:
109,192,338326,1,0,0:0:0:0:
329,192,338326,1,0,0:0:0:0:
475,192,338393,1,0,0:0:0:0:
402,192,338460,1,0,0:0:0:0:
182,192,338460,1,0,0:0:0:0:
36,192,338593,1,0,0:0:0:0:
109,192,338593,1,0,0:0:0:0:
182,192,338726,1,0,0:0:0:0:
256,192,338726,1,0,0:0:0:0:
329,192,338793,1,0,0:0:0:0:
402,192,338860,1,4,0:0:0:0:
475,192,338860,1,4,0:0:0:0:
36,192,338860,1,0,0:0:0:0:
109,192,338860,1,0,0:0:0:0:
182,192,338860,1,0,0:0:0:0:
402,192,339126,1,0,0:0:0:0:
329,192,339260,1,0,0:0:0:0:
256,192,339260,1,0,0:0:0:0:
182,192,339260,1,0,0:0:0:0:
36,192,339260,1,4,0:0:0:0:
109,192,339260,1,4,0:0:0:0:
475,192,339326,1,0,0:0:0:0:
256,192,339526,1,0,0:0:0:0:
329,192,339593,1,0,0:0:0:0:
402,192,339660,1,4,0:0:0:0:
475,192,339660,1,4,0:0:0:0:
182,192,339660,1,0,0:0:0:0:
109,192,339660,1,0,0:0:0:0:
36,192,339660,1,0,0:0:0:0:
182,192,339926,1,0,0:0:0:0:
256,192,339926,1,0,0:0:0:0:
329,192,339926,1,0,0:0:0:0:
475,192,339993,1,0,0:0:0:0:
256,192,340060,1,0,0:0:0:0:
329,192,340060,1,0,0:0:0:0:
402,192,340060,1,0,0:0:0:0:
36,192,340060,1,4,0:0:0:0:
109,192,340060,1,4,0:0:0:0:
182,192,340126,1,0,0:0:0:0:
475,192,340193,1,0,0:0:0:0:
402,192,340193,1,0,0:0:0:0:
329,192,340193,1,0,0:0:0:0:
256,192,340260,1,0,0:0:0:0:
36,192,340326,1,0,0:0:0:0:
329,192,340393,1,0,0:0:0:0:
109,192,340451,1,4,0:0:0:0:
182,192,340451,1,4,0:0:0:0:
475,192,340451,1,0,0:0:0:0:
402,192,340451,1,0,0:0:0:0:
36,192,340653,1,0,0:0:0:0:
109,192,340721,1,0,0:0:0:0:
182,192,340789,1,0,0:0:0:0:
256,192,340856,1,0,0:0:0:0:
475,192,340856,1,0,0:0:0:0:
402,192,340924,1,0,0:0:0:0:
329,192,340991,1,0,0:0:0:0:
182,192,340991,1,0,0:0:0:0:
109,192,341059,1,0,0:0:0:0:
36,192,341127,1,0,0:0:0:0:
475,192,341127,1,0,0:0:0:0:
402,192,341194,1,0,0:0:0:0:
182,192,341262,1,0,0:0:0:0:
329,192,341262,1,4,0:0:0:0:
256,192,341262,1,4,0:0:0:0:
109,192,341330,1,0,0:0:0:0:
36,192,341397,1,0,0:0:0:0:
329,192,341465,1,0,0:0:0:0:
402,192,341532,1,0,0:0:0:0:
475,192,341600,1,0,0:0:0:0:
36,192,341668,1,0,0:0:0:0:
182,192,341668,1,0,0:0:0:0:
256,192,341668,1,0,0:0:0:0:
329,192,341735,1,0,0:0:0:0:
402,192,341803,1,0,0:0:0:0:
475,192,341803,1,0,0:0:0:0:
109,192,341803,1,0,0:0:0:0:
182,192,341871,1,0,0:0:0:0:
256,192,341938,1,0,0:0:0:0:
329,192,341938,1,0,0:0:0:0:
402,192,341938,1,0,0:0:0:0:
36,192,342006,1,0,0:0:0:0:
109,192,342073,1,4,0:0:0:0:
182,192,342073,1,4,0:0:0:0:
475,192,342073,1,0,0:0:0:0:
402,192,342142,1,0,0:0:0:0:
329,192,342212,1,0,0:0:0:0:
36,192,342282,1,0,0:0:0:0:
109,192,342352,1,0,0:0:0:0:
182,192,342352,1,0,0:0:0:0:
256,192,342352,1,0,0:0:0:0:
402,192,342422,1,0,0:0:0:0:
329,192,342492,1,0,0:0:0:0:
475,192,342562,1,0,0:0:0:0:
402,192,342632,1,0,0:0:0:0:
329,192,342632,1,0,0:0:0:0:
256,192,342632,1,0,0:0:0:0:
109,192,342702,1,0,0:0:0:0:
182,192,342772,1,0,0:0:0:0:
256,192,342842,1,0,0:0:0:0:
36,192,342911,128,0,343750:0:0:0:0:
475,192,342911,128,0,343750:0:0:0:0:
329,192,342911,1,4,0:0:0:0:
402,192,342911,1,4,0:0:0:0:
109,192,342911,1,0,0:0:0:0:
256,192,343331,128,0,343750:0:0:0:0:
182,192,343750,128,0,345141:0:0:0:0:
329,192,343750,128,0,345141:0:0:0:0:
256,192,343958,1,0,0:0:0:0:
256,192,344167,128,0,345141:0:0:0:0:
36,192,344793,128,0,345141:0:0:0:0:
475,192,345141,128,0,345420:0:0:0:0:
36,192,345420,128,0,347587:0:0:0:0:
109,192,345420,128,0,347587:0:0:0:0:
182,192,346413,128,0,347587:0:0:0:0:
256,192,346413,128,0,347587:0:0:0:0:
402,192,347587,1,0,0:0:0:0:
329,192,347587,1,4,0:0:0:0:
475,192,347587,128,0,352450:0:0:0:0:
256,192,347984,1,0,0:0:0:0:
182,192,348381,1,0,0:0:0:0:
36,192,348778,1,0,0:0:0:0:
109,192,349185,1,0,0:0:0:0:
182,192,349592,1,0,0:0:0:0:
256,192,350000,1,0,0:0:0:0:
402,192,350404,1,0,0:0:0:0:
329,192,350808,1,0,0:0:0:0:
256,192,351213,128,0,352450:0:0:0:0:
36,192,351213,128,0,352450:0:0:0:0:
402,192,351213,1,0,0:0:0:0:
329,192,351281,1,0,0:0:0:0:
109,192,351350,1,0,0:0:0:0:
182,192,351419,1,0,0:0:0:0:
402,192,351487,1,0,0:0:0:0:
329,192,351556,1,0,0:0:0:0:
109,192,351625,1,0,0:0:0:0:
182,192,351694,1,0,0:0:0:0:
402,192,351762,1,0,0:0:0:0:
329,192,351831,1,0,0:0:0:0:
109,192,351900,1,0,0:0:0:0:
182,192,351969,1,0,0:0:0:0:
402,192,352037,1,0,0:0:0:0:
329,192,352106,1,0,0:0:0:0:
109,192,352175,1,0,0:0:0:0:
182,192,352243,1,0,0:0:0:0:
402,192,352312,1,0,0:0:0:0:
329,192,352381,1,0,0:0:0:0:
109,192,352450,1,0,0:0:0:0:
182,192,352450,1,0,0:0:0:0:
475,192,354914,1,0,0:0:0:0:
329,192,355047,1,0,0:0:0:0:
182,192,355180,1,0,0:0:0:0:
402,192,355313,1,0,0:0:0:0:
256,192,355446,1,0,0:0:0:0:
109,192,355579,1,0,0:0:0:0:
329,192,355712,1,0,0:0:0:0:
182,192,355845,1,0,0:0:0:0:
36,192,355978,1,0,0:0:0:0:
329,192,356111,128,0,357308:0:0:0:0:
402,192,356111,128,0,357308:0:0:0:0:
256,192,356111,128,0,358504:0:0:0:0:
475,192,356909,128,0,359701:0:0:0:0:
109,192,357308,128,0,362040:0:0:0:0:
182,192,357308,128,0,362040:0:0:0:0:
329,192,358504,128,0,359701:0:0:0:0:
402,192,358504,128,0,359701:0:0:0:0:
36,192,359701,128,0,362040:0:0:0:0:
475,192,360896,1,0,0:0:0:0:
329,192,361023,1,0,0:0:0:0:
402,192,361150,1,0,0:0:0:0:
256,192,361277,1,0,0:0:0:0:
329,192,361373,1,0,0:0:0:0:
402,192,361468,1,0,0:0:0:0:
475,192,361563,1,0,0:0:0:0:
256,192,361659,1,0,0:0:0:0:
402,192,361754,1,0,0:0:0:0:
329,192,361850,1,0,0:0:0:0:
475,192,361945,1,0,0:0:0:0:
402,192,362040,1,0,0:0:0:0:
256,192,362040,1,0,0:0:0:0:
329,192,362040,1,0,0:0:0:0:
