osu file format v14

[General]
AudioFilename: audio.mp3
AudioLeadIn: 0
PreviewTime: 17315
Countdown: 0
SampleSet: None
StackLeniency: 0.3
Mode: 0
LetterboxInBreaks: 0
WidescreenStoryboard: 0

[Editor]
DistanceSpacing: 0.2
BeatDivisor: 8
GridSize: 32
TimelineZoom: 3

[Metadata]
Title:UNDERVEIL IS REAL!!!
TitleUnicode:UNDERVEIL IS REAL!!!
Artist:aaaa + Silentroom
ArtistUnicode:ああああ + Silentroom
Creator:-PC
Version:werf's iuytrr
Source:
Tags:
BeatmapID:1966939
BeatmapSetID:941958

[Difficulty]
HPDrainRate:6
CircleSize:4
OverallDifficulty:8
ApproachRate:9.3
SliderMultiplier:2
SliderTickRate:1

[Events]
//Background and Video events
0,0,"bg-werf.jpg",0,0
//Break Periods
//Storyboard Layer 0 (Background)
//Storyboard Layer 1 (Fail)
//Storyboard Layer 2 (Pass)
//Storyboard Layer 3 (Foreground)
//Storyboard Sound Samples

[TimingPoints]
5315,333.333333333333,4,2,0,50,1,0
5315,-133.333333333333,4,2,0,50,0,0
6314,-66.6666666666667,4,2,0,50,0,0
6648,-133.333333333333,4,2,0,50,0,0
9314,-66.6666666666667,4,2,0,50,0,0
9814,-133.333333333333,4,2,0,50,0,0
10314,-44.4444444444445,4,2,0,80,0,0
10356,-44.4444444444445,4,2,0,5,0,0
10648,-125,4,2,0,60,0,0
10981,-62.5,4,2,0,70,0,0
11314,-100,4,2,0,62,0,0
11648,-50,4,2,0,74,0,0
11981,-89.2857142857143,4,2,0,64,0,0
12314,-41.6666666666667,4,2,0,76,0,0
12648,-78.125,4,2,0,68,0,0
12981,-40,4,2,0,80,0,0
13314,-66.6666666666667,4,2,0,80,0,0
14648,-500,4,2,0,80,0,0
14689,-500,4,2,0,40,0,0
15981,-133.333333333333,4,2,0,40,0,0
16981,-50,4,2,0,80,0,0
17314,-57.1428571428571,4,2,0,80,0,1
17606,-57.1428571428571,4,2,0,5,0,1
17648,-57.1428571428571,4,2,0,80,0,1
18648,-80,4,2,0,70,0,1
19314,-100,4,2,0,60,0,1
19981,-83.3333333333333,4,2,0,60,0,1
20648,-57.1428571428571,4,2,0,80,0,1
20981,-83.3333333333333,4,2,0,80,0,1
21314,-66.6666666666667,4,2,0,65,0,1
21981,-83.3333333333333,4,2,0,65,0,1
22648,-62.5,4,2,0,80,0,1
22939,-62.5,4,2,0,5,0,1
22981,-62.5,4,2,0,80,0,1
23314,-57.1428571428571,4,2,0,80,0,1
23981,-80,4,2,0,70,0,1
24648,-100,4,2,0,60,0,1
25314,-100,4,2,0,55,0,1
25814,-66.6666666666667,4,2,0,70,0,1
26481,-45.4545454545455,4,2,0,85,0,1
27481,-166.666666666667,4,2,0,80,0,1
27981,-83.3333333333334,4,2,0,80,0,1
28314,-125,4,2,0,60,0,1
30314,-45.4545454545455,4,2,0,80,0,1
30648,-57.1428571428571,4,2,0,80,0,1
30939,-57.1428571428571,4,2,0,5,0,1
30981,-57.1428571428571,4,2,0,80,0,1
31981,-66.6666666666667,4,2,0,65,0,1
32648,-83.3333333333333,4,2,0,65,0,1
33314,-62.5,4,2,0,80,0,1
34648,-71.4285714285714,4,2,0,70,0,1
35314,-83.3333333333333,4,2,0,60,0,1
35981,-100,4,2,0,60,0,1
36481,-66.6666666666667,4,2,0,75,0,1
37148,-45.4545454545455,4,2,0,90,0,1
38148,-100,4,2,0,50,0,1
38314,-50,4,2,0,100,0,1
38648,-166.666666666667,4,2,0,80,0,0
38981,-166.666666666667,4,2,0,70,0,0
39314,-166.666666666667,4,2,0,60,0,0
39648,-166.666666666667,4,2,0,50,0,0
39981,-166.666666666667,4,2,0,45,0,0
40314,-166.666666666667,4,2,0,40,0,0

[Colours]
Combo1 : 213,53,217
Combo2 : 255,0,0
Combo3 : 252,166,0
Combo4 : 255,255,0
Combo5 : 0,192,0
Combo6 : 0,60,255
Combo7 : 66,252,255

[HitObjects]
56,112,5315,6,0,L|218:127,1,150.000005722046,2|0,3:3|0:0,0:0:0:0:
269,188,5814,1,2,3:0:0:0:
402,111,5981,2,0,L|322:118,1,75
442,201,6314,6,0,B|397:186|371:204|371:204|349:244|363:293,1,150.000005722046,2|0,3:0|0:0,0:0:0:0:
416,347,6648,6,0,B|336:361|336:361|274:317|274:317|194:331,1,225.000008583069,2|2,3:0|3:0,0:0:0:0:
206,329,7314,1,0,0:0:0:0:
206,329,7648,2,0,L|116:346,1,75.0000028610231,2|0,3:0|0:0,0:0:0:0:
304,312,7981,6,0,P|359:262|358:188,1,150.000005722046,2|0,3:0|0:0,0:0:0:0:
296,128,8481,1,2,3:0:0:0:
394,12,8648,2,0,P|395:52|376:84,1,75.0000028610231
208,87,8981,2,0,P|190:54|192:17,1,75.0000028610231,2|0,3:0|0:0,0:0:0:0:
296,128,9314,6,0,B|304:152|294:172|294:172|228:198|184:172,2,150.000005722046,2|0|0,3:0|0:0|0:0,0:0:0:0:
208,87,9814,5,2,3:0:0:0:
180,187,9981,2,0,L|186:270,1,75.0000028610231
344,16,10314,6,0,L|338:99,1,56.2500021457673,2|0,0:0|0:0,0:0:0:0:
339,72,10648,6,0,P|336:104|352:139,1,40,6|0,3:0|0:0,0:0:0:0:
512,176,10814,2,0,P|485:194|447:198,1,40,2|0,3:0|0:0,0:0:0:0:
478,57,10981,6,0,P|387:202|376:269,1,240,6|0,1:3|0:0,0:0:0:0:
409,305,11314,6,0,P|441:308|481:296,1,50,6|0,3:0|0:0,0:0:0:0:
334,254,11481,2,0,P|302:251|262:263,1,50,2|0,3:0|0:0,0:0:0:0:
226,382,11648,6,0,B|186:322|171:227|194:127|237:68,1,300,6|0,1:3|0:0,0:0:0:0:
226,37,11981,6,0,L|170:28,1,56.0000006835938,6|0,3:0|0:0,0:0:0:0:
116,230,12148,2,0,L|60:221,1,56.0000006835938,2|0,0:3|0:0,0:0:0:0:
64,113,12314,6,0,P|250:189|321:327,1,359.999989013672,6|0,1:3|0:0,0:0:0:0:
406,367,12648,6,0,L|411:278,1,64,6|0,3:0|0:0,0:0:0:0:
426,127,12814,2,0,L|431:38,1,64,2|0,0:3|0:0,0:3:0:0:
442,219,12981,6,0,B|392:220|346:201|330:180|312:140|312:140|305:127|303:89|319:65|319:65|326:93|323:128|310:141|278:158|235:144,1,375,6|0,1:3|0:0,0:0:0:0:
153,113,13314,6,0,L|63:123,3,75.0000028610231,6|0|2|2,1:3|0:3|1:3|0:3,0:3:0:0:
94,235,13648,2,0,L|4:245,3,75.0000028610231,6|2|2|2,1:3|0:3|1:3|0:3,0:3:0:0:
150,340,13981,5,6,1:3:0:0:
194,335,14064,1,2,1:3:0:0:
239,330,14148,1,6,1:3:0:0:
284,324,14231,1,2,1:3:0:0:
328,319,14314,1,6,1:3:0:0:
373,314,14398,1,6,1:3:0:0:
418,308,14481,1,6,1:3:0:0:
462,303,14564,1,6,1:3:0:0:
507,298,14648,6,0,L|502:254,3,40,2|2|2|2,0:0|0:0|0:0|0:0,0:0:0:0:
414,35,15981,6,0,L|410:123,1,75.0000028610231,2|0,0:3|0:0,0:0:0:0:
414,35,16314,6,0,L|410:123,1,75.0000028610231,2|0,0:3|0:0,0:0:0:0:
414,35,16648,6,0,L|410:123,1,75.0000028610231,2|0,0:3|0:0,0:0:0:0:
502,172,16898,1,0,0:0:0:0:
489,149,16981,6,0,P|372:149|355:306,1,300,8|0,1:0|0:0,0:0:0:0:
456,312,17314,6,0,B|352:302|352:302|277:364|277:364|173:355,1,306.250002920628,4|0,1:0|0:0,0:0:0:0:
156,360,17648,2,0,P|64:320|43:226,1,175.00000166893,8|0,0:1|0:0,0:0:0:0:
71,11,17981,6,0,L|258:28,1,175.00000166893,0|0,1:0|0:0,0:0:0:0:
16,124,18314,2,0,L|203:141,1,175.00000166893,8|0,0:1|0:0,0:0:0:0:
457,126,18648,6,0,L|318:138,1,125,0|0,1:0|0:0,0:0:0:0:
512,238,18981,2,0,L|359:251,1,125,8|0,0:1|0:0,0:0:0:0:
158,329,19314,6,0,L|167:229,1,100,0|0,1:0|0:0,0:0:0:0:
270,384,19648,2,0,L|281:262,1,100,8|0,0:1|0:0,0:0:0:0:
285,140,19981,6,0,P|379:158|421:252,1,179.999994506836,0|0,1:0|0:0,0:0:0:0:
493,278,20314,2,0,L|513:138,1,119.999996337891,8|0,0:1|0:0,0:0:0:0:
297,48,20648,5,0,1:0:0:0:
297,48,20731,2,0,P|203:66|161:160,1,175.00000166893,2|0,0:0|0:0,0:0:0:0:
89,186,20981,2,0,L|69:46,1,119.999996337891,8|0,0:1|0:0,0:0:0:0:
68,304,21314,6,0,B|146:294|146:294|153:283|153:283|224:274,2,150.000005722046,0|2|8,1:0|0:0|0:1,0:0:0:0:
45,307,21731,1,0,0:0:0:0:
23,311,21814,1,2,0:0:0:0:
293,199,21981,2,0,P|292:258|307:316,1,119.999996337891,0|0,1:0|0:0,0:0:0:0:
504,285,22314,2,0,P|504:225|489:167,1,119.999996337891,8|0,0:1|0:0,0:0:0:0:
408,67,22648,6,0,B|313:76|313:76|244:19|244:19|149:27,1,280,0|0,1:0|0:0,0:0:0:0:
134,23,22981,2,0,P|50:59|30:145,1,160,8|0,0:1|0:0,0:0:0:0:
266,357,23314,6,0,L|441:373,1,175.00000166893,0|0,1:0|0:0,0:0:0:0:
496,260,23648,2,0,L|321:244,1,175.00000166893,8|0,0:1|0:0,0:0:0:0:
55,258,23981,6,0,L|179:247,1,125,0|0,1:0|0:0,0:0:0:0:
124,135,24314,2,0,L|0:146,1,125,8|0,0:1|0:0,0:0:0:0:
345,155,24648,6,0,L|354:55,1,100,0|0,1:0|0:0,0:0:0:0:
242,0,24981,2,0,L|233:99,1,100,8|0,0:1|0:0,0:0:0:0:
217,220,25314,6,0,P|269:244|311:241,2,100,0|0|8,1:0|0:0|0:1,0:0:0:0:
387,162,25814,6,0,P|422:250|328:352,1,225.000008583069,0|0,1:0|0:0,0:0:0:0:
314,350,26148,1,2,0:0:0:0:
205,213,26314,1,8,0:1:0:0:
312,62,26481,6,0,P|266:170|84:88,1,330.000010070801,0|0,1:0|0:0,0:0:0:0:
100,45,26814,1,2,0:0:0:0:
239,307,26981,1,8,0:1:0:0:
8,231,27148,1,0,1:0:0:0:
248,51,27481,5,2,0:0:0:0:
280,55,27564,1,2,0:0:0:0:
314,44,27648,2,0,L|310:71,1,14.9999995422363,2|2,0:0|0:0,0:0:0:0:
331,75,27731,1,2,0:0:0:0:
370,65,27814,1,2,0:0:0:0:
402,69,27898,1,2,0:0:0:0:
482,48,27981,6,0,P|411:103|412:205,1,179.999994506836,0|0,1:3|0:0,0:0:0:0:
485,224,28314,2,0,L|473:306,1,80,2|0,0:3|0:0,0:0:0:0:
397,377,28648,2,0,L|385:295,1,80,2|0,0:3|0:0,0:0:0:0:
310,262,28981,2,0,P|263:268|236:292,1,80,2|0,0:3|0:0,0:0:0:0:
194,364,29314,5,2,0:3:0:0:
156,374,29398,1,0,0:0:0:0:
119,360,29481,1,0,0:0:0:0:
99,327,29564,1,0,0:0:0:0:
139,265,29648,5,2,0:3:0:0:
138,226,29731,1,0,0:0:0:0:
113,195,29814,1,0,0:0:0:0:
75,186,29898,1,0,0:0:0:0:
19,233,29981,5,2,0:3:0:0:
316,342,30148,1,0,0:0:0:0:
316,342,30231,1,0,0:0:0:0:
316,342,30314,6,0,P|365:214|230:235,1,330.000010070801,8|0,1:0|0:0,0:0:0:0:
222,340,30648,6,8,B|231:236|231:236|168:161|168:161|177:57,1,306.250002920628,4|0,1:0|0:0,0:0:0:0:
176,37,30981,2,0,P|87:19|19:73,1,175.00000166893,8|0,0:1|0:0,0:0:0:0:
38,351,31314,5,0,1:0:0:0:
38,351,31398,2,0,L|53:175,1,175.00000166893,2|0,0:0|0:0,0:0:0:0:
151,333,31648,2,0,L|166:157,1,175.00000166893,8|0,0:1|0:0,0:0:0:0:
376,89,31981,6,0,B|386:167|386:167|397:174|397:174|406:245,2,150.000005722046,0|2|8,1:0|0:0|0:1,0:0:0:0:
373,66,32398,1,0,0:0:0:0:
369,44,32481,1,2,0:0:0:0:
145,135,32648,2,0,P|79:136|19:119,1,119.999996337891,0|0,1:0|0:0,0:0:0:0:
140,235,32981,2,0,P|81:236|23:222,1,119.999996337891,8|0,0:1|0:0,0:0:0:0:
137,335,33314,6,0,B|244:341|244:341|276:300|276:300|397:308,1,280,0|0,1:0|0:0,0:0:0:0:
410,315,33648,2,0,P|487:295|510:216,1,160,8|0,0:1|0:0,0:0:0:0:
346,5,33981,6,0,L|329:181,1,160,0|0,1:0|0:0,0:0:0:0:
166,379,34314,2,0,L|183:203,1,160,8|0,0:1|0:0,0:0:0:0:
455,293,34648,6,0,L|314:279,1,139.999995727539,0|0,1:0|0:0,0:0:0:0:
57,91,34981,2,0,L|197:104,1,139.999995727539,8|0,0:1|0:0,0:0:0:0:
318,265,35314,6,0,L|304:405,1,119.999996337891,0|0,1:0|0:0,0:0:0:0:
194,119,35648,2,0,L|207:-21,1,119.999996337891,8|0,0:1|0:0,0:0:0:0:
373,194,35981,6,0,P|316:175|269:192,2,100,0|0|8,1:0|0:0|0:1,0:0:0:0:
392,294,36481,6,0,P|446:263|433:113,1,225.000008583069,0|0,1:0|0:0,0:0:0:0:
368,81,36814,1,2,0:0:0:0:
219,255,36981,1,8,0:1:0:0:
173,40,37148,6,0,P|204:155|37:99,1,330.000010070801,0|0,1:0|0:0,0:0:0:0:
57,72,37481,1,2,0:0:0:0:
105,326,37648,1,8,0:1:0:0:
200,249,37814,6,0,B|337:263|337:263|352:296|352:296|514:312,1,330.000010070801,0|0,1:0|0:0,0:0:0:0:
501,293,38148,6,0,P|487:260|488:229,1,50,2|0,0:0|0:0,0:0:0:0:
509,155,38314,6,0,B|434:187|365:139|390:38|308:10|234:44,1,300,8|0,1:0|0:0,0:0:0:0:
199,98,38648,5,0,0:0:0:0:
199,98,38731,2,0,B|132:87|171:115|102:110,1,89.9999972534181,0|2,0:0|0:0,0:0:0:0:
112,110,39064,1,2,0:0:0:0:
112,110,39148,1,2,0:0:0:0:
65,190,39314,5,2,0:0:0:0:
62,204,39397,1,2,0:0:0:0:
60,219,39480,1,2,0:0:0:0:
129,281,39648,5,2,0:0:0:0:
132,295,39731,1,2,0:0:0:0:
134,310,39814,1,2,0:0:0:0:
240,363,39980,5,2,0:0:0:0:
242,354,40064,1,2,0:0:0:0:
239,345,40147,1,2,0:0:0:0:
217,277,40314,5,2,0:0:0:0:
215,268,40398,1,2,0:0:0:0:
218,259,40481,1,2,0:0:0:0:
257,211,40648,5,2,0:0:0:0:
259,202,40732,1,2,0:0:0:0:
256,193,40815,1,2,0:0:0:0:
228,155,40981,5,2,0:0:0:0:
222,154,41064,1,2,0:0:0:0:
215,153,41148,1,2,0:0:0:0:
