osu file format v14

[General]
AudioFilename: audio.mp3
AudioLeadIn: 0
PreviewTime: 17315
Countdown: 0
SampleSet: None
StackLeniency: 0.2
Mode: 0
LetterboxInBreaks: 0
WidescreenStoryboard: 0

[Editor]
DistanceSpacing: 0.6
BeatDivisor: 8
GridSize: 32
TimelineZoom: 1.4

[Metadata]
Title:UNDERVEIL IS REAL!!!
TitleUnicode:UNDERVEIL IS REAL!!!
Artist:aaaa + Silentroom
ArtistUnicode:ああああ + Silentroom
Creator:-PC
Version:Yokes' Unrelated
Source:
Tags:
BeatmapID:1966940
BeatmapSetID:941958

[Difficulty]
HPDrainRate:6
CircleSize:4
OverallDifficulty:8.4
ApproachRate:9.4
SliderMultiplier:2
SliderTickRate:1

[Events]
//Background and Video events
0,0,"BG.png",0,0
//Break Periods
//Storyboard Layer 0 (Background)
//Storyboard Layer 1 (Fail)
//Storyboard Layer 2 (Pass)
//Storyboard Layer 3 (Foreground)
//Storyboard Sound Samples

[TimingPoints]
5315.15373261856,333.333333333333,4,2,0,80,1,0
5316,-200,4,2,0,80,0,0
13315,-100,4,2,0,80,0,0
16981,-50,4,2,0,80,0,0
17315,-50,4,2,0,80,0,1
25315,-50,4,2,0,80,0,0
30315,-100,4,2,0,80,0,0
30648,-50,4,2,0,80,0,1
35981,-50,4,2,0,80,0,0
38648,-100,4,2,0,80,0,0

[Colours]
Combo1 : 159,64,255
Combo2 : 192,192,192
Combo3 : 149,149,149
Combo4 : 108,182,255
Combo5 : 47,151,255
Combo6 : 255,128,128
Combo7 : 255,60,60
Combo8 : 199,142,255

[HitObjects]
22,152,5315,5,0,1:0:0:0:
11,122,5482,1,0,0:0:0:0:
0,92,5649,1,0,0:0:0:0:
0,0,5815,5,0,1:0:0:0:
128,40,5981,101,0,0:0:0:0:
117,70,6148,1,0,0:0:0:0:
128,40,6315,5,0,1:0:0:0:
117,70,6482,1,0,0:0:0:0:
7,228,6648,102,0,L|0:277,2,50,0|0|0,1:0|0:0|0:0,0:0:0:0:
86,349,7148,6,0,L|78:299,2,50,0|0|0,1:0|0:0|0:0,0:0:0:0:
168,331,7648,102,0,L|175:281,1,50,0|0,1:0|0:0,0:0:0:0:
301,153,7981,5,0,1:0:0:0:
294,122,8148,1,0,0:0:0:0:
287,91,8315,1,0,0:0:0:0:
267,0,8481,101,0,1:0:0:0:
448,21,8648,5,0,0:0:0:0:
436,50,8815,1,0,0:0:0:0:
448,21,8981,101,0,1:0:0:0:
436,50,9148,1,0,0:0:0:0:
273,227,9315,5,0,1:0:0:0:
283,232,9481,1,0,0:0:0:0:
273,238,9648,1,0,0:0:0:0:
484,279,9815,101,0,1:0:0:0:
477,288,9981,1,0,0:0:0:0:
489,288,10148,1,0,0:0:0:0:
359,351,10315,6,0,L|364:296,1,50,2|0,1:0|0:0,0:0:0:0:
217,149,10648,101,0,1:0:0:0:
180,141,10815,1,0,0:0:0:0:
229,129,10981,5,0,1:0:0:0:
172,135,11148,1,0,0:0:0:0:
250,150,11315,5,0,1:0:0:0:
166,129,11482,1,0,0:0:0:0:
290,112,11648,5,0,1:0:0:0:
160,125,11815,1,0,0:0:0:0:
326,248,11981,5,0,1:0:0:0:
296,116,12148,1,0,0:0:0:0:
138,293,12315,5,0,1:0:0:0:
166,129,12482,1,0,0:0:0:0:
350,292,12648,5,0,1:0:0:0:
301,119,12815,1,0,0:0:0:0:
162,337,12981,5,0,1:0:0:0:
172,135,13148,1,0,0:0:0:0:
374,336,13315,6,0,L|366:286,1,50,0|0,1:0|1:0,0:0:0:0:
191,309,13481,2,0,L|183:358,1,50,0|0,1:0|1:0,0:0:0:0:
398,257,13648,6,0,L|390:207,1,50,0|0,1:0|1:0,0:0:0:0:
167,234,13814,2,0,L|159:283,1,50,0|0,1:0|1:0,0:0:0:0:
420,173,13981,5,0,1:0:0:0:
376,148,14064,1,0,1:0:0:0:
328,135,14147,1,0,1:0:0:0:
278,139,14231,1,0,1:0:0:0:
232,157,14314,1,0,1:0:0:0:
186,176,14397,1,0,1:0:0:0:
136,182,14481,1,0,1:0:0:0:
87,175,14564,1,0,1:0:0:0:
41,156,14648,6,0,L|20:143,6,25,0|0|0|0|0|0|0,3:0|3:0|3:0|3:0|3:0|3:0|3:0,3:0:0:0:
134,85,14981,2,0,L|121:63,6,25,0|0|0|0|0|0|0,3:0|3:0|3:0|3:0|3:0|3:0|3:0,3:0:0:0:
249,69,15315,2,0,L|248:44,6,25,0|0|0|0|0|0|0,3:0|3:0|3:0|3:0|3:0|3:0|3:0,3:0:0:0:
356,112,15648,2,0,L|368:90,6,25,0|0|0|0|0|0|0,3:0|3:0|3:0|3:0|3:0|3:0|3:0,3:0:0:0:
427,202,15981,5,2,0:0:0:0:
456,212,16315,1,2,0:0:0:0:
483,219,16648,1,2,0:0:0:0:
512,229,16815,2,0,L|508:278,1,50,0|0,3:0|3:0,3:0:0:0:
498,363,16981,6,0,B|425:383|355:353|342:361|266:328|202:358,1,300,8|0,1:3|0:0,0:0:0:0:
6,377,17315,6,0,B|51:359|105:362|105:375|158:380|203:358,1,200,2|0,0:0|0:0,0:0:0:0:
6,377,17648,2,0,B|53:386|106:372|103:360|154:345|203:358,1,200,2|0,0:0|0:0,0:0:0:0:
45,269,17981,5,0,0:0:0:0:
39,264,18065,2,0,P|42:166|101:87,1,200,2|2,0:0|0:0,0:0:0:0:
451,99,18315,2,0,P|341:196|194:216,1,300,2|0,0:0|0:0,0:0:0:0:
476,243,18648,38,0,P|331:272|194:216,1,300,2|0,0:0|0:0,0:0:0:0:
476,243,18981,2,0,P|339:186|194:216,1,300,2|0,0:0|0:0,0:0:0:0:
476,243,19315,2,0,P|331:272|194:216,1,300,2|0,0:0|0:0,0:0:0:0:
476,243,19648,2,0,P|339:186|194:216,1,300,2|0,0:0|0:0,0:0:0:0:
19,116,19981,6,0,B|71:115|110:150|110:150|147:112|199:111,1,200,2|0,0:0|0:0,0:0:0:0:
19,116,20315,2,0,B|71:115|108:77|108:77|147:112|199:111,1,200,2|0,0:0|0:0,0:0:0:0:
380,2,20648,5,0,0:0:0:0:
383,7,20731,2,0,P|403:104|399:204,1,200,2|0,0:0|0:0,0:0:0:0:
322,339,20981,2,0,B|256:291|246:215|246:215|174:245|99:216,1,300,2|0,0:0|0:0,0:0:0:0:
3,207,21315,6,0,P|52:200|99:215,1,100,0|0,3:0|0:0,0:0:0:0:
179,332,21481,1,0,3:0:0:0:
398,204,21648,5,0,3:0:0:0:
402,221,21704,5,0,3:0:0:0:
404,238,21759,101,0,3:0:0:0:
404,255,21815,5,0,3:0:0:0:
322,339,21981,6,0,P|298:294|291:245,1,100,0|0,3:0|0:0,0:0:0:0:
295,132,22148,1,0,3:0:0:0:
253,336,22315,6,0,P|279:294|291:245,1,100,0|0,3:0|0:0,0:0:0:0:
295,132,22481,1,0,3:0:0:0:
484,344,22648,6,0,B|472:310|476:271|476:271|486:194|452:150,1,200,2|0,0:0|0:0,0:0:0:0:
484,344,22981,2,0,B|450:300|460:223|460:223|464:184|452:150,1,200,2|0,0:0|0:0,0:0:0:0:
244,69,23315,6,0,B|279:46|323:57|323:57|327:54|327:54|383:62|436:29|436:29|457:77|503:96,1,300,2|0,0:0|0:0,0:0:0:0:
244,69,23648,2,0,B|290:88|311:136|311:136|363:103|419:111|419:111|423:108|423:108|467:119|503:96,1,300,2|0,0:0|0:0,0:0:0:0:
178,256,23981,6,0,B|191:215|180:180|180:180|187:188|195:198|195:198|182:150|204:107|204:107|209:120|213:135|213:135|235:105|244:69,1,300,2|0,0:0|0:0,0:0:0:0:
179,257,24315,2,0,B|188:221|209:190|209:190|213:205|218:218|218:218|241:176|227:127|227:127|235:137|242:145|242:145|231:110|244:69,1,300,2|0,0:0|0:0,0:0:0:0:
178,256,24648,2,0,B|191:215|180:180|180:180|187:188|195:198|195:198|182:150|204:107|204:107|209:120|213:135|213:135|235:105|244:69,1,300,2|0,0:0|0:0,0:0:0:0:
179,257,24982,2,0,B|188:221|209:190|209:190|213:205|218:218|218:218|241:176|227:127|227:127|235:137|242:145|242:145|231:110|244:69,1,300,2|0,0:0|0:0,0:0:0:0:
67,291,25315,5,0,1:0:0:0:
45,54,25481,1,0,3:0:0:0:
50,57,25648,1,0,3:0:0:0:
184,260,25815,6,0,B|253:256|314:288|314:288|290:331|252:359|252:359|334:314|411:303,1,400,0|0,1:0|0:0,0:0:0:0:
55,60,26315,1,0,3:0:0:0:
184,260,26481,6,0,B|261:249|343:204|343:204|305:232|281:275|281:275|342:307|411:303,1,400,0|0,1:0|0:0,0:0:0:0:
60,63,26981,1,0,3:0:0:0:
184,260,27148,5,0,1:0:0:0:
455,345,27481,5,0,3:0:0:0:
439,271,27564,1,0,3:0:0:0:
448,197,27648,2,0,P|457:174|463:150,1,50,0|0,3:0|3:0,3:0:0:0:
460,123,27731,2,0,P|462:98|462:73,1,50,0|0,3:0|3:0,3:0:0:0:
454,49,27814,1,0,3:0:0:0:
449,52,27981,101,2,3:2:0:0:
455,126,28148,1,0,3:0:0:0:
421,198,28315,1,0,3:0:0:0:
332,227,28481,1,0,3:0:0:0:
232,198,28648,1,0,3:0:0:0:
201,89,28815,1,0,3:0:0:0:
79,76,28981,1,0,3:0:0:0:
30,198,29148,1,0,3:0:0:0:
144,293,29315,5,0,3:0:0:0:
209,285,29398,1,0,3:0:0:0:
267,253,29481,1,0,3:0:0:0:
308,201,29564,1,0,3:0:0:0:
325,137,29648,1,0,3:0:0:0:
317,72,29731,1,0,3:0:0:0:
283,15,29814,1,0,3:0:0:0:
243,67,29898,1,0,3:0:0:0:
225,132,29981,1,0,3:0:0:0:
234,196,30065,1,0,3:0:0:0:
268,253,30148,1,0,3:0:0:0:
323,292,30231,1,0,3:0:0:0:
387,308,30315,6,0,L|411:311,1,25,2|0,0:1|0:0,0:0:0:0:
410,138,30648,6,0,B|387:181|400:230|400:230|403:218|403:218|417:266|388:306,1,200,2|0,0:0|0:0,0:0:0:0:
410,138,30981,2,0,B|421:185|395:229|395:229|396:217|396:217|370:259|387:306,1,200,2|0,0:0|0:0,0:0:0:0:
132,112,31315,6,0,B|167:126|209:120|209:120|229:141|229:141|272:136|313:148|313:148|330:129|330:129|369:144|410:138,1,300,2|0,0:0|0:0,0:0:0:0:
132,112,31648,2,0,B|169:104|209:118|209:118|232:102|232:102|274:115|316:111|316:111|329:133|329:133|370:125|409:139,1,300,2|0,0:0|0:0,0:0:0:0:
470,214,31981,6,0,P|450:168|410:139,1,100,0|0,3:0|0:0,0:0:0:0:
259,205,32148,1,0,3:0:0:0:
297,376,32315,5,0,3:0:0:0:
280,379,32370,5,0,3:0:0:0:
264,381,32426,101,0,3:0:0:0:
247,380,32481,5,0,3:0:0:0:
141,337,32648,6,0,B|129:320|113:308|113:308|114:303|114:303|98:282|97:252,1,100,0|0,3:0|0:0,0:0:0:0:
132,112,32815,1,0,3:0:0:0:
141,337,32981,6,0,B|150:319|166:306|166:306|165:301|165:301|179:279|178:249,1,100,0|0,3:0|0:0,0:0:0:0:
132,112,33148,1,0,3:0:0:0:
451,241,33315,6,0,P|355:265|266:226,1,200,2|0,0:0|0:0,0:0:0:0:
451,241,33648,2,0,P|361:201|266:225,1,200,2|0,0:0|0:0,0:0:0:0:
3,105,33981,6,0,P|119:197|265:224,1,300,2|0,0:0|0:0,0:0:0:0:
3,105,34315,2,0,P|149:132|265:223,1,300,2|0,0:0|0:0,0:0:0:0:
449,0,34648,6,0,B|414:30|414:30|413:40|413:40|388:62|388:62|389:70|389:70|355:103|355:103|354:112|354:112|320:147|320:147|318:160|318:160|290:187|290:187|286:202|286:202|265:223,1,300,2|0,0:0|0:0,0:0:0:0:
449,0,34981,2,0,B|426:40|426:40|416:42|416:42|399:71|399:71|391:72|391:72|365:111|365:111|357:114|357:114|329:154|329:154|316:159|316:159|295:191|295:191|281:198|281:198|264:222,1,300,2|0,0:0|0:0,0:0:0:0:
449,0,35315,2,0,B|414:30|414:30|413:40|413:40|388:62|388:62|389:70|389:70|355:103|355:103|354:112|354:112|320:147|320:147|318:160|318:160|290:187|290:187|286:202|286:202|265:223,1,300,2|0,0:0|0:0,0:0:0:0:
449,0,35648,2,0,B|426:40|426:40|416:42|416:42|399:71|399:71|391:72|391:72|365:111|365:111|357:114|357:114|329:154|329:154|316:159|316:159|295:191|295:191|281:198|281:198|264:222,1,300,2|0,0:0|0:0,0:0:0:0:
236,365,35981,5,0,1:0:0:0:
119,66,36148,1,0,3:0:0:0:
114,63,36315,1,0,3:0:0:0:
436,115,36481,6,0,B|336:141|250:187|250:187|252:194|252:194|151:229|88:291,1,400,0|0,1:0|0:0,0:0:0:0:
109,60,36981,1,0,3:0:0:0:
436,115,37148,6,0,B|336:141|250:187|250:187|252:194|252:194|151:229|88:291,1,400,0|0,1:0|0:0,0:0:0:0:
103,57,37648,1,0,3:0:0:0:
88,291,37815,6,0,B|151:229|252:194|252:194|250:187|250:187|336:141|436:115,1,400,0|0,1:0|0:0,0:0:0:0:
98,54,38315,1,0,3:0:0:0:
436,115,38648,5,2,0:0:0:0:
439,120,38731,2,0,L|432:219,1,100,2|0,0:0|0:0,0:0:0:0:
330,207,38981,102,0,L|334:256,1,50,0|0,3:0|3:0,3:0:0:0:
341,332,39148,1,0,3:0:0:0:
240,127,39315,6,0,L|235:176,1,50,0|0,3:0|3:0,3:0:0:0:
229,252,39482,1,0,3:0:0:0:
122,240,39648,102,0,L|126:289,1,50,0|0,3:0|3:0,3:0:0:0:
133,365,39815,1,0,3:0:0:0:
29,102,39981,6,0,L|24:151,1,50,0|0,3:0|3:0,3:0:0:0:
18,227,40148,1,0,3:0:0:0:
341,332,40315,102,0,L|336:282,1,50,0|0,3:0|3:0,3:0:0:0:
330,207,40481,1,0,3:0:0:0:
229,252,40648,6,0,L|233:202,1,50,0|0,3:0|3:0,3:0:0:0:
240,127,40814,1,0,3:0:0:0:
133,365,40981,102,0,L|128:315,1,50,0|0,3:0|3:0,3:0:0:0:
122,240,41148,2,0,L|118:190,1,50,0|0,3:0|3:0,3:0:0:0:
