osu file format v14

[General]
AudioFilename: audio.mp3
AudioLeadIn: 0
PreviewTime: 108681
Countdown: 0
SampleSet: None
StackLeniency: 0.5
Mode: 0
LetterboxInBreaks: 0
WidescreenStoryboard: 0

[Editor]
Bookmarks: 3909
DistanceSpacing: 0.6
BeatDivisor: 4
GridSize: 4
TimelineZoom: 2.2

[Metadata]
Title:Lueur de la nuit
TitleUnicode:Lueur de la nuit
Artist:aaaa & ck
ArtistUnicode:ああああ & しーけー
Creator:suraimu-
Version:The Brightest Night
Source:
Tags:
BeatmapID:1369973
BeatmapSetID:646595

[Difficulty]
HPDrainRate:6
CircleSize:4
OverallDifficulty:9
ApproachRate:9.5
SliderMultiplier:1.4
SliderTickRate:1

[Events]
//Background and Video events
0,0,"63639708_p0.jpg",0,0
//Break Periods
2,27190,28101
2,82826,88101
//Storyboard Layer 0 (Background)
//Storyboard Layer 1 (Fail)
//Storyboard Layer 2 (Pass)
//Storyboard Layer 3 (Foreground)
//Storyboard Sound Samples

[TimingPoints]
-10,272.727272727273,4,3,1,40,1,0
0,-181.818181818181,4,3,1,40,0,0
11444,-76.9230769230769,4,3,1,40,0,0
16899,-76.9230769230769,4,3,1,55,0,0
17990,-76.9230769230769,4,3,1,65,0,0
21262,-76.9230769230769,4,3,1,50,0,0
22899,-100,4,3,1,100,0,0
26035,-100,4,2,1,30,0,0
28626,-76.9230769230769,4,3,1,80,0,0
29444,-76.9230769230769,4,3,1,80,0,0
31353,-76.9230769230769,4,3,1,40,0,0
31909,-76.9230769230769,4,3,1,80,0,0
34080,-76.9230769230769,4,3,1,40,0,0
35171,-71.4285714285714,4,3,1,100,0,0
37080,-71.4285714285714,4,3,1,40,0,0
38444,-71.4285714285714,4,3,1,60,0,0
40080,-71.4285714285714,4,3,1,80,0,0
48262,-71.4285714285714,4,3,1,50,0,0
51535,-71.4285714285714,4,3,1,60,0,0
52490,-100,4,3,1,50,0,0
54808,-66.6666666666667,4,3,1,50,0,0
55353,-100,4,3,1,50,0,0
55626,-100,4,3,1,60,0,0
55977,-66.6666666666667,4,3,1,80,0,0
56444,-58.8235294117647,4,3,1,85,0,0
58080,-58.8235294117647,4,3,1,85,0,1
63944,-66.6666666666667,4,3,1,85,0,1
64080,-100,4,3,1,85,0,1
64626,-66.6666666666667,4,3,1,85,0,1
67363,-100,4,3,1,85,0,1
67899,-66.6666666666667,4,3,1,85,0,1
82626,-66.6666666666667,4,3,1,85,0,0
88626,-100,4,3,1,80,0,0
89171,-100,4,2,1,60,0,0
90535,-66.6666666666667,4,3,1,65,0,0
92444,-133.333333333333,4,3,1,80,0,0
94899,-100,4,3,1,80,0,0
95580,-66.6666666666667,4,3,1,80,0,0
95990,-66.6666666666667,4,3,1,70,0,0
97353,-133.333333333333,4,3,1,100,0,0
107990,-66.6666666666667,4,3,1,100,0,0
108808,-66.6666666666667,4,3,1,100,0,0
110444,-66.6666666666667,4,3,1,100,0,1
118899,-50,4,3,1,100,0,1
119717,-133.333333333333,4,3,1,100,0,1
120262,-133.333333333333,4,3,1,30,0,0
120671,-133.333333333333,4,2,1,30,0,0
133626,-200,4,3,1,5,0,0

[HitObjects]
148,72,11444,6,0,P|208:88|236:112,1,90.9999958343508,2|0,0:2|0:0,0:0:0:0:
248,128,11649,5,2,0:0:0:0:
252,156,11717,5,2,1:2:0:0:
240,180,11785,1,2,0:0:0:0:
220,196,11853,1,2,0:0:0:0:
193,199,11921,1,2,0:0:0:0:
167,187,11990,5,2,1:2:0:0:
151,164,12058,1,2,0:0:0:0:
148,136,12126,1,2,0:0:0:0:
159,111,12194,1,2,0:0:0:0:
180,94,12262,5,2,1:2:0:0:
206,89,12330,1,2,0:0:0:0:
233,93,12399,1,2,0:0:0:0:
251,113,12467,1,2,0:0:0:0:
255,139,12535,5,2,1:2:0:0:
245,164,12603,1,2,0:0:0:0:
238,190,12671,1,2,0:0:0:0:
243,217,12740,1,2,0:0:0:0:
257,240,12808,5,2,1:2:0:0:
277,257,12876,1,2,0:0:0:0:
303,262,12944,1,2,0:0:0:0:
327,249,13012,1,2,0:0:0:0:
342,226,13080,5,2,1:2:0:0:
345,198,13149,1,2,0:0:0:0:
337,171,13217,1,2,0:0:0:0:
326,145,13285,1,2,0:0:0:0:
316,119,13353,5,2,1:2:0:0:
306,93,13421,1,2,0:0:0:0:
294,67,13490,1,2,0:0:0:0:
283,41,13558,1,2,0:0:0:0:
270,16,13626,5,2,1:2:0:0:
257,40,13694,1,2,0:0:0:0:
244,64,13762,1,2,0:0:0:0:
231,88,13830,1,2,0:0:0:0:
213,109,13899,5,2,1:2:0:0:
188,121,13967,1,2,0:0:0:0:
160,123,14035,1,2,0:0:0:0:
133,116,14103,1,2,0:0:0:0:
109,101,14171,5,2,2:2:0:0:
97,75,14240,1,2,0:0:0:0:
100,48,14308,1,2,0:0:0:0:
118,27,14376,1,2,0:0:0:0:
143,16,14444,5,2,2:2:0:0:
169,19,14512,1,2,0:0:0:0:
194,28,14580,1,2,0:0:0:0:
215,45,14649,1,2,0:0:0:0:
231,66,14717,5,2,1:2:0:0:
250,84,14785,1,2,0:0:0:0:
272,99,14853,1,2,0:0:0:0:
305,113,14921,1,2,0:0:0:0:
341,119,14990,5,2,1:2:0:0:
369,96,15058,1,2,0:0:0:0:
401,80,15126,1,2,0:0:0:0:
436,89,15194,1,2,0:0:0:0:
458,117,15262,5,2,1:2:0:0:
444,150,15330,1,2,0:0:0:0:
424,181,15399,1,2,0:0:0:0:
428,217,15467,1,2,0:0:0:0:
439,251,15535,5,2,1:2:0:0:
417,279,15603,1,2,0:0:0:0:
380,275,15671,1,0,0:0:0:0:
344,264,15740,1,2,0:0:0:0:
308,270,15808,5,2,1:2:0:0:
273,282,15876,1,2,0:0:0:0:
241,300,15944,1,2,0:0:0:0:
205,309,16012,1,2,0:0:0:0:
160,299,16080,5,2,1:2:0:0:
141,256,16149,1,2,0:0:0:0:
158,213,16217,1,2,0:0:0:0:
202,202,16285,1,2,0:0:0:0:
243,219,16353,6,0,P|311:227|328:213,1,90.9999958343508,0|0,1:2|0:0,0:0:0:0:
316,124,16626,5,2,0:0:0:0:
270,120,16694,1,2,0:0:0:0:
229,100,16762,1,2,0:0:0:0:
218,55,16830,1,0,0:0:0:0:
239,14,16899,6,8,L|254:53,1,22.7499989585877,8|8,0:2|0:2,0:2:0:0:
254,47,16967,2,8,L|270:83,1,22.7499989585877,8|8,0:2|0:2,0:2:0:0:
271,81,17035,2,8,L|283:108,1,22.7499989585877,8|8,0:2|0:2,0:2:0:0:
290,120,17103,2,8,L|304:153,1,22.7499989585877,8|8,0:2|0:2,0:2:0:0:
308,158,17171,1,8,0:2:0:0:
385,321,17444,5,8,0:2:0:0:
346,240,17717,5,8,0:2:0:0:
464,100,17990,6,0,P|428:152|392:156,1,90.9999958343508,4|0,0:0|0:0,0:0:0:0:
372,164,18194,1,0,0:3:0:0:
340,160,18262,1,0,0:3:0:0:
312,148,18330,1,0,0:3:0:0:
288,124,18399,1,0,0:3:0:0:
276,96,18467,1,0,0:3:0:0:
276,64,18535,5,0,0:3:0:0:
311,92,18603,1,0,0:3:0:0:
293,133,18671,1,0,0:3:0:0:
252,154,18740,1,0,0:3:0:0:
206,158,18808,1,0,0:3:0:0:
161,148,18876,1,0,0:3:0:0:
121,125,18944,1,0,0:3:0:0:
96,91,19012,1,0,0:3:0:0:
60,56,19080,5,0,0:3:0:0:
105,47,19149,1,0,0:3:0:0:
96,91,19217,1,0,0:3:0:0:
74,131,19285,1,0,0:3:0:0:
66,175,19353,1,0,0:3:0:0:
72,210,19421,1,0,0:3:0:0:
95,232,19490,5,0,0:3:0:0:
124,210,19558,1,0,0:3:0:0:
155,191,19626,1,0,0:3:0:0:
180,180,19694,1,0,0:0:0:0:
212,176,19763,1,0,0:0:0:0:
244,184,19830,1,0,0:0:0:0:
272,204,19899,5,0,0:0:0:0:
280,239,19967,1,0,0:0:0:0:
260,269,20035,1,0,0:0:0:0:
223,271,20103,1,0,0:0:0:0:
199,243,20171,1,0,0:0:0:0:
212,208,20240,1,0,0:3:0:0:
247,203,20308,5,0,0:3:0:0:
271,214,20376,1,0,0:3:0:0:
298,212,20444,1,0,0:3:0:0:
323,201,20512,1,0,0:3:0:0:
344,184,20580,5,0,0:3:0:0:
352,157,20649,1,0,0:3:0:0:
328,164,20717,1,0,0:3:0:0:
340,192,20785,1,0,0:3:0:0:
364,212,20853,1,0,0:3:0:0:
396,212,20921,1,0,0:3:0:0:
424,196,20990,1,0,0:3:0:0:
396,212,21058,1,0,0:3:0:0:
368,228,21126,1,0,0:3:0:0:
340,244,21194,1,0,0:3:0:0:
312,260,21262,5,4,0:3:0:0:
209,150,21535,1,0,0:0:0:0:
265,104,21671,1,0,0:0:0:0:
265,104,21740,1,0,0:0:0:0:
265,104,21808,2,0,L|224:188,1,90.9999958343508
211,216,22012,1,0,0:0:0:0:
191,252,22080,1,4,0:3:0:0:
309,217,22353,6,0,L|297:192,4,22.7499989585877
124,147,22626,1,0,0:0:0:0:
430,119,22899,6,0,P|395:122|359:103,1,70,4|0,0:3|0:0,0:0:0:0:
412,32,23171,5,0,0:0:0:0:
364,107,23308,1,0,0:0:0:0:
284,152,23444,1,0,0:0:0:0:
460,192,23580,1,0,0:0:0:0:
460,192,23649,1,0,0:0:0:0:
460,192,23717,5,0,0:0:0:0:
364,228,23853,1,0,0:0:0:0:
288,292,23990,1,0,0:0:0:0:
460,192,24126,5,0,0:0:0:0:
364,107,24262,1,0,0:0:0:0:
224,168,24399,1,0,0:0:0:0:
72,148,24535,2,0,L|172:160,1,70
224,168,24808,1,0,0:0:0:0:
448,216,25080,5,2,0:0:0:0:
404,228,25149,1,2,0:0:0:0:
360,236,25217,1,2,0:0:0:0:
316,248,25285,1,2,0:0:0:0:
272,256,25353,2,0,L|424:224,1,140,4|0,0:0|0:0,0:0:0:0:
200,100,26035,5,0,0:0:0:0:
200,100,26103,1,0,0:0:0:0:
200,100,26171,1,0,0:0:0:0:
196,228,26853,5,0,0:0:0:0:
240,232,26921,1,0,0:0:0:0:
284,224,26990,1,0,0:0:0:0:
120,136,28626,6,0,L|216:144,1,90.9999958343508,8|0,3:2|3:0,3:0:0:0:
304,156,28899,2,0,L|360:160,2,45.4999979171754,2|0|2,3:3|3:0|3:3,3:0:0:0:
216,228,29171,5,4,3:1:0:0:
304,276,29308,5,4,3:1:0:0:
212,64,29444,2,0,P|168:88|120:92,1,90.9999958343508,10|0,3:2|3:0,3:0:0:0:
324,108,29717,2,0,P|376:136|416:132,1,90.9999958343508,2|0,3:0|3:0,3:0:0:0:
112,192,29990,5,8,3:2:0:0:
184,260,30126,1,8,3:2:0:0:
256,192,30262,2,2,L|235:139,2,45.4999979171754,2|2|2,3:3|3:3|3:3,3:3:0:0:
300,288,30535,5,0,3:0:0:0:
388,264,30671,1,0,3:0:0:0:
420,152,30808,6,0,P|360:140|336:104,1,90.9999958343508,8|0,3:2|3:0,3:0:0:0:
268,64,31080,2,0,L|208:80,2,45.4999979171754,4|0|4,3:1|3:0|3:1,3:0:0:0:
168,192,31353,5,2,3:3:0:0:
212,208,31421,1,2,3:3:0:0:
256,200,31490,1,2,3:3:0:0:
292,172,31558,1,2,3:3:0:0:
336,160,31626,1,2,3:3:0:0:
380,172,31694,1,2,3:3:0:0:
412,204,31762,1,2,3:3:0:0:
424,248,31830,1,2,3:3:0:0:
400,288,31899,1,8,3:2:0:0:
311,250,32035,5,8,3:2:0:0:
364,309,32171,1,0,3:0:0:0:
208,240,32308,1,0,3:0:0:0:
340,190,32444,5,0,3:0:0:0:
412,204,32580,2,0,L|465:216,1,45.4999979171754,0|0,3:0|3:0,3:0:0:0:
488,294,32717,2,0,L|435:282,2,45.4999979171754,0|0|0,3:0|3:0|3:0,3:0:0:0:
311,250,32990,1,8,3:2:0:0:
273,330,33126,1,10,3:2:0:0:
291,246,33262,5,2,3:3:0:0:
312,205,33330,1,2,3:3:0:0:
331,163,33399,1,2,3:3:0:0:
347,120,33467,1,2,3:3:0:0:
367,79,33535,5,2,3:3:0:0:
203,152,33671,1,0,3:0:0:0:
405,189,33808,5,0,3:0:0:0:
121,186,33944,1,0,3:0:0:0:
198,263,34080,2,0,L|245:226,1,45.4999979171754,0|0,3:0|3:0,3:0:0:0:
276,296,34217,6,2,L|323:259,1,45.4999979171754,2|2,3:3|3:3,3:3:0:0:
348,240,34353,1,2,3:3:0:0:
368,199,34421,1,2,3:3:0:0:
362,153,34490,1,2,3:3:0:0:
326,124,34558,1,2,3:3:0:0:
280,118,34626,1,2,3:3:0:0:
236,132,34694,1,2,3:3:0:0:
190,136,34762,1,2,3:3:0:0:
145,125,34830,1,2,3:3:0:0:
110,94,34899,6,2,P|188:52|221:51,1,90.9999958343508,6|2,3:3|3:3,3:3:0:0:
436,146,35171,6,0,L|393:253,1,97.9999970092774,8|0,3:2|3:0,3:0:0:0:
257,193,35444,6,0,L|187:285,1,97.9999970092774,2|2,3:3|3:3,3:0:0:0:
326,100,35717,1,0,3:0:0:0:
357,209,35853,1,0,3:0:0:0:
134,232,35990,1,0,3:0:0:0:
257,193,36126,1,0,3:0:0:0:
257,193,36262,6,0,L|377:210,1,97.9999970092774,2|0,3:3|3:0,3:0:0:0:
460,185,36535,5,4,3:1:0:0:
185,228,36671,1,4,3:1:0:0:
116,234,37080,5,2,0:3:0:0:
143,192,37149,1,2,0:3:0:0:
189,177,37217,1,2,0:3:0:0:
236,188,37285,1,2,0:3:0:0:
279,210,37353,1,2,0:3:0:0:
327,215,37421,1,2,0:3:0:0:
375,205,37490,1,2,0:3:0:0:
408,169,37558,1,2,0:3:0:0:
408,120,37626,1,2,0:3:0:0:
373,85,37694,1,2,0:3:0:0:
324,79,37762,1,2,0:3:0:0:
141,147,37899,6,0,L|244:172,1,97.9999970092774,8|0,0:2|0:2,0:2:0:0:
375,205,38171,1,8,0:2:0:0:
272,94,38308,1,0,0:2:0:0:
376,96,38444,5,8,0:2:0:0:
162,190,38580,1,8,0:2:0:0:
356,137,38717,5,8,0:2:0:0:
249,268,38853,1,8,0:2:0:0:
333,184,38990,5,8,0:2:0:0:
301,360,39126,1,8,0:2:0:0:
309,225,39262,5,8,0:2:0:0:
374,271,39399,1,8,0:2:0:0:
285,268,39535,5,8,0:2:0:0:
445,213,39671,1,8,0:2:0:0:
257,307,39808,5,8,0:2:0:0:
453,142,39944,1,8,0:2:0:0:
227,348,40080,5,8,0:2:0:0:
264,316,40149,1,8,0:2:0:0:
281,270,40217,1,8,0:2:0:0:
282,221,40285,1,8,0:2:0:0:
267,174,40353,1,8,0:2:0:0:
267,125,40421,1,8,0:2:0:0:
287,79,40490,1,8,0:2:0:0:
328,53,40558,1,8,0:2:0:0:
376,52,40626,1,8,0:2:0:0:
421,69,40694,1,8,0:2:0:0:
452,106,40762,1,8,0:2:0:0:
466,152,40830,1,8,0:2:0:0:
460,201,40899,5,8,0:2:0:0:
256,192,41171,5,8,0:2:0:0:
143,194,41308,5,4,0:1:0:0:
364,139,41444,1,4,0:1:0:0:
402,318,41717,6,0,L|304:285,1,97.9999970092774,0|0,3:3|3:0,3:0:0:0:
216,125,42262,6,0,L|302:188,1,97.9999970092774,0|0,3:0|3:0,3:0:0:0:
362,110,42535,2,0,L|392:216,1,97.9999970092774,0|0,3:0|3:0,3:0:0:0:
384,321,42808,5,0,0:0:0:0:
254,263,43080,1,0,0:0:0:0:
216,125,43353,1,0,0:0:0:0:
331,192,43626,5,0,0:0:0:0:
216,281,43899,5,0,0:0:0:0:
136,186,44035,1,0,0:0:0:0:
296,127,44171,1,0,0:0:0:0:
313,249,44444,6,0,L|294:279,3,32.6666656697591
259,143,44717,6,0,L|152:182,1,97.9999970092774
141,312,44990,5,2,0:3:0:0:
185,224,45126,1,2,0:3:0:0:
195,126,45262,1,2,0:3:0:0:
274,182,45399,5,2,0:3:0:0:
94,258,45535,1,2,0:3:0:0:
119,64,45671,1,2,0:3:0:0:
274,182,45808,5,2,0:3:0:0:
368,275,46080,5,8,0:2:0:0:
387,229,46149,1,8,0:2:0:0:
405,183,46217,1,8,0:2:0:0:
326,87,46353,5,0,0:0:0:0:
261,279,46626,1,0,0:0:0:0:
119,64,46899,5,0,0:0:0:0:
404,104,47171,1,0,0:0:0:0:
60,156,47444,5,0,0:0:0:0:
453,257,47717,1,0,0:0:0:0:
182,293,47990,1,0,0:0:0:0:
256,192,48262,5,2,0:3:0:0:
159,125,48672,5,0,0:0:0:0:
256,192,48808,1,0,0:0:0:0:
298,167,48944,1,0,0:0:0:0:
315,121,49080,5,0,0:0:0:0:
204,237,49217,1,0,0:0:0:0:
250,252,49353,1,0,0:0:0:0:
296,237,49490,5,0,0:0:0:0:
381,284,49626,1,0,0:0:0:0:
397,238,49762,1,0,0:0:0:0:
394,189,49899,5,0,0:0:0:0:
334,111,50035,1,0,0:0:0:0:
287,96,50171,1,0,0:0:0:0:
238,96,50308,5,0,0:0:0:0:
314,157,50444,1,0,0:0:0:0:
342,117,50580,1,0,0:0:0:0:
339,68,50717,5,0,0:0:0:0:
245,97,50853,5,0,0:0:0:0:
245,97,50921,1,0,0:0:0:0:
245,97,50990,5,0,0:0:0:0:
186,175,51126,1,0,0:0:0:0:
230,194,51262,1,0,0:0:0:0:
252,237,51399,5,0,0:0:0:0:
256,334,51535,5,4,0:1:0:0:
455,150,51671,1,4,0:1:0:0:
455,150,51944,5,4,0:1:0:0:
60,97,52217,1,4,0:1:0:0:
60,97,52490,6,0,L|76:178,1,70,2|0,0:3|0:0,0:0:0:0:
149,179,52762,1,0,0:3:0:0:
180,194,52830,1,0,0:3:0:0:
194,226,52899,1,0,0:3:0:0:
190,260,52967,1,0,0:3:0:0:
163,282,53035,1,0,0:3:0:0:
244,183,53171,6,0,L|333:171,1,70,4|4,0:1|0:1,0:0:0:0:
50,60,53580,5,4,0:1:0:0:
71,311,53853,5,4,0:1:0:0:
163,282,54126,1,0,0:0:0:0:
196,273,54194,1,0,0:0:0:0:
230,269,54262,1,0,0:0:0:0:
264,273,54330,1,0,0:0:0:0:
297,284,54399,1,0,0:0:0:0:
458,328,54535,5,0,0:0:0:0:
214,151,54671,1,0,0:0:0:0:
474,258,54808,6,0,L|387:184,1,105.000004005432,8|0,0:2|0:2,0:2:0:0:
271,191,55080,2,0,L|358:259,1,105.000004005432,8|0,0:2|0:2,0:2:0:0:
343,144,55353,5,2,0:3:0:0:
311,128,55421,1,2,0:3:0:0:
276,120,55490,1,2,0:3:0:0:
241,116,55558,1,2,0:3:0:0:
206,116,55626,5,2,0:3:0:0:
220,147,55694,1,2,0:3:0:0:
232,179,55762,1,2,0:3:0:0:
237,213,55830,1,2,0:3:0:0:
239,248,55899,5,2,0:3:0:0:
235,300,55967,1,2,0:3:0:0:
199,338,56035,1,2,0:3:0:0:
146,339,56103,1,2,0:3:0:0:
99,315,56171,5,2,0:3:0:0:
82,264,56240,1,2,0:3:0:0:
92,212,56308,1,2,0:3:0:0:
125,172,56376,1,2,0:3:0:0:
143,123,56444,5,8,0:2:0:0:
140,63,56512,1,8,0:2:0:0:
91,28,56580,1,8,0:2:0:0:
31,36,56649,1,8,0:2:0:0:
0,86,56717,1,8,0:2:0:0:
16,143,56785,1,8,0:2:0:0:
62,179,56853,1,8,0:2:0:0:
121,179,56921,1,8,0:2:0:0:
174,151,56990,1,8,0:2:0:0:
233,145,57058,1,8,0:2:0:0:
291,156,57126,1,8,0:2:0:0:
343,183,57194,1,8,0:2:0:0:
381,228,57262,5,12,0:2:0:0:
428,64,58080,6,0,P|376:120|320:140,1,119.000002269745,2|0,0:0|0:0,0:0:0:0:
236,172,58353,1,8,0:2:0:0:
96,80,58490,2,0,L|164:96,1,59.5000011348725
216,240,58626,6,0,L|148:224,1,59.5000011348725
178,158,58762,2,0,L|246:174,1,59.5000011348725
324,192,58899,1,8,0:2:0:0:
493,234,59035,5,0,0:0:0:0:
88,148,59171,6,0,P|140:91|196:71,1,119.000002269745,2|2,0:0|0:0,0:0:0:0:
273,224,59444,2,0,P|200:221|184:171,1,119.000002269745,8|0,0:2|0:0,0:0:0:0:
300,144,59717,6,0,P|371:169|412:213,1,119.000002269745,4|0,0:1|0:0,0:0:0:0:
152,132,59990,1,8,0:2:0:0:
348,248,60126,1,0,0:0:0:0:
348,248,60194,1,0,0:0:0:0:
348,248,60262,1,0,0:0:0:0:
184,156,60399,6,0,P|112:181|71:225,1,119.000002269745,2|8,0:0|0:2,0:0:0:0:
212,337,60671,5,0,0:2:0:0:
216,236,60808,1,8,0:0:0:0:
264,200,60876,1,8,0:0:0:0:
320,184,60944,1,8,0:0:0:0:
376,196,61012,1,8,0:0:0:0:
424,232,61080,1,8,0:2:0:0:
304,264,61217,5,0,0:0:0:0:
256,120,61353,1,0,0:0:0:0:
424,232,61490,5,0,0:0:0:0:
152,132,61626,2,0,P|211:114|244:171,1,119.000002269745,8|0,0:2|0:0,0:0:0:0:
192,320,61899,5,0,0:0:0:0:
320,232,62035,1,0,0:0:0:0:
116,176,62171,1,8,0:2:0:0:
116,176,62240,1,0,0:0:0:0:
116,176,62308,1,0,0:0:0:0:
172,192,62376,1,0,0:0:0:0:
232,184,62444,1,0,0:0:0:0:
326,174,62580,6,0,B|413:181|413:181|381:199,1,119.000002269745,2|8,0:0|0:2,0:0:0:0:
244,288,62853,1,0,0:0:0:0:
232,72,62990,2,0,L|160:172,1,119.000002269745
220,164,63194,1,0,0:0:0:0:
236,108,63262,1,8,0:2:0:0:
290,236,63399,5,0,0:0:0:0:
80,192,63535,5,0,0:0:0:0:
324,88,63671,6,0,L|376:148,1,59.5000011348725
332,308,63808,2,0,L|392:220,1,59.5000011348725,8|0,0:2|0:0,0:0:0:0:
408,192,63944,1,0,0:0:0:0:
408,192,64080,1,2,0:0:0:0:
372,184,64149,1,2,0:0:0:0:
336,184,64217,1,2,0:0:0:0:
300,188,64285,1,0,0:0:0:0:
267,196,64353,2,0,L|185:219,1,70,8|0,0:2|0:0,0:0:0:0:
312,256,64626,6,0,L|432:232,1,105.000004005432,2|0,0:0|0:0,0:0:0:0:
256,88,64899,1,8,0:2:0:0:
124,232,65035,1,0,0:0:0:0:
296,184,65171,1,0,0:0:0:0:
159,299,65308,1,0,0:0:0:0:
252,268,65444,6,0,P|184:304|160:300,1,105.000004005432,8|0,0:2|0:0,0:0:0:0:
196,200,65717,1,0,0:0:0:0:
224,156,65785,1,0,0:0:0:0:
264,124,65853,1,0,0:0:0:0:
316,116,65921,1,0,0:0:0:0:
368,124,65990,1,8,0:2:0:0:
372,256,66126,5,0,0:0:0:0:
139,94,66262,2,0,L|243:170,1,105.000004005432
372,256,66671,5,0,0:0:0:0:
104,192,66944,5,0,0:0:0:0:
316,116,67080,1,8,0:2:0:0:
316,116,67353,6,0,L|288:144,4,26.2500010013581
404,192,67626,5,8,0:2:0:0:
404,192,67762,1,0,0:0:0:0:
388,160,67830,1,0,0:0:0:0:
360,140,67899,2,0,P|288:116|252:120,1,105.000004005432,2|0,0:0|0:0,0:0:0:0:
84,192,68171,1,8,0:2:0:0:
404,268,68308,6,0,L|332:212,1,52.5000020027161
280,96,68444,2,0,L|340:148,1,52.5000020027161
400,192,68580,1,0,0:0:0:0:
256,280,68717,5,8,0:2:0:0:
76,252,68990,6,0,P|132:232|176:248,1,105.000004005432,2|0,0:0|0:0,0:0:0:0:
288,296,69262,1,8,0:2:0:0:
288,296,69330,1,0,0:0:0:0:
288,296,69399,1,0,0:0:0:0:
316,176,69535,6,0,P|372:156|416:172,1,105.000004005432
52,132,69808,1,8,0:2:0:0:
148,184,69944,2,0,L|268:148,1,105.000004005432
336,124,70217,1,0,0:0:0:0:
336,124,70285,1,0,0:0:0:0:
336,124,70353,5,8,0:2:0:0:
88,304,70626,6,0,L|220:280,1,105.000004005432,4|0,0:1|0:0,0:0:0:0:
240,184,70899,1,8,0:2:0:0:
56,192,71035,5,0,0:0:0:0:
336,124,71171,1,0,0:0:0:0:
256,336,71308,2,0,P|192:288|192:256,1,105.000004005432,0|8,0:0|0:2,0:0:0:0:
384,236,71580,1,0,0:0:0:0:
384,236,71649,1,0,0:0:0:0:
384,236,71717,1,0,0:0:0:0:
156,332,71853,5,0,0:0:0:0:
132,40,71990,2,0,L|156:148,1,105.000004005432,8|0,0:2|0:0,0:0:0:0:
256,192,72262,5,0,0:0:0:0:
256,192,72330,1,0,0:0:0:0:
256,192,72399,1,0,0:0:0:0:
356,232,72535,2,0,L|400:340,1,105.000004005432,8|0,0:2|0:0,0:0:0:0:
360,60,72808,5,0,0:0:0:0:
144,192,72944,1,0,0:0:0:0:
360,60,73080,1,8,0:2:0:0:
440,152,73217,5,0,0:0:0:0:
104,108,73353,2,0,L|184:132,1,52.5000020027161
288,112,73490,6,0,L|212:88,1,52.5000020027161
152,68,73626,1,8,0:2:0:0:
108,100,73694,1,0,0:0:0:0:
92,148,73762,2,0,L|156:184,1,52.5000020027161
184,192,73899,5,0,0:0:0:0:
224,156,73967,1,0,0:0:0:0:
276,148,74035,1,0,0:0:0:0:
328,160,74103,1,0,0:0:0:0:
368,192,74171,1,8,0:2:0:0:
456,64,74308,5,0,0:0:0:0:
176,252,74444,2,0,L|288:252,1,105.000004005432,2|0,0:0|0:0,0:0:0:0:
360,72,74717,1,8,0:2:0:0:
232,292,74853,1,0,0:0:0:0:
392,192,74990,5,0,0:0:0:0:
344,172,75058,1,0,0:0:0:0:
292,164,75126,1,0,0:0:0:0:
240,172,75194,1,0,0:0:0:0:
188,160,75262,1,8,0:2:0:0:
156,116,75330,1,0,0:0:0:0:
164,64,75399,1,0,0:0:0:0:
208,36,75467,1,0,0:0:0:0:
260,36,75535,2,0,L|332:80,1,52.5000020027161
356,76,75671,2,0,L|268:120,2,52.5000020027161,0|0|8,0:0|0:0|0:2,0:0:0:0:
456,196,75944,5,0,0:0:0:0:
356,168,76080,1,0,0:0:0:0:
460,316,76217,1,0,0:0:0:0:
424,280,76285,1,0,0:0:0:0:
372,268,76353,1,8,0:0:0:0:
256,192,76490,5,0,0:0:0:0:
256,192,76558,1,0,0:0:0:0:
256,192,76626,1,0,0:0:0:0:
292,152,76694,1,0,0:0:0:0:
288,100,76762,1,0,0:0:0:0:
248,64,76830,2,0,L|168:100,1,52.5000020027161,0|8,0:0|0:2,0:0:0:0:
100,120,77035,5,0,0:0:0:0:
160,148,77171,5,2,0:0:0:0:
200,184,77240,1,2,0:0:0:0:
204,236,77308,1,2,0:0:0:0:
188,288,77376,1,2,0:0:0:0:
212,336,77444,1,10,0:2:0:0:
260,356,77512,1,2,0:0:0:0:
312,348,77580,1,2,0:0:0:0:
340,240,77717,5,0,0:0:0:0:
112,144,77853,2,0,L|240:156,1,105.000004005432,0|8,0:0|0:2,0:0:0:0:
408,212,78126,1,0,0:0:0:0:
408,212,78194,1,0,0:0:0:0:
408,212,78262,1,0,0:0:0:0:
256,88,78399,5,0,0:0:0:0:
244,192,78535,2,0,P|184:208|136:192,1,105.000004005432,8|0,0:2|0:0,0:0:0:0:
188,128,78808,2,0,P|280:116|312:136,1,105.000004005432
332,148,79012,1,0,0:0:0:0:
360,192,79080,1,8,0:2:0:0:
356,244,79149,1,0,0:0:0:0:
317,279,79217,1,0,0:0:0:0:
265,290,79285,1,0,0:0:0:0:
218,266,79353,1,0,0:0:0:0:
440,192,79490,5,0,0:0:0:0:
256,292,79762,1,0,0:0:0:0:
424,88,80035,5,0,0:0:0:0:
124,192,80171,1,8,0:2:0:0:
424,216,80444,6,0,L|388:208,4,26.2500010013581
292,172,80717,5,8,0:2:0:0:
313,135,80785,1,0,0:0:0:0:
349,113,80853,1,0,0:0:0:0:
390,109,80921,1,0,0:0:0:0:
424,134,80990,6,0,P|354:135|317:96,1,105.000004005432
298,85,81194,1,0,0:0:0:0:
298,85,81262,1,8,0:2:0:0:
148,116,81399,5,0,0:0:0:0:
148,116,81467,1,0,0:0:0:0:
148,116,81535,2,0,B|131:180|131:180|181:177,1,105.000004005432
305,108,81740,2,0,L|234:114,1,52.5000020027161,0|8,0:0|0:2,0:0:0:0:
308,225,82080,6,0,P|350:162|261:112,1,157.500006008148
304,107,82353,6,0,L|260:88,4,26.2500010013581
362,137,82558,1,0,0:0:0:0:
428,168,82626,1,0,0:0:0:0:
187,111,88626,5,0,0:0:0:0:
187,111,88694,1,0,0:0:0:0:
187,111,88762,1,0,0:0:0:0:
215,83,88830,1,0,0:0:0:0:
214,127,88899,1,0,0:0:0:0:
235,144,88967,1,0,0:0:0:0:
262,148,89035,1,0,0:0:0:0:
289,144,89103,1,0,0:0:0:0:
313,131,89171,6,0,L|358:109,7,35
372,118,89717,6,0,L|330:159,3,35
374,149,89990,6,0,L|325:161,3,35
312,164,90262,1,0,0:0:0:0:
256,96,90399,5,0,0:0:0:0:
256,96,90467,1,0,0:0:0:0:
256,96,90535,2,0,P|317:91|363:117,1,105.000004005432
314,183,90808,6,0,L|248:169,1,52.5000020027161
390,198,90944,1,0,0:0:0:0:
279,251,91080,1,0,0:0:0:0:
396,84,91217,1,0,0:0:0:0:
341,301,91353,2,0,L|371:187,1,105.000004005432
354,114,91626,6,0,L|251:194,1,105.000004005432
236,208,91830,1,0,0:0:0:0:
236,208,91899,1,0,0:0:0:0:
271,98,92035,1,0,0:0:0:0:
259,285,92171,1,0,0:0:0:0:
354,114,92308,1,0,0:0:0:0:
137,147,92444,6,0,L|260:167,1,105.000004005432,4|0,0:1|0:0,0:0:0:0:
318,178,92990,1,0,0:0:0:0:
317,212,93262,2,0,L|221:277,1,105.000004005432,4|0,0:1|0:0,0:0:0:0:
318,244,93808,5,0,0:0:0:0:
353,189,94080,1,4,0:1:0:0:
400,59,94353,6,0,L|419:82,5,17.500000667572
348,113,94626,1,0,0:0:0:0:
257,65,94762,1,0,0:0:0:0:
365,210,94899,6,0,L|426:350,1,140,4|0,0:1|0:0,0:0:0:0:
253,197,95308,1,0,0:0:0:0:
257,319,95444,5,0,0:0:0:0:
257,319,95512,1,0,0:0:0:0:
257,319,95580,1,0,0:0:0:0:
257,319,95649,1,0,0:0:0:0:
257,319,95717,1,0,0:0:0:0:
190,193,95990,5,0,0:0:0:0:
330,194,96126,1,0,0:0:0:0:
123,192,96262,1,0,0:0:0:0:
260,196,96399,1,0,0:0:0:0:
56,191,96535,5,0,0:0:0:0:
319,127,96808,5,0,0:0:0:0:
319,127,96876,1,0,0:0:0:0:
319,127,96944,1,0,0:0:0:0:
182,251,97080,5,0,0:0:0:0:
417,232,97353,6,0,P|355:234|321:200,1,105.000004005432
252,304,97762,5,0,0:0:0:0:
384,164,97899,1,0,0:0:0:0:
256,124,98171,5,0,0:0:0:0:
149,192,98444,5,0,0:0:0:0:
361,191,98580,1,0,0:0:0:0:
361,191,98717,1,0,0:0:0:0:
257,243,98853,1,0,0:0:0:0:
344,307,98990,1,0,0:0:0:0:
356,319,99262,5,0,0:0:0:0:
356,319,99399,1,0,0:0:0:0:
356,319,99535,2,0,L|242:274,1,105.000004005432
340,250,100080,6,0,L|271:222,1,52.5000020027161
224,200,100353,1,0,0:0:0:0:
224,200,100490,5,0,0:0:0:0:
224,200,100626,2,0,L|269:146,1,52.5000020027161
292,120,100899,5,0,0:0:0:0:
256,262,101035,1,0,0:0:0:0:
255,63,101171,1,0,0:0:0:0:
166,109,101444,5,0,0:0:0:0:
320,105,101717,6,0,L|260:186,1,78.7500030040742
353,128,101990,1,0,0:0:0:0:
399,78,102262,5,0,0:0:0:0:
164,190,102535,5,0,0:0:0:0:
255,51,102671,1,0,0:0:0:0:
164,190,102808,1,0,0:0:0:0:
293,228,103080,5,0,0:0:0:0:
133,192,103353,1,0,0:0:0:0:
133,192,103421,1,0,0:0:0:0:
133,192,103490,1,0,0:0:0:0:
182,144,103626,5,0,0:0:0:0:
243,207,103762,1,0,0:0:0:0:
212,178,103830,1,0,0:0:0:0:
182,144,103899,1,0,0:0:0:0:
255,87,104171,5,0,0:0:0:0:
269,87,104308,2,0,L|266:157,1,52.5000020027161
262,212,104580,1,0,0:0:0:0:
261,238,104717,2,0,L|197:252,1,52.5000020027161
290,147,104990,1,0,0:0:0:0:
119,190,105262,5,0,0:0:0:0:
376,261,105399,1,0,0:0:0:0:
376,261,105467,1,0,0:0:0:0:
376,261,105535,1,0,0:0:0:0:
170,127,105671,1,0,0:0:0:0:
258,318,105808,1,0,0:0:0:0:
352,137,105944,1,0,0:0:0:0:
148,262,106080,1,0,0:0:0:0:
376,261,106217,1,0,0:0:0:0:
256,100,106353,5,0,0:0:0:0:
256,100,106626,2,0,L|256:222,1,105.000004005432
258,263,107035,1,0,0:0:0:0:
255,42,107171,5,0,0:0:0:0:
335,192,107581,5,0,0:0:0:0:
258,294,107717,1,0,0:0:0:0:
177,192,107854,1,0,0:0:0:0:
143,78,107990,6,0,L|61:168,1,105.000004005432
255,42,108262,5,0,0:0:0:0:
369,78,108399,6,0,L|451:168,1,105.000004005432
258,294,108808,5,4,0:1:0:0:
260,129,110444,6,0,L|373:129,1,105.000004005432,2|0,0:0|0:0,0:0:0:0:
56,124,110717,1,8,0:2:0:0:
85,215,110853,6,0,L|159:243,1,52.5000020027161,2|0,0:0|0:0,0:0:0:0:
367,197,110990,5,0,0:0:0:0:
177,72,111126,1,0,0:0:0:0:
256,320,111262,1,8,0:2:0:0:
312,64,111399,1,0,0:0:0:0:
312,64,111467,1,0,0:0:0:0:
312,64,111535,1,0,0:0:0:0:
145,295,111671,5,2,0:0:0:0:
181,236,111740,1,2,0:0:0:0:
192,168,111808,1,8,0:2:0:0:
93,127,111944,5,0,0:0:0:0:
256,324,112080,2,0,P|309:294|328:241,1,105.000004005432
32,336,112353,5,8,0:2:0:0:
246,244,112490,2,0,P|168:234|141:251,1,105.000004005432
256,324,112762,1,0,0:2:0:0:
256,324,112830,1,0,0:0:0:0:
256,324,112899,1,8,0:2:0:0:
196,122,113035,5,0,0:0:0:0:
150,342,113171,1,0,0:2:0:0:
216,247,113308,2,0,L|276:143,1,105.000004005432,0|8,0:0|0:2,0:0:0:0:
316,61,113580,5,0,0:0:0:0:
415,286,113717,2,0,P|339:298|293:257,1,105.000004005432,8|0,0:2|0:0,0:0:0:0:
165,165,113990,5,8,0:2:0:0:
396,190,114126,1,8,0:2:0:0:
396,190,114194,1,0,0:0:0:0:
396,190,114262,1,0,0:2:0:0:
63,223,114399,5,0,0:0:0:0:
124,131,114467,1,0,0:0:0:0:
217,78,114535,1,8,0:2:0:0:
360,73,114671,5,0,0:0:0:0:
326,114,114740,1,0,0:0:0:0:
303,161,114808,1,8,0:2:0:0:
294,212,114876,1,0,0:0:0:0:
309,261,114944,1,0,0:0:0:0:
349,228,115012,1,0,0:0:0:0:
294,212,115080,1,8,0:2:0:0:
245,233,115149,1,0,0:0:0:0:
195,215,115217,1,0,0:0:0:0:
173,168,115285,1,0,0:0:0:0:
201,121,115353,6,0,P|261:92|309:98,1,105.000004005432,8|0,0:2|0:0,0:0:0:0:
100,187,115626,1,8,0:2:0:0:
380,120,115762,5,0,0:0:0:0:
128,320,115899,1,8,0:2:0:0:
128,320,115967,1,0,0:0:0:0:
128,320,116035,1,0,0:0:0:0:
305,96,116171,5,8,0:2:0:0:
350,322,116308,1,0,0:0:0:0:
188,130,116444,1,8,0:2:0:0:
188,130,116512,1,0,0:0:0:0:
188,130,116580,1,0,0:0:0:0:
444,216,116717,5,8,0:2:0:0:
176,304,116853,1,0,0:0:0:0:
244,48,116990,1,8,0:2:0:0:
275,67,117399,5,0,0:0:0:0:
275,67,117808,5,8,0:2:0:0:
315,137,118080,6,0,L|339:174,3,26.2500010013581,0|0|0|0,0:2|0:0|0:0|0:0,0:0:0:0:
376,153,118217,2,0,L|406:110,1,52.5000020027161
426,81,118353,1,8,0:2:0:0:
256,194,118490,5,0,0:0:0:0:
256,194,118558,1,0,0:0:0:0:
256,194,118626,1,8,0:2:0:0:
408,299,118762,1,0,0:0:0:0:
326,181,118899,5,0,0:0:0:0:
263,148,118967,1,0,0:0:0:0:
193,139,119035,1,0,0:0:0:0:
126,160,119103,1,0,0:0:0:0:
74,207,119171,5,8,0:2:0:0:
487,78,119308,1,0,0:0:0:0:
22,286,119444,5,0,0:0:0:0:
153,296,119717,6,0,L|247:268,1,78.7500030040742
437,215,119990,6,0,L|421:172,4,26.2500010013581
252,67,120671,5,0,0:0:0:0:
285,87,120808,1,0,0:0:0:0:
317,109,120944,1,0,0:0:0:0:
349,130,121080,1,0,0:0:0:0:
204,192,121353,5,0,0:0:0:0:
204,192,121421,1,0,0:0:0:0:
204,192,121490,1,0,0:0:0:0:
274,158,121626,5,0,0:0:0:0:
174,280,121899,1,0,0:0:0:0:
322,227,122171,1,0,0:0:0:0:
171,180,122444,1,0,0:0:0:0:
240,217,122580,5,0,0:0:0:0:
275,235,122649,1,0,0:0:0:0:
309,253,122717,1,0,0:0:0:0:
450,182,122990,5,0,0:0:0:0:
376,154,123126,1,0,0:0:0:0:
300,174,123262,1,0,0:0:0:0:
228,148,123399,1,0,0:0:0:0:
198,70,123535,6,0,L|129:223,1,157.500006008148
130,264,124080,2,0,L|164:221,1,52.5000020027161
81,324,124353,1,0,0:0:0:0:
255,192,124626,5,0,0:0:0:0:
130,264,124899,1,0,0:0:0:0:
256,61,125171,2,0,L|330:149,1,105.000004005432
181,110,125717,5,0,0:0:0:0:
256,193,125990,6,0,L|246:314,2,105.000004005432
316,112,126808,6,0,L|357:155,2,52.5000020027161
214,60,127217,6,0,L|175:95,1,52.5000020027161
256,129,127490,1,0,0:0:0:0:
408,198,127626,5,0,0:0:0:0:
181,189,127899,5,0,0:0:0:0:
181,189,127967,1,0,0:0:0:0:
181,189,128035,1,0,0:0:0:0:
408,198,128171,5,0,0:0:0:0:
107,232,128444,5,0,0:0:0:0:
315,151,128717,1,0,0:0:0:0:
31,229,128990,5,0,0:0:0:0:
316,226,129126,1,0,0:0:0:0:
316,226,129194,1,0,0:0:0:0:
316,226,129262,1,0,0:0:0:0:
362,147,129399,5,0,0:0:0:0:
367,197,129535,1,0,0:0:0:0:
375,249,129671,1,0,0:0:0:0:
411,293,129808,6,0,L|434:186,2,105.000004005432
314,119,130626,6,0,L|367:167,1,52.5000020027161
323,224,130899,2,0,L|267:242,1,52.5000020027161
424,72,131171,6,0,B|456:144|456:144|444:184,1,105.000004005432
204,144,131717,6,0,B|260:96|260:96|312:92,1,105.000004005432
296,296,132262,6,0,B|236:268|236:268|208:220,1,105.000004005432
256,111,132808,6,0,L|293:169,1,52.5000020027161
179,166,133080,6,0,L|149:108,2,52.5000020027161
429,60,133626,6,0,B|364:94|391:177|391:177|429:194|458:267|384:339|384:339|352:351|352:351|325:340|325:340|318:328|327:288|327:252|308:230|275:222|239:232|215:266|233:298|249:310|249:310|245:332|220:322|220:322|218:304|198:271|146:269|112:287|112:287|111:289,1,770,0|2,0:0|0:0,0:0:0:0:
