osu file format v14

[General]
AudioFilename: audio.mp3
AudioLeadIn: 0
PreviewTime: 108681
Countdown: 0
SampleSet: None
StackLeniency: 0.5
Mode: 0
LetterboxInBreaks: 0
WidescreenStoryboard: 1

[Editor]
Bookmarks: 3909
DistanceSpacing: 0.8
BeatDivisor: 4
GridSize: 4
TimelineZoom: 2.2

[Metadata]
Title:Lueur de la nuit
TitleUnicode:Lueur de la nuit
Artist:aaaa & ck
ArtistUnicode:ああああ & しーけー
Creator:suraimu-
Version:Daylight
Source:
Tags:
BeatmapID:1369972
BeatmapSetID:646595

[Difficulty]
HPDrainRate:6
CircleSize:4
OverallDifficulty:9
ApproachRate:9.5
SliderMultiplier:1.4
SliderTickRate:1

[Events]
//Background and Video events
0,0,"63639708_p0.jpg",0,0
//Break Periods
//Storyboard Layer 0 (Background)
//Storyboard Layer 1 (Fail)
//Storyboard Layer 2 (Pass)
//Storyboard Layer 3 (Foreground)
//Storyboard Sound Samples

[TimingPoints]
-10,272.727272727273,4,3,1,40,1,0
0,-181.818181818181,4,3,1,40,0,0
11444,-76.9230769230769,4,3,1,40,0,0
16899,-76.9230769230769,4,3,1,55,0,0
17990,-76.9230769230769,4,3,1,65,0,0
21262,-76.9230769230769,4,3,1,50,0,0
22899,-100,4,3,1,100,0,0
28626,-76.9230769230769,4,3,1,80,0,0
29444,-76.9230769230769,4,3,1,80,0,0
31353,-76.9230769230769,4,3,1,40,0,0
31899,-76.9230769230769,4,3,1,80,0,0
34080,-76.9230769230769,4,3,1,40,0,0
35171,-71.4285714285714,4,3,1,100,0,0
37080,-71.4285714285714,4,3,1,40,0,0
38454,-71.4285714285714,4,3,1,60,0,0
40090,-71.4285714285714,4,3,1,80,0,0
48272,-71.4285714285714,4,3,1,50,0,0
51545,-71.4285714285714,4,3,1,60,0,0
52500,-100,4,3,1,50,0,0
54818,-66.6666666666667,4,3,1,50,0,0
55363,-100,4,3,1,50,0,0
55636,-100,4,3,1,60,0,0
55977,-66.6666666666667,4,3,1,80,0,0
56454,-58.8235294117647,4,3,1,85,0,0
58080,-58.8235294117647,4,3,1,85,0,1
63954,-66.6666666666667,4,3,1,85,0,1
64090,-100,4,3,1,85,0,1
64636,-66.6666666666667,4,3,1,85,0,1
67363,-100,4,3,1,85,0,1
67909,-66.6666666666667,4,3,1,85,0,1
82626,-66.6666666666667,4,3,1,85,0,0
88626,-100,4,3,1,80,0,0
89171,-100,4,3,1,60,0,0
90535,-66.6666666666667,4,3,1,65,0,0
92444,-133.333333333333,4,3,1,80,0,0
94899,-100,4,3,1,80,0,0
95580,-66.6666666666667,4,3,1,80,0,0
95990,-66.6666666666667,4,3,1,70,0,0
97353,-133.333333333333,4,3,1,100,0,0
107990,-66.6666666666667,4,3,1,100,0,0
108808,-66.6666666666667,4,3,1,100,0,0
110444,-66.6666666666667,4,3,1,100,0,1
118899,-50,4,3,1,100,0,1
119717,-133.333333333333,4,3,1,100,0,1
120262,-133.333333333333,4,3,1,30,0,0
133626,-200,4,3,1,5,0,0

[HitObjects]
172,92,11444,6,0,P|236:96|276:128,1,90.9999958343508
292,208,11717,2,0,P|240:200|208:160,1,90.9999958343508
360,168,11990,1,0,0:0:0:0:
292,208,12126,1,0,0:0:0:0:
212,256,12262,1,0,0:0:0:0:
440,172,12535,5,0,0:0:0:0:
256,316,12808,1,0,0:0:0:0:
256,316,12876,1,0,0:0:0:0:
256,316,12944,1,0,0:0:0:0:
172,188,13080,5,0,0:0:0:0:
256,224,13217,1,0,0:0:0:0:
212,316,13353,1,0,0:0:0:0:
128,276,13490,1,0,0:0:0:0:
296,144,13626,6,0,L|392:156,1,90.9999958343508
204,136,13899,5,0,0:0:0:0:
112,156,14171,1,0,0:0:0:0:
136,184,14240,1,0,0:0:0:0:
160,212,14308,1,0,0:0:0:0:
288,168,14444,5,0,0:0:0:0:
256,248,14580,1,0,0:0:0:0:
400,172,14717,5,0,0:0:0:0:
212,196,14853,1,0,0:0:0:0:
288,52,14990,5,0,0:0:0:0:
328,176,15126,5,0,0:0:0:0:
260,292,15262,1,0,0:0:0:0:
236,264,15330,1,0,0:0:0:0:
212,236,15399,1,0,0:0:0:0:
212,200,15467,1,0,0:0:0:0:
212,164,15535,1,0,0:0:0:0:
336,104,15671,5,0,0:0:0:0:
124,164,15808,2,0,L|84:96,2,45.4999979171754
164,240,16080,1,0,0:0:0:0:
188,212,16149,1,0,0:0:0:0:
204,180,16217,1,0,0:0:0:0:
188,148,16285,1,0,0:0:0:0:
168,116,16353,1,0,0:0:0:0:
148,84,16421,1,0,0:0:0:0:
304,240,16626,5,0,0:0:0:0:
320,208,16694,1,0,0:0:0:0:
332,168,16762,1,0,0:0:0:0:
316,128,16830,1,0,0:0:0:0:
300,96,16899,6,0,L|260:124,4,45.4999979171754
384,96,17444,5,0,0:0:0:0:
384,188,17717,5,0,0:0:0:0:
96,144,17990,6,0,P|152:124|188:124,1,90.9999958343508
148,212,18262,2,0,P|88:232|48:212,1,90.9999958343508
200,160,18535,1,0,0:0:0:0:
248,220,18671,1,0,0:0:0:0:
176,288,18808,1,0,0:0:0:0:
320,332,18944,1,0,0:0:0:0:
300,300,19012,1,0,0:0:0:0:
280,268,19080,1,0,0:0:0:0:
236,208,19217,5,0,0:0:0:0:
272,92,19353,1,0,0:0:0:0:
332,256,19490,1,0,0:0:0:0:
196,133,19626,2,0,P|236:97|280:93,1,90.9999958343508
208,304,19899,2,0,P|144:288|124:256,1,90.9999958343508
344,168,20171,1,0,0:0:0:0:
344,168,20240,1,0,0:0:0:0:
344,168,20308,1,0,0:0:0:0:
88,208,20444,5,0,0:0:0:0:
208,256,20580,1,0,0:0:0:0:
220,152,20717,1,0,0:0:0:0:
220,152,20785,1,0,0:0:0:0:
220,152,20853,1,0,0:0:0:0:
292,288,20990,1,0,0:0:0:0:
152,232,21126,1,0,0:0:0:0:
292,96,21262,5,0,0:0:0:0:
317,87,21535,5,0,0:0:0:0:
152,140,21671,1,0,0:0:0:0:
152,140,21740,1,0,0:0:0:0:
152,140,21808,5,0,0:0:0:0:
304,192,21943,1,0,0:0:0:0:
304,192,22012,1,0,0:0:0:0:
304,192,22080,1,0,0:0:0:0:
216,56,22353,6,0,L|240:112,4,45.4999979171754
96,76,22762,1,0,0:0:0:0:
276,192,22899,5,0,0:0:0:0:
233,97,23444,5,0,0:0:0:0:
188,272,23581,1,0,0:0:0:0:
188,272,23649,1,0,0:0:0:0:
188,272,23717,1,0,0:0:0:0:
68,188,24262,5,0,0:0:0:0:
328,120,24535,2,0,P|380:128|304:140,1,280
384,128,25217,5,0,0:0:0:0:
396,152,25285,1,0,0:0:0:0:
400,180,25353,1,0,0:0:0:0:
144,88,28626,5,0,0:0:0:0:
256,108,28762,1,0,0:0:0:0:
64,124,28899,5,0,0:0:0:0:
188,192,29035,1,0,0:0:0:0:
256,128,29171,5,0,0:0:0:0:
116,256,29308,1,0,0:0:0:0:
256,56,29444,5,0,0:0:0:0:
340,104,29580,1,0,0:0:0:0:
368,192,29717,1,0,0:0:0:0:
240,200,29853,1,0,0:0:0:0:
156,112,29990,5,0,0:0:0:0:
312,128,30126,1,0,0:0:0:0:
368,192,30262,1,0,0:0:0:0:
256,272,30535,5,0,0:0:0:0:
256,272,30671,1,0,0:0:0:0:
256,272,30808,1,0,0:0:0:0:
368,192,30944,1,0,0:0:0:0:
188,144,31080,1,0,0:0:0:0:
164,116,31149,1,0,0:0:0:0:
140,92,31217,1,0,0:0:0:0:
368,192,31353,5,0,0:0:0:0:
260,96,31490,1,0,0:0:0:0:
236,124,31558,1,0,0:0:0:0:
212,152,31626,1,0,0:0:0:0:
192,180,31694,1,0,0:0:0:0:
168,208,31762,1,0,0:0:0:0:
336,100,31899,5,0,0:0:0:0:
112,112,32035,1,0,0:0:0:0:
296,208,32171,6,0,P|240:240|188:240,1,90.9999958343508
336,100,32444,1,0,0:0:0:0:
400,192,32580,5,0,0:0:0:0:
316,292,32717,1,0,0:0:0:0:
316,292,32785,1,0,0:0:0:0:
320,296,32853,5,0,0:0:0:0:
296,208,32990,1,0,0:0:0:0:
376,180,33126,1,0,0:0:0:0:
232,144,33262,1,0,0:0:0:0:
256,120,33330,1,0,0:0:0:0:
284,96,33399,1,0,0:0:0:0:
128,96,33535,5,0,0:0:0:0:
88,192,33671,1,0,0:0:0:0:
188,56,33808,5,0,0:0:0:0:
128,256,33944,1,0,0:0:0:0:
224,152,34080,2,0,L|296:160,1,45.4999979171754
280,200,34217,2,0,L|336:232,1,45.4999979171754
304,260,34353,2,0,L|336:304,1,45.4999979171754
228,280,34490,1,0,0:0:0:0:
184,192,34626,5,0,0:0:0:0:
184,192,34694,1,0,0:0:0:0:
184,192,34762,1,0,0:0:0:0:
400,172,34899,5,0,0:0:0:0:
72,192,35171,5,0,0:0:0:0:
184,192,35308,1,0,0:0:0:0:
24,192,35444,5,0,0:0:0:0:
292,192,35580,1,0,0:0:0:0:
128,128,35717,5,0,0:0:0:0:
412,124,35990,5,0,0:0:0:0:
256,256,36262,5,0,0:0:0:0:
220,68,36399,5,0,0:0:0:0:
220,68,36467,1,0,0:0:0:0:
220,68,36535,1,0,0:0:0:0:
356,272,36671,1,0,0:0:0:0:
376,176,37080,6,0,P|340:224|280:212,1,97.9999970092774
324,108,37353,2,0,P|368:72|428:88,1,97.9999970092774
444,216,37626,6,0,L|396:316,1,97.9999970092774
472,144,37899,5,0,0:0:0:0:
212,192,38171,1,0,0:0:0:0:
256,104,38308,1,0,0:0:0:0:
256,104,38444,1,0,0:0:0:0:
448,192,38580,1,0,0:0:0:0:
256,300,38717,1,0,0:0:0:0:
360,84,38853,1,0,0:0:0:0:
464,308,38990,1,0,0:0:0:0:
240,148,39126,1,0,0:0:0:0:
432,40,39262,1,0,0:0:0:0:
336,352,39399,1,0,0:0:0:0:
440,44,39535,5,0,0:0:0:0:
96,192,39671,1,0,0:0:0:0:
480,192,39808,5,0,0:0:0:0:
256,92,40080,5,0,0:0:0:0:
256,92,40149,1,0,0:0:0:0:
256,92,40217,1,0,0:0:0:0:
252,88,40285,1,0,0:0:0:0:
256,92,40353,2,0,L|232:136,1,48.9999985046387
260,144,40490,2,0,L|232:188,1,48.9999985046387
256,200,40626,2,0,L|192:228,1,48.9999985046387
160,236,40762,5,0,0:0:0:0:
172,200,40830,1,0,0:0:0:0:
184,164,40899,1,0,0:0:0:0:
324,128,41171,5,0,0:0:0:0:
288,208,41308,2,0,P|328:160|320:120,1,97.9999970092774
80,188,41717,5,0,0:0:0:0:
372,112,42262,5,0,0:0:0:0:
56,216,42535,5,0,0:0:0:0:
460,128,42808,5,0,0:0:0:0:
40,124,43080,5,0,0:0:0:0:
460,200,43353,5,0,0:0:0:0:
144,144,43626,5,0,0:0:0:0:
340,112,43899,5,0,0:0:0:0:
256,260,44034,5,0,0:0:0:0:
256,188,44103,1,0,0:0:0:0:
256,120,44171,1,0,0:0:0:0:
364,144,44444,6,0,L|332:188,2,48.9999985046387
400,84,44717,5,0,0:0:0:0:
340,264,44990,1,0,0:0:0:0:
340,264,45058,1,0,0:0:0:0:
340,264,45126,1,0,0:0:0:0:
140,188,45262,5,0,0:0:0:0:
340,264,45399,1,0,0:0:0:0:
224,112,45535,1,0,0:0:0:0:
340,264,45671,1,0,0:0:0:0:
336,72,45808,5,0,0:0:0:0:
256,268,46080,5,0,0:0:0:0:
256,268,46149,1,0,0:0:0:0:
256,268,46217,1,0,0:0:0:0:
256,88,46353,5,0,0:0:0:0:
128,192,46626,1,0,0:0:0:0:
384,192,46899,1,0,0:0:0:0:
256,88,47171,5,0,0:0:0:0:
256,300,47444,5,0,0:0:0:0:
256,152,47717,5,0,0:0:0:0:
256,232,47990,1,0,0:0:0:0:
256,48,48262,5,0,0:0:0:0:
124,128,48671,5,0,0:0:0:0:
164,132,48808,1,0,0:0:0:0:
204,136,48944,1,0,0:0:0:0:
256,44,49080,5,0,0:0:0:0:
192,92,49217,1,0,0:0:0:0:
264,124,49353,1,0,0:0:0:0:
336,160,49490,5,0,0:0:0:0:
328,200,49626,1,0,0:0:0:0:
320,236,49762,1,0,0:0:0:0:
272,172,49899,5,0,0:0:0:0:
344,140,50035,1,0,0:0:0:0:
336,216,50171,1,0,0:0:0:0:
256,244,50308,5,0,0:0:0:0:
180,224,50444,1,0,0:0:0:0:
232,164,50580,1,0,0:0:0:0:
308,152,50717,5,0,0:0:0:0:
284,124,50785,1,0,0:0:0:0:
256,96,50853,1,0,0:0:0:0:
180,120,50990,5,0,0:0:0:0:
160,196,51126,1,0,0:0:0:0:
240,168,51262,1,0,0:0:0:0:
256,240,51399,5,0,0:0:0:0:
440,152,51535,1,0,0:0:0:0:
156,192,51671,1,0,0:0:0:0:
440,152,51944,5,0,0:0:0:0:
256,312,52217,5,0,0:0:0:0:
280,96,52490,5,0,0:0:0:0:
280,96,52558,1,0,0:0:0:0:
280,96,52626,1,0,0:0:0:0:
220,144,52762,1,0,0:0:0:0:
220,144,52899,1,0,0:0:0:0:
328,112,53035,6,0,L|300:156,1,35
364,200,53171,2,0,L|304:220,1,35
140,188,53308,5,0,0:0:0:0:
436,196,53580,5,0,0:0:0:0:
216,256,53853,1,0,0:0:0:0:
308,144,54126,5,0,0:0:0:0:
308,144,54194,1,0,0:0:0:0:
308,144,54262,1,0,0:0:0:0:
312,260,54399,1,0,0:0:0:0:
312,260,54467,1,0,0:0:0:0:
312,260,54535,5,0,0:0:0:0:
140,188,54671,1,0,0:0:0:0:
412,112,54808,1,0,0:0:0:0:
228,280,54944,1,0,0:0:0:0:
228,280,55012,1,0,0:0:0:0:
228,280,55080,1,0,0:0:0:0:
288,64,55217,1,0,0:0:0:0:
408,216,55353,1,0,0:0:0:0:
140,188,55490,5,0,0:0:0:0:
384,112,55626,1,0,0:0:0:0:
384,112,55694,1,0,0:0:0:0:
384,112,55762,1,0,0:0:0:0:
256,296,55899,1,0,0:0:0:0:
216,120,56035,1,0,0:0:0:0:
412,192,56171,2,0,P|348:204|300:192,1,105.000004005432
384,112,56444,2,0,B|428:80|428:80|-36:196,1,525.000020027161
404,188,57262,5,0,0:0:0:0:
