osu file format v14

[General]
AudioFilename: audio.mp3
AudioLeadIn: 0
PreviewTime: 198596
Countdown: 0
SampleSet: Normal
StackLeniency: 0.7
Mode: 1
LetterboxInBreaks: 0
WidescreenStoryboard: 0

[Editor]
Bookmarks: 480,30480,37864,45249,60018,67403,74787,96908,106050,115193,124336,133479,142622,151765,170050,185436,198596,205707,212818,227040,242151,254951,267751,274151
DistanceSpacing: 1.4
BeatDivisor: 3
GridSize: 32
TimelineZoom: 2.7

[Metadata]
Title:steganography
TitleUnicode:stεganography
Artist:aa...hisuichazuke...
ArtistUnicode:ああ…翡翠茶漬け…
Creator:gaston_2199
Version:Encrypted Message
Source:osu!mania 4K World Cup 2022
Tags:ああああ aaaa 翡乃イスカ hino isuka hinoisuka 梅干茶漬け umeboshi chazuke 4kmwc mwc22 mwc 2022 grand finals custom tiebreaker tb chiptune artcore fa featured artist electronic instrumental
BeatmapID:3795119
BeatmapSetID:1847490

[Difficulty]
HPDrainRate:4
CircleSize:2
OverallDifficulty:8
ApproachRate:10
SliderMultiplier:1.4
SliderTickRate:1

[Events]
//Background and Video events
0,0,"BG.jpg",0,-10
//Break Periods
//Storyboard Layer 0 (Background)
//Storyboard Layer 1 (Fail)
//Storyboard Layer 2 (Pass)
//Storyboard Layer 3 (Foreground)
//Storyboard Layer 4 (Overlay)
//Storyboard Sound Samples

[TimingPoints]
480,750,4,1,0,30,1,0
480,-66.6666666666667,4,1,0,30,0,0
19477,-62.8998968008256,4,1,0,30,0,0
19602,-61.9017392408277,4,1,0,30,0,0
19727,-60.9347663084229,4,1,0,30,0,0
19852,-59.9975390673065,4,1,0,30,0,0
19977,-59.0887057682986,4,1,0,30,0,0
20102,-58.2069953443954,4,1,0,30,0,0
20227,-57.3512114796518,4,1,0,30,0,0
20352,-56.5202271936942,4,1,0,30,0,0
20477,-55.7129798903108,4,1,0,30,0,0
20602,-54.9284668243776,4,1,0,30,0,0
20727,-54.1657409464563,4,1,0,30,0,0
20820,-53.6118746564046,4,1,0,30,0,0
20914,-53.0634454238764,4,1,0,30,0,0
21008,-52.5261230205752,4,1,0,30,0,0
21102,-51.9995734243361,4,1,0,30,0,0
21195,-51.4889123548046,4,1,0,30,0,0
21289,-50.982852363028,4,1,0,30,0,0
21383,-50.4866431973493,4,1,0,30,0,0
21477,-50,4,1,0,30,0,0
21602,-51.063829787234,4,1,0,30,0,0
21727,-52.1739130434783,4,1,0,30,0,0
21852,-53.3333333333333,4,1,0,30,0,0
21977,-54.5454545454545,4,1,0,30,0,0
22102,-55.8139534883721,4,1,0,30,0,0
22227,-57.1428571428571,4,1,0,30,0,0
22352,-58.5365853658537,4,1,0,30,0,0
22477,-60,4,1,0,30,0,0
22602,-61.5384615384615,4,1,0,30,0,0
22727,-63.1578947368421,4,1,0,30,0,0
22852,-64.8648648648649,4,1,0,30,0,0
22977,-50,4,1,0,30,0,0
23070,-49.6154800297693,4,1,0,30,0,0
23164,-49.232789037499,4,1,0,30,0,0
23258,-48.8559563553457,4,1,0,30,0,0
23352,-48.4848484848485,4,1,0,30,0,0
23445,-48.1231953801733,4,1,0,30,0,0
23539,-47.7630950485592,4,1,0,30,0,0
23633,-47.4083438685209,4,1,0,30,0,0
23820,-46.7180565288484,4,1,0,30,0,0
23914,-46.3786040040195,4,1,0,30,0,0
24102,-45.7142857142857,4,1,0,30,0,0
24195,-45.3926463912846,4,1,0,30,0,0
24289,-45.0721153846154,4,1,0,30,0,0
24383,-44.7560793674474,4,1,0,30,0,0
24477,-44.4444444444444,4,1,0,30,0,0
25980,-66.6666666666667,4,1,0,30,0,0
30480,230.769230769231,4,1,0,80,1,0
30480,-117.647058823529,4,1,0,80,0,0
34172,-111.111111111111,4,1,0,80,0,0
36938,-90.9090909090909,4,1,0,70,0,0
37015,-93.0255996774844,4,1,0,70,0,0
37092,-95.2430089774017,4,1,0,70,0,0
37169,-97.568710359408,4,1,0,70,0,0
37246,-100.01083541012,4,1,0,70,0,0
37323,-102.57835074461,4,1,0,70,0,0
37400,-105.281168016425,4,1,0,70,0,0
37477,-108.130271790066,4,1,0,70,0,0
37553,-111.097737120847,4,1,0,70,0,0
37630,-114.275102141884,4,1,0,70,0,0
37707,-117.639561560031,4,1,0,70,0,0
37784,-121.208141825345,4,1,0,70,0,0
37864,-100,4,1,0,90,0,1
44326,-100,4,1,0,70,0,0
44556,-125,4,1,0,70,0,0
45249,-100,4,1,0,90,0,1
52633,-90.9090909090909,4,1,0,90,0,1
52691,-100,4,1,0,90,0,1
56438,-99.3758743139998,4,1,0,90,0,1
56496,-99.0667238789959,4,1,0,90,0,1
56553,-98.7647719373295,4,1,0,90,0,1
56669,-98.1559228357336,4,1,0,90,0,1
56727,-97.8543046357616,4,1,0,90,0,1
56784,-97.5596873019227,4,1,0,90,0,1
56900,-96.9655606887862,4,1,0,90,0,1
57015,-96.3836560037572,4,1,0,90,0,1
57073,-96.0928151500962,4,1,0,90,0,1
57130,-95.8086938479095,4,1,0,90,0,1
57188,-95.521307405875,4,1,0,90,0,1
57246,-95.2356398886253,4,1,0,90,0,1
57303,-94.9565575034703,4,1,0,90,0,1
57361,-94.6742529089138,4,1,0,90,0,1
57419,-94.3936219144478,4,1,0,90,0,1
57477,-94.1146496815286,4,1,0,90,0,1
57534,-93.8420892185753,4,1,0,90,0,1
57592,-93.5663627152989,4,1,0,90,0,1
57650,-93.2922517426003,4,1,0,90,0,1
57707,-93.0244270964492,4,1,0,90,0,1
57765,-92.7534776276804,4,1,0,90,0,1
57823,-92.4841019478243,4,1,0,90,0,1
57880,-92.2208907529459,4,1,0,90,0,1
57938,-91.954595240466,4,1,0,90,0,1
57996,-91.6898332009531,4,1,0,90,0,1
58053,-91.4311172714222,4,1,0,90,0,1
58111,-91.1693568290636,4,1,0,90,0,1
58172,-83.3333333333333,4,1,0,80,0,0
58246,-85.9406745225518,4,1,0,80,0,0
58323,-88.7164429530201,4,1,0,80,0,0
58400,-91.6775032509753,4,1,0,80,0,0
58477,-94.8430493273543,4,1,0,80,0,0
58553,-98.1894150417827,4,1,0,80,0,0
58630,-101.829561868079,4,1,0,80,0,0
58707,-105.75,4,1,0,80,0,0
58784,-109.984399375975,4,1,0,80,0,0
58861,-114.572047670639,4,1,0,80,0,0
58938,-119.559072922555,4,1,0,80,0,0
59015,-125,4,1,0,80,0,0
59326,-83.3333333333333,4,1,0,100,0,1
60018,-83.3333333333333,4,1,0,100,0,0
60133,-100,4,1,0,80,0,0
60361,-101.044875279338,4,1,0,80,0,0
60477,-101.7578006204,4,1,0,80,0,0
60707,-103.201529825427,4,1,0,80,0,0
60765,-103.572091871479,4,1,0,80,0,0
60823,-103.94532463498,4,1,0,80,0,0
60880,-104.314752462901,4,1,0,80,0,0
60938,-104.693366708385,4,1,0,80,0,0
61053,-105.452253387961,4,1,0,80,0,0
61111,-105.839185171127,4,1,0,80,0,0
61169,-106.228966918535,4,1,0,80,0,0
61284,-107.01036203147,4,1,0,80,0,0
61400,-107.810284830519,4,1,0,80,0,0
61515,-108.615204830228,4,1,0,80,0,0
61630,-109.432234432234,4,1,0,80,0,0
61746,-110.268916424993,4,1,0,80,0,0
61861,-100,4,1,0,80,0,0
62034,-100.94602723246,4,1,0,80,0,0
62207,-101.910124765375,4,1,0,80,0,0
62323,-102.566951883543,4,1,0,80,0,0
62553,-103.894642053129,4,1,0,80,0,0
62611,-104.234895539243,4,1,0,80,0,0
62669,-104.577384998867,4,1,0,80,0,0
62727,-104.922132545186,4,1,0,80,0,0
62784,-105.263157894737,4,1,0,80,0,0
62900,-105.964066356696,4,1,0,80,0,0
62957,-106.311909698226,4,1,0,80,0,0
63015,-106.668207558072,4,1,0,80,0,0
63130,-107.381769530568,4,1,0,80,0,0
63246,-108.111273792094,4,1,0,80,0,0
63361,-108.844339622642,4,1,0,80,0,0
63477,-109.593920683923,4,1,0,80,0,0
63534,-109.966045153988,4,1,0,80,0,0
63592,-110.347301093909,4,1,0,80,0,0
63707,-100,4,1,0,80,0,0
63880,-100.94602723246,4,1,0,80,0,0
64053,-101.910124765375,4,1,0,80,0,0
64169,-102.566951883543,4,1,0,80,0,0
64400,-103.900489671864,4,1,0,80,0,0
64457,-104.234895539243,4,1,0,80,0,0
64515,-104.577384998867,4,1,0,80,0,0
64573,-104.922132545186,4,1,0,80,0,0
64630,-105.263157894737,4,1,0,80,0,0
64746,-105.964066356696,4,1,0,80,0,0
64803,-106.311909698226,4,1,0,80,0,0
64861,-106.668207558072,4,1,0,80,0,0
64919,-107.026901669759,4,1,0,80,0,0
64977,-107.38801628854,4,1,0,80,0,0
65034,-107.745286873285,4,1,0,80,0,0
65092,-108.111273792094,4,1,0,80,0,0
65150,-108.479755538579,4,1,0,80,0,0
65207,-108.844339622642,4,1,0,80,0,0
65265,-109.217844042125,4,1,0,80,0,0
65323,-109.593920683923,4,1,0,80,0,0
65380,-109.966045153988,4,1,0,80,0,0
65438,-110.347301093909,4,1,0,80,0,0
65553,-100,4,1,0,80,0,0
65727,-100.951027547005,4,1,0,80,0,0
65900,-101.914694035204,4,1,0,80,0,0
66015,-102.565526432697,4,1,0,80,0,0
66246,-103.89829555043,4,1,0,80,0,0
66303,-104.232505643341,4,1,0,80,0,0
66361,-104.574793341637,4,1,0,80,0,0
66419,-104.919336514429,4,1,0,80,0,0
66477,-105.266157528781,4,1,0,80,0,0
66592,-105.96064482818,4,1,0,80,0,0
66650,-106.314395901687,4,1,0,80,0,0
66707,-106.664356664357,4,1,0,80,0,0
66823,-107.383720930233,4,1,0,80,0,0
66938,-108.106526192567,4,1,0,80,0,0
67053,-108.839127872717,4,1,0,80,0,0
67169,-109.588228313753,4,1,0,80,0,0
67227,-109.966658728269,4,1,0,80,0,0
67284,-110.341119541191,4,1,0,80,0,0
67400,-83.3333333333333,4,1,0,80,0,0
67573,-100,4,1,0,80,0,0
67746,-101.044875279338,4,1,0,80,0,0
67862,-101.7578006204,4,1,0,80,0,0
68092,-103.201529825427,4,1,0,80,0,0
68150,-103.572091871479,4,1,0,80,0,0
68208,-103.94532463498,4,1,0,80,0,0
68265,-104.314752462901,4,1,0,80,0,0
68323,-104.693366708385,4,1,0,80,0,0
68380,-105.068140425799,4,1,0,80,0,0
68438,-105.452253387961,4,1,0,80,0,0
68496,-105.839185171127,4,1,0,80,0,0
68553,-106.222222222222,4,1,0,80,0,0
68611,-106.614835585011,4,1,0,80,0,0
68669,-107.01036203147,4,1,0,80,0,0
68727,-107.408834103749,4,1,0,80,0,0
68785,-107.810284830519,4,1,0,80,0,0
68900,-108.615204830228,4,1,0,80,0,0
69015,-109.432234432234,4,1,0,80,0,0
69131,-110.268916424993,4,1,0,80,0,0
69188,-110.684750248098,4,1,0,80,0,0
69246,-100,4,1,0,80,0,0
69419,-100.94602723246,4,1,0,80,0,0
69592,-101.910124765375,4,1,0,80,0,0
69650,-102.237483385024,4,1,0,80,0,0
69708,-102.566951883543,4,1,0,80,0,0
69823,-103.226527987474,4,1,0,80,0,0
69938,-103.894642053129,4,1,0,80,0,0
69996,-104.234895539243,4,1,0,80,0,0
70054,-104.577384998867,4,1,0,80,0,0
70112,-104.922132545186,4,1,0,80,0,0
70169,-105.263157894737,4,1,0,80,0,0
70285,-105.964066356696,4,1,0,80,0,0
70342,-106.311909698226,4,1,0,80,0,0
70400,-106.668207558072,4,1,0,80,0,0
70515,-107.381769530568,4,1,0,80,0,0
70631,-108.111273792094,4,1,0,80,0,0
70746,-108.844339622642,4,1,0,80,0,0
70862,-109.593920683923,4,1,0,80,0,0
70919,-109.966045153988,4,1,0,80,0,0
70977,-110.347301093909,4,1,0,80,0,0
71092,-100,4,1,0,80,0,0
71265,-100.94602723246,4,1,0,80,0,0
71438,-101.910124765375,4,1,0,80,0,0
71554,-102.566951883543,4,1,0,80,0,0
71669,-103.226527987474,4,1,0,80,0,0
71785,-103.900489671864,4,1,0,80,0,0
71842,-104.234895539243,4,1,0,80,0,0
71900,-104.577384998867,4,1,0,80,0,0
71958,-104.922132545186,4,1,0,80,0,0
72015,-105.263157894737,4,1,0,80,0,0
72131,-105.964066356696,4,1,0,80,0,0
72188,-106.311909698226,4,1,0,80,0,0
72362,-107.38801628854,4,1,0,80,0,0
72419,-107.745286873285,4,1,0,80,0,0
72477,-108.111273792094,4,1,0,80,0,0
72592,-108.844339622642,4,1,0,80,0,0
72708,-109.593920683923,4,1,0,80,0,0
72765,-109.966045153988,4,1,0,80,0,0
72823,-110.347301093909,4,1,0,80,0,0
72938,-100,4,1,0,80,0,0
73112,-100.951027547005,4,1,0,80,0,0
73285,-101.914694035204,4,1,0,80,0,0
73342,-102.236244879885,4,1,0,80,0,0
73400,-102.565526432697,4,1,0,80,0,0
73631,-103.89829555043,4,1,0,80,0,0
73688,-104.232505643341,4,1,0,80,0,0
73746,-104.574793341637,4,1,0,80,0,0
73804,-104.919336514429,4,1,0,80,0,0
73862,-105.266157528781,4,1,0,80,0,0
73977,-105.96064482818,4,1,0,80,0,0
74035,-106.314395901687,4,1,0,80,0,0
74208,-107.383720930233,4,1,0,80,0,0
74323,-108.106526192567,4,1,0,80,0,0
74438,-108.839127872717,4,1,0,80,0,0
74554,-109.588228313753,4,1,0,80,0,0
74612,-109.966658728269,4,1,0,80,0,0
74669,-110.341119541191,4,1,0,80,0,0
74787,-100,4,1,0,90,0,1
82172,-90.9090909090909,4,1,0,90,0,1
82287,-100,4,1,0,90,0,1
85861,-83.3333333333333,4,1,0,90,0,1
85977,-85.7266650160931,4,1,0,90,0,1
86092,-88.2390417940877,4,1,0,90,0,1
86207,-90.9031241795747,4,1,0,90,0,1
86323,-93.7584619550501,4,1,0,90,0,1
86438,-96.7719396310788,4,1,0,90,0,1
86553,-99.985561651747,4,1,0,90,0,1
86669,-103.450851508814,4,1,0,90,0,1
86784,-107.131806930693,4,1,0,90,0,1
86900,-111.120025673941,4,1,0,90,0,1
87015,-115.378207264245,4,1,0,90,0,1
87130,-119.975744975745,4,1,0,90,0,1
87246,-100,4,1,0,90,0,1
87323,-98.8995283693011,4,1,0,90,0,1
87400,-97.8230138535482,4,1,0,90,0,1
87477,-96.7696825618795,4,1,0,90,0,1
87553,-95.7520409575204,4,1,0,90,0,1
87630,-94.7426067907996,4,1,0,90,0,1
87707,-93.7542338436526,4,1,0,90,0,1
87784,-92.7862697774202,4,1,0,90,0,1
87861,-91.8380889183809,4,1,0,90,0,1
87938,-90.9090909090909,4,1,0,90,0,1
88015,-89.9986994407595,4,1,0,90,0,1
88092,-89.1063610610353,4,1,0,90,0,1
88169,-88.2315440520209,4,1,0,90,0,1
88246,-87.3737373737374,4,1,0,90,0,1
88323,-86.5324496686257,4,1,0,90,0,1
88400,-85.7072083230121,4,1,0,90,0,1
88477,-84.8975585817691,4,1,0,90,0,1
88553,-84.113285523277,4,1,0,90,0,1
88633,240,4,1,0,50,1,0
88633,-80,4,1,0,50,0,0
89593,244.897959183673,4,1,0,50,1,8
89593,-82.5364999720113,4,1,0,50,0,0
90572,250,4,1,0,50,1,0
90572,-85.4497676054596,4,1,0,50,0,0
91572,255.31914893617,4,1,0,50,1,8
91572,-88.8292265684866,4,1,0,50,0,0
92593,260.869565217391,4,1,0,50,1,0
92593,-92.7809295154991,4,1,0,50,0,0
93636,266.666666666667,4,1,0,50,1,8
93636,-97.453196949018,4,1,0,50,0,0
94702,272.727272727273,4,1,0,50,1,0
94702,-103.049746054972,4,1,0,50,0,0
95792,279.06976744186,4,1,0,50,1,8
95792,-109.858302626318,4,1,0,50,0,0
96908,285.714285714286,4,1,0,60,1,0
96908,-117.647058823529,4,1,0,60,0,0
100905,-112.989658104447,4,1,0,60,0,0
101047,-111.890028980967,4,1,0,61,0,0
101333,-109.739000172848,4,1,0,61,0,0
101476,-108.694204814579,4,1,0,61,0,0
101619,-107.669116261541,4,1,0,62,0,0
101762,-106.663182161824,4,1,0,62,0,0
101905,-105.675870614562,4,1,0,62,0,0
101976,-105.192426292584,4,1,0,63,0,0
102047,-104.713385134145,4,1,0,63,0,0
102119,-104.232032105071,4,1,0,63,0,0
102190,-103.761678636607,4,1,0,64,0,0
102333,-102.827115837967,4,1,0,64,0,0
102476,-101.909237642569,4,1,0,64,0,0
102547,-101.459568876736,4,1,0,65,0,0
102619,-101.007601202051,4,1,0,65,0,0
102762,-100.121779202916,4,1,0,66,0,0
102905,-99.2513591912595,4,1,0,66,0,0
102976,-98.8247909442316,4,1,0,66,0,0
103047,-98.4018736653579,4,1,0,67,0,0
103119,-97.9766803840878,4,1,0,67,0,0
103190,-97.5609756097561,4,1,0,67,0,0
103262,-97.1430028646475,4,1,0,68,0,0
103333,-96.7343276507136,4,1,0,68,0,0
103476,-95.9215706024056,4,1,0,68,0,0
103547,-95.5230866963122,4,1,0,69,0,0
103619,-95.1223572498751,4,1,0,69,0,0
103690,-94.7304724089624,4,1,0,69,0,0
103762,-94.3363518544506,4,1,0,70,0,0
103905,-93.5632296834832,4,1,0,70,0,0
104047,-92.8079521829522,4,1,0,70,0,0
104190,-92.0595793357339,4,1,0,71,0,0
104262,-91.6873260002728,4,1,0,71,0,0
104333,-91.323179210152,4,1,0,71,0,0
104405,-90.9568456407889,4,1,0,72,0,0
104476,-90.5984667707846,4,1,0,72,0,0
104619,-89.8851659587856,4,1,0,72,0,0
104762,-89.1830093412725,4,1,0,73,0,0
104833,-88.8384458713599,4,1,0,73,0,0
104905,-88.4917377770206,4,1,0,73,0,0
104976,-88.1524849775145,4,1,0,74,0,0
105047,-87.8158234462409,4,1,0,74,0,0
105119,-87.4770361298224,4,1,0,74,0,0
105190,-87.1455043199097,4,1,0,75,0,0
105238,-86.9227902306937,4,1,0,75,0,0
105285,-86.7058163002079,4,1,0,76,0,0
105333,-86.4853410828074,4,1,0,76,0,0
105405,-86.1567226067158,4,1,0,76,0,0
105476,-85.8351046650493,4,1,0,77,0,0
105524,-85.6190297808578,4,1,0,77,0,0
105571,-85.4085079668769,4,1,0,77,0,0
105619,-85.1945728343522,4,1,0,78,0,0
105690,-84.8800849692135,4,1,0,78,0,0
105762,-84.5635299428005,4,1,0,78,0,0
105809,-84.3581604783347,4,1,0,79,0,0
105857,-84.149448477976,4,1,0,79,0,0
105905,-83.941766684785,4,1,0,79,0,0
105976,-83.6364434751425,4,1,0,80,0,0
106047,-83.3333333333333,4,1,0,80,0,0
106333,-125,4,1,0,60,0,0
106405,-121.186440677966,4,1,0,60,0,0
106476,-117.647058823529,4,1,0,60,0,0
106547,-114.308553157474,4,1,0,60,0,0
106619,-111.111111111111,4,1,0,60,0,0
106690,-108.12854442344,4,1,0,60,0,0
106762,-105.263157894737,4,1,0,60,0,0
106833,-102.582496413199,4,1,0,60,0,0
106905,-100,4,1,0,60,0,0
107050,-125,4,1,0,60,0,0
107905,-100,4,1,0,60,0,0
108119,-106.376638855781,4,1,0,60,0,0
108333,-113.621896880968,4,1,0,60,0,0
108476,-119.039679893298,4,1,0,60,0,0
108616,-125,4,1,0,60,0,0
108688,-121.186440677966,4,1,0,60,0,0
108759,-117.647058823529,4,1,0,60,0,0
108830,-114.308553157474,4,1,0,60,0,0
108902,-111.111111111111,4,1,0,60,0,0
108973,-108.12854442344,4,1,0,60,0,0
109045,-105.263157894737,4,1,0,60,0,0
109116,-102.582496413199,4,1,0,60,0,0
109188,-100,4,1,0,60,0,0
109333,-125,4,1,0,60,0,0
110188,-100,4,1,0,60,0,0
110405,-90.9090909090909,4,1,0,60,0,0
110619,-83.3333333333333,4,1,0,60,0,0
110759,-119.039679893298,4,1,0,60,0,0
110902,-125,4,1,0,60,0,0
110974,-121.186440677966,4,1,0,60,0,0
111045,-117.647058823529,4,1,0,60,0,0
111116,-114.308553157474,4,1,0,60,0,0
111188,-111.111111111111,4,1,0,60,0,0
111259,-108.12854442344,4,1,0,60,0,0
111331,-105.263157894737,4,1,0,60,0,0
111402,-102.582496413199,4,1,0,60,0,0
111474,-100,4,1,0,60,0,0
111619,-125,4,1,0,60,0,0
112474,-100,4,1,0,60,0,0
112688,-106.376638855781,4,1,0,60,0,0
112902,-113.621896880968,4,1,0,60,0,0
113045,-119.039679893298,4,1,0,60,0,0
113188,-125,4,1,0,60,0,0
113260,-121.186440677966,4,1,0,60,0,0
113331,-117.647058823529,4,1,0,60,0,0
113402,-114.308553157474,4,1,0,60,0,0
113474,-111.111111111111,4,1,0,60,0,0
113545,-108.12854442344,4,1,0,60,0,0
113617,-105.263157894737,4,1,0,60,0,0
113688,-102.582496413199,4,1,0,60,0,0
113760,-100,4,1,0,60,0,0
113905,-125,4,1,0,60,0,0
114050,-100,4,1,0,60,0,0
114619,-125,4,1,0,70,0,0
114762,-117.634940255459,4,1,0,70,0,0
114833,-114.291433146517,4,1,0,70,0,0
114905,-111.089494163424,4,1,0,70,0,0
114952,-109.094382881162,4,1,0,70,0,0
115000,-107.129455909944,4,1,0,70,0,0
115047,-105.272861356932,4,1,0,70,0,0
115119,-102.550287356322,4,1,0,70,0,0
115190,-90.9090909090909,4,1,0,80,0,0
115265,-100,4,1,0,80,0,0
123190,-83.3333333333333,4,1,0,80,0,0
123238,-83.920704845815,4,1,0,80,0,0
123285,-84.5039183794174,4,1,0,80,0,0
123333,-85.1079672375279,4,1,0,80,0,0
123381,-85.7207139643018,4,1,0,80,0,0
123428,-86.3293051359517,4,1,0,80,0,0
123476,-86.9598295800365,4,1,0,80,0,0
123547,-87.9095523765574,4,1,0,80,0,0
123619,-88.8940737284181,4,1,0,80,0,0
123666,-89.5487308053902,4,1,0,80,0,0
123714,-90.2273444900537,4,1,0,80,0,0
123762,-90.9163219853643,4,1,0,80,0,0
123905,-93.0327201692984,4,1,0,80,0,0
123976,-94.1205533596838,4,1,0,80,0,0
124047,-95.2341276453924,4,1,0,80,0,0
124095,-96.0020157903578,4,1,0,80,0,0
124143,-96.7823878069433,4,1,0,80,0,0
124190,-97.5588938204165,4,1,0,80,0,0
124262,-98.7729001036986,4,1,0,80,0,0
124333,-86.9565217391304,4,1,0,80,0,0
124408,-95.2380952380952,4,1,0,80,0,0
132333,-80,4,1,0,80,0,0
132381,-80.5411690096184,4,1,0,80,0,0
132428,-81.0782053555595,4,1,0,80,0,0
132476,-81.6341106310038,4,1,0,80,0,0
132524,-82.1976915608932,4,1,0,80,0,0
132571,-82.7571226876154,4,1,0,80,0,0
132619,-83.3363712587948,4,1,0,80,0,0
132690,-84.208199801083,4,1,0,80,0,0
132762,-85.1111359320898,4,1,0,80,0,0
132809,-85.711071950808,4,1,0,80,0,0
132857,-86.332565429208,4,1,0,80,0,0
132905,-86.9631376726138,4,1,0,80,0,0
133048,-88.8975306241493,4,1,0,80,0,0
133119,-89.8902913766663,4,1,0,80,0,0
133190,-90.9054758022826,4,1,0,80,0,0
133238,-91.6048887998397,4,1,0,80,0,0
133286,-92.3151475992408,4,1,0,80,0,0
133333,-93.0213631739573,4,1,0,80,0,0
133405,-94.1244287067155,4,1,0,80,0,0
133479,-83.3333333333333,4,1,0,90,0,1
133622,-90.9090909090909,4,1,0,90,0,1
137477,-91.8440222825311,4,1,0,90,0,1
137548,-92.7849927849928,4,1,0,90,0,1
137619,-93.7454439422656,4,1,0,90,0,1
137690,-94.7259870359458,4,1,0,90,0,1
137834,-96.7790487658037,4,1,0,90,0,1
137905,-97.8244332876921,4,1,0,90,0,1
137977,-98.9078603291801,4,1,0,90,0,1
138048,-83.3333333333333,4,1,0,90,0,1
138122,-90.9090909090909,4,1,0,90,0,1
141479,-83.3333333333333,4,1,0,90,0,1
141690,-111.111111111111,4,1,0,90,0,1
141762,-109.22986478542,4,1,0,90,0,1
141905,-105.676259811171,4,1,0,90,0,1
141976,-103.996417776783,4,1,0,90,0,1
142047,-102.36914600551,4,1,0,90,0,1
142119,-100.770148606139,4,1,0,90,0,1
142191,-99.2203353625975,4,1,0,90,0,1
142262,-97.7380326144135,4,1,0,90,0,1
142333,-96.2993676790712,4,1,0,90,0,1
142405,-94.8830558676335,4,1,0,90,0,1
142476,-93.5266284103493,4,1,0,90,0,1
142548,-92.1901359531606,4,1,0,90,0,1
142619,-83.3333333333333,4,1,0,90,0,1
142762,-90.9090909090909,4,1,0,90,0,1
142833,-91.1837290443366,4,1,0,90,0,1
142905,-91.4639351259069,4,1,0,90,0,1
142976,-91.7419410077486,4,1,0,90,0,1
143047,-92.0216420474064,4,1,0,90,0,1
143119,-92.3070296347347,4,1,0,90,0,1
143190,-92.5901922661482,4,1,0,90,0,1
143262,-92.8791227842066,4,1,0,90,0,1
143333,-93.1658116685506,4,1,0,90,0,1
143405,-93.4583515045792,4,1,0,90,0,1
143476,-93.7486329235749,4,1,0,90,0,1
143547,-94.0407231876426,4,1,0,90,0,1
143619,-94.3387920408523,4,1,0,90,0,1
143690,-94.6345771693531,4,1,0,90,0,1
143762,-94.9364284764985,4,1,0,90,0,1
143833,-95.2359790240867,4,1,0,90,0,1
143905,-95.5416852429782,4,1,0,90,0,1
143976,-95.8450735721633,4,1,0,90,0,1
144047,-96.1503948312993,4,1,0,90,0,1
144119,-96.4620093626215,4,1,0,90,0,1
144190,-96.7712801986904,4,1,0,90,0,1
144262,-97.0869387940017,4,1,0,90,0,1
144333,-97.4002363421507,4,1,0,90,0,1
144405,-97.7200182398541,4,1,0,90,0,1
144476,-98.0374216569834,4,1,0,90,0,1
144547,-98.3568937029557,4,1,0,90,0,1
144619,-98.6829987106281,4,1,0,90,0,1
144690,-99.006699006699,4,1,0,90,0,1
144762,-99.3371343809391,4,1,0,90,0,1
144833,-99.6651474281462,4,1,0,90,0,1
144905,-90.9090909090909,4,1,0,90,0,1
144976,-91.166613469518,4,1,0,90,0,1
145047,-91.425599167767,4,1,0,90,0,1
145118,-91.6860605087874,4,1,0,90,0,1
145190,-91.9517102615694,4,1,0,90,0,1
145261,-92.215182210743,4,1,0,90,0,1
145332,-92.480168366521,4,1,0,90,0,1
145404,-92.7504465010554,4,1,0,90,0,1
145475,-93.0185222878078,4,1,0,90,0,1
145547,-93.29196096844,4,1,0,90,0,1
145618,-93.5631807386782,4,1,0,90,0,1
145690,-93.8398357289528,4,1,0,90,0,1
145761,-94.1142551175913,4,1,0,90,0,1
145832,-94.3902842035691,4,1,0,90,0,1
145905,-94.67578205925,4,1,0,90,0,1
145976,-94.9551196808511,4,1,0,90,0,1
146047,-95.2361105322386,4,1,0,90,0,1
146118,-95.5187693336677,4,1,0,90,0,1
146190,-95.8071278825996,4,1,0,90,0,1
146261,-96.0931914714664,4,1,0,90,0,1
146332,-96.3809684494685,4,1,0,90,0,1
146405,-96.6786545377618,4,1,0,90,0,1
146475,-96.965839168258,4,1,0,90,0,1
146547,-97.2630145149619,4,1,0,90,0,1
146618,-97.5578515925198,4,1,0,90,0,1
146690,-97.8586723768737,4,1,0,90,0,1
146761,-98.1571373340779,4,1,0,90,0,1
146832,-98.4574284729404,4,1,0,90,0,1
146904,-98.7638312586445,4,1,0,90,0,1
146975,-99.0678517233904,4,1,0,90,0,1
147047,-99.3780715870047,4,1,0,90,0,1
147118,-99.6858912834831,4,1,0,90,0,1
147190,-90.9090909090909,4,1,0,90,0,1
147261,-90.6531308244438,4,1,0,90,0,1
147333,-90.3950334137372,4,1,0,90,0,1
147404,-90.1419558359622,4,1,0,90,0,1
147476,-89.8867568417741,4,1,0,90,0,1
147547,-89.6365133513704,4,1,0,90,0,1
147618,-89.3876593415187,4,1,0,90,0,1
147690,-89.1367074787491,4,1,0,90,0,1
147761,-88.8906171015282,4,1,0,90,0,1
147833,-88.6424444530614,4,1,0,90,0,1
147904,-88.399071925754,4,1,0,90,0,1
147976,-88.1536325775104,4,1,0,90,0,1
148047,-87.9129331231012,4,1,0,90,0,1
148119,-87.6701821668265,4,1,0,90,0,1
148190,-87.4321119865371,4,1,0,90,0,1
148261,-87.1953312736011,4,1,0,90,0,1
148333,-86.9565217391304,4,1,0,90,0,1
148404,-86.7223065250379,4,1,0,90,0,1
148476,-86.4860774818402,4,1,0,90,0,1
148547,-86.254386295891,4,1,0,90,0,1
148618,-86.0239331677579,4,1,0,90,0,1
148690,-85.7914884035127,4,1,0,90,0,1
148761,-85.5634988958341,4,1,0,90,0,1
148833,-85.3335324200231,4,1,0,90,0,1
148904,-85.1079672375279,4,1,0,90,0,1
148976,-84.880439625724,4,1,0,90,0,1
149047,-84.6572603044106,4,1,0,90,0,1
149118,-84.4352515328359,4,1,0,90,0,1
149190,-84.2113018492595,4,1,0,90,0,1
149261,-83.9916228827571,4,1,0,90,0,1
149333,-83.7700172230569,4,1,0,90,0,1
149404,-83.5526315789474,4,1,0,90,0,1
149476,-83.3333333333333,4,1,0,90,0,1
149547,-83.118205286696,4,1,0,90,0,1
149619,-82.9011786038078,4,1,0,90,0,1
149690,-82.6882731679085,4,1,0,90,0,1
149762,-82.4734829352767,4,1,0,90,0,1
149833,-82.2627658425996,4,1,0,90,0,1
149904,-82.0531227566403,4,1,0,90,0,1
149976,-81.8416153515681,4,1,0,90,0,1
150047,-81.6341106310038,4,1,0,90,0,1
150119,-81.4247551202137,4,1,0,90,0,1
150190,-81.2193562140269,4,1,0,90,0,1
150262,-81.0121199234531,4,1,0,90,0,1
150333,-80.8087949379618,4,1,0,90,0,1
150405,-80.6036458516977,4,1,0,90,0,1
150476,-80.4023635340461,4,1,0,90,0,1
150547,-80.2020839911588,4,1,0,90,0,1
150619,-80,4,1,0,90,0,1
150690,-79.8017175172799,4,1,0,90,0,1
150762,-79.6016435684936,4,1,0,90,0,1
150809,-79.4715800451938,4,1,0,90,0,1
150857,-79.3391871724569,4,1,0,90,0,1
150905,-79.2072346765531,4,1,0,90,0,1
150976,-79.0128577353795,4,1,0,90,0,1
151047,-78.8194324725028,4,1,0,90,0,1
151095,-78.6892017486489,4,1,0,90,0,1
151143,-78.5594006666896,4,1,0,90,0,1
151190,-78.4327180402113,4,1,0,90,0,1
151262,-78.2394414402081,4,1,0,90,0,1
151333,-78.0497797808051,4,1,0,90,0,1
151404,-77.8610354223433,4,1,0,90,0,1
151476,-77.6705626528948,4,1,0,90,0,1
151547,-77.4836457309426,4,1,0,90,0,1
151619,-77.2950126796281,4,1,0,90,0,1
151690,-77.1098967820279,4,1,0,90,0,1
151765,-76.9230769230769,4,1,0,80,0,0
152047,-83.31713007972,4,1,0,80,0,0
152190,-74.0644715236366,4,1,0,80,0,0
152476,-95.2328036448494,4,1,0,80,0,0
152619,-83.3333333333333,4,1,0,80,0,0
152833,-100,4,1,0,70,0,0
152905,-100.596619158104,4,1,0,70,0,0
153047,-101.794398792554,4,1,0,70,0,0
153119,-102.412687700354,4,1,0,70,0,0
153190,-103.029788678605,4,1,0,70,0,0
153262,-103.66322261122,4,1,0,70,0,0
153333,-104.295532646048,4,1,0,70,0,0
153405,-104.944674965422,4,1,0,70,0,0
153476,-105.592763329564,4,1,0,70,0,0
153547,-106.248906003851,4,1,0,70,0,0
153619,-106.92267042452,4,1,0,70,0,0
153690,-107.595497651334,4,1,0,70,0,0
153762,-108.286504326108,4,1,0,70,0,0
153833,-108.976660682226,4,1,0,70,0,0
153905,-109.685580050596,4,1,0,70,0,0
154047,-111.111111111111,4,1,0,70,0,0
154190,-109.08975256027,4,1,0,70,0,0
154262,-108.099590293098,4,1,0,70,0,0
154333,-107.140625976135,4,1,0,70,0,0
154476,-105.25992757626,4,1,0,70,0,0
154619,-103.444116050425,4,1,0,70,0,0
154690,-102.565636026553,4,1,0,70,0,0
154762,-101.689890305366,4,1,0,70,0,0
154833,-100.840830246369,4,1,0,70,0,0
154905,-99.9941694361845,4,1,0,70,0,0
154952,-99.449115685706,4,1,0,70,0,0
155000,-98.8985640966496,4,1,0,70,0,0
155047,-98.3653570404359,4,1,0,70,0,0
155119,-97.5595881449457,4,1,0,70,0,0
155190,-96.7778342080018,4,1,0,70,0,0
155333,-95.2407397123341,4,1,0,70,0,0
155405,-94.4851523332048,4,1,0,70,0,0
155476,-93.7517083037227,4,1,0,70,0,0
155547,-93.0295633306211,4,1,0,70,0,0
155619,-92.3085203724635,4,1,0,70,0,0
155690,-91.6083542545804,4,1,0,70,0,0
155762,-76.9230769230769,4,1,0,80,0,0
155833,-79.1955617198336,4,1,0,80,0,0
155905,-81.6414069202173,4,1,0,80,0,0
155976,-84.2058693408052,4,1,0,80,0,0
156047,-86.9366626065773,4,1,0,80,0,0
156119,-89.8929471032746,4,1,0,80,0,0
156190,-93.0118911874898,4,1,0,80,0,0
156262,-96.4038494006416,4,1,0,80,0,0
156333,-76.9230769230769,4,1,0,80,0,0
156615,-83.31713007972,4,1,0,80,0,0
156758,-74.0644715236366,4,1,0,80,0,0
157044,-95.2328036448494,4,1,0,80,0,0
157187,-83.3333333333333,4,1,0,80,0,0
157401,-100,4,1,0,70,0,0
157476,-100.596619158104,4,1,0,70,0,0
157618,-101.794398792554,4,1,0,70,0,0
157690,-102.412687700354,4,1,0,70,0,0
157761,-103.029788678605,4,1,0,70,0,0
157833,-103.66322261122,4,1,0,70,0,0
157904,-104.295532646048,4,1,0,70,0,0
157976,-104.944674965422,4,1,0,70,0,0
158047,-105.592763329564,4,1,0,70,0,0
158118,-106.248906003851,4,1,0,70,0,0
158190,-106.92267042452,4,1,0,70,0,0
158261,-107.595497651334,4,1,0,70,0,0
158333,-108.286504326108,4,1,0,70,0,0
158404,-108.976660682226,4,1,0,70,0,0
158476,-109.685580050596,4,1,0,70,0,0
158618,-111.111111111111,4,1,0,70,0,0
158761,-109.374145941514,4,1,0,70,0,0
158833,-108.519984814795,4,1,0,70,0,0
158904,-107.690651741026,4,1,0,70,0,0
159047,-106.058196851646,4,1,0,70,0,0
159190,-104.474494857203,4,1,0,70,0,0
159261,-103.70562321845,4,1,0,70,0,0
159333,-102.937393898863,4,1,0,70,0,0
159404,-102.190899341198,4,1,0,70,0,0
159476,-101.444866920152,4,1,0,70,0,0
159547,-100.719786580762,4,1,0,70,0,0
159618,-100.004997751012,4,1,0,70,0,0
159690,-99.2904282240857,4,1,0,70,0,0
159761,-98.5957132298596,4,1,0,70,0,0
159904,-97.2255964238861,4,1,0,70,0,0
159976,-96.5500603136309,4,1,0,70,0,0
160047,-95.8930368524464,4,1,0,70,0,0
160118,-95.2448950449807,4,1,0,70,0,0
160190,-94.5965111331726,4,1,0,70,0,0
160261,-93.9657196525006,4,1,0,70,0,0
160333,-93.3345771724427,4,1,0,70,0,0
160404,-92.7204485426996,4,1,0,70,0,0
160476,-92.1058688147296,4,1,0,70,0,0
160547,-91.5077514062286,4,1,0,70,0,0
160619,-66.6666666666667,4,1,0,90,0,0
160902,-76.9230769230769,4,1,0,80,0,0
161184,-83.31713007972,4,1,0,80,0,0
161327,-74.0644715236366,4,1,0,80,0,0
161613,-95.2328036448494,4,1,0,80,0,0
161756,-83.3333333333333,4,1,0,80,0,0
161970,-100,4,1,0,70,0,0
162048,-100.596619158104,4,1,0,70,0,0
162190,-101.794398792554,4,1,0,70,0,0
162262,-102.412687700354,4,1,0,70,0,0
162333,-103.029788678605,4,1,0,70,0,0
162476,-104.295532646048,4,1,0,70,0,0
162548,-104.944674965422,4,1,0,70,0,0
162619,-105.592763329564,4,1,0,70,0,0
162690,-106.248906003851,4,1,0,70,0,0
162762,-106.92267042452,4,1,0,70,0,0
162833,-107.595497651334,4,1,0,70,0,0
162905,-108.286504326108,4,1,0,70,0,0
162952,-108.74238624149,4,1,0,70,0,0
163000,-109.211946743433,4,1,0,70,0,0
163048,-109.685580050596,4,1,0,70,0,0
163119,-110.393743748295,4,1,0,70,0,0
163190,-111.111111111111,4,1,0,70,0,0
163333,-109.08975256027,4,1,0,70,0,0
163405,-108.099590293098,4,1,0,70,0,0
163476,-107.140625976135,4,1,0,70,0,0
163619,-105.25992757626,4,1,0,70,0,0
163762,-103.444116050425,4,1,0,70,0,0
163833,-102.565636026553,4,1,0,70,0,0
163905,-101.689890305366,4,1,0,70,0,0
163976,-100.840830246369,4,1,0,70,0,0
164047,-100.005831243804,4,1,0,70,0,0
164095,-99.449115685706,4,1,0,70,0,0
164143,-98.8985640966496,4,1,0,70,0,0
164190,-98.3653570404359,4,1,0,70,0,0
164262,-97.5595881449457,4,1,0,70,0,0
164333,-96.7778342080018,4,1,0,70,0,0
164405,-95.9977609851665,4,1,0,70,0,0
164476,-95.2407397123341,4,1,0,70,0,0
164548,-94.4851523332048,4,1,0,70,0,0
164619,-93.7517083037227,4,1,0,70,0,0
164690,-93.0295633306211,4,1,0,70,0,0
164762,-92.3085203724635,4,1,0,70,0,0
164833,-91.6083542545804,4,1,0,70,0,0
164905,-76.9230769230769,4,1,0,80,0,0
164976,-79.1955617198336,4,1,0,80,0,0
165048,-81.6414069202173,4,1,0,80,0,0
165119,-84.2058693408052,4,1,0,80,0,0
165190,-86.9366626065773,4,1,0,80,0,0
165262,-89.8929471032746,4,1,0,80,0,0
165333,-93.0118911874898,4,1,0,80,0,0
165405,-96.4038494006416,4,1,0,80,0,0
165476,-76.9230769230769,4,1,0,80,0,0
165758,-83.31713007972,4,1,0,80,0,0
165901,-74.0644715236366,4,1,0,80,0,0
166187,-95.2328036448494,4,1,0,80,0,0
166330,-83.3333333333333,4,1,0,80,0,0
166544,-100,4,1,0,70,0,0
166619,-100.596619158104,4,1,0,70,0,0
166761,-101.794398792554,4,1,0,70,0,0
166833,-102.412687700354,4,1,0,70,0,0
166904,-103.029788678605,4,1,0,70,0,0
166976,-103.66322261122,4,1,0,70,0,0
167047,-104.295532646048,4,1,0,70,0,0
167119,-104.944674965422,4,1,0,70,0,0
167190,-105.592763329564,4,1,0,70,0,0
167262,-106.258205689278,4,1,0,70,0,0
167333,-106.92267042452,4,1,0,70,0,0
167404,-107.595497651334,4,1,0,70,0,0
167476,-108.286504326108,4,1,0,70,0,0
167547,-108.976660682226,4,1,0,70,0,0
167619,-109.685580050596,4,1,0,70,0,0
167761,-111.111111111111,4,1,0,70,0,0
167904,-108.105551877424,4,1,0,80,0,0
167976,-106.652981244751,4,1,0,80,0,0
168047,-105.258311078368,4,1,0,80,0,0
168190,-102.557200538358,4,1,0,80,0,0
168333,-99.99125185898,4,1,0,80,0,0
168404,-98.7643653331029,4,1,0,80,0,0
168476,-97.550567551421,4,1,0,80,0,0
168547,-96.3824943081204,4,1,0,80,0,0
168619,-95.2261934516371,4,1,0,80,0,0
168690,-94.1128036228901,4,1,0,80,0,0
168762,-93.0100089510945,4,1,0,80,0,0
168833,-91.9475504786421,4,1,0,80,0,0
168904,-90.9090909090909,4,1,0,80,0,0
168976,-89.8796886058033,4,1,0,80,0,0
169047,-88.8871607434482,4,1,0,80,0,0
169119,-87.9027916634623,4,1,0,80,0,0
169190,-86.9532141498669,4,1,0,80,0,0
169261,-86.023933167758,4,1,0,80,0,0
169333,-85.101630556176,4,1,0,80,0,0
169404,-84.2113018492596,4,1,0,80,0,0
169476,-83.3272581468251,4,1,0,80,0,0
169547,-82.4734829352767,4,1,0,80,0,0
169619,-81.6253659930015,4,1,0,80,0,0
169690,-80.8059384941675,4,1,0,80,0,0
169762,-79.9916019315557,4,1,0,80,0,0
169833,-79.2044903333102,4,1,0,80,0,0
169905,-78.4219554030875,4,1,0,80,0,0
169976,-77.6652850445063,4,1,0,80,0,0
170050,300,4,1,0,80,1,0
170050,-73.2600732600733,4,1,0,80,0,0
170950,-111.111111111111,4,1,0,60,0,0
171397,-105.882352941176,4,1,0,60,0,0
171472,-104.651162790698,4,1,0,60,0,0
171547,-103.448275862069,4,1,0,60,0,0
171622,-102.272727272727,4,1,0,60,0,0
171697,-101.123595505618,4,1,0,60,0,0
171772,-100,4,1,0,60,0,0
171847,-98.9010989010989,4,1,0,60,0,0
171922,-97.8260869565217,4,1,0,60,0,0
171997,-96.7741935483871,4,1,0,60,0,0
172072,-95.7446808510638,4,1,0,60,0,0
172147,-94.7368421052632,4,1,0,60,0,0
172197,-94.0766550522648,4,1,0,60,0,0
172247,-93.4256055363322,4,1,0,60,0,0
172297,-92.7835051546392,4,1,0,60,0,0
172347,-92.1501706484642,4,1,0,60,0,0
172397,-91.5254237288136,4,1,0,60,0,0
172447,-90.9090909090909,4,1,0,60,0,0
172747,-93.75,4,1,0,60,0,0
172822,-94.488188976378,4,1,0,60,0,0
172897,-95.2380952380952,4,1,0,60,0,0
172972,-96,4,1,0,60,0,0
173047,-96.7741935483871,4,1,0,60,0,0
173122,-97.5609756097561,4,1,0,60,0,0
173197,-98.3606557377049,4,1,0,60,0,0
173272,-99.1735537190083,4,1,0,60,0,0
173347,-100,4,1,0,60,0,0
173422,-100.840336134454,4,1,0,60,0,0
173497,-101.694915254237,4,1,0,60,0,0
173572,-102.564102564103,4,1,0,60,0,0
173647,-103.448275862069,4,1,0,60,0,0
173722,-104.347826086957,4,1,0,60,0,0
173797,-105.263157894737,4,1,0,60,0,0
173872,-106.194690265487,4,1,0,60,0,0
173947,-107.142857142857,4,1,0,60,0,0
174022,-108.108108108108,4,1,0,60,0,0
174097,-109.090909090909,4,1,0,60,0,0
174172,-110.091743119266,4,1,0,60,0,0
174247,-111.111111111111,4,1,0,60,0,0
174547,-100,4,1,0,60,0,0
174597,-98.3606557377049,4,1,0,60,0,0
174647,-96.7741935483871,4,1,0,60,0,0
174697,-95.2380952380952,4,1,0,60,0,0
174747,-93.75,4,1,0,60,0,0
174797,-92.3076923076923,4,1,0,60,0,0
174850,315.789473684211,4,1,0,60,1,0
174850,-86.3636363636362,4,1,0,60,0,0
175162,-94.9999999999999,4,1,0,60,0,0
175241,-92.6829268292682,4,1,0,60,0,0
175320,-90.4761904761904,4,1,0,60,0,0
175636,-94.9999999999999,4,1,0,60,0,0
175715,-93.4426229508196,4,1,0,60,0,0
175794,-91.9354838709676,4,1,0,60,0,0
175873,-90.4761904761904,4,1,0,60,0,0
175952,-89.0624999999999,4,1,0,60,0,0
176031,-87.6923076923076,4,1,0,60,0,0
176110,-86.3636363636362,4,1,0,60,0,0
176268,-88.3753501400559,4,1,0,60,0,0
176347,-89.4167661097851,4,1,0,60,0,0
176425,-90.4693631150014,4,1,0,60,0,0
176583,-92.6793444650586,4,1,0,60,0,0
176662,-93.8253247769603,4,1,0,60,0,0
176741,-86.3636363636362,4,1,0,60,0,0
176794,-85.7102069950034,4,1,0,60,0,0
176847,-85.0665911022951,4,1,0,60,0,0
176899,-84.4444444444443,4,1,0,60,0,0
176952,-83.8196286472148,4,1,0,60,0,0
177004,-83.2155232155231,4,1,0,60,0,0
177057,-82.6086956521738,4,1,0,60,0,0
177136,-81.7204301075268,4,1,0,60,0,0
177215,-80.8510638297871,4,1,0,60,0,0
177268,-80.278112047065,4,1,0,60,0,0
177320,-79.7238082591952,4,1,0,60,0,0
177376,333.333333333333,4,1,0,60,1,0
177376,-75.0018750468763,4,1,0,60,0,0
177789,-79.9945990143202,4,1,0,60,0,0
177873,-81.0845055660895,4,1,0,60,0,0
178039,-83.3281240232545,4,1,0,60,0,0
178123,-84.5114319939107,4,1,0,60,0,0
178206,-85.714132308862,4,1,0,60,0,0
178289,-86.9515585887496,4,1,0,60,0,0
178373,-88.2408098983815,4,1,0,60,0,0
178706,-93.7514648666386,4,1,0,60,0,0
178873,-96.7825852915593,4,1,0,60,0,0
179039,-99.9962492029557,4,1,0,60,0,0
179206,-103.452066633531,4,1,0,60,0,0
179373,-107.155296964467,4,1,0,60,0,0
179539,-111.108795765696,4,1,0,60,0,0
179706,-115.391828622445,4,1,0,60,0,0
179873,-120.01830616805,4,1,0,60,0,0
180039,-100,4,1,0,60,0,0
180373,-125,4,1,0,60,0,0
180484,-121.624908781319,4,1,0,60,0,0
180595,-118.427285646613,4,1,0,60,0,0
180706,-115.393491807062,4,1,0,60,0,0
180817,-112.511251125113,4,1,0,60,0,0
180928,-109.769484083425,4,1,0,60,0,0
181039,-107.158165452208,4,1,0,60,0,0
181150,-104.668201800293,4,1,0,60,0,0
181373,-100,4,1,0,60,0,0
181706,-125,4,1,0,60,0,0
181817,-121.624908781319,4,1,0,60,0,0
181928,-118.427285646613,4,1,0,60,0,0
182039,-115.393491807062,4,1,0,60,0,0
182150,-112.511251125113,4,1,0,60,0,0
182261,-109.769484083425,4,1,0,60,0,0
182373,-107.135204628241,4,1,0,60,0,0
182484,-104.646295521139,4,1,0,60,0,0
182706,-100,4,1,0,60,0,0
182928,-90.909090909091,4,1,0,60,0,0
182984,-91.4667542994852,4,1,0,60,0,0
183039,-92.021159356403,4,1,0,60,0,0
183095,-92.5925925925927,4,1,0,60,0,0
183150,-93.1607720629255,4,1,0,60,0,0
183206,-93.7464915235209,4,1,0,60,0,0
183261,-94.3289652056033,4,1,0,60,0,0
183317,-94.9295134151888,4,1,0,60,0,0
183373,-95.537757437071,4,1,0,60,0,0
183456,-96.4537368603443,4,1,0,60,0,0
183539,-97.3874504315373,4,1,0,60,0,0
183623,-98.3510011778564,4,1,0,60,0,0
183789,-100.312349831812,4,1,0,60,0,0
183956,-102.366065955621,4,1,0,60,0,0
184039,-103.418379985138,4,1,0,60,0,0
184373,-107.881136950905,4,1,0,60,0,0
184484,-109.450779918731,4,1,0,60,0,0
184595,-111.066773077946,4,1,0,60,0,0
184709,363.636363636364,4,1,0,60,1,8
184709,-103.336933531344,4,1,0,60,0,0
184827,-105.053069814256,4,1,0,60,0,0
184948,-106.827169109095,4,1,0,60,0,0
185069,-108.662218436494,4,1,0,60,0,0
185190,-110.561413645337,4,1,0,60,0,0
185312,-112.544723815125,4,1,0,60,0,0
185436,375,4,1,0,60,1,0
185436,-111.111111111111,4,1,0,60,0,0
186433,-118.966400961487,4,1,0,60,0,0
186683,-121.1068928912,4,1,0,60,0,0
186936,387.096774193548,4,1,0,60,1,0
186936,-119.47188937137,4,1,0,60,0,0
187707,-126.65649340559,4,1,0,60,0,0
188484,400,4,1,0,60,1,0
188484,-130.413385826772,4,1,0,60,0,0
189281,-139.648848120035,4,1,0,60,0,0
190084,413.793103448276,4,1,0,60,1,0
190084,-145.282319527473,4,1,0,60,0,0
190908,-157.707509242741,4,1,0,60,0,0
191739,428.571428571429,4,1,0,60,1,8
191739,-114.15041680153,4,1,0,60,0,0
192167,428.571428571429,4,1,0,60,1,0
192167,-175,4,1,0,60,0,0
194202,-175,4,1,0,30,0,0
198596,222.222222222222,4,1,0,60,1,0
198596,-166.666666666667,4,1,0,60,0,0
204926,-160.720025715204,4,1,0,60,0,0
204981,-159.311773140035,4,1,0,60,0,0
205037,-157.903047528817,4,1,0,60,0,0
205093,-156.519017060573,4,1,0,60,0,0
205148,-155.183116076971,4,1,0,60,0,0
205204,-153.846153846154,4,1,0,60,0,0
205259,-152.55530129672,4,1,0,60,0,0
205370,-150.01500150015,4,1,0,60,0,0
205481,-147.557916482219,4,1,0,60,0,0
205537,-146.348602370848,4,1,0,60,0,0
205593,-145.158949049209,4,1,0,60,0,0
205648,-144.009216589862,4,1,0,60,0,0
205704,-142.857142857143,4,1,0,60,0,0
212148,-125.015626953369,4,1,0,40,0,0
212204,-122.443981878291,4,1,0,43,0,0
212259,-120.019203072492,4,1,0,47,0,0
212315,-117.64705882353,4,1,0,50,0,0
212370,-115.406809001731,4,1,0,53,0,0
212426,-113.211819313937,4,1,0,57,0,0
212481,-111.135807957324,4,1,0,60,0,0
212537,-109.098843552258,4,1,0,63,0,0
212593,-107.135204628241,4,1,0,67,0,0
212648,-105.27423939362,4,1,0,70,0,0
212704,-103.444708803145,4,1,0,73,0,0
212759,-101.708706265256,4,1,0,77,0,0
212818,-90.9090909090909,4,1,0,90,0,1
212981,-100,4,1,0,90,0,1
213037,-100.348822723309,4,1,0,90,0,1
213148,-101.04748165339,4,1,0,90,0,1
213204,-101.403663372569,4,1,0,90,0,1
213259,-101.755937342092,4,1,0,90,0,1
213370,-102.474397302971,4,1,0,90,0,1
213481,-103.203074951954,4,1,0,90,0,1
213537,-103.574643178604,4,1,0,90,0,1
213593,-103.948896631824,4,1,0,90,0,1
213648,-104.319108981416,4,1,0,90,0,1
213704,-104.698771690388,4,1,0,90,0,1
213815,-105.459544383347,4,1,0,90,0,1
213926,-106.231454005935,4,1,0,90,0,1
213981,-106.618133686301,4,1,0,90,0,1
214037,-107.01474691112,4,1,0,90,0,1
214148,-107.809676771733,4,1,0,90,0,1
214204,-108.21522133405,4,1,0,90,0,1
214259,-108.616504854369,4,1,0,90,0,1
214370,-109.435500305686,4,1,0,90,0,1
214426,-109.853392430958,4,1,0,90,0,1
214481,-110.266940451745,4,1,0,90,0,1
214592,-100,4,1,0,90,0,1
214759,-100.94816328848,4,1,0,90,0,1
214815,-101.270148658655,4,1,0,90,0,1
214926,-101.914478963659,4,1,0,90,0,1
214981,-102.23678914381,4,1,0,90,0,1
215037,-102.567060859533,4,1,0,90,0,1
215148,-103.228053878309,4,1,0,90,0,1
215259,-103.897621691112,4,1,0,90,0,1
215315,-104.238728967579,4,1,0,90,0,1
215370,-104.575932243266,4,1,0,90,0,1
215426,-104.921515401865,4,1,0,90,0,1
215481,-105.263157894737,4,1,0,90,0,1
215592,-105.95947556615,4,1,0,90,0,1
215704,-106.671466282698,4,1,0,90,0,1
215759,-107.024619274063,4,1,0,90,0,1
215815,-107.386603853355,4,1,0,90,0,1
215926,-100,4,1,0,90,0,1
215981,-98.7764182424918,4,1,0,90,0,1
216037,-97.5609756097562,4,1,0,90,0,1
216092,-96.396005210595,4,1,0,90,0,1
216148,-95.2380952380953,4,1,0,90,0,1
216204,-94.1076727426877,4,1,0,90,0,1
216259,-93.0232558139536,4,1,0,90,0,1
216370,-90.9090909090909,4,1,0,90,0,1
216537,-100,4,1,0,90,0,1
216593,-100.348822723309,4,1,0,90,0,1
216704,-101.04748165339,4,1,0,90,0,1
216760,-101.403663372569,4,1,0,90,0,1
216815,-101.755937342092,4,1,0,90,0,1
216926,-102.474397302971,4,1,0,90,0,1
216981,-102.834163155879,4,1,0,90,0,1
217037,-103.203074951954,4,1,0,90,0,1
217092,-103.567984570878,4,1,0,90,0,1
217149,-103.948896631824,4,1,0,90,0,1
217204,-104.319108981416,4,1,0,90,0,1
217260,-104.698771690388,4,1,0,90,0,1
217315,-105.074354291678,4,1,0,90,0,1
217371,-105.459544383347,4,1,0,90,0,1
217482,-106.231454005935,4,1,0,90,0,1
217593,-107.01474691112,4,1,0,90,0,1
217648,-107.407160477365,4,1,0,90,0,1
217704,-107.809676771733,4,1,0,90,0,1
217760,-108.21522133405,4,1,0,90,0,1
217815,-108.616504854369,4,1,0,90,0,1
217926,-109.435500305686,4,1,0,90,0,1
217982,-109.853392430958,4,1,0,90,0,1
218037,-110.266940451745,4,1,0,90,0,1
218148,-100,4,1,0,90,0,1
218315,-98.1561223363146,4,1,0,90,0,1
218371,-97.552946340393,4,1,0,90,0,1
218482,-96.3790112749351,4,1,0,90,0,1
218537,-95.8077379027913,4,1,0,90,0,1
218593,-95.2329941081951,4,1,0,90,0,1
218648,-94.6751863684772,4,1,0,90,0,1
218704,-94.1139106500107,4,1,0,90,0,1
218815,-93.0208224338183,4,1,0,90,0,1
218870,-92.4885559717021,4,1,0,90,0,1
218926,-91.9528340918495,4,1,0,90,0,1
219037,-90.909090909091,4,1,0,90,0,1
219092,-90.4006508033355,4,1,0,90,0,1
219148,-89.8887765419617,4,1,0,90,0,1
219204,-89.3826663985523,4,1,0,90,0,1
219259,-88.8911108889112,4,1,0,90,0,1
219315,-88.3961419906534,4,1,0,90,0,1
219371,-87.9066548007516,4,1,0,90,0,1
219426,-87.4311565696303,4,1,0,90,0,1
219482,-86.9522691705791,4,1,0,90,0,1
219537,-86.4870123552876,4,1,0,90,0,1
219593,-86.0183841315918,4,1,0,90,0,1
219648,-85.5630413859481,4,1,0,90,0,1
219704,-85.1043461612101,4,1,0,90,0,1
219760,-84.6505427537613,4,1,0,90,0,1
219815,-84.209529222317,4,1,0,90,0,1
219926,-83.3333333333334,4,1,0,90,0,1
220092,-100,4,1,0,90,0,1
220148,-100.348822723309,4,1,0,90,0,1
220259,-101.04748165339,4,1,0,90,0,1
220315,-101.403663372569,4,1,0,90,0,1
220370,-101.755937342092,4,1,0,90,0,1
220481,-102.474397302971,4,1,0,90,0,1
220592,-103.203074951954,4,1,0,90,0,1
220648,-103.574643178604,4,1,0,90,0,1
220704,-103.948896631824,4,1,0,90,0,1
220759,-104.319108981416,4,1,0,90,0,1
220815,-104.698771690388,4,1,0,90,0,1
220926,-105.459544383347,4,1,0,90,0,1
221037,-106.231454005935,4,1,0,90,0,1
221092,-106.618133686301,4,1,0,90,0,1
221148,-107.01474691112,4,1,0,90,0,1
221259,-107.809676771733,4,1,0,90,0,1
221315,-108.21522133405,4,1,0,90,0,1
221370,-108.616504854369,4,1,0,90,0,1
221481,-109.435500305686,4,1,0,90,0,1
221537,-109.853392430958,4,1,0,90,0,1
221592,-110.266940451745,4,1,0,90,0,1
221703,-100,4,1,0,90,0,1
221870,-100.94816328848,4,1,0,90,0,1
221926,-101.270148658655,4,1,0,90,0,1
222037,-101.914478963659,4,1,0,90,0,1
222092,-102.23678914381,4,1,0,90,0,1
222148,-102.567060859533,4,1,0,90,0,1
222259,-103.228053878309,4,1,0,90,0,1
222370,-103.897621691112,4,1,0,90,0,1
222426,-104.238728967579,4,1,0,90,0,1
222481,-104.575932243266,4,1,0,90,0,1
222537,-104.921515401865,4,1,0,90,0,1
222592,-105.263157894737,4,1,0,90,0,1
222703,-105.95947556615,4,1,0,90,0,1
222815,-106.671466282698,4,1,0,90,0,1
222870,-107.024619274063,4,1,0,90,0,1
222926,-107.386603853355,4,1,0,90,0,1
222981,-107.744515816265,4,1,0,90,0,1
223037,-108.111394868053,4,1,0,90,0,1
223092,-108.474162650235,4,1,0,90,0,1
223148,-108.846036118764,4,1,0,90,0,1
223259,-100,4,1,0,90,0,1
223315,-97.5395430579966,4,1,0,90,0,1
223370,-95.2380952380953,4,1,0,90,0,1
223481,-90.909090909091,4,1,0,90,0,1
223648,-100,4,1,0,90,0,1
223704,-100.348822723309,4,1,0,90,0,1
223815,-101.04748165339,4,1,0,90,0,1
223870,-101.397280966767,4,1,0,90,0,1
223926,-101.755937342092,4,1,0,90,0,1
224037,-102.474397302971,4,1,0,90,0,1
224092,-102.834163155879,4,1,0,90,0,1
224148,-103.203074951954,4,1,0,90,0,1
224204,-103.574643178604,4,1,0,90,0,1
224259,-103.942189818698,4,1,0,90,0,1
224315,-104.319108981416,4,1,0,90,0,1
224371,-104.698771690388,4,1,0,90,0,1
224426,-105.074354291678,4,1,0,90,0,1
224482,-105.459544383347,4,1,0,90,0,1
224593,-106.231454005935,4,1,0,90,0,1
224704,-107.01474691112,4,1,0,90,0,1
224759,-107.407160477365,4,1,0,90,0,1
224815,-107.809676771733,4,1,0,90,0,1
224871,-108.21522133405,4,1,0,90,0,1
224926,-108.616504854369,4,1,0,90,0,1
225037,-109.435500305686,4,1,0,90,0,1
225093,-109.853392430958,4,1,0,90,0,1
225148,-110.266940451745,4,1,0,90,0,1
225259,-100,4,1,0,90,0,1
225426,-100.94816328848,4,1,0,90,0,1
225482,-101.270148658655,4,1,0,90,0,1
225593,-101.914478963659,4,1,0,90,0,1
225648,-102.23678914381,4,1,0,90,0,1
225704,-102.567060859533,4,1,0,90,0,1
225759,-102.893518518519,4,1,0,90,0,1
225815,-103.228053878309,4,1,0,90,0,1
225926,-103.897621691112,4,1,0,90,0,1
225981,-104.232618126392,4,1,0,90,0,1
226037,-104.575932243266,4,1,0,90,0,1
226092,-104.915324246179,4,1,0,90,0,1
226148,-105.263157894737,4,1,0,90,0,1
226204,-105.613305613306,4,1,0,90,0,1
226259,-105.95947556615,4,1,0,90,0,1
226315,-106.314278880651,4,1,0,90,0,1
226370,-106.665066890635,4,1,0,90,0,1
226481,-100,4,1,0,90,0,1
226537,-99.0028490028491,4,1,0,90,0,1
226593,-98.0253878702399,4,1,0,90,0,1
226648,-97.0839881264188,4,1,0,90,0,1
226704,-96.1438699636868,4,1,0,90,0,1
226759,-95.2380952380953,4,1,0,90,0,1
226818,-94.3332202239567,4,1,0,80,0,0
226871,-93.4453781512606,4,1,0,80,0,0
226926,-92.5895087427145,4,1,0,80,0,0
227040,-90.909090909091,4,1,0,100,0,1
227095,-95.2380952380952,4,1,0,100,0,1
233037,-94.4212641013755,4,1,0,100,0,1
233092,-94.021697314765,4,1,0,100,0,1
233148,-93.6183252892056,4,1,0,100,0,1
233204,-93.2183995728127,4,1,0,100,0,1
233259,-92.8289273776968,4,1,0,100,0,1
233314,-92.4426961192224,4,1,0,100,0,1
233370,-92.0527306967986,4,1,0,100,0,1
233426,-91.6660415572726,4,1,0,100,0,1
233481,-91.2894068429704,4,1,0,100,0,1
233537,-90.909090909091,4,1,0,100,0,1
233593,-90.5319306563936,4,1,0,100,0,1
233648,-90.1645392164098,4,1,0,100,0,1
233704,-89.793518994783,4,1,0,100,0,1
233759,-89.4320843091336,4,1,0,100,0,1
233815,-89.0670553935861,4,1,0,100,0,1
233870,-88.7114337568059,4,1,0,100,0,1
233926,-88.352252187116,4,1,0,100,0,1
233982,-87.9959674515735,4,1,0,100,0,1
234037,-87.6488308707504,4,1,0,100,0,1
234148,-86.9565217391305,4,1,0,100,0,1
234207,-95.2380952380952,4,1,0,100,0,1
237703,-86.9565217391305,4,1,0,100,0,1
237815,-87.9193303895078,4,1,0,100,0,1
237926,-88.894812248026,4,1,0,100,0,1
238037,-89.8921832884098,4,1,0,100,0,1
238092,-90.3947145519229,4,1,0,100,0,1
238148,-90.912188639384,4,1,0,100,0,1
238259,-91.9556076376923,4,1,0,100,0,1
238370,-93.0232558139536,4,1,0,100,0,1
238426,-93.5713534177394,4,1,0,100,0,1
238481,-94.1159870184846,4,1,0,100,0,1
238592,-95.2346956987329,4,1,0,100,0,1
238704,-96.3907655623398,4,1,0,100,0,1
238759,-96.9688158755544,4,1,0,100,0,1
238815,-97.5645432604404,4,1,0,100,0,1
238926,-98.7672602080481,4,1,0,100,0,1
239037,-86.9565217391305,4,1,0,100,0,1
239092,-86.6456498423739,4,1,0,100,0,1
239148,-86.3314011851949,4,1,0,100,0,1
239259,-85.7152043211267,4,1,0,100,0,1
239315,-85.4076565753645,4,1,0,100,0,1
239370,-85.1077414205907,4,1,0,100,0,1
239481,-84.508828097759,4,1,0,100,0,1
239537,-84.2098613348496,4,1,0,100,0,1
239592,-83.9182851207153,4,1,0,100,0,1
239704,-83.3307285968807,4,1,0,100,0,1
239759,-83.0451982680747,4,1,0,100,0,1
239815,-82.7564799006675,4,1,0,100,0,1
239926,-82.1900915621051,4,1,0,100,0,1
239981,-81.9123114265524,4,1,0,100,0,1
240037,-81.631403288527,4,1,0,100,0,1
240092,-81.3573804510361,4,1,0,100,0,1
240148,-81.080259116207,4,1,0,100,0,1
240204,-80.8050192465069,4,1,0,100,0,1
240259,-80.5365072652026,4,1,0,100,0,1
240315,-80.2649405389132,4,1,0,100,0,1
240373,-80.0000000000001,4,1,0,100,0,0
240595,-111.111111111111,4,1,0,60,0,0
241707,-100,4,1,0,90,0,0
242151,200,4,1,0,90,1,0
242151,-111.111111111111,4,1,0,90,0,0
242351,-125,4,1,0,70,0,0
246551,-111.111111111111,4,1,0,80,0,0
247151,-125,4,1,0,70,0,0
248748,-123.348017621145,4,1,0,70,0,0
248848,-122.53829321663,4,1,0,70,0,0
249048,-120.950323974082,4,1,0,70,0,0
249148,-120.171673819742,4,1,0,70,0,0
249348,-118.64406779661,4,1,0,70,0,0
249448,-117.894736842105,4,1,0,70,0,0
249548,-117.154811715481,4,1,0,70,0,0
249648,-116.424116424116,4,1,0,70,0,0
249748,-115.702479338843,4,1,0,70,0,0
249948,-114.285714285714,4,1,0,70,0,0
250048,-113.590263691684,4,1,0,70,0,0
250148,-112.903225806452,4,1,0,70,0,0
250248,-112.224448897796,4,1,0,70,0,0
250348,-111.553784860558,4,1,0,70,0,0
250448,-110.891089108911,4,1,0,70,0,0
250648,-109.58904109589,4,1,0,70,0,0
250748,-108.949416342412,4,1,0,70,0,0
250848,-108.317214700193,4,1,0,70,0,0
250948,-107.692307692308,4,1,0,70,0,0
251148,-106.463878326996,4,1,0,70,0,0
251248,-105.86011342155,4,1,0,70,0,0
251448,-104.672897196262,4,1,0,70,0,0
251548,-104.089219330855,4,1,0,70,0,0
251748,-102.941176470588,4,1,0,80,0,0
251848,-102.376599634369,4,1,0,80,0,0
251948,-101.818181818182,4,1,0,80,0,0
252048,-101.26582278481,4,1,0,80,0,0
252148,-100.719424460432,4,1,0,80,0,0
252248,-100.178890876565,4,1,0,80,0,0
252348,-99.644128113879,4,1,0,80,0,0
252448,-99.1150442477876,4,1,0,80,0,0
252548,-98.5915492957746,4,1,0,80,0,0
252648,-98.0735551663748,4,1,0,80,0,0
252748,-97.5609756097561,4,1,0,80,0,0
252848,-97.053726169844,4,1,0,80,0,0
252948,-96.551724137931,4,1,0,80,0,0
253048,-96.0548885077187,4,1,0,80,0,0
253148,-95.5631399317406,4,1,0,80,0,0
253248,-95.0764006791171,4,1,0,80,0,0
253348,-94.5945945945946,4,1,0,80,0,0
253398,-94.3555181128896,4,1,0,80,0,0
253448,-94.1176470588235,4,1,0,80,0,0
253498,-93.8809723386421,4,1,0,80,0,0
253548,-93.6454849498328,4,1,0,80,0,0
253598,-93.4111759799833,4,1,0,80,0,0
253648,-93.1780366056572,4,1,0,80,0,0
253698,-92.9460580912863,4,1,0,80,0,0
253748,-92.7152317880795,4,1,0,80,0,0
253798,-92.485549132948,4,1,0,80,0,0
253848,-92.2570016474464,4,1,0,80,0,0
253898,-92.0295809367297,4,1,0,80,0,0
253948,-91.8032786885246,4,1,0,80,0,0
253998,-91.5780866721177,4,1,0,80,0,0
254048,-91.3539967373572,4,1,0,80,0,0
254098,-91.1310008136697,4,1,0,80,0,0
254148,-90.9090909090909,4,1,0,80,0,0
254548,-111.111111111111,4,1,0,70,0,0
254598,-109.58904109589,4,1,0,70,0,0
254648,-108.108108108108,4,1,0,70,0,0
254698,-106.666666666667,4,1,0,70,0,0
254748,-105.263157894737,4,1,0,70,0,0
254798,-103.896103896104,4,1,0,70,0,0
254848,-102.564102564103,4,1,0,70,0,0
254898,-101.26582278481,4,1,0,70,0,0
254951,-95.2380952380952,4,1,0,90,0,1
255051,-100,4,1,0,90,0,1
261342,-95.2380952380952,4,1,0,90,0,1
261442,-100,4,1,0,90,0,1
267751,-90.9090909090909,4,1,0,95,0,1
267801,-95.2380952380952,4,1,0,95,0,1
274145,-86.9565217391304,4,1,0,100,0,1
274195,-90.9090909090909,4,1,0,100,0,1
277348,-90.6593406593407,4,1,0,100,0,1
277398,-90.5349794238683,4,1,0,100,0,1
277448,-90.4109589041096,4,1,0,100,0,1
277498,-90.2872777017784,4,1,0,100,0,1
277548,-90.1639344262295,4,1,0,100,0,1
277648,-89.9182561307902,4,1,0,100,0,1
277698,-89.7959183673469,4,1,0,100,0,1
277748,-89.6739130434783,4,1,0,100,0,1
277848,-89.4308943089431,4,1,0,100,0,1
277948,-89.1891891891892,4,1,0,100,0,1
277998,-89.0688259109312,4,1,0,100,0,1
278048,-88.9487870619946,4,1,0,100,0,1
278098,-88.8290713324361,4,1,0,100,0,1
278148,-88.7096774193548,4,1,0,100,0,1
278198,-88.5906040268456,4,1,0,100,0,1
278248,-88.4718498659517,4,1,0,100,0,1
278298,-88.3534136546185,4,1,0,100,0,1
278348,-88.2352941176471,4,1,0,100,0,1
278398,-88.1174899866488,4,1,0,100,0,1
278448,-88,4,1,0,100,0,1
278548,-87.7659574468085,4,1,0,100,0,1
278598,-87.6494023904383,4,1,0,100,0,1
278648,-87.5331564986737,4,1,0,100,0,1
278698,-87.4172185430463,4,1,0,100,0,1
278748,-87.3015873015873,4,1,0,100,0,1
278798,-87.1862615587847,4,1,0,100,0,1
278848,-87.0712401055409,4,1,0,100,0,1
278948,-86.8421052631579,4,1,0,100,0,1
278998,-86.7279894875164,4,1,0,100,0,1
279048,-86.6141732283465,4,1,0,100,0,1
279098,-86.5006553079948,4,1,0,100,0,1
279148,-86.3874345549738,4,1,0,100,0,1
279248,-86.1618798955614,4,1,0,100,0,1
279298,-86.0495436766623,4,1,0,100,0,1
279348,-85.9375,4,1,0,100,0,1
279448,-85.7142857142857,4,1,0,100,0,1
279498,-85.6031128404669,4,1,0,100,0,1
279548,-85.4922279792746,4,1,0,100,0,1
279598,-85.3816300129366,4,1,0,100,0,1
279648,-85.2713178294574,4,1,0,100,0,1
279698,-85.1612903225806,4,1,0,100,0,1
279748,-85.0515463917526,4,1,0,100,0,1
279848,-84.8329048843188,4,1,0,100,0,1
279898,-84.7240051347882,4,1,0,100,0,1
279948,-84.6153846153846,4,1,0,100,0,1
279998,-84.5070422535211,4,1,0,100,0,1
280048,-84.3989769820972,4,1,0,100,0,1
280098,-84.2911877394636,4,1,0,100,0,1
280148,-84.1836734693878,4,1,0,100,0,1
280198,-84.0764331210191,4,1,0,100,0,1
280248,-83.969465648855,4,1,0,100,0,1
280298,-83.8627700127065,4,1,0,100,0,1
280348,-83.756345177665,4,1,0,100,0,1
280398,-83.6501901140685,4,1,0,100,0,1
280448,-83.5443037974683,4,1,0,100,0,1
280498,-83.4386852085967,4,1,0,100,0,1
280551,-83.3333333333333,4,1,0,80,0,0
280751,-125,4,1,0,60,0,0
283351,-100,4,1,0,80,0,0
283951,-125,4,1,0,70,0,0
284048,-100,4,1,0,70,0,0
284148,-100.961538461538,4,1,0,70,0,0
284348,-102.941176470588,4,1,0,70,0,0
284448,-103.960396039604,4,1,0,70,0,0
284548,-105,4,1,0,70,0,0
284648,-106.060606060606,4,1,0,70,0,0
284748,-107.142857142857,4,1,0,70,0,0
284848,-108.247422680412,4,1,0,70,0,0
284948,-109.375,4,1,0,70,0,0
285048,-110.526315789474,4,1,0,70,0,0
285148,-111.702127659574,4,1,0,70,0,0
285248,-112.903225806452,4,1,0,70,0,0
285348,-114.130434782609,4,1,0,70,0,0
285548,-116.666666666667,4,1,0,70,0,0
285648,-117.977528089888,4,1,0,70,0,0
285748,-119.318181818182,4,1,0,70,0,0
285848,-120.689655172414,4,1,0,70,0,0
285948,-122.093023255814,4,1,0,70,0,0
286048,-123.529411764706,4,1,0,70,0,0
286151,-100,4,1,0,90,0,1
286198,-101.010101010101,4,1,0,90,0,1
286248,-102.040816326531,4,1,0,90,0,1
286298,-103.092783505155,4,1,0,90,0,1
286348,-104.166666666667,4,1,0,90,0,1
286448,-106.382978723404,4,1,0,90,0,1
286498,-107.52688172043,4,1,0,90,0,1
286548,-108.695652173913,4,1,0,90,0,1
286598,-109.89010989011,4,1,0,90,0,1
286648,-111.111111111111,4,1,0,90,0,1
286748,-109.090909090909,4,1,0,90,0,1
286798,-108.108108108108,4,1,0,90,0,1
286848,-107.142857142857,4,1,0,90,0,1
286898,-106.194690265487,4,1,0,90,0,1
286948,-105.263157894737,4,1,0,90,0,1
287048,-103.448275862069,4,1,0,90,0,1
287098,-102.564102564103,4,1,0,90,0,1
287148,-101.694915254237,4,1,0,90,0,1
287198,-100.840336134454,4,1,0,90,0,1
287248,-100,4,1,0,90,0,1
287398,-101.010101010101,4,1,0,90,0,1
287448,-102.040816326531,4,1,0,90,0,1
287498,-103.092783505155,4,1,0,90,0,1
287548,-104.166666666667,4,1,0,90,0,1
287648,-106.382978723404,4,1,0,90,0,1
287698,-107.52688172043,4,1,0,90,0,1
287748,-108.695652173913,4,1,0,90,0,1
287798,-109.89010989011,4,1,0,90,0,1
287848,-111.111111111111,4,1,0,90,0,1
287948,-109.090909090909,4,1,0,90,0,1
287998,-108.108108108108,4,1,0,90,0,1
288048,-107.142857142857,4,1,0,90,0,1
288098,-106.194690265487,4,1,0,90,0,1
288148,-105.263157894737,4,1,0,90,0,1
288248,-103.448275862069,4,1,0,90,0,1
288298,-102.564102564103,4,1,0,90,0,1
288348,-101.694915254237,4,1,0,90,0,1
288398,-100.840336134454,4,1,0,90,0,1
288448,-100,4,1,0,90,0,1
288548,-99.0566037735849,4,1,0,100,0,1
288598,-98.5915492957747,4,1,0,100,0,1
288648,-98.1308411214953,4,1,0,100,0,1
288698,-97.6744186046512,4,1,0,100,0,1
288748,-97.2222222222222,4,1,0,100,0,1
288798,-96.7741935483871,4,1,0,100,0,1
288848,-96.3302752293578,4,1,0,100,0,1
288898,-95.8904109589041,4,1,0,100,0,1
288948,-95.4545454545455,4,1,0,100,0,1
288998,-95.0226244343891,4,1,0,100,0,1
289048,-94.5945945945946,4,1,0,100,0,1
289098,-94.1704035874439,4,1,0,100,0,1
289148,-93.75,4,1,0,100,0,1
289198,-93.3333333333333,4,1,0,100,0,1
289248,-92.9203539823009,4,1,0,100,0,1
289298,-92.511013215859,4,1,0,100,0,1
289348,-92.1052631578947,4,1,0,100,0,1
289398,-91.703056768559,4,1,0,100,0,1
289448,-91.304347826087,4,1,0,100,0,1
289498,-90.9090909090909,4,1,0,100,0,1
289548,-90.5172413793103,4,1,0,100,0,1
289598,-90.1287553648069,4,1,0,100,0,1
289648,-89.7435897435897,4,1,0,100,0,1
289698,-89.3617021276596,4,1,0,100,0,1
289748,-88.9830508474576,4,1,0,100,0,1
289798,-88.6075949367089,4,1,0,100,0,1
289848,-88.2352941176471,4,1,0,100,0,1
289898,-87.8661087866109,4,1,0,100,0,1
289948,-87.5,4,1,0,100,0,1
289998,-87.1369294605809,4,1,0,100,0,1
290048,-86.7768595041322,4,1,0,100,0,1
290098,-86.4197530864198,4,1,0,100,0,1
290148,-86.0655737704918,4,1,0,100,0,1
290198,-85.7142857142857,4,1,0,100,0,1
290248,-85.3658536585366,4,1,0,100,0,1
290298,-85.0202429149798,4,1,0,100,0,1
290348,-84.6774193548387,4,1,0,100,0,1
290398,-84.3373493975904,4,1,0,100,0,1
290448,-84,4,1,0,100,0,1
290498,-83.6653386454183,4,1,0,100,0,1
290551,-83.3333333333333,4,1,0,40,0,0
290751,-66.6666666666667,4,1,0,100,0,0
290801,-10,4,1,0,80,0,0
290951,200,40,1,0,80,1,8
298856,705.882352941176,4,1,0,30,1,0
298856,-83.3333333333334,4,1,0,30,0,0
300974,769.230769230769,3,1,0,30,1,0
300974,-76.4705882352941,3,1,0,30,0,0
310204,821.917808219178,3,1,0,30,1,0
310204,-71.5686274509804,3,1,0,30,0,0
310611,-71.895453955791,3,1,0,30,0,0
311022,-72.2260872884809,3,1,0,30,0,0
311433,-72.5597757088447,3,1,0,30,0,0
311844,-72.8965617574318,3,1,0,30,0,0
312255,-73.2364887682818,3,1,0,30,0,0
312669,857.142857142857,3,1,0,30,1,0
312669,-70.5557816729574,3,1,0,30,0,0
313094,-70.9016948512988,3,1,0,30,0,0
313523,-71.2518367540409,3,1,0,30,0,0
313951,-71.6046257470157,3,1,0,30,0,0
314380,-71.9617622780688,3,1,0,30,0,0
314808,-72.3216341511191,3,1,0,30,0,0
315240,923.076923076923,3,1,0,30,1,0
315240,-67.4941215153918,3,1,0,30,0,0
315698,-67.8614960949844,3,1,0,30,0,0
316160,-68.2337018955125,3,1,0,30,0,0
316621,-68.6091941432066,3,1,0,30,0,0
318009,1090.90909090909,3,1,0,30,1,0
318009,-59.0298726455274,3,1,0,30,0,0
318551,-59.4229627531959,3,1,0,30,0,0
319096,-59.8213232671201,3,1,0,30,0,0
319642,-60.2258067100972,3,1,0,30,0,0
320733,-61.0506416978039,3,1,0,30,0,0
322369,-62.3307458941744,3,1,0,30,0,0
324551,-64.1240225422202,3,1,0,30,0,0
324824,-64.3556765028922,3,1,0,30,0,0
325096,-64.5881524847877,3,1,0,30,0,0
325233,-64.7058823529412,3,1,0,30,0,0

[HitObjects]
256,192,480,5,0,0:0:0:0:
256,192,855,1,0,0:0:0:0:
256,192,1230,1,8,0:0:0:0:
256,192,1605,1,0,0:0:0:0:
256,192,1792,1,0,0:0:0:0:
256,192,1980,1,8,0:0:0:0:
256,192,2355,1,0,0:0:0:0:
256,192,2542,1,8,0:0:0:0:
256,192,2730,1,0,0:0:0:0:
256,192,3480,1,8,0:0:0:0:
256,192,3855,1,0,0:0:0:0:
256,192,4230,1,0,0:0:0:0:
256,192,4605,1,0,0:0:0:0:
256,192,4980,1,8,0:0:0:0:
256,192,5730,1,8,0:0:0:0:
256,192,5980,1,8,0:0:0:0:
256,192,6230,1,8,0:0:0:0:
256,192,6480,1,0,0:0:0:0:
256,192,6855,1,0,0:0:0:0:
256,192,7230,1,0,0:0:0:0:
259,184,7480,1,8,0:0:0:0:
256,192,7730,1,8,0:0:0:0:
259,184,7980,1,0,0:0:0:0:
259,184,8355,1,0,0:0:0:0:
256,192,8542,1,0,0:0:0:0:
256,192,8730,1,8,0:0:0:0:
259,184,9105,1,0,0:0:0:0:
256,192,9480,1,8,0:0:0:0:
259,184,9855,1,8,0:0:0:0:
256,192,10042,1,0,0:0:0:0:
259,184,10230,1,8,0:0:0:0:
256,192,10605,1,8,0:0:0:0:
256,192,10980,1,0,0:0:0:0:
256,192,11355,1,0,0:0:0:0:
256,192,11730,1,0,0:0:0:0:
256,192,12105,1,8,0:0:0:0:
256,192,12480,1,0,0:0:0:0:
256,192,13605,1,0,0:0:0:0:
256,192,13980,1,8,0:0:0:0:
256,192,14355,1,8,0:0:0:0:
256,192,14730,1,0,0:0:0:0:
256,192,15105,1,0,0:0:0:0:
256,192,15480,1,8,0:0:0:0:
256,192,15980,1,8,0:0:0:0:
256,192,16480,1,8,0:0:0:0:
256,192,16980,1,8,0:0:0:0:
256,192,17355,1,0,0:0:0:0:
256,192,17542,1,0,0:0:0:0:
256,192,17730,1,8,0:0:0:0:
256,192,18480,1,0,0:0:0:0:
256,192,18855,1,8,0:0:0:0:
256,192,19042,1,0,0:0:0:0:
260,158,19480,1,0,0:0:0:0:
256,192,19605,1,8,0:0:0:0:
256,192,19730,1,0,0:0:0:0:
256,192,19855,1,0,0:0:0:0:
256,192,19980,1,8,0:0:0:0:
256,192,20105,1,0,0:0:0:0:
256,192,20230,1,0,0:0:0:0:
256,192,20355,1,8,0:0:0:0:
256,192,20480,1,8,0:0:0:0:
256,192,20605,1,0,0:0:0:0:
256,192,20730,1,8,0:0:0:0:
256,192,20823,1,0,0:0:0:0:
256,192,20917,1,8,0:0:0:0:
256,192,21011,1,8,0:0:0:0:
256,192,21105,1,0,0:0:0:0:
256,192,21198,1,8,0:0:0:0:
256,192,21292,1,0,0:0:0:0:
256,192,21386,1,8,0:0:0:0:
256,192,21480,1,0,0:0:0:0:
256,192,21605,1,0,0:0:0:0:
256,192,21730,1,0,0:0:0:0:
256,192,21855,1,8,0:0:0:0:
256,192,21980,1,0,0:0:0:0:
256,192,22105,1,0,0:0:0:0:
256,192,22230,1,8,0:0:0:0:
256,192,22355,1,0,0:0:0:0:
256,192,22480,1,0,0:0:0:0:
256,192,22605,1,8,0:0:0:0:
256,192,22730,1,0,0:0:0:0:
256,192,22855,1,0,0:0:0:0:
256,192,22980,1,8,0:0:0:0:
256,192,23073,1,0,0:0:0:0:
256,192,23167,1,0,0:0:0:0:
256,192,23261,1,0,0:0:0:0:
256,192,23355,1,8,0:0:0:0:
256,192,23448,1,8,0:0:0:0:
256,160,23542,1,0,0:0:0:0:
256,160,23636,1,8,0:0:0:0:
256,160,23823,1,8,0:0:0:0:
256,192,23917,1,0,0:0:0:0:
256,192,24105,1,8,0:0:0:0:
256,192,24198,1,0,0:0:0:0:
256,192,24292,1,0,0:0:0:0:
256,192,24386,1,8,0:0:0:0:
256,160,24480,1,8,0:0:0:0:
256,192,25980,12,0,30292,0:0:0:0:
256,192,30480,5,4,0:0:0:0:
256,192,30710,1,0,0:0:0:0:
256,192,30826,1,8,0:0:0:0:
256,192,31056,1,8,0:0:0:0:
256,192,31172,1,0,0:0:0:0:
256,192,31518,1,8,0:0:0:0:
256,192,31633,1,8,0:0:0:0:
256,192,31749,1,0,0:0:0:0:
256,192,31864,1,0,0:0:0:0:
256,192,31980,1,0,0:0:0:0:
256,192,32095,1,8,0:0:0:0:
256,192,32210,1,0,0:0:0:0:
256,192,32326,1,8,0:0:0:0:
256,192,32383,1,0,0:0:0:0:
256,192,32441,1,8,0:0:0:0:
256,192,32499,1,8,0:0:0:0:
256,192,32556,1,0,0:0:0:0:
256,192,32672,1,8,0:0:0:0:
256,192,32903,1,8,0:0:0:0:
256,192,33018,1,0,0:0:0:0:
256,192,33133,1,8,0:0:0:0:
256,192,33364,1,8,0:0:0:0:
256,160,33422,1,0,0:0:0:0:
256,192,33480,1,8,0:0:0:0:
256,160,33537,1,8,0:0:0:0:
256,192,33595,1,0,0:0:0:0:
256,192,33710,1,8,0:0:0:0:
256,192,33826,1,0,0:0:0:0:
256,192,33941,1,8,0:0:0:0:
255,164,34056,1,0,0:0:0:0:
256,192,34172,5,8,0:0:0:0:
256,160,34287,1,0,0:0:0:0:
256,192,34403,1,0,0:0:0:0:
256,192,34518,1,8,0:0:0:0:
256,192,34749,1,8,0:0:0:0:
256,192,34864,1,0,0:0:0:0:
256,192,35210,1,8,0:0:0:0:
256,192,35326,1,8,0:0:0:0:
256,192,35441,1,0,0:0:0:0:
256,192,35556,1,8,0:0:0:0:
256,192,35672,1,0,0:0:0:0:
256,192,35787,1,8,0:0:0:0:
256,192,35903,1,0,0:0:0:0:
256,192,36018,1,8,0:0:0:0:
256,192,36076,1,0,0:0:0:0:
256,192,36133,1,8,0:0:0:0:
256,192,36191,1,8,0:0:0:0:
256,192,36249,1,0,0:0:0:0:
256,192,36364,1,8,0:0:0:0:
256,192,36595,1,8,0:0:0:0:
256,192,36710,1,0,0:0:0:0:
256,192,36826,1,8,0:0:0:0:
256,192,36941,1,8,0:0:0:0:
248,208,37018,1,0,0:0:0:0:
256,192,37095,1,8,0:0:0:0:
256,192,37172,1,0,0:0:0:0:
256,192,37249,1,8,0:0:0:0:
256,192,37326,1,8,0:0:0:0:
256,192,37403,1,0,0:0:0:0:
256,192,37480,1,8,0:0:0:0:
256,192,37556,1,0,0:0:0:0:
256,192,37633,1,0,0:0:0:0:
256,192,37710,1,8,0:0:0:0:
256,192,37787,1,8,0:0:0:0:
256,192,37864,1,4,0:0:0:0:
256,192,37980,1,0,0:0:0:0:
256,192,38037,1,0,0:0:0:0:
256,192,38095,1,8,0:0:0:0:
256,192,38210,1,8,0:0:0:0:
256,192,38268,1,8,0:0:0:0:
256,192,38326,1,0,0:0:0:0:
256,192,38441,1,0,0:0:0:0:
256,192,38556,1,8,0:0:0:0:
256,192,38614,1,8,0:0:0:0:
248,191,38672,1,8,0:0:0:0:
256,192,38730,1,8,0:0:0:0:
256,192,38787,1,0,0:0:0:0:
256,192,38903,1,8,0:0:0:0:
256,192,38960,1,0,0:0:0:0:
248,191,39018,1,8,0:0:0:0:
248,191,39133,1,0,0:0:0:0:
256,192,39191,1,8,0:0:0:0:
248,191,39249,1,8,0:0:0:0:
248,191,39364,1,0,0:0:0:0:
256,192,39422,1,8,0:0:0:0:
248,191,39480,1,0,0:0:0:0:
248,191,39595,1,8,0:0:0:0:
248,191,39710,1,0,0:0:0:0:
256,192,39768,1,0,0:0:0:0:
256,192,39826,1,0,0:0:0:0:
256,192,39883,1,0,0:0:0:0:
256,192,39941,1,8,0:0:0:0:
248,191,40056,1,8,0:0:0:0:
248,191,40114,1,8,0:0:0:0:
248,191,40172,1,0,0:0:0:0:
248,191,40287,1,8,0:0:0:0:
248,191,40345,1,0,0:0:0:0:
248,191,40403,1,8,0:0:0:0:
248,191,40460,1,8,0:0:0:0:
248,191,40518,1,0,0:0:0:0:
248,191,40576,1,8,0:0:0:0:
248,191,40633,1,0,0:0:0:0:
248,191,40749,1,8,0:0:0:0:
256,192,40806,1,0,0:0:0:0:
256,192,40864,1,8,0:0:0:0:
256,192,40922,1,8,0:0:0:0:
248,191,40980,1,0,0:0:0:0:
248,191,41095,1,8,0:0:0:0:
256,192,41153,1,0,0:0:0:0:
248,191,41210,1,0,0:0:0:0:
256,192,41326,1,8,0:0:0:0:
256,192,41383,1,0,0:0:0:0:
248,191,41441,1,8,0:0:0:0:
256,192,41556,1,0,0:0:0:0:
256,192,41672,1,0,0:0:0:0:
256,192,41730,1,0,0:0:0:0:
256,192,41787,1,8,0:0:0:0:
256,192,41903,1,8,0:0:0:0:
256,192,41960,1,8,0:0:0:0:
256,192,42018,1,0,0:0:0:0:
256,192,42133,1,0,0:0:0:0:
256,192,42249,1,8,0:0:0:0:
256,192,42306,1,8,0:0:0:0:
248,191,42364,1,0,0:0:0:0:
256,192,42422,1,0,0:0:0:0:
256,192,42480,1,8,0:0:0:0:
256,192,42595,1,0,0:0:0:0:
256,192,42653,1,8,0:0:0:0:
248,191,42710,1,0,0:0:0:0:
248,191,42826,1,8,0:0:0:0:
256,192,42883,1,0,0:0:0:0:
248,191,42941,1,8,0:0:0:0:
248,191,43056,1,8,0:0:0:0:
256,192,43114,1,8,0:0:0:0:
248,191,43172,1,0,0:0:0:0:
248,191,43287,1,0,0:0:0:0:
248,191,43403,1,8,0:0:0:0:
256,192,43460,1,8,0:0:0:0:
256,192,43518,1,0,0:0:0:0:
256,192,43576,1,8,0:0:0:0:
256,192,43633,1,0,0:0:0:0:
224,96,43691,1,0,0:0:0:0:
248,191,43749,1,8,0:0:0:0:
248,191,43864,1,0,0:0:0:0:
248,191,43980,1,0,0:0:0:0:
248,191,44037,1,0,0:0:0:0:
248,191,44095,1,8,0:0:0:0:
248,191,44153,1,0,0:0:0:0:
248,191,44210,1,8,0:0:0:0:
248,191,44268,1,8,0:0:0:0:
256,192,44556,1,8,0:0:0:0:
256,192,44787,1,0,0:0:0:0:
256,192,44845,1,0,0:0:0:0:
256,192,44903,1,0,0:0:0:0:
256,192,44960,1,0,0:0:0:0:
224,192,45018,1,0,0:0:0:0:
256,192,45076,1,0,0:0:0:0:
224,192,45133,1,0,0:0:0:0:
256,192,45191,1,0,0:0:0:0:
256,192,45249,1,12,0:0:0:0:
256,192,45364,1,0,0:0:0:0:
256,192,45422,1,0,0:0:0:0:
256,192,45480,1,8,0:0:0:0:
256,192,45595,1,8,0:0:0:0:
256,192,45653,1,8,0:0:0:0:
256,192,45710,1,0,0:0:0:0:
256,192,45826,1,0,0:0:0:0:
256,192,45941,1,8,0:0:0:0:
256,192,45999,1,8,0:0:0:0:
248,191,46056,1,8,0:0:0:0:
256,192,46114,1,8,0:0:0:0:
256,192,46172,1,0,0:0:0:0:
256,192,46287,1,8,0:0:0:0:
256,192,46345,1,0,0:0:0:0:
248,191,46403,1,8,0:0:0:0:
248,191,46518,1,0,0:0:0:0:
256,192,46576,1,8,0:0:0:0:
248,191,46633,1,8,0:0:0:0:
248,191,46749,1,0,0:0:0:0:
256,192,46806,1,8,0:0:0:0:
248,191,46864,1,0,0:0:0:0:
248,191,46980,1,8,0:0:0:0:
248,191,47095,1,0,0:0:0:0:
256,192,47153,1,0,0:0:0:0:
256,192,47210,1,0,0:0:0:0:
256,192,47268,1,0,0:0:0:0:
256,192,47326,1,8,0:0:0:0:
248,191,47441,1,8,0:0:0:0:
248,191,47499,1,8,0:0:0:0:
248,191,47556,1,0,0:0:0:0:
248,191,47672,1,8,0:0:0:0:
248,191,47730,1,0,0:0:0:0:
248,191,47787,1,8,0:0:0:0:
248,191,47845,1,8,0:0:0:0:
248,191,47903,1,0,0:0:0:0:
248,191,47960,1,8,0:0:0:0:
248,191,48018,1,0,0:0:0:0:
248,191,48133,1,8,0:0:0:0:
256,192,48191,1,0,0:0:0:0:
256,192,48249,1,8,0:0:0:0:
256,192,48306,1,8,0:0:0:0:
248,191,48364,1,0,0:0:0:0:
248,191,48480,1,8,0:0:0:0:
256,192,48537,1,0,0:0:0:0:
248,191,48595,1,0,0:0:0:0:
256,192,48710,1,8,0:0:0:0:
256,192,48768,1,0,0:0:0:0:
248,191,48826,1,8,0:0:0:0:
256,192,48941,1,0,0:0:0:0:
256,192,49056,1,0,0:0:0:0:
256,192,49114,1,0,0:0:0:0:
256,192,49172,1,8,0:0:0:0:
256,192,49287,1,8,0:0:0:0:
256,192,49345,1,8,0:0:0:0:
256,192,49403,1,0,0:0:0:0:
256,192,49518,1,0,0:0:0:0:
256,192,49633,1,8,0:0:0:0:
256,192,49691,1,8,0:0:0:0:
248,191,49749,1,0,0:0:0:0:
256,192,49806,1,0,0:0:0:0:
256,192,49864,1,8,0:0:0:0:
256,192,49980,1,0,0:0:0:0:
256,192,50037,1,8,0:0:0:0:
248,191,50095,1,0,0:0:0:0:
248,191,50210,1,8,0:0:0:0:
256,192,50268,1,0,0:0:0:0:
248,191,50326,1,8,0:0:0:0:
248,191,50441,1,8,0:0:0:0:
256,192,50499,1,8,0:0:0:0:
248,191,50556,1,0,0:0:0:0:
248,191,50672,1,0,0:0:0:0:
248,191,50787,1,8,0:0:0:0:
256,192,50845,1,8,0:0:0:0:
256,192,50903,1,0,0:0:0:0:
256,192,50960,1,8,0:0:0:0:
256,192,51018,1,0,0:0:0:0:
224,96,51076,1,0,0:0:0:0:
248,191,51133,1,8,0:0:0:0:
248,191,51249,1,0,0:0:0:0:
248,191,51364,1,8,0:0:0:0:
248,191,51422,1,0,0:0:0:0:
248,191,51480,1,8,0:0:0:0:
248,191,51537,1,0,0:0:0:0:
248,191,51595,1,8,0:0:0:0:
248,191,51653,1,8,0:0:0:0:
256,160,51710,1,0,0:0:0:0:
256,160,51826,1,8,0:0:0:0:
256,160,51883,1,8,0:0:0:0:
256,192,51941,1,0,0:0:0:0:
224,160,51999,1,8,0:0:0:0:
256,160,52056,1,0,0:0:0:0:
256,192,52172,1,0,0:0:0:0:
256,192,52230,1,0,0:0:0:0:
256,192,52287,1,8,0:0:0:0:
224,192,52403,1,0,0:0:0:0:
256,192,52460,1,8,0:0:0:0:
224,192,52518,1,0,0:0:0:0:
256,192,52633,1,12,0:0:0:0:
256,192,52749,1,0,0:0:0:0:
256,192,52806,1,0,0:0:0:0:
256,192,52864,1,8,0:0:0:0:
256,192,52980,1,8,0:0:0:0:
256,192,53037,1,8,0:0:0:0:
256,192,53095,1,0,0:0:0:0:
256,192,53210,1,0,0:0:0:0:
256,192,53326,1,8,0:0:0:0:
256,192,53383,1,8,0:0:0:0:
248,191,53441,1,8,0:0:0:0:
256,192,53499,1,8,0:0:0:0:
256,192,53556,1,0,0:0:0:0:
256,192,53672,1,8,0:0:0:0:
256,192,53730,1,0,0:0:0:0:
248,191,53787,1,8,0:0:0:0:
248,191,53903,1,0,0:0:0:0:
256,192,53960,1,8,0:0:0:0:
248,191,54018,1,8,0:0:0:0:
248,191,54133,1,0,0:0:0:0:
256,192,54191,1,8,0:0:0:0:
248,191,54249,1,0,0:0:0:0:
248,191,54364,1,8,0:0:0:0:
248,191,54480,1,0,0:0:0:0:
256,192,54537,1,0,0:0:0:0:
256,192,54595,1,0,0:0:0:0:
256,192,54653,1,0,0:0:0:0:
256,192,54710,1,8,0:0:0:0:
248,191,54826,1,8,0:0:0:0:
248,191,54883,1,8,0:0:0:0:
248,191,54941,1,0,0:0:0:0:
248,191,55056,1,8,0:0:0:0:
248,191,55114,1,0,0:0:0:0:
248,191,55172,1,8,0:0:0:0:
248,191,55230,1,8,0:0:0:0:
248,191,55287,1,0,0:0:0:0:
248,191,55345,1,8,0:0:0:0:
248,191,55403,1,0,0:0:0:0:
248,191,55518,1,8,0:0:0:0:
256,192,55576,1,0,0:0:0:0:
256,192,55633,1,8,0:0:0:0:
256,192,55691,1,8,0:0:0:0:
248,191,55749,1,0,0:0:0:0:
248,191,55864,1,8,0:0:0:0:
256,192,55922,1,0,0:0:0:0:
248,191,55980,1,0,0:0:0:0:
256,192,56095,1,8,0:0:0:0:
256,192,56153,1,0,0:0:0:0:
248,191,56210,1,8,0:0:0:0:
256,192,56326,1,0,0:0:0:0:
256,160,56441,1,0,0:0:0:0:
224,160,56499,1,0,0:0:0:0:
256,160,56556,1,8,0:0:0:0:
224,160,56672,1,8,0:0:0:0:
160,64,56730,1,8,0:0:0:0:
224,160,56787,1,0,0:0:0:0:
256,160,56903,1,0,0:0:0:0:
256,160,57018,1,8,0:0:0:0:
224,128,57076,1,8,0:0:0:0:
256,160,57133,1,8,0:0:0:0:
224,96,57191,1,8,0:0:0:0:
256,160,57249,1,0,0:0:0:0:
224,96,57306,1,0,0:0:0:0:
224,160,57364,1,8,0:0:0:0:
224,96,57422,1,0,0:0:0:0:
256,160,57480,1,8,0:0:0:0:
224,96,57537,1,8,0:0:0:0:
224,96,57595,1,0,0:0:0:0:
224,96,57653,1,8,0:0:0:0:
224,96,57710,1,8,0:0:0:0:
224,96,57768,1,8,0:0:0:0:
224,96,57826,1,0,0:0:0:0:
224,96,57883,1,0,0:0:0:0:
224,96,57941,1,8,0:0:0:0:
224,96,57999,1,0,0:0:0:0:
224,96,58056,1,8,0:0:0:0:
224,96,58114,1,8,0:0:0:0:
224,96,58172,1,0,0:0:0:0:
224,96,58249,1,0,0:0:0:0:
224,96,58326,1,0,0:0:0:0:
224,96,58403,1,8,0:0:0:0:
224,96,58480,1,8,0:0:0:0:
224,96,58556,1,8,0:0:0:0:
224,96,58633,1,0,0:0:0:0:
224,96,58710,1,0,0:0:0:0:
224,96,58787,1,0,0:0:0:0:
224,96,58864,1,8,0:0:0:0:
224,96,58941,1,0,0:0:0:0:
224,96,59018,1,8,0:0:0:0:
224,96,59326,1,8,0:0:0:0:
224,96,59383,1,8,0:0:0:0:
224,96,59441,1,8,0:0:0:0:
224,96,59499,1,8,0:0:0:0:
224,96,59556,1,0,0:0:0:0:
224,96,59614,1,0,0:0:0:0:
224,96,59672,1,8,0:0:0:0:
224,96,59730,1,0,0:0:0:0:
224,96,59787,1,8,0:0:0:0:
224,96,59845,1,8,0:0:0:0:
224,96,59903,1,8,0:0:0:0:
224,96,59960,1,8,0:0:0:0:
224,96,60018,1,4,0:0:0:0:
224,96,60191,1,0,0:0:0:0:
224,96,60364,1,0,0:0:0:0:
224,96,60480,1,8,0:0:0:0:
224,96,60710,1,0,0:0:0:0:
224,96,60768,1,0,0:0:0:0:
224,96,60826,1,0,0:0:0:0:
224,96,60883,1,0,0:0:0:0:
224,96,60941,1,0,0:0:0:0:
224,96,61056,1,8,0:0:0:0:
224,96,61114,1,0,0:0:0:0:
224,64,61172,1,0,0:0:0:0:
256,96,61287,1,0,0:0:0:0:
256,96,61403,1,8,0:0:0:0:
224,96,61518,1,0,0:0:0:0:
224,96,61633,1,8,0:0:0:0:
224,96,61749,1,8,0:0:0:0:
224,96,61864,1,0,0:0:0:0:
224,96,62037,1,0,0:0:0:0:
224,96,62210,1,0,0:0:0:0:
224,96,62326,1,8,0:0:0:0:
224,96,62556,1,0,0:0:0:0:
224,64,62614,1,0,0:0:0:0:
224,64,62672,1,0,0:0:0:0:
224,64,62730,1,0,0:0:0:0:
224,64,62787,1,0,0:0:0:0:
224,64,62903,1,8,0:0:0:0:
224,64,62960,1,0,0:0:0:0:
224,64,63018,1,8,0:0:0:0:
224,128,63133,1,0,0:0:0:0:
224,128,63249,1,8,0:0:0:0:
224,128,63364,1,8,0:0:0:0:
224,128,63480,1,0,0:0:0:0:
224,128,63537,1,0,0:0:0:0:
224,128,63595,1,8,0:0:0:0:
224,128,63710,1,0,0:0:0:0:
192,128,63883,1,8,0:0:0:0:
192,128,64056,1,0,0:0:0:0:
192,128,64172,1,8,0:0:0:0:
224,96,64403,1,0,0:0:0:0:
192,128,64460,1,0,0:0:0:0:
192,128,64518,1,0,0:0:0:0:
192,128,64576,1,0,0:0:0:0:
192,128,64633,1,0,0:0:0:0:
192,128,64749,1,8,0:0:0:0:
192,128,64806,1,8,0:0:0:0:
224,64,64864,1,0,0:0:0:0:
224,64,64922,1,0,0:0:0:0:
192,128,64980,1,8,0:0:0:0:
224,64,65037,1,0,0:0:0:0:
192,128,65095,1,8,0:0:0:0:
192,128,65153,1,8,0:0:0:0:
192,128,65210,1,8,0:0:0:0:
192,128,65268,1,0,0:0:0:0:
192,128,65326,1,8,0:0:0:0:
192,128,65383,1,8,0:0:0:0:
192,128,65441,1,0,0:0:0:0:
192,128,65556,1,0,0:0:0:0:
192,128,65730,1,8,0:0:0:0:
192,128,65903,1,0,0:0:0:0:
192,128,66018,1,8,0:0:0:0:
192,128,66249,1,0,0:0:0:0:
192,128,66306,1,0,0:0:0:0:
192,128,66364,1,0,0:0:0:0:
192,96,66422,1,0,0:0:0:0:
192,128,66480,1,0,0:0:0:0:
192,96,66595,1,8,0:0:0:0:
192,96,66653,1,0,0:0:0:0:
224,96,66710,1,0,0:0:0:0:
192,96,66826,1,0,0:0:0:0:
192,96,66941,1,8,0:0:0:0:
192,96,67056,1,0,0:0:0:0:
192,96,67172,1,8,0:0:0:0:
192,96,67230,1,8,0:0:0:0:
192,96,67287,1,8,0:0:0:0:
224,96,67403,1,4,0:0:0:0:
224,96,67576,1,0,0:0:0:0:
224,96,67749,1,0,0:0:0:0:
224,96,67864,1,8,0:0:0:0:
224,96,68095,1,0,0:0:0:0:
224,96,68153,1,0,0:0:0:0:
224,96,68210,1,0,0:0:0:0:
224,96,68268,1,0,0:0:0:0:
224,96,68326,1,8,0:0:0:0:
192,64,68383,1,0,0:0:0:0:
224,96,68441,1,8,0:0:0:0:
224,96,68499,1,0,0:0:0:0:
224,64,68556,1,8,0:0:0:0:
224,96,68614,1,8,0:0:0:0:
256,96,68672,1,0,0:0:0:0:
224,64,68730,1,0,0:0:0:0:
256,96,68787,1,8,0:0:0:0:
224,96,68903,1,0,0:0:0:0:
224,96,69018,1,8,0:0:0:0:
224,96,69133,1,8,0:0:0:0:
224,96,69249,1,0,0:0:0:0:
224,96,69422,1,0,0:0:0:0:
224,96,69595,1,8,0:0:0:0:
256,64,69653,1,8,0:0:0:0:
224,96,69710,1,8,0:0:0:0:
256,64,69826,1,0,0:0:0:0:
224,96,69941,1,8,0:0:0:0:
224,64,69999,1,8,0:0:0:0:
224,64,70056,1,0,0:0:0:0:
224,64,70114,1,0,0:0:0:0:
224,64,70172,1,0,0:0:0:0:
224,64,70287,1,8,0:0:0:0:
224,64,70345,1,0,0:0:0:0:
224,64,70403,1,8,0:0:0:0:
224,128,70518,1,0,0:0:0:0:
224,128,70633,1,8,0:0:0:0:
224,128,70749,1,8,0:0:0:0:
224,128,70864,1,0,0:0:0:0:
224,128,70922,1,0,0:0:0:0:
224,128,70980,1,8,0:0:0:0:
224,128,71095,1,0,0:0:0:0:
192,128,71268,1,8,0:0:0:0:
192,128,71441,1,0,0:0:0:0:
192,128,71556,1,8,0:0:0:0:
256,96,71672,1,0,0:0:0:0:
224,96,71787,1,8,0:0:0:0:
192,128,71845,1,0,0:0:0:0:
192,128,71903,1,8,0:0:0:0:
192,128,71960,1,8,0:0:0:0:
192,128,72018,1,0,0:0:0:0:
192,128,72133,1,8,0:0:0:0:
192,128,72191,1,0,0:0:0:0:
192,128,72364,1,8,0:0:0:0:
224,64,72422,1,0,0:0:0:0:
192,128,72480,1,8,0:0:0:0:
192,128,72595,1,0,0:0:0:0:
192,128,72710,1,8,0:0:0:0:
192,32,72768,1,8,0:0:0:0:
192,128,72826,1,8,0:0:0:0:
192,128,72941,1,0,0:0:0:0:
192,128,73114,1,8,0:0:0:0:
192,128,73287,1,0,0:0:0:0:
224,96,73345,1,0,0:0:0:0:
192,128,73403,1,8,0:0:0:0:
192,128,73633,1,0,0:0:0:0:
192,128,73691,1,0,0:0:0:0:
192,128,73749,1,0,0:0:0:0:
192,96,73806,1,0,0:0:0:0:
192,128,73864,1,0,0:0:0:0:
192,96,73980,1,8,0:0:0:0:
192,96,74037,1,0,0:0:0:0:
192,96,74210,1,0,0:0:0:0:
192,96,74326,1,8,0:0:0:0:
192,96,74441,1,0,0:0:0:0:
192,96,74556,1,8,0:0:0:0:
192,96,74614,1,8,0:0:0:0:
192,96,74672,1,0,0:0:0:0:
192,96,74787,1,12,0:0:0:0:
224,128,74903,1,0,0:0:0:0:
224,96,74960,1,0,0:0:0:0:
224,128,75018,1,8,0:0:0:0:
192,96,75133,1,8,0:0:0:0:
224,128,75191,1,8,0:0:0:0:
224,128,75249,1,0,0:0:0:0:
224,96,75364,1,0,0:0:0:0:
224,96,75422,1,0,0:0:0:0:
224,96,75480,1,8,0:0:0:0:
224,96,75595,1,8,0:0:0:0:
224,96,75653,1,0,0:0:0:0:
224,96,75710,1,8,0:0:0:0:
224,128,75768,1,8,0:0:0:0:
224,96,75826,1,0,0:0:0:0:
224,96,75883,1,0,0:0:0:0:
224,96,75941,1,8,0:0:0:0:
224,96,75999,1,0,0:0:0:0:
224,96,76056,1,8,0:0:0:0:
224,96,76114,1,8,0:0:0:0:
224,96,76172,1,8,0:0:0:0:
224,96,76230,1,8,0:0:0:0:
224,96,76287,1,0,0:0:0:0:
224,96,76345,1,0,0:0:0:0:
224,96,76403,1,8,0:0:0:0:
224,96,76460,1,0,0:0:0:0:
224,96,76518,1,8,0:0:0:0:
224,96,76576,1,8,0:0:0:0:
256,96,76633,1,0,0:0:0:0:
224,96,76749,1,0,0:0:0:0:
224,96,76806,1,0,0:0:0:0:
224,96,76864,1,8,0:0:0:0:
224,96,76922,1,0,0:0:0:0:
224,96,76980,1,0,0:0:0:0:
224,96,77095,1,8,0:0:0:0:
224,96,77210,1,0,0:0:0:0:
224,96,77268,1,0,0:0:0:0:
224,96,77326,1,8,0:0:0:0:
224,96,77441,1,8,0:0:0:0:
224,96,77499,1,0,0:0:0:0:
224,96,77556,1,8,0:0:0:0:
224,96,77614,1,8,0:0:0:0:
224,96,77672,1,0,0:0:0:0:
224,96,77787,1,8,0:0:0:0:
224,96,77903,1,8,0:0:0:0:
224,96,77960,1,8,0:0:0:0:
224,96,78018,1,0,0:0:0:0:
224,96,78076,1,8,0:0:0:0:
224,96,78133,1,0,0:0:0:0:
224,96,78191,1,8,0:0:0:0:
224,96,78249,1,8,0:0:0:0:
224,96,78306,1,8,0:0:0:0:
224,96,78364,1,0,0:0:0:0:
224,96,78422,1,8,0:0:0:0:
192,96,78480,1,0,0:0:0:0:
224,96,78537,1,8,0:0:0:0:
224,96,78595,1,0,0:0:0:0:
224,96,78710,1,8,0:0:0:0:
224,96,78826,1,0,0:0:0:0:
224,96,78883,1,8,0:0:0:0:
224,96,78941,1,8,0:0:0:0:
224,96,79056,1,0,0:0:0:0:
224,96,79172,1,8,0:0:0:0:
224,96,79230,1,0,0:0:0:0:
224,96,79345,1,0,0:0:0:0:
224,96,79403,1,8,0:0:0:0:
224,96,79518,1,0,0:0:0:0:
224,96,79633,1,8,0:0:0:0:
224,96,79691,1,0,0:0:0:0:
224,96,79749,1,8,0:0:0:0:
224,96,79806,1,0,0:0:0:0:
224,96,79864,1,8,0:0:0:0:
224,96,79922,1,8,0:0:0:0:
224,96,79980,1,8,0:0:0:0:
224,96,80037,1,0,0:0:0:0:
224,96,80095,1,8,0:0:0:0:
224,96,80153,1,8,0:0:0:0:
224,96,80210,1,0,0:0:0:0:
224,96,80268,1,0,0:0:0:0:
224,96,80326,1,8,0:0:0:0:
224,96,80403,1,0,0:0:0:0:
224,96,80480,1,0,0:0:0:0:
224,96,80556,1,8,0:0:0:0:
224,96,80633,1,0,0:0:0:0:
224,96,80710,1,0,0:0:0:0:
224,96,80787,1,8,0:0:0:0:
224,96,80903,1,0,0:0:0:0:
224,128,80960,1,0,0:0:0:0:
224,96,81018,1,8,0:0:0:0:
224,96,81133,1,0,0:0:0:0:
224,96,81191,1,8,0:0:0:0:
224,96,81249,1,0,0:0:0:0:
224,128,81364,1,0,0:0:0:0:
192,96,81422,1,0,0:0:0:0:
224,128,81480,1,8,0:0:0:0:
224,128,81595,1,8,0:0:0:0:
224,128,81653,1,0,0:0:0:0:
224,128,81710,1,8,0:0:0:0:
224,128,81768,1,0,0:0:0:0:
224,128,81826,1,0,0:0:0:0:
224,128,81883,1,0,0:0:0:0:
224,128,81941,1,8,0:0:0:0:
224,128,82056,1,0,0:0:0:0:
224,96,82172,1,12,0:0:0:0:
224,96,82287,1,0,0:0:0:0:
224,96,82345,1,0,0:0:0:0:
224,96,82403,1,8,0:0:0:0:
224,96,82518,1,0,0:0:0:0:
224,96,82576,1,8,0:0:0:0:
224,96,82633,1,0,0:0:0:0:
224,96,82749,1,8,0:0:0:0:
224,96,82864,1,8,0:0:0:0:
224,96,82922,1,8,0:0:0:0:
224,96,82980,1,0,0:0:0:0:
224,96,83037,1,0,0:0:0:0:
224,96,83095,1,8,0:0:0:0:
209,98,83172,1,0,0:0:0:0:
224,96,83249,1,0,0:0:0:0:
224,96,83326,1,8,0:0:0:0:
224,96,83403,1,8,0:0:0:0:
224,96,83480,1,0,0:0:0:0:
224,96,83556,1,8,0:0:0:0:
224,96,83633,1,0,0:0:0:0:
224,96,83710,1,0,0:0:0:0:
224,96,83787,1,8,0:0:0:0:
224,96,83864,1,8,0:0:0:0:
224,96,83941,1,8,0:0:0:0:
224,96,84018,1,0,0:0:0:0:
224,96,84133,1,8,0:0:0:0:
192,96,84191,1,0,0:0:0:0:
192,96,84306,1,0,0:0:0:0:
192,96,84364,1,8,0:0:0:0:
192,96,84422,1,8,0:0:0:0:
192,96,84480,1,0,0:0:0:0:
192,96,84595,1,8,0:0:0:0:
192,96,84653,1,0,0:0:0:0:
192,96,84710,1,8,0:0:0:0:
192,96,84768,1,8,0:0:0:0:
192,96,84826,1,0,0:0:0:0:
160,96,84883,1,8,0:0:0:0:
192,96,84941,1,0,0:0:0:0:
160,96,84999,1,0,0:0:0:0:
160,96,85056,1,8,0:0:0:0:
160,96,85172,1,8,0:0:0:0:
160,96,85230,1,0,0:0:0:0:
160,96,85287,1,0,0:0:0:0:
160,96,85403,1,8,0:0:0:0:
160,96,85460,1,0,0:0:0:0:
160,96,85518,1,8,0:0:0:0:
160,96,85576,1,0,0:0:0:0:
160,96,85633,1,8,0:0:0:0:
160,96,85691,1,8,0:0:0:0:
160,96,85749,1,8,0:0:0:0:
192,96,85806,1,8,0:0:0:0:
160,96,85864,1,0,0:0:0:0:
160,96,85980,1,0,0:0:0:0:
160,96,86095,1,8,0:0:0:0:
160,96,86210,1,0,0:0:0:0:
160,96,86326,1,0,0:0:0:0:
160,96,86441,1,8,0:0:0:0:
160,96,86556,1,0,0:0:0:0:
160,96,86672,1,0,0:0:0:0:
160,96,86787,1,8,0:0:0:0:
160,96,86903,1,0,0:0:0:0:
160,96,87018,1,0,0:0:0:0:
160,96,87133,1,0,0:0:0:0:
160,96,87249,1,8,0:0:0:0:
160,96,87326,1,8,0:0:0:0:
192,96,87403,1,0,0:0:0:0:
192,96,87480,1,8,0:0:0:0:
192,96,87556,1,8,0:0:0:0:
192,96,87633,1,0,0:0:0:0:
192,96,87710,1,8,0:0:0:0:
192,96,87787,1,0,0:0:0:0:
192,96,87864,1,0,0:0:0:0:
192,96,87941,1,8,0:0:0:0:
192,96,88018,1,0,0:0:0:0:
192,96,88095,1,0,0:0:0:0:
192,96,88172,1,8,0:0:0:0:
192,96,88249,1,8,0:0:0:0:
192,96,88326,1,0,0:0:0:0:
192,96,88403,1,8,0:0:0:0:
192,96,88480,1,8,0:0:0:0:
192,96,88556,1,8,0:0:0:0:
192,96,88633,1,0,0:0:0:0:
256,192,90572,1,0,0:0:0:0:
256,192,92593,1,0,0:0:0:0:
256,192,94702,1,0,0:0:0:0:
256,192,96908,1,0,0:0:0:0:
256,192,97479,1,8,0:0:0:0:
256,192,98050,1,0,0:0:0:0:
256,192,98622,1,8,0:0:0:0:
256,192,99193,1,0,0:0:0:0:
256,192,99765,1,8,0:0:0:0:
256,192,100336,1,0,0:0:0:0:
256,192,100908,1,8,0:0:0:0:
256,192,101050,1,8,0:0:0:0:
256,192,101336,1,8,0:0:0:0:
256,192,101479,1,0,0:0:0:0:
256,192,101622,1,0,0:0:0:0:
256,192,101765,1,8,0:0:0:0:
256,192,101908,1,0,0:0:0:0:
256,192,101979,1,8,0:0:0:0:
256,192,102050,1,0,0:0:0:0:
256,192,102122,1,8,0:0:0:0:
256,192,102193,1,0,0:0:0:0:
256,192,102336,1,8,0:0:0:0:
256,192,102479,1,0,0:0:0:0:
256,192,102550,1,0,0:0:0:0:
256,192,102622,1,8,0:0:0:0:
256,192,102765,1,0,0:0:0:0:
256,192,102908,1,8,0:0:0:0:
256,192,102979,1,8,0:0:0:0:
256,192,103050,1,0,0:0:0:0:
256,192,103122,1,0,0:0:0:0:
256,192,103193,1,8,0:0:0:0:
256,160,103265,1,0,0:0:0:0:
256,192,103336,1,0,0:0:0:0:
256,160,103479,1,8,0:0:0:0:
256,160,103550,1,0,0:0:0:0:
256,160,103622,1,8,0:0:0:0:
256,160,103693,1,8,0:0:0:0:
256,160,103765,1,0,0:0:0:0:
256,160,103908,1,0,0:0:0:0:
256,160,104050,1,8,0:0:0:0:
256,160,104193,1,8,0:0:0:0:
224,160,104265,1,8,0:0:0:0:
224,160,104336,1,0,0:0:0:0:
224,160,104408,1,8,0:0:0:0:
256,160,104479,1,0,0:0:0:0:
256,160,104622,1,8,0:0:0:0:
224,160,104765,1,0,0:0:0:0:
224,160,104836,1,8,0:0:0:0:
256,160,104908,1,0,0:0:0:0:
224,160,104979,1,0,0:0:0:0:
256,160,105050,1,8,0:0:0:0:
224,160,105122,1,0,0:0:0:0:
256,160,105193,1,8,0:0:0:0:
224,160,105241,1,8,0:0:0:0:
224,160,105288,1,8,0:0:0:0:
256,160,105336,1,0,0:0:0:0:
224,160,105408,1,0,0:0:0:0:
256,160,105479,1,8,0:0:0:0:
224,160,105527,1,8,0:0:0:0:
224,160,105574,1,8,0:0:0:0:
256,160,105622,1,0,0:0:0:0:
224,160,105693,1,0,0:0:0:0:
256,160,105765,1,8,0:0:0:0:
224,128,105812,1,8,0:0:0:0:
224,128,105860,1,8,0:0:0:0:
256,160,105908,1,8,0:0:0:0:
224,128,105979,1,8,0:0:0:0:
256,160,106050,1,0,0:0:0:0:
256,160,106336,1,0,0:0:0:0:
256,160,106408,1,0,0:0:0:0:
256,160,106479,1,0,0:0:0:0:
256,160,106550,1,0,0:0:0:0:
256,160,106622,1,8,0:0:0:0:
256,160,106693,1,8,0:0:0:0:
256,160,106765,1,0,0:0:0:0:
256,160,106836,1,8,0:0:0:0:
256,160,106908,1,0,0:0:0:0:
256,160,107050,1,8,0:0:0:0:
224,160,107336,1,8,0:0:0:0:
224,160,107622,1,8,0:0:0:0:
224,160,107693,1,8,0:0:0:0:
224,160,107765,1,0,0:0:0:0:
224,160,107836,1,8,0:0:0:0:
224,160,107908,1,0,0:0:0:0:
256,128,108122,1,8,0:0:0:0:
256,128,108336,1,0,0:0:0:0:
256,160,108479,1,8,0:0:0:0:
256,160,108622,1,0,0:0:0:0:
256,160,108693,1,0,0:0:0:0:
256,160,108765,1,0,0:0:0:0:
256,160,108836,1,0,0:0:0:0:
256,160,108908,1,8,0:0:0:0:
256,160,108979,1,8,0:0:0:0:
256,160,109050,1,0,0:0:0:0:
256,160,109122,1,8,0:0:0:0:
256,160,109193,1,0,0:0:0:0:
256,160,109336,1,0,0:0:0:0:
224,160,109622,1,8,0:0:0:0:
224,160,109908,1,8,0:0:0:0:
224,160,109979,1,8,0:0:0:0:
224,160,110050,1,0,0:0:0:0:
224,160,110122,1,8,0:0:0:0:
224,160,110193,1,0,0:0:0:0:
256,128,110408,1,8,0:0:0:0:
256,128,110622,1,0,0:0:0:0:
256,160,110908,1,0,0:0:0:0:
256,160,110979,1,0,0:0:0:0:
256,160,111050,1,0,0:0:0:0:
256,160,111122,1,0,0:0:0:0:
256,160,111193,1,8,0:0:0:0:
256,160,111265,1,8,0:0:0:0:
256,160,111336,1,0,0:0:0:0:
256,160,111408,1,8,0:0:0:0:
256,160,111479,1,0,0:0:0:0:
256,160,111622,1,8,0:0:0:0:
224,160,111908,1,8,0:0:0:0:
224,160,112193,1,8,0:0:0:0:
224,160,112265,1,8,0:0:0:0:
224,160,112336,1,0,0:0:0:0:
224,160,112408,1,8,0:0:0:0:
224,160,112479,1,0,0:0:0:0:
256,128,112693,1,8,0:0:0:0:
256,128,112908,1,0,0:0:0:0:
256,160,113050,1,8,0:0:0:0:
256,160,113193,1,0,0:0:0:0:
256,160,113265,1,0,0:0:0:0:
256,160,113336,1,0,0:0:0:0:
256,160,113408,1,0,0:0:0:0:
256,160,113479,1,8,0:0:0:0:
256,160,113550,1,8,0:0:0:0:
256,160,113622,1,0,0:0:0:0:
256,160,113693,1,8,0:0:0:0:
256,160,113765,1,0,0:0:0:0:
256,160,113908,1,0,0:0:0:0:
224,96,114050,2,0,L|160:96,6,35
288,128,114622,1,8,0:0:0:0:
224,128,114765,1,0,0:0:0:0:
224,128,114836,1,0,0:0:0:0:
224,128,114908,1,8,0:0:0:0:
224,128,114955,1,8,0:0:0:0:
224,128,115003,1,8,0:0:0:0:
224,128,115050,1,8,0:0:0:0:
224,128,115122,1,8,0:0:0:0:
224,128,115193,1,4,0:0:0:0:
224,128,115336,1,8,0:0:0:0:
224,128,115408,1,0,0:0:0:0:
224,128,115479,1,0,0:0:0:0:
224,128,115550,1,0,0:0:0:0:
224,128,115622,1,8,0:0:0:0:
228,113,115693,1,0,0:0:0:0:
224,128,115765,1,8,0:0:0:0:
224,128,115836,1,8,0:0:0:0:
228,113,115908,1,8,0:0:0:0:
228,113,115979,1,0,0:0:0:0:
224,128,116050,1,8,0:0:0:0:
224,128,116122,1,0,0:0:0:0:
224,128,116193,1,8,0:0:0:0:
224,128,116265,1,8,0:0:0:0:
224,128,116336,1,0,0:0:0:0:
224,128,116408,1,0,0:0:0:0:
224,128,116479,1,8,0:0:0:0:
224,128,116550,1,0,0:0:0:0:
224,128,116622,1,0,0:0:0:0:
228,113,116693,1,0,0:0:0:0:
224,128,116765,1,8,0:0:0:0:
224,128,116836,1,8,0:0:0:0:
228,113,116908,1,0,0:0:0:0:
228,113,116979,1,0,0:0:0:0:
224,128,117050,1,8,0:0:0:0:
224,128,117122,1,8,0:0:0:0:
224,128,117193,1,0,0:0:0:0:
224,128,117265,1,8,0:0:0:0:
224,128,117336,1,8,0:0:0:0:
224,128,117408,1,0,0:0:0:0:
224,128,117479,1,8,0:0:0:0:
224,128,117550,1,0,0:0:0:0:
224,128,117622,1,8,0:0:0:0:
224,128,117693,1,0,0:0:0:0:
224,128,117765,1,0,0:0:0:0:
224,128,117836,1,8,0:0:0:0:
224,128,117908,1,0,0:0:0:0:
228,113,117979,1,0,0:0:0:0:
224,128,118050,1,8,0:0:0:0:
224,128,118122,1,8,0:0:0:0:
228,113,118193,1,8,0:0:0:0:
228,113,118265,1,8,0:0:0:0:
224,128,118336,1,0,0:0:0:0:
224,128,118408,1,0,0:0:0:0:
224,128,118479,1,8,0:0:0:0:
224,128,118550,1,0,0:0:0:0:
224,128,118622,1,0,0:0:0:0:
224,128,118693,1,0,0:0:0:0:
224,128,118765,1,8,0:0:0:0:
224,128,118836,1,8,0:0:0:0:
224,128,118908,1,0,0:0:0:0:
228,113,118979,1,0,0:0:0:0:
224,128,119050,1,8,0:0:0:0:
224,128,119122,1,0,0:0:0:0:
228,113,119193,1,0,0:0:0:0:
228,113,119265,1,0,0:0:0:0:
224,128,119336,1,8,0:0:0:0:
224,128,119408,1,0,0:0:0:0:
224,128,119479,1,0,0:0:0:0:
224,128,119550,1,8,0:0:0:0:
224,128,119622,1,0,0:0:0:0:
224,128,119693,1,0,0:0:0:0:
224,128,119765,1,8,0:0:0:0:
224,64,119836,1,0,0:0:0:0:
224,128,119908,1,8,0:0:0:0:
224,128,119979,1,0,0:0:0:0:
224,128,120050,1,0,0:0:0:0:
224,128,120122,1,0,0:0:0:0:
224,128,120193,1,8,0:0:0:0:
228,113,120265,1,0,0:0:0:0:
224,128,120336,1,8,0:0:0:0:
224,128,120408,1,8,0:0:0:0:
228,113,120479,1,8,0:0:0:0:
228,113,120550,1,0,0:0:0:0:
224,128,120622,1,8,0:0:0:0:
224,128,120693,1,0,0:0:0:0:
224,128,120765,1,8,0:0:0:0:
224,128,120836,1,8,0:0:0:0:
224,128,120908,1,0,0:0:0:0:
224,128,120979,1,0,0:0:0:0:
224,128,121050,1,8,0:0:0:0:
224,128,121122,1,0,0:0:0:0:
224,128,121193,1,0,0:0:0:0:
228,113,121265,1,0,0:0:0:0:
224,128,121336,1,8,0:0:0:0:
224,128,121408,1,8,0:0:0:0:
228,113,121479,1,0,0:0:0:0:
228,113,121550,1,0,0:0:0:0:
224,128,121622,1,8,0:0:0:0:
224,128,121693,1,8,0:0:0:0:
224,128,121765,1,0,0:0:0:0:
224,128,121836,1,8,0:0:0:0:
224,128,121908,1,8,0:0:0:0:
224,128,121979,1,0,0:0:0:0:
224,128,122050,1,8,0:0:0:0:
224,128,122122,1,0,0:0:0:0:
224,128,122193,1,8,0:0:0:0:
224,128,122265,1,0,0:0:0:0:
224,128,122336,1,0,0:0:0:0:
224,128,122408,1,8,0:0:0:0:
224,128,122479,1,0,0:0:0:0:
228,113,122550,1,0,0:0:0:0:
224,128,122622,1,8,0:0:0:0:
224,128,122693,1,8,0:0:0:0:
228,113,122765,1,8,0:0:0:0:
228,113,122836,1,8,0:0:0:0:
224,128,122908,1,0,0:0:0:0:
224,128,122979,1,0,0:0:0:0:
224,128,123050,1,8,0:0:0:0:
224,128,123122,1,0,0:0:0:0:
224,96,123193,1,8,0:0:0:0:
224,96,123241,1,0,0:0:0:0:
224,96,123288,1,0,0:0:0:0:
224,96,123336,1,8,0:0:0:0:
224,64,123384,1,0,0:0:0:0:
192,64,123431,1,0,0:0:0:0:
224,96,123479,1,8,0:0:0:0:
228,113,123550,1,0,0:0:0:0:
224,96,123622,1,8,0:0:0:0:
224,96,123669,1,8,0:0:0:0:
224,96,123717,1,8,0:0:0:0:
228,113,123765,1,0,0:0:0:0:
224,96,123908,1,0,0:0:0:0:
224,96,123979,1,0,0:0:0:0:
224,96,124050,1,8,0:0:0:0:
192,32,124098,1,8,0:0:0:0:
224,96,124146,1,8,0:0:0:0:
224,96,124193,1,8,0:0:0:0:
224,96,124265,1,8,0:0:0:0:
224,128,124336,1,4,0:0:0:0:
224,128,124479,1,8,0:0:0:0:
224,128,124550,1,8,0:0:0:0:
224,128,124622,1,0,0:0:0:0:
224,128,124693,1,0,0:0:0:0:
224,128,124765,1,8,0:0:0:0:
228,113,124836,1,0,0:0:0:0:
224,128,124908,1,8,0:0:0:0:
224,128,124979,1,8,0:0:0:0:
228,113,125050,1,8,0:0:0:0:
228,113,125122,1,0,0:0:0:0:
224,128,125193,1,8,0:0:0:0:
224,128,125265,1,0,0:0:0:0:
224,128,125336,1,8,0:0:0:0:
224,128,125408,1,8,0:0:0:0:
224,128,125479,1,0,0:0:0:0:
224,128,125550,1,0,0:0:0:0:
224,128,125622,1,8,0:0:0:0:
224,128,125693,1,0,0:0:0:0:
224,128,125765,1,0,0:0:0:0:
228,113,125836,1,0,0:0:0:0:
224,128,125908,1,8,0:0:0:0:
224,128,125979,1,8,0:0:0:0:
228,113,126050,1,0,0:0:0:0:
228,113,126122,1,0,0:0:0:0:
224,128,126193,1,8,0:0:0:0:
224,128,126265,1,8,0:0:0:0:
224,128,126336,1,0,0:0:0:0:
224,128,126408,1,8,0:0:0:0:
224,128,126479,1,8,0:0:0:0:
224,128,126550,1,0,0:0:0:0:
224,128,126622,1,8,0:0:0:0:
224,128,126693,1,0,0:0:0:0:
224,128,126765,1,8,0:0:0:0:
224,128,126836,1,8,0:0:0:0:
224,128,126908,1,0,0:0:0:0:
224,128,126979,1,8,0:0:0:0:
224,128,127050,1,0,0:0:0:0:
228,113,127122,1,0,0:0:0:0:
224,128,127193,1,8,0:0:0:0:
224,128,127265,1,8,0:0:0:0:
228,113,127336,1,8,0:0:0:0:
228,113,127408,1,8,0:0:0:0:
224,128,127479,1,0,0:0:0:0:
224,128,127550,1,0,0:0:0:0:
224,128,127622,1,8,0:0:0:0:
224,128,127693,1,0,0:0:0:0:
224,128,127765,1,0,0:0:0:0:
224,128,127836,1,0,0:0:0:0:
224,128,127908,1,8,0:0:0:0:
224,128,127979,1,8,0:0:0:0:
224,128,128050,1,0,0:0:0:0:
228,113,128122,1,0,0:0:0:0:
224,128,128193,1,8,0:0:0:0:
224,128,128265,1,0,0:0:0:0:
228,113,128336,1,0,0:0:0:0:
228,113,128408,1,0,0:0:0:0:
224,128,128479,1,8,0:0:0:0:
224,128,128550,1,0,0:0:0:0:
224,128,128622,1,0,0:0:0:0:
224,128,128693,1,8,0:0:0:0:
224,128,128765,1,0,0:0:0:0:
224,128,128836,1,0,0:0:0:0:
224,128,128908,1,8,0:0:0:0:
224,64,128979,1,0,0:0:0:0:
224,128,129050,1,8,0:0:0:0:
224,128,129122,1,8,0:0:0:0:
224,128,129193,1,0,0:0:0:0:
224,128,129265,1,0,0:0:0:0:
224,128,129336,1,8,0:0:0:0:
228,113,129408,1,0,0:0:0:0:
224,128,129479,1,8,0:0:0:0:
224,128,129550,1,8,0:0:0:0:
228,113,129622,1,8,0:0:0:0:
228,113,129693,1,0,0:0:0:0:
224,128,129765,1,8,0:0:0:0:
224,128,129836,1,0,0:0:0:0:
224,128,129908,1,8,0:0:0:0:
224,128,129979,1,8,0:0:0:0:
224,128,130050,1,0,0:0:0:0:
224,128,130122,1,0,0:0:0:0:
224,128,130193,1,8,0:0:0:0:
224,128,130265,1,0,0:0:0:0:
224,128,130336,1,0,0:0:0:0:
228,113,130408,1,0,0:0:0:0:
224,128,130479,1,8,0:0:0:0:
224,128,130550,1,8,0:0:0:0:
228,113,130622,1,0,0:0:0:0:
228,113,130693,1,0,0:0:0:0:
224,128,130765,1,8,0:0:0:0:
224,128,130836,1,8,0:0:0:0:
224,128,130908,1,0,0:0:0:0:
224,128,130979,1,8,0:0:0:0:
224,128,131050,1,8,0:0:0:0:
224,128,131122,1,0,0:0:0:0:
224,128,131193,1,8,0:0:0:0:
224,128,131265,1,0,0:0:0:0:
224,128,131336,1,8,0:0:0:0:
224,128,131408,1,8,0:0:0:0:
224,128,131479,1,0,0:0:0:0:
224,128,131550,1,8,0:0:0:0:
224,128,131622,1,0,0:0:0:0:
228,113,131693,1,0,0:0:0:0:
224,128,131765,1,8,0:0:0:0:
224,128,131836,1,8,0:0:0:0:
228,113,131908,1,8,0:0:0:0:
228,113,131979,1,8,0:0:0:0:
224,128,132050,1,0,0:0:0:0:
224,128,132122,1,0,0:0:0:0:
224,128,132193,1,8,0:0:0:0:
224,128,132265,1,0,0:0:0:0:
224,96,132336,1,8,0:0:0:0:
224,96,132384,1,0,0:0:0:0:
224,64,132431,1,0,0:0:0:0:
224,96,132479,1,8,0:0:0:0:
224,96,132527,1,0,0:0:0:0:
224,64,132574,1,0,0:0:0:0:
224,96,132622,1,8,0:0:0:0:
228,113,132693,1,0,0:0:0:0:
224,96,132765,1,8,0:0:0:0:
224,96,132812,1,8,0:0:0:0:
224,96,132860,1,8,0:0:0:0:
228,113,132908,1,0,0:0:0:0:
224,96,133050,1,0,0:0:0:0:
224,96,133122,1,0,0:0:0:0:
224,96,133193,1,8,0:0:0:0:
192,32,133241,1,8,0:0:0:0:
224,96,133288,1,8,0:0:0:0:
224,96,133336,1,8,0:0:0:0:
224,96,133408,1,8,0:0:0:0:
224,128,133479,1,4,0:0:0:0:
224,128,133622,1,8,0:0:0:0:
224,128,133693,1,8,0:0:0:0:
224,128,133765,1,0,0:0:0:0:
224,128,133836,1,0,0:0:0:0:
224,128,133908,1,8,0:0:0:0:
228,113,133979,1,0,0:0:0:0:
224,128,134050,1,8,0:0:0:0:
224,128,134122,1,8,0:0:0:0:
228,113,134193,1,8,0:0:0:0:
228,113,134265,1,8,0:0:0:0:
224,128,134336,1,0,0:0:0:0:
224,128,134408,1,0,0:0:0:0:
224,128,134479,1,8,0:0:0:0:
224,128,134550,1,8,0:0:0:0:
224,128,134622,1,8,0:0:0:0:
224,128,134693,1,0,0:0:0:0:
224,128,134765,1,8,0:0:0:0:
224,128,134836,1,8,0:0:0:0:
224,128,134908,1,0,0:0:0:0:
228,113,134979,1,0,0:0:0:0:
224,128,135050,1,8,0:0:0:0:
224,128,135122,1,0,0:0:0:0:
228,113,135193,1,8,0:0:0:0:
228,113,135265,1,0,0:0:0:0:
224,128,135336,1,8,0:0:0:0:
224,128,135408,1,8,0:0:0:0:
224,128,135479,1,0,0:0:0:0:
224,128,135550,1,8,0:0:0:0:
224,128,135622,1,8,0:0:0:0:
224,128,135693,1,0,0:0:0:0:
224,128,135765,1,8,0:0:0:0:
224,128,135836,1,0,0:0:0:0:
224,128,135908,1,8,0:0:0:0:
224,128,135979,1,8,0:0:0:0:
224,128,136050,1,0,0:0:0:0:
224,128,136122,1,8,0:0:0:0:
224,128,136193,1,0,0:0:0:0:
228,113,136265,1,8,0:0:0:0:
224,128,136336,1,8,0:0:0:0:
224,128,136408,1,8,0:0:0:0:
228,113,136479,1,0,0:0:0:0:
228,113,136550,1,0,0:0:0:0:
224,128,136622,1,8,0:0:0:0:
224,128,136693,1,0,0:0:0:0:
224,128,136765,1,8,0:0:0:0:
224,128,136836,1,0,0:0:0:0:
224,128,136908,1,0,0:0:0:0:
224,128,136979,1,0,0:0:0:0:
224,128,137050,1,8,0:0:0:0:
224,128,137122,1,8,0:0:0:0:
224,128,137193,1,8,0:0:0:0:
228,113,137265,1,0,0:0:0:0:
224,128,137336,1,8,0:0:0:0:
224,128,137408,1,8,0:0:0:0:
228,113,137479,1,0,0:0:0:0:
228,113,137550,1,0,0:0:0:0:
224,128,137622,1,8,0:0:0:0:
224,96,137693,1,0,0:0:0:0:
224,128,137836,1,0,0:0:0:0:
224,128,137908,1,8,0:0:0:0:
224,128,137979,1,8,0:0:0:0:
224,128,138050,1,4,0:0:0:0:
224,128,138193,1,8,0:0:0:0:
224,128,138265,1,8,0:0:0:0:
224,128,138336,1,0,0:0:0:0:
224,128,138408,1,0,0:0:0:0:
224,128,138479,1,8,0:0:0:0:
228,113,138550,1,0,0:0:0:0:
224,128,138622,1,8,0:0:0:0:
224,128,138693,1,8,0:0:0:0:
228,113,138765,1,8,0:0:0:0:
228,113,138836,1,8,0:0:0:0:
224,128,138908,1,0,0:0:0:0:
224,128,138979,1,0,0:0:0:0:
224,128,139050,1,8,0:0:0:0:
224,128,139122,1,8,0:0:0:0:
224,128,139193,1,8,0:0:0:0:
224,128,139265,1,0,0:0:0:0:
224,128,139336,1,8,0:0:0:0:
224,128,139408,1,8,0:0:0:0:
224,128,139479,1,0,0:0:0:0:
228,113,139550,1,0,0:0:0:0:
224,128,139622,1,8,0:0:0:0:
224,128,139693,1,0,0:0:0:0:
228,113,139765,1,8,0:0:0:0:
228,113,139836,1,0,0:0:0:0:
224,128,139908,1,8,0:0:0:0:
224,128,139979,1,8,0:0:0:0:
224,128,140050,1,0,0:0:0:0:
224,128,140122,1,8,0:0:0:0:
224,128,140193,1,8,0:0:0:0:
224,128,140265,1,0,0:0:0:0:
224,128,140336,1,8,0:0:0:0:
224,128,140408,1,0,0:0:0:0:
224,128,140479,1,8,0:0:0:0:
224,128,140550,1,8,0:0:0:0:
224,128,140622,1,0,0:0:0:0:
224,128,140693,1,8,0:0:0:0:
224,128,140765,1,0,0:0:0:0:
228,113,140836,1,0,0:0:0:0:
224,128,140908,1,8,0:0:0:0:
224,128,140979,1,0,0:0:0:0:
228,113,141050,1,8,0:0:0:0:
228,113,141122,1,0,0:0:0:0:
224,128,141193,1,8,0:0:0:0:
224,128,141265,1,8,0:0:0:0:
224,128,141336,1,8,0:0:0:0:
224,128,141408,1,8,0:0:0:0:
224,96,141479,1,4,0:0:0:0:
224,96,141693,1,0,0:0:0:0:
224,128,141765,1,8,0:0:0:0:
224,128,141908,1,0,0:0:0:0:
224,128,141979,1,0,0:0:0:0:
224,128,142050,1,8,0:0:0:0:
224,96,142122,1,0,0:0:0:0:
224,96,142193,1,0,0:0:0:0:
224,96,142265,1,0,0:0:0:0:
224,96,142336,1,8,0:0:0:0:
224,96,142408,1,0,0:0:0:0:
224,96,142479,1,8,0:0:0:0:
224,96,142550,1,8,0:0:0:0:
224,128,142622,1,4,0:0:0:0:
224,128,142765,1,0,0:0:0:0:
224,128,142836,1,8,0:0:0:0:
224,128,142908,1,0,0:0:0:0:
224,128,142979,1,0,0:0:0:0:
224,128,143050,1,8,0:0:0:0:
224,128,143122,1,8,0:0:0:0:
224,128,143193,1,0,0:0:0:0:
224,128,143265,1,8,0:0:0:0:
256,128,143336,1,0,0:0:0:0:
224,128,143408,1,0,0:0:0:0:
224,128,143479,1,8,0:0:0:0:
224,128,143550,1,0,0:0:0:0:
256,128,143622,1,8,0:0:0:0:
256,128,143693,1,8,0:0:0:0:
256,128,143765,1,0,0:0:0:0:
256,128,143836,1,0,0:0:0:0:
256,128,143908,1,8,0:0:0:0:
256,128,143979,1,0,0:0:0:0:
224,128,144050,1,0,0:0:0:0:
256,128,144122,1,8,0:0:0:0:
224,128,144193,1,0,0:0:0:0:
224,128,144265,1,0,0:0:0:0:
224,128,144336,1,8,0:0:0:0:
224,128,144408,1,8,0:0:0:0:
224,128,144479,1,8,0:0:0:0:
224,128,144550,1,0,0:0:0:0:
224,128,144622,1,8,0:0:0:0:
224,128,144693,1,0,0:0:0:0:
224,128,144765,1,8,0:0:0:0:
224,128,144836,1,8,0:0:0:0:
224,128,144908,1,0,0:0:0:0:
224,128,144979,1,0,0:0:0:0:
224,128,145050,1,8,0:0:0:0:
224,128,145122,1,8,0:0:0:0:
224,128,145193,1,0,0:0:0:0:
224,128,145265,1,8,0:0:0:0:
224,128,145336,1,8,0:0:0:0:
224,128,145408,1,8,0:0:0:0:
224,128,145479,1,0,0:0:0:0:
224,128,145550,1,0,0:0:0:0:
256,128,145622,1,8,0:0:0:0:
224,128,145693,1,0,0:0:0:0:
224,128,145765,1,8,0:0:0:0:
224,128,145836,1,0,0:0:0:0:
256,128,145908,1,8,0:0:0:0:
256,128,145979,1,8,0:0:0:0:
256,128,146050,1,0,0:0:0:0:
256,128,146122,1,0,0:0:0:0:
256,128,146193,1,8,0:0:0:0:
256,128,146265,1,8,0:0:0:0:
224,128,146336,1,8,0:0:0:0:
256,128,146408,1,0,0:0:0:0:
224,128,146479,1,8,0:0:0:0:
224,128,146550,1,0,0:0:0:0:
224,128,146622,1,0,0:0:0:0:
224,128,146693,1,0,0:0:0:0:
224,128,146765,1,8,0:0:0:0:
224,128,146836,1,8,0:0:0:0:
224,128,146908,1,0,0:0:0:0:
224,128,146979,1,8,0:0:0:0:
224,128,147050,1,0,0:0:0:0:
224,128,147122,1,0,0:0:0:0:
224,128,147193,1,8,0:0:0:0:
224,128,147265,1,0,0:0:0:0:
224,128,147336,1,8,0:0:0:0:
224,128,147408,1,8,0:0:0:0:
224,128,147479,1,0,0:0:0:0:
224,128,147550,1,8,0:0:0:0:
224,128,147622,1,0,0:0:0:0:
224,128,147693,1,0,0:0:0:0:
224,128,147765,1,8,0:0:0:0:
224,128,147836,1,0,0:0:0:0:
256,128,147908,1,8,0:0:0:0:
224,128,147979,1,8,0:0:0:0:
224,128,148050,1,0,0:0:0:0:
224,128,148122,1,0,0:0:0:0:
256,128,148193,1,8,0:0:0:0:
256,128,148265,1,8,0:0:0:0:
256,128,148336,1,8,0:0:0:0:
256,128,148408,1,0,0:0:0:0:
256,128,148479,1,8,0:0:0:0:
256,128,148550,1,8,0:0:0:0:
224,128,148622,1,0,0:0:0:0:
256,128,148693,1,8,0:0:0:0:
224,128,148765,1,0,0:0:0:0:
224,128,148836,1,8,0:0:0:0:
224,128,148908,1,0,0:0:0:0:
224,128,148979,1,0,0:0:0:0:
224,128,149050,1,8,0:0:0:0:
224,128,149122,1,8,0:0:0:0:
224,128,149193,1,0,0:0:0:0:
224,128,149265,1,8,0:0:0:0:
224,128,149336,1,8,0:0:0:0:
224,128,149408,1,0,0:0:0:0:
224,128,149479,1,8,0:0:0:0:
224,128,149550,1,0,0:0:0:0:
224,128,149622,1,8,0:0:0:0:
224,128,149693,1,8,0:0:0:0:
224,128,149765,1,0,0:0:0:0:
224,128,149836,1,0,0:0:0:0:
224,128,149908,1,8,0:0:0:0:
224,128,149979,1,0,0:0:0:0:
224,128,150050,1,0,0:0:0:0:
224,128,150122,1,0,0:0:0:0:
256,128,150193,1,8,0:0:0:0:
224,128,150265,1,8,0:0:0:0:
224,128,150336,1,8,0:0:0:0:
224,128,150408,1,8,0:0:0:0:
256,128,150479,1,0,0:0:0:0:
256,128,150550,1,0,0:0:0:0:
256,128,150622,1,8,0:0:0:0:
256,128,150693,1,8,0:0:0:0:
224,96,150765,1,0,0:0:0:0:
256,128,150812,1,0,0:0:0:0:
192,96,150860,1,0,0:0:0:0:
224,128,150908,1,8,0:0:0:0:
256,128,150979,1,8,0:0:0:0:
224,128,151050,1,0,0:0:0:0:
224,128,151098,1,0,0:0:0:0:
224,128,151146,1,0,0:0:0:0:
224,128,151193,1,8,0:0:0:0:
224,128,151265,1,8,0:0:0:0:
224,128,151336,1,0,0:0:0:0:
224,128,151408,1,0,0:0:0:0:
224,128,151479,1,8,0:0:0:0:
224,128,151550,1,8,0:0:0:0:
224,128,151622,1,8,0:0:0:0:
224,128,151693,1,8,0:0:0:0:
224,128,151765,1,4,0:0:0:0:
224,128,152050,1,8,0:0:0:0:
224,128,152193,1,4,0:0:0:0:
224,128,152479,1,0,0:0:0:0:
224,128,152622,1,12,0:0:0:0:
224,128,152836,1,8,0:0:0:0:
224,128,152908,1,0,0:0:0:0:
224,128,153050,1,0,0:0:0:0:
224,128,153122,1,0,0:0:0:0:
224,128,153193,1,8,0:0:0:0:
224,128,153265,1,8,0:0:0:0:
224,128,153336,1,0,0:0:0:0:
224,128,153408,1,8,0:0:0:0:
224,128,153479,1,0,0:0:0:0:
224,128,153550,1,0,0:0:0:0:
224,128,153622,1,8,0:0:0:0:
224,128,153693,1,0,0:0:0:0:
224,128,153765,1,8,0:0:0:0:
224,128,153836,1,0,0:0:0:0:
224,128,153908,1,8,0:0:0:0:
256,160,154050,1,0,0:0:0:0:
256,160,154193,1,0,0:0:0:0:
256,160,154265,1,0,0:0:0:0:
256,160,154336,1,8,0:0:0:0:
256,160,154479,1,8,0:0:0:0:
256,160,154622,1,0,0:0:0:0:
256,160,154693,1,8,0:0:0:0:
256,160,154765,1,0,0:0:0:0:
256,160,154836,1,8,0:0:0:0:
244,157,154908,1,0,0:0:0:0:
216,115,154955,1,0,0:0:0:0:
256,160,155003,1,0,0:0:0:0:
256,160,155050,1,8,0:0:0:0:
256,160,155122,1,8,0:0:0:0:
256,160,155193,1,0,0:0:0:0:
256,160,155336,1,8,0:0:0:0:
256,160,155408,1,0,0:0:0:0:
256,160,155479,1,8,0:0:0:0:
256,160,155550,1,8,0:0:0:0:
256,160,155622,1,0,0:0:0:0:
256,192,155693,1,8,0:0:0:0:
256,160,155765,1,0,0:0:0:0:
256,192,155836,1,8,0:0:0:0:
256,192,155908,1,8,0:0:0:0:
256,192,155979,1,8,0:0:0:0:
256,192,156050,1,0,0:0:0:0:
256,192,156122,1,0,0:0:0:0:
256,192,156193,1,8,0:0:0:0:
256,192,156265,1,8,0:0:0:0:
224,128,156336,1,4,0:0:0:0:
224,128,156622,1,8,0:0:0:0:
224,128,156765,1,4,0:0:0:0:
224,128,157050,1,0,0:0:0:0:
224,128,157193,1,12,0:0:0:0:
224,128,157408,1,8,0:0:0:0:
224,128,157479,1,0,0:0:0:0:
224,128,157622,1,0,0:0:0:0:
224,128,157693,1,0,0:0:0:0:
224,128,157765,1,8,0:0:0:0:
224,128,157836,1,8,0:0:0:0:
224,128,157908,1,0,0:0:0:0:
224,128,157979,1,8,0:0:0:0:
224,128,158050,1,0,0:0:0:0:
224,128,158122,1,8,0:0:0:0:
224,128,158193,1,0,0:0:0:0:
224,128,158265,1,0,0:0:0:0:
224,128,158336,1,8,0:0:0:0:
224,128,158408,1,0,0:0:0:0:
224,128,158479,1,8,0:0:0:0:
256,160,158622,1,0,0:0:0:0:
256,160,158765,1,0,0:0:0:0:
256,160,158836,1,0,0:0:0:0:
256,160,158908,1,8,0:0:0:0:
256,160,159050,1,0,0:0:0:0:
256,160,159193,1,8,0:0:0:0:
256,160,159265,1,0,0:0:0:0:
256,160,159336,1,8,0:0:0:0:
256,160,159408,1,8,0:0:0:0:
256,160,159479,1,0,0:0:0:0:
256,160,159550,1,8,0:0:0:0:
256,160,159622,1,8,0:0:0:0:
256,160,159693,1,8,0:0:0:0:
256,160,159765,1,0,0:0:0:0:
256,160,159908,1,0,0:0:0:0:
256,160,159979,1,0,0:0:0:0:
256,160,160050,1,8,0:0:0:0:
256,160,160122,1,8,0:0:0:0:
256,160,160193,1,0,0:0:0:0:
256,192,160265,1,0,0:0:0:0:
256,160,160336,1,8,0:0:0:0:
256,192,160408,1,8,0:0:0:0:
256,192,160479,1,0,0:0:0:0:
256,192,160550,1,8,0:0:0:0:
256,96,160622,1,0,0:0:0:0:
192,32,160669,1,0,0:0:0:0:
256,192,160717,1,0,0:0:0:0:
256,192,160908,1,4,0:0:0:0:
224,128,161193,1,8,0:0:0:0:
224,128,161336,1,4,0:0:0:0:
224,128,161622,1,0,0:0:0:0:
224,128,161765,1,12,0:0:0:0:
224,128,161979,1,8,0:0:0:0:
224,128,162050,1,0,0:0:0:0:
224,128,162193,1,0,0:0:0:0:
224,128,162265,1,0,0:0:0:0:
224,128,162336,1,8,0:0:0:0:
224,128,162479,1,0,0:0:0:0:
224,128,162550,1,0,0:0:0:0:
224,128,162622,1,8,0:0:0:0:
224,128,162693,1,8,0:0:0:0:
224,128,162765,1,8,0:0:0:0:
224,128,162836,1,0,0:0:0:0:
224,128,162908,1,8,0:0:0:0:
256,128,162955,1,8,0:0:0:0:
224,128,163003,1,8,0:0:0:0:
224,128,163050,1,0,0:0:0:0:
224,128,163122,1,8,0:0:0:0:
256,160,163193,1,0,0:0:0:0:
256,160,163336,1,0,0:0:0:0:
256,160,163408,1,0,0:0:0:0:
256,160,163479,1,8,0:0:0:0:
256,160,163622,1,8,0:0:0:0:
256,160,163765,1,8,0:0:0:0:
256,160,163836,1,8,0:0:0:0:
256,160,163908,1,0,0:0:0:0:
256,160,163979,1,8,0:0:0:0:
256,160,164050,1,0,0:0:0:0:
256,160,164098,1,0,0:0:0:0:
215,116,164146,1,0,0:0:0:0:
256,160,164193,1,8,0:0:0:0:
256,160,164265,1,8,0:0:0:0:
256,160,164336,1,0,0:0:0:0:
224,128,164408,1,8,0:0:0:0:
256,160,164479,1,0,0:0:0:0:
256,160,164550,1,0,0:0:0:0:
256,160,164622,1,8,0:0:0:0:
256,160,164693,1,0,0:0:0:0:
256,160,164765,1,8,0:0:0:0:
256,192,164836,1,8,0:0:0:0:
256,160,164908,1,0,0:0:0:0:
256,192,164979,1,8,0:0:0:0:
256,192,165050,1,8,0:0:0:0:
256,192,165122,1,8,0:0:0:0:
256,192,165193,1,0,0:0:0:0:
256,192,165265,1,0,0:0:0:0:
256,192,165336,1,8,0:0:0:0:
256,192,165408,1,8,0:0:0:0:
224,128,165479,1,4,0:0:0:0:
224,128,165765,1,8,0:0:0:0:
224,128,165908,1,4,0:0:0:0:
224,128,166193,1,0,0:0:0:0:
224,128,166336,1,12,0:0:0:0:
224,128,166550,1,8,0:0:0:0:
224,128,166622,1,0,0:0:0:0:
224,128,166765,1,0,0:0:0:0:
224,128,166836,1,0,0:0:0:0:
224,128,166908,1,8,0:0:0:0:
224,128,166979,1,8,0:0:0:0:
224,128,167050,1,0,0:0:0:0:
224,128,167122,1,8,0:0:0:0:
224,128,167193,1,0,0:0:0:0:
224,128,167265,1,8,0:0:0:0:
224,128,167336,1,0,0:0:0:0:
224,128,167408,1,0,0:0:0:0:
224,128,167479,1,8,0:0:0:0:
224,128,167550,1,0,0:0:0:0:
224,128,167622,1,8,0:0:0:0:
256,160,167765,1,0,0:0:0:0:
256,160,167908,1,0,0:0:0:0:
256,160,167979,1,0,0:0:0:0:
256,160,168050,1,8,0:0:0:0:
256,160,168193,1,8,0:0:0:0:
256,160,168336,1,0,0:0:0:0:
256,160,168408,1,8,0:0:0:0:
256,160,168479,1,0,0:0:0:0:
256,160,168550,1,8,0:0:0:0:
256,160,168622,1,0,0:0:0:0:
256,160,168693,1,0,0:0:0:0:
256,160,168765,1,8,0:0:0:0:
256,160,168836,1,8,0:0:0:0:
256,160,168908,1,0,0:0:0:0:
256,128,168979,1,0,0:0:0:0:
256,160,169050,1,8,0:0:0:0:
256,160,169122,1,0,0:0:0:0:
256,160,169193,1,8,0:0:0:0:
256,160,169265,1,0,0:0:0:0:
256,160,169336,1,0,0:0:0:0:
256,192,169408,1,0,0:0:0:0:
256,160,169479,1,8,0:0:0:0:
256,192,169550,1,0,0:0:0:0:
256,192,169622,1,8,0:0:0:0:
256,192,169693,1,8,0:0:0:0:
256,96,169765,1,0,0:0:0:0:
256,192,169836,1,8,0:0:0:0:
224,96,169908,1,8,0:0:0:0:
233,103,169979,1,8,0:0:0:0:
224,96,170050,1,0,0:0:0:0:
256,192,170950,1,8,0:0:0:0:
256,192,171100,1,0,0:0:0:0:
256,192,171400,1,8,0:0:0:0:
256,192,171475,1,0,0:0:0:0:
256,192,171550,1,8,0:0:0:0:
256,192,171625,1,8,0:0:0:0:
256,192,171700,1,0,0:0:0:0:
256,192,171775,1,0,0:0:0:0:
256,192,171850,1,8,0:0:0:0:
256,192,171925,1,0,0:0:0:0:
256,192,172000,1,8,0:0:0:0:
256,192,172075,1,0,0:0:0:0:
256,192,172150,1,8,0:0:0:0:
256,192,172200,1,8,0:0:0:0:
256,192,172250,1,0,0:0:0:0:
256,192,172300,1,8,0:0:0:0:
256,192,172350,1,0,0:0:0:0:
256,192,172400,1,0,0:0:0:0:
256,192,172450,1,8,0:0:0:0:
256,192,172750,1,0,0:0:0:0:
256,192,172825,1,0,0:0:0:0:
256,192,172900,1,0,0:0:0:0:
256,192,172975,1,0,0:0:0:0:
256,192,173050,1,8,0:0:0:0:
256,192,173125,1,8,0:0:0:0:
256,192,173200,1,8,0:0:0:0:
256,192,173275,1,0,0:0:0:0:
256,192,173350,1,8,0:0:0:0:
256,192,173425,1,0,0:0:0:0:
256,192,173500,1,0,0:0:0:0:
256,192,173575,1,0,0:0:0:0:
256,192,173650,1,8,0:0:0:0:
256,192,173725,1,8,0:0:0:0:
256,192,173800,1,0,0:0:0:0:
256,192,173875,1,8,0:0:0:0:
256,192,173950,1,0,0:0:0:0:
256,192,174025,1,0,0:0:0:0:
256,192,174100,1,8,0:0:0:0:
256,192,174175,1,0,0:0:0:0:
256,192,174250,1,8,0:0:0:0:
256,192,174550,5,8,0:0:0:0:
256,192,174600,1,8,0:0:0:0:
256,192,174650,1,0,0:0:0:0:
256,192,174700,1,8,0:0:0:0:
256,192,174750,1,0,0:0:0:0:
256,192,174800,1,0,0:0:0:0:
256,192,174850,1,8,0:0:0:0:
256,192,175165,1,0,0:0:0:0:
256,192,175244,1,8,0:0:0:0:
256,192,175323,1,8,0:0:0:0:
256,192,175639,1,0,0:0:0:0:
256,192,175718,1,0,0:0:0:0:
256,192,175797,1,8,0:0:0:0:
256,192,175876,1,8,0:0:0:0:
256,192,175955,1,8,0:0:0:0:
256,192,176034,1,0,0:0:0:0:
256,192,176113,1,8,0:0:0:0:
256,192,176271,1,0,0:0:0:0:
256,192,176350,1,8,0:0:0:0:
256,192,176428,1,0,0:0:0:0:
256,192,176586,1,0,0:0:0:0:
256,192,176665,1,0,0:0:0:0:
256,192,176744,1,8,0:0:0:0:
256,192,176797,1,8,0:0:0:0:
256,192,176850,1,8,0:0:0:0:
256,192,176902,1,0,0:0:0:0:
256,192,176955,1,0,0:0:0:0:
256,192,177007,1,0,0:0:0:0:
256,192,177060,1,8,0:0:0:0:
256,192,177139,1,8,0:0:0:0:
256,192,177218,1,0,0:0:0:0:
256,192,177271,1,0,0:0:0:0:
256,192,177323,1,0,0:0:0:0:
256,192,177376,1,8,0:0:0:0:
256,192,177792,1,0,0:0:0:0:
256,192,177876,1,8,0:0:0:0:
256,192,178042,1,0,0:0:0:0:
256,192,178126,1,0,0:0:0:0:
256,192,178209,1,8,0:0:0:0:
256,192,178292,1,8,0:0:0:0:
256,192,178376,1,0,0:0:0:0:
256,192,178709,1,0,0:0:0:0:
256,192,178876,1,0,0:0:0:0:
256,192,179042,1,8,0:0:0:0:
256,192,179209,1,0,0:0:0:0:
256,192,179376,1,8,0:0:0:0:
256,192,179542,1,0,0:0:0:0:
256,192,179709,1,8,0:0:0:0:
256,192,179876,1,8,0:0:0:0:
256,192,180042,1,0,0:0:0:0:
256,192,180376,1,0,0:0:0:0:
256,192,180487,1,0,0:0:0:0:
256,192,180598,1,0,0:0:0:0:
256,192,180709,1,8,0:0:0:0:
256,192,180820,1,0,0:0:0:0:
256,192,180931,1,8,0:0:0:0:
256,192,181042,1,0,0:0:0:0:
256,192,181153,1,8,0:0:0:0:
256,192,181376,1,0,0:0:0:0:
256,192,181709,1,0,0:0:0:0:
256,192,181820,1,0,0:0:0:0:
256,192,181931,1,0,0:0:0:0:
256,192,182042,1,8,0:0:0:0:
256,192,182153,1,0,0:0:0:0:
256,192,182264,1,8,0:0:0:0:
256,192,182376,1,0,0:0:0:0:
256,192,182487,1,8,0:0:0:0:
256,192,182709,1,8,0:0:0:0:
256,192,182931,1,8,0:0:0:0:
256,192,182987,1,8,0:0:0:0:
256,192,183042,1,0,0:0:0:0:
279,183,183098,1,0,0:0:0:0:
256,192,183153,1,8,0:0:0:0:
256,192,183209,1,0,0:0:0:0:
256,192,183264,1,0,0:0:0:0:
279,183,183320,1,0,0:0:0:0:
256,192,183376,1,8,0:0:0:0:
256,192,183459,1,0,0:0:0:0:
256,192,183542,1,0,0:0:0:0:
256,192,183626,1,8,0:0:0:0:
256,192,183792,1,0,0:0:0:0:
256,192,183959,1,0,0:0:0:0:
256,192,184042,1,8,0:0:0:0:
256,160,184376,1,0,0:0:0:0:
258,173,184487,1,8,0:0:0:0:
237,115,184598,1,0,0:0:0:0:
256,160,184709,1,8,0:0:0:0:
256,160,184830,1,8,0:0:0:0:
256,160,184951,1,0,0:0:0:0:
256,160,185072,1,0,0:0:0:0:
256,160,185193,1,8,0:0:0:0:
256,160,185315,1,0,0:0:0:0:
258,173,185436,1,8,0:0:0:0:
258,173,186436,1,0,0:0:0:0:
258,173,186686,1,0,0:0:0:0:
258,173,186936,1,8,0:0:0:0:
258,173,187710,1,8,0:0:0:0:
258,173,188484,1,0,0:0:0:0:
258,173,189284,1,8,0:0:0:0:
258,173,190084,1,0,0:0:0:0:
258,173,190911,1,0,0:0:0:0:
256,160,192167,1,8,0:0:0:0:
256,192,194309,12,0,198488,0:0:0:0:
224,160,198596,5,8,0:0:0:0:
224,160,198707,1,0,0:0:0:0:
224,160,198818,1,0,0:0:0:0:
224,160,198929,1,8,0:0:0:0:
256,185,199151,1,8,0:0:0:0:
224,128,199262,1,0,0:0:0:0:
224,128,199596,1,8,0:0:0:0:
224,128,199707,1,0,0:0:0:0:
224,128,199818,1,8,0:0:0:0:
224,128,199929,1,0,0:0:0:0:
224,128,200040,1,0,0:0:0:0:
224,128,200151,1,8,0:0:0:0:
224,128,200262,1,0,0:0:0:0:
224,128,200373,1,8,0:0:0:0:
224,128,200429,1,8,0:0:0:0:
224,128,200484,1,0,0:0:0:0:
224,128,200540,1,0,0:0:0:0:
224,128,200596,1,8,0:0:0:0:
224,128,200707,1,0,0:0:0:0:
224,128,200929,1,8,0:0:0:0:
224,128,201040,1,0,0:0:0:0:
224,128,201151,1,8,0:0:0:0:
221,142,201373,1,8,0:0:0:0:
224,128,201429,1,0,0:0:0:0:
224,128,201484,1,8,0:0:0:0:
224,128,201540,1,8,0:0:0:0:
224,128,201596,1,0,0:0:0:0:
224,128,201651,1,0,0:0:0:0:
224,128,201707,1,8,0:0:0:0:
224,128,201818,1,0,0:0:0:0:
224,128,201929,1,8,0:0:0:0:
221,142,202040,1,0,0:0:0:0:
192,160,202151,1,8,0:0:0:0:
192,160,202262,1,0,0:0:0:0:
192,160,202373,1,0,0:0:0:0:
192,160,202484,1,8,0:0:0:0:
192,160,202707,1,8,0:0:0:0:
192,160,202818,1,0,0:0:0:0:
192,160,203151,1,8,0:0:0:0:
192,160,203262,1,0,0:0:0:0:
192,160,203373,1,8,0:0:0:0:
192,160,203484,1,0,0:0:0:0:
192,160,203596,1,0,0:0:0:0:
192,160,203707,1,8,0:0:0:0:
192,160,203818,1,0,0:0:0:0:
192,160,203929,1,8,0:0:0:0:
192,160,203984,1,8,0:0:0:0:
192,160,204040,1,0,0:0:0:0:
192,160,204096,1,0,0:0:0:0:
192,160,204151,1,8,0:0:0:0:
192,160,204262,1,0,0:0:0:0:
192,128,204484,1,8,0:0:0:0:
192,128,204596,1,0,0:0:0:0:
192,128,204707,1,8,0:0:0:0:
192,128,204929,1,8,0:0:0:0:
192,128,204984,1,8,0:0:0:0:
192,128,205040,1,0,0:0:0:0:
192,128,205096,1,8,0:0:0:0:
192,128,205151,1,0,0:0:0:0:
192,128,205207,1,0,0:0:0:0:
192,128,205262,1,8,0:0:0:0:
192,128,205373,1,0,0:0:0:0:
192,128,205484,1,8,0:0:0:0:
192,128,205540,1,8,0:0:0:0:
192,128,205596,1,8,0:0:0:0:
192,128,205651,1,8,0:0:0:0:
224,160,205707,5,0,0:0:0:0:
224,160,205818,1,0,0:0:0:0:
224,160,205929,1,8,0:0:0:0:
224,160,206040,1,8,0:0:0:0:
256,185,206262,1,0,0:0:0:0:
224,128,206373,1,8,0:0:0:0:
256,128,206484,1,0,0:0:0:0:
224,128,206707,1,8,0:0:0:0:
224,128,206818,1,8,0:0:0:0:
224,128,206929,1,8,0:0:0:0:
224,128,207040,1,0,0:0:0:0:
224,128,207151,1,0,0:0:0:0:
224,128,207262,1,8,0:0:0:0:
224,128,207373,1,0,0:0:0:0:
224,128,207484,1,8,0:0:0:0:
224,128,207540,1,8,0:0:0:0:
224,128,207596,1,0,0:0:0:0:
224,128,207651,1,0,0:0:0:0:
224,128,207707,1,8,0:0:0:0:
224,128,207818,1,0,0:0:0:0:
224,128,208040,1,8,0:0:0:0:
224,128,208151,1,0,0:0:0:0:
224,128,208262,1,8,0:0:0:0:
221,142,208484,1,8,0:0:0:0:
224,128,208540,1,0,0:0:0:0:
224,128,208596,1,8,0:0:0:0:
224,128,208651,1,8,0:0:0:0:
224,128,208707,1,0,0:0:0:0:
224,128,208762,1,0,0:0:0:0:
224,128,208818,1,8,0:0:0:0:
224,128,208929,1,0,0:0:0:0:
224,128,209040,1,8,0:0:0:0:
221,142,209151,1,8,0:0:0:0:
192,160,209262,1,0,0:0:0:0:
192,160,209373,1,0,0:0:0:0:
192,160,209484,1,8,0:0:0:0:
192,160,209596,1,8,0:0:0:0:
192,160,209818,1,0,0:0:0:0:
192,160,209929,1,8,0:0:0:0:
224,96,210040,1,0,0:0:0:0:
192,160,210262,1,8,0:0:0:0:
192,160,210373,1,8,0:0:0:0:
192,160,210484,1,8,0:0:0:0:
192,160,210596,1,0,0:0:0:0:
192,160,210707,1,0,0:0:0:0:
192,160,210818,1,8,0:0:0:0:
192,160,210929,1,0,0:0:0:0:
192,160,211040,1,8,0:0:0:0:
192,160,211096,1,8,0:0:0:0:
192,160,211151,1,0,0:0:0:0:
192,160,211207,1,0,0:0:0:0:
192,160,211262,1,8,0:0:0:0:
192,160,211373,1,0,0:0:0:0:
192,128,211596,1,8,0:0:0:0:
192,128,211707,1,0,0:0:0:0:
192,128,211818,1,8,0:0:0:0:
224,160,212151,1,0,0:0:0:0:
256,160,212207,1,0,0:0:0:0:
224,160,212262,1,0,0:0:0:0:
256,160,212318,1,0,0:0:0:0:
256,160,212373,1,8,0:0:0:0:
256,160,212429,1,0,0:0:0:0:
256,160,212484,1,8,0:0:0:0:
256,160,212540,1,0,0:0:0:0:
256,160,212596,1,8,0:0:0:0:
256,160,212651,1,8,0:0:0:0:
256,160,212707,1,8,0:0:0:0:
256,160,212762,1,8,0:0:0:0:
192,128,212818,1,4,0:0:0:0:
256,160,212984,1,0,0:0:0:0:
256,128,213040,1,8,0:0:0:0:
288,160,213151,1,8,0:0:0:0:
256,160,213207,1,8,0:0:0:0:
256,160,213262,1,0,0:0:0:0:
256,160,213373,1,8,0:0:0:0:
256,160,213484,1,0,0:0:0:0:
256,160,213540,1,8,0:0:0:0:
256,160,213596,1,0,0:0:0:0:
256,160,213651,1,8,0:0:0:0:
256,160,213707,1,8,0:0:0:0:
256,160,213818,1,0,0:0:0:0:
256,128,213929,1,8,0:0:0:0:
256,96,213984,1,0,0:0:0:0:
256,128,214040,1,8,0:0:0:0:
256,128,214151,1,0,0:0:0:0:
256,128,214207,1,8,0:0:0:0:
256,128,214262,1,0,0:0:0:0:
224,96,214373,1,0,0:0:0:0:
224,128,214429,1,0,0:0:0:0:
224,128,214484,1,8,0:0:0:0:
224,96,214595,1,0,0:0:0:0:
256,96,214762,1,0,0:0:0:0:
256,96,214818,1,8,0:0:0:0:
256,64,214929,1,0,0:0:0:0:
224,96,214984,1,0,0:0:0:0:
224,128,215040,1,0,0:0:0:0:
224,96,215151,1,8,0:0:0:0:
224,96,215262,1,0,0:0:0:0:
224,96,215318,1,8,0:0:0:0:
224,96,215373,1,0,0:0:0:0:
224,96,215429,1,0,0:0:0:0:
224,96,215484,1,8,0:0:0:0:
224,64,215595,1,0,0:0:0:0:
224,64,215707,1,8,0:0:0:0:
224,64,215762,1,0,0:0:0:0:
224,64,215818,1,8,0:0:0:0:
224,64,215929,1,8,0:0:0:0:
224,64,215984,1,8,0:0:0:0:
224,64,216040,1,0,0:0:0:0:
224,64,216095,1,8,0:0:0:0:
224,64,216151,1,0,0:0:0:0:
224,64,216207,1,0,0:0:0:0:
224,64,216262,1,8,0:0:0:0:
224,64,216373,1,4,0:0:0:0:
256,160,216540,1,0,0:0:0:0:
256,128,216595,1,8,0:0:0:0:
288,160,216707,1,8,0:0:0:0:
256,160,216762,1,0,0:0:0:0:
256,160,216818,1,0,0:0:0:0:
256,160,216929,1,8,0:0:0:0:
256,64,216984,1,0,0:0:0:0:
256,160,217040,1,8,0:0:0:0:
256,160,217095,1,8,0:0:0:0:
256,160,217151,1,0,0:0:0:0:
256,160,217207,1,8,0:0:0:0:
256,160,217262,1,0,0:0:0:0:
224,64,217318,1,8,0:0:0:0:
256,160,217373,1,0,0:0:0:0:
256,128,217484,1,8,0:0:0:0:
256,128,217595,1,8,0:0:0:0:
256,96,217651,1,8,0:0:0:0:
256,128,217707,1,0,0:0:0:0:
256,128,217762,1,8,0:0:0:0:
256,128,217818,1,0,0:0:0:0:
224,96,217929,1,0,0:0:0:0:
224,128,217984,1,0,0:0:0:0:
224,128,218040,1,8,0:0:0:0:
224,96,218151,1,0,0:0:0:0:
256,96,218318,1,0,0:0:0:0:
256,96,218373,1,8,0:0:0:0:
256,64,218484,1,0,0:0:0:0:
224,96,218540,1,8,0:0:0:0:
224,128,218595,1,0,0:0:0:0:
224,64,218651,1,0,0:0:0:0:
224,96,218707,1,8,0:0:0:0:
224,96,218818,1,8,0:0:0:0:
224,96,218873,1,0,0:0:0:0:
224,96,218929,1,0,0:0:0:0:
224,96,219040,1,8,0:0:0:0:
224,64,219095,1,8,0:0:0:0:
224,64,219151,1,0,0:0:0:0:
224,64,219207,1,8,0:0:0:0:
224,64,219262,1,0,0:0:0:0:
224,64,219318,1,0,0:0:0:0:
224,64,219373,1,8,0:0:0:0:
224,64,219429,1,0,0:0:0:0:
224,64,219484,1,8,0:0:0:0:
224,64,219540,1,8,0:0:0:0:
224,64,219595,1,0,0:0:0:0:
224,64,219651,1,0,0:0:0:0:
224,64,219707,1,8,0:0:0:0:
224,64,219762,1,0,0:0:0:0:
224,64,219818,1,8,0:0:0:0:
224,64,219929,1,4,0:0:0:0:
256,160,220095,1,0,0:0:0:0:
256,128,220151,1,8,0:0:0:0:
288,160,220262,1,8,0:0:0:0:
256,160,220318,1,0,0:0:0:0:
256,160,220373,1,0,0:0:0:0:
256,160,220484,1,8,0:0:0:0:
256,160,220595,1,8,0:0:0:0:
256,160,220651,1,0,0:0:0:0:
256,160,220707,1,8,0:0:0:0:
256,160,220762,1,8,0:0:0:0:
256,160,220818,1,0,0:0:0:0:
256,160,220929,1,0,0:0:0:0:
256,128,221040,1,8,0:0:0:0:
256,96,221095,1,0,0:0:0:0:
256,128,221151,1,8,0:0:0:0:
256,128,221262,1,8,0:0:0:0:
256,128,221318,1,8,0:0:0:0:
256,128,221373,1,0,0:0:0:0:
224,96,221484,1,0,0:0:0:0:
224,128,221540,1,8,0:0:0:0:
224,128,221595,1,8,0:0:0:0:
224,96,221707,1,0,0:0:0:0:
256,96,221873,1,0,0:0:0:0:
256,96,221929,1,8,0:0:0:0:
256,64,222040,1,0,0:0:0:0:
224,96,222095,1,8,0:0:0:0:
224,128,222151,1,0,0:0:0:0:
224,96,222262,1,8,0:0:0:0:
224,96,222373,1,8,0:0:0:0:
224,96,222429,1,8,0:0:0:0:
224,96,222484,1,0,0:0:0:0:
128,32,222540,1,0,0:0:0:0:
224,96,222595,1,8,0:0:0:0:
224,64,222707,1,0,0:0:0:0:
224,64,222818,1,8,0:0:0:0:
224,64,222873,1,0,0:0:0:0:
224,64,222929,1,8,0:0:0:0:
224,32,222984,1,0,0:0:0:0:
224,64,223040,1,8,0:0:0:0:
224,64,223095,1,8,0:0:0:0:
224,64,223151,1,0,0:0:0:0:
224,64,223262,1,8,0:0:0:0:
224,64,223318,1,8,0:0:0:0:
224,64,223373,1,8,0:0:0:0:
224,64,223484,1,4,0:0:0:0:
256,160,223651,1,0,0:0:0:0:
256,128,223707,1,8,0:0:0:0:
288,160,223818,1,8,0:0:0:0:
256,160,223873,1,8,0:0:0:0:
256,160,223929,1,0,0:0:0:0:
256,160,224040,1,0,0:0:0:0:
256,64,224095,1,0,0:0:0:0:
256,160,224151,1,8,0:0:0:0:
256,160,224207,1,0,0:0:0:0:
256,160,224262,1,8,0:0:0:0:
256,160,224318,1,0,0:0:0:0:
256,160,224373,1,8,0:0:0:0:
224,64,224429,1,8,0:0:0:0:
256,160,224484,1,0,0:0:0:0:
256,128,224595,1,8,0:0:0:0:
256,128,224707,1,8,0:0:0:0:
256,96,224762,1,8,0:0:0:0:
256,128,224818,1,0,0:0:0:0:
256,128,224873,1,8,0:0:0:0:
256,128,224929,1,0,0:0:0:0:
224,96,225040,1,8,0:0:0:0:
224,128,225095,1,0,0:0:0:0:
224,128,225151,1,8,0:0:0:0:
224,96,225262,1,0,0:0:0:0:
256,96,225429,1,0,0:0:0:0:
256,96,225484,1,8,0:0:0:0:
256,64,225595,1,0,0:0:0:0:
224,96,225651,1,8,0:0:0:0:
224,128,225707,1,0,0:0:0:0:
224,64,225762,1,0,0:0:0:0:
224,96,225818,1,8,0:0:0:0:
224,96,225929,1,0,0:0:0:0:
224,96,225984,1,0,0:0:0:0:
224,96,226040,1,0,0:0:0:0:
224,96,226095,1,0,0:0:0:0:
224,96,226151,1,8,0:0:0:0:
224,96,226207,1,8,0:0:0:0:
224,64,226262,1,0,0:0:0:0:
224,64,226318,1,0,0:0:0:0:
224,64,226373,1,8,0:0:0:0:
224,64,226484,1,0,0:0:0:0:
224,64,226540,1,0,0:0:0:0:
224,64,226595,1,8,0:0:0:0:
224,64,226651,1,8,0:0:0:0:
224,64,226707,1,0,0:0:0:0:
224,64,226762,1,8,0:0:0:0:
224,64,226818,1,0,0:0:0:0:
224,64,226873,1,0,0:0:0:0:
224,64,226929,1,8,0:0:0:0:
192,128,227040,1,4,0:0:0:0:
224,32,227151,1,0,0:0:0:0:
256,160,227207,1,0,0:0:0:0:
256,128,227262,1,8,0:0:0:0:
288,160,227373,1,8,0:0:0:0:
256,160,227429,1,8,0:0:0:0:
256,160,227484,1,0,0:0:0:0:
224,32,227540,1,0,0:0:0:0:
256,160,227595,1,8,0:0:0:0:
256,160,227707,1,0,0:0:0:0:
256,160,227762,1,8,0:0:0:0:
256,160,227818,1,0,0:0:0:0:
256,160,227873,1,8,0:0:0:0:
256,160,227929,1,8,0:0:0:0:
224,32,227984,1,8,0:0:0:0:
256,160,228040,1,0,0:0:0:0:
256,128,228151,1,8,0:0:0:0:
256,96,228207,1,0,0:0:0:0:
256,128,228262,1,8,0:0:0:0:
256,96,228318,1,8,0:0:0:0:
256,128,228373,1,0,0:0:0:0:
256,128,228429,1,8,0:0:0:0:
256,128,228484,1,0,0:0:0:0:
224,96,228595,1,0,0:0:0:0:
224,128,228651,1,0,0:0:0:0:
224,128,228707,1,8,0:0:0:0:
224,32,228762,1,8,0:0:0:0:
224,96,228818,1,0,0:0:0:0:
224,32,228929,1,0,0:0:0:0:
256,96,228984,1,0,0:0:0:0:
256,96,229040,1,8,0:0:0:0:
256,64,229151,1,0,0:0:0:0:
224,96,229207,1,0,0:0:0:0:
224,128,229262,1,0,0:0:0:0:
224,32,229318,1,0,0:0:0:0:
224,96,229373,1,8,0:0:0:0:
224,96,229484,1,0,0:0:0:0:
224,96,229540,1,8,0:0:0:0:
224,96,229595,1,0,0:0:0:0:
224,96,229651,1,0,0:0:0:0:
224,96,229707,1,8,0:0:0:0:
224,32,229762,1,8,0:0:0:0:
224,64,229818,1,0,0:0:0:0:
224,64,229929,1,8,0:0:0:0:
224,64,229984,1,0,0:0:0:0:
224,64,230040,1,8,0:0:0:0:
224,64,230151,1,8,0:0:0:0:
224,64,230207,1,8,0:0:0:0:
224,64,230262,1,0,0:0:0:0:
224,64,230318,1,8,0:0:0:0:
224,64,230373,1,0,0:0:0:0:
224,64,230429,1,0,0:0:0:0:
224,64,230484,1,8,0:0:0:0:
224,32,230540,1,8,0:0:0:0:
224,64,230595,1,0,0:0:0:0:
224,64,230707,1,0,0:0:0:0:
256,160,230762,1,0,0:0:0:0:
256,128,230818,1,8,0:0:0:0:
288,160,230929,1,8,0:0:0:0:
256,160,230984,1,0,0:0:0:0:
256,160,231040,1,0,0:0:0:0:
256,160,231151,1,8,0:0:0:0:
256,64,231207,1,0,0:0:0:0:
256,160,231262,1,8,0:0:0:0:
256,160,231318,1,8,0:0:0:0:
256,160,231373,1,0,0:0:0:0:
256,160,231429,1,8,0:0:0:0:
256,160,231484,1,0,0:0:0:0:
224,64,231540,1,8,0:0:0:0:
256,160,231595,1,0,0:0:0:0:
256,128,231707,1,8,0:0:0:0:
256,96,231762,1,0,0:0:0:0:
256,128,231818,1,8,0:0:0:0:
256,96,231873,1,8,0:0:0:0:
256,128,231929,1,0,0:0:0:0:
256,128,231984,1,8,0:0:0:0:
256,128,232040,1,0,0:0:0:0:
224,96,232151,1,8,0:0:0:0:
224,128,232207,1,8,0:0:0:0:
224,128,232262,1,8,0:0:0:0:
224,96,232373,1,0,0:0:0:0:
224,64,232484,1,0,0:0:0:0:
256,96,232540,1,0,0:0:0:0:
256,96,232595,1,8,0:0:0:0:
256,64,232707,1,0,0:0:0:0:
224,96,232762,1,8,0:0:0:0:
224,128,232818,1,0,0:0:0:0:
224,64,232873,1,0,0:0:0:0:
224,96,232929,1,8,0:0:0:0:
224,96,233040,1,8,0:0:0:0:
224,96,233095,1,0,0:0:0:0:
224,96,233151,1,0,0:0:0:0:
256,96,233207,1,0,0:0:0:0:
224,96,233262,1,8,0:0:0:0:
224,64,233318,1,8,0:0:0:0:
224,64,233373,1,0,0:0:0:0:
224,64,233429,1,8,0:0:0:0:
224,64,233484,1,0,0:0:0:0:
224,64,233540,1,0,0:0:0:0:
224,64,233595,1,8,0:0:0:0:
224,64,233651,1,0,0:0:0:0:
224,64,233707,1,8,0:0:0:0:
224,64,233762,1,8,0:0:0:0:
224,64,233818,1,0,0:0:0:0:
224,64,233873,1,0,0:0:0:0:
224,64,233929,1,8,0:0:0:0:
224,64,233984,1,0,0:0:0:0:
224,64,234040,1,8,0:0:0:0:
224,64,234151,1,4,0:0:0:0:
256,96,234262,1,0,0:0:0:0:
256,160,234318,1,0,0:0:0:0:
256,128,234373,1,8,0:0:0:0:
288,160,234484,1,8,0:0:0:0:
256,160,234540,1,0,0:0:0:0:
256,160,234595,1,0,0:0:0:0:
256,96,234651,1,0,0:0:0:0:
256,160,234707,1,8,0:0:0:0:
256,160,234818,1,8,0:0:0:0:
256,160,234873,1,0,0:0:0:0:
256,160,234929,1,8,0:0:0:0:
256,160,234984,1,8,0:0:0:0:
256,160,235040,1,0,0:0:0:0:
256,160,235151,1,0,0:0:0:0:
256,128,235262,1,8,0:0:0:0:
256,96,235318,1,0,0:0:0:0:
256,128,235373,1,8,0:0:0:0:
256,96,235429,1,0,0:0:0:0:
256,128,235484,1,8,0:0:0:0:
256,128,235540,1,8,0:0:0:0:
256,128,235595,1,0,0:0:0:0:
224,96,235707,1,0,0:0:0:0:
224,128,235762,1,8,0:0:0:0:
224,128,235818,1,8,0:0:0:0:
224,96,235929,1,4,0:0:0:0:
256,96,236040,1,0,0:0:0:0:
256,96,236095,1,0,0:0:0:0:
256,96,236151,1,8,0:0:0:0:
256,64,236262,1,0,0:0:0:0:
224,96,236318,1,8,0:0:0:0:
224,128,236373,1,0,0:0:0:0:
224,96,236484,1,8,0:0:0:0:
224,64,236540,1,0,0:0:0:0:
224,96,236595,1,8,0:0:0:0:
224,96,236651,1,8,0:0:0:0:
224,96,236707,1,0,0:0:0:0:
128,32,236762,1,0,0:0:0:0:
224,96,236818,1,8,0:0:0:0:
224,64,236929,1,0,0:0:0:0:
224,64,237040,1,8,0:0:0:0:
224,64,237095,1,0,0:0:0:0:
224,64,237151,1,8,0:0:0:0:
224,32,237207,1,0,0:0:0:0:
224,64,237262,1,8,0:0:0:0:
224,64,237318,1,8,0:0:0:0:
224,64,237373,1,0,0:0:0:0:
192,64,237429,1,0,0:0:0:0:
224,64,237484,1,8,0:0:0:0:
224,64,237540,1,8,0:0:0:0:
224,64,237595,1,8,0:0:0:0:
192,64,237651,1,8,0:0:0:0:
224,64,237707,1,0,0:0:0:0:
224,96,237818,1,0,0:0:0:0:
224,64,237929,1,8,0:0:0:0:
224,64,238040,1,0,0:0:0:0:
224,64,238095,1,8,0:0:0:0:
224,64,238151,1,0,0:0:0:0:
224,64,238262,1,8,0:0:0:0:
224,64,238373,1,0,0:0:0:0:
192,64,238429,1,0,0:0:0:0:
224,64,238484,1,0,0:0:0:0:
224,64,238595,1,8,0:0:0:0:
224,64,238707,1,0,0:0:0:0:
224,64,238762,1,0,0:0:0:0:
224,64,238818,1,8,0:0:0:0:
224,64,238929,1,8,0:0:0:0:
224,64,239040,1,0,0:0:0:0:
192,64,239095,1,8,0:0:0:0:
224,64,239151,1,0,0:0:0:0:
224,64,239262,1,8,0:0:0:0:
192,64,239318,1,8,0:0:0:0:
224,64,239373,1,0,0:0:0:0:
224,64,239484,1,0,0:0:0:0:
192,64,239540,1,0,0:0:0:0:
224,64,239595,1,8,0:0:0:0:
224,64,239707,1,8,0:0:0:0:
192,64,239762,1,0,0:0:0:0:
224,64,239818,1,0,0:0:0:0:
224,64,239929,1,8,0:0:0:0:
192,64,239984,1,8,0:0:0:0:
224,64,240040,1,0,0:0:0:0:
192,64,240095,1,0,0:0:0:0:
192,64,240151,1,8,0:0:0:0:
192,64,240207,1,8,0:0:0:0:
192,64,240262,1,8,0:0:0:0:
224,96,240318,1,8,0:0:0:0:
224,64,240373,1,4,0:0:0:0:
256,96,240707,1,0,0:0:0:0:
256,96,240929,1,8,0:0:0:0:
224,96,241262,1,0,0:0:0:0:
224,96,241484,1,8,0:0:0:0:
224,96,241595,1,0,0:0:0:0:
224,96,241707,1,8,0:0:0:0:
224,96,241762,1,8,0:0:0:0:
224,96,241818,1,8,0:0:0:0:
224,96,241873,1,8,0:0:0:0:
224,96,241929,1,8,0:0:0:0:
224,96,241984,1,8,0:0:0:0:
224,96,242040,1,8,0:0:0:0:
224,96,242095,1,8,0:0:0:0:
224,96,242151,1,4,0:0:0:0:
256,128,242451,1,0,0:0:0:0:
224,96,242651,1,0,0:0:0:0:
224,128,242751,1,8,0:0:0:0:
224,96,243051,1,8,0:0:0:0:
256,128,243151,1,0,0:0:0:0:
224,64,243251,1,0,0:0:0:0:
224,128,243351,1,8,0:0:0:0:
224,64,243451,1,0,0:0:0:0:
224,128,243551,1,8,0:0:0:0:
224,128,243651,1,0,0:0:0:0:
224,128,243751,1,0,0:0:0:0:
224,96,244051,1,8,0:0:0:0:
224,96,244251,1,0,0:0:0:0:
192,64,244351,1,0,0:0:0:0:
224,96,244451,1,8,0:0:0:0:
224,96,244651,1,8,0:0:0:0:
224,96,244751,1,8,0:0:0:0:
224,96,244851,1,0,0:0:0:0:
224,96,244951,1,8,0:0:0:0:
224,96,245051,1,0,0:0:0:0:
192,64,245151,1,8,0:0:0:0:
192,64,245251,1,0,0:0:0:0:
192,64,245351,1,0,0:0:0:0:
256,128,245651,1,0,0:0:0:0:
224,64,245851,1,0,0:0:0:0:
224,128,245951,1,8,0:0:0:0:
224,64,246251,1,8,0:0:0:0:
256,128,246351,1,0,0:0:0:0:
224,64,246451,1,8,0:0:0:0:
224,128,246551,1,0,0:0:0:0:
224,96,246601,1,0,0:0:0:0:
224,96,246651,1,0,0:0:0:0:
224,96,246701,1,0,0:0:0:0:
224,96,246751,1,8,0:0:0:0:
224,96,246801,1,8,0:0:0:0:
224,128,246851,1,8,0:0:0:0:
224,96,246901,1,8,0:0:0:0:
224,128,246951,1,0,0:0:0:0:
224,96,247251,1,8,0:0:0:0:
224,64,247451,1,0,0:0:0:0:
224,64,247551,1,0,0:0:0:0:
224,96,247651,1,8,0:0:0:0:
224,64,247851,1,8,0:0:0:0:
224,96,247951,1,0,0:0:0:0:
224,64,248051,1,8,0:0:0:0:
224,96,248151,1,0,0:0:0:0:
224,64,248251,1,0,0:0:0:0:
192,64,248351,1,8,0:0:0:0:
192,64,248451,1,8,0:0:0:0:
192,64,248551,1,0,0:0:0:0:
224,128,248751,1,8,0:0:0:0:
224,128,248851,1,0,0:0:0:0:
224,128,249051,1,0,0:0:0:0:
224,128,249151,1,8,0:0:0:0:
224,128,249351,1,0,0:0:0:0:
224,128,249451,1,0,0:0:0:0:
224,128,249551,1,8,0:0:0:0:
224,128,249651,1,8,0:0:0:0:
192,128,249751,1,0,0:0:0:0:
224,128,249951,1,8,0:0:0:0:
224,128,250051,1,0,0:0:0:0:
224,128,250151,1,8,0:0:0:0:
224,128,250251,1,0,0:0:0:0:
224,128,250351,1,8,0:0:0:0:
224,96,250451,1,8,0:0:0:0:
224,128,250651,1,0,0:0:0:0:
224,128,250751,1,8,0:0:0:0:
224,128,250851,1,8,0:0:0:0:
224,128,250951,1,0,0:0:0:0:
224,96,251151,1,8,0:0:0:0:
224,96,251251,1,0,0:0:0:0:
224,128,251451,1,0,0:0:0:0:
224,128,251551,1,8,0:0:0:0:
224,128,251751,1,8,0:0:0:0:
224,128,251851,1,0,0:0:0:0:
224,128,251951,1,8,0:0:0:0:
224,128,252051,1,0,0:0:0:0:
224,128,252151,1,8,0:0:0:0:
224,128,252251,1,8,0:0:0:0:
224,128,252351,1,0,0:0:0:0:
224,128,252451,1,0,0:0:0:0:
224,128,252551,1,8,0:0:0:0:
224,128,252651,1,0,0:0:0:0:
224,128,252751,1,8,0:0:0:0:
224,128,252851,1,0,0:0:0:0:
224,128,252951,1,8,0:0:0:0:
224,128,253051,1,8,0:0:0:0:
224,128,253151,1,0,0:0:0:0:
224,128,253251,1,0,0:0:0:0:
224,128,253351,1,8,0:0:0:0:
224,128,253401,1,8,0:0:0:0:
224,128,253451,1,0,0:0:0:0:
224,128,253501,1,0,0:0:0:0:
224,128,253551,1,8,0:0:0:0:
224,128,253601,1,0,0:0:0:0:
224,128,253651,1,8,0:0:0:0:
224,128,253701,1,8,0:0:0:0:
224,128,253751,1,0,0:0:0:0:
224,128,253801,1,0,0:0:0:0:
224,128,253851,1,8,0:0:0:0:
224,128,253901,1,0,0:0:0:0:
224,128,253951,1,8,0:0:0:0:
224,128,254001,1,8,0:0:0:0:
224,128,254051,1,8,0:0:0:0:
224,128,254101,1,8,0:0:0:0:
224,128,254151,1,0,0:0:0:0:
224,128,254551,1,8,0:0:0:0:
224,96,254601,1,8,0:0:0:0:
224,96,254651,1,0,0:0:0:0:
224,96,254701,1,0,0:0:0:0:
224,96,254751,1,8,0:0:0:0:
224,96,254801,1,8,0:0:0:0:
224,128,254851,1,8,0:0:0:0:
224,96,254901,1,8,0:0:0:0:
224,128,254951,1,4,0:0:0:0:
224,96,255101,1,0,0:0:0:0:
224,96,255151,1,8,0:0:0:0:
224,96,255251,1,8,0:0:0:0:
224,96,255301,1,8,0:0:0:0:
224,96,255351,1,0,0:0:0:0:
224,96,255451,1,8,0:0:0:0:
224,96,255551,1,8,0:0:0:0:
224,96,255601,1,8,0:0:0:0:
224,96,255651,1,8,0:0:0:0:
224,96,255701,1,8,0:0:0:0:
224,96,255751,1,0,0:0:0:0:
192,128,255851,1,0,0:0:0:0:
192,128,255951,1,8,0:0:0:0:
192,128,256051,1,8,0:0:0:0:
192,128,256151,1,0,0:0:0:0:
192,128,256201,1,8,0:0:0:0:
192,128,256251,1,0,0:0:0:0:
192,128,256351,1,8,0:0:0:0:
192,128,256451,1,8,0:0:0:0:
192,128,256551,1,0,0:0:0:0:
192,128,256601,1,0,0:0:0:0:
192,128,256651,1,0,0:0:0:0:
192,128,256701,1,0,0:0:0:0:
192,128,256751,1,8,0:0:0:0:
192,128,256851,1,8,0:0:0:0:
192,128,256951,1,0,0:0:0:0:
192,128,257051,1,8,0:0:0:0:
192,64,257101,1,0,0:0:0:0:
192,96,257151,1,8,0:0:0:0:
192,96,257201,1,0,0:0:0:0:
192,96,257251,1,8,0:0:0:0:
192,96,257351,1,0,0:0:0:0:
192,96,257451,1,8,0:0:0:0:
192,96,257501,1,0,0:0:0:0:
192,96,257551,1,8,0:0:0:0:
192,96,257601,1,8,0:0:0:0:
192,96,257651,1,0,0:0:0:0:
192,96,257751,1,8,0:0:0:0:
192,96,257851,1,0,0:0:0:0:
192,96,257951,1,8,0:0:0:0:
192,96,258001,1,8,0:0:0:0:
192,96,258051,1,8,0:0:0:0:
192,96,258151,1,0,0:0:0:0:
224,96,258301,1,0,0:0:0:0:
224,96,258351,1,8,0:0:0:0:
224,96,258451,1,0,0:0:0:0:
224,96,258501,1,8,0:0:0:0:
224,96,258551,1,0,0:0:0:0:
224,96,258651,1,8,0:0:0:0:
224,96,258751,1,8,0:0:0:0:
224,96,258801,1,8,0:0:0:0:
224,96,258851,1,0,0:0:0:0:
224,96,258901,1,0,0:0:0:0:
224,96,258951,1,8,0:0:0:0:
192,128,259051,1,0,0:0:0:0:
192,128,259151,1,8,0:0:0:0:
192,128,259251,1,8,0:0:0:0:
192,128,259351,1,0,0:0:0:0:
192,128,259401,1,0,0:0:0:0:
192,128,259451,1,0,0:0:0:0:
192,128,259551,1,8,0:0:0:0:
192,128,259651,1,8,0:0:0:0:
192,128,259751,1,0,0:0:0:0:
192,128,259801,1,8,0:0:0:0:
192,128,259851,1,0,0:0:0:0:
224,96,259901,1,0,0:0:0:0:
192,128,259951,1,8,0:0:0:0:
192,128,260051,1,8,0:0:0:0:
192,128,260151,1,0,0:0:0:0:
192,128,260251,1,8,0:0:0:0:
256,64,260301,1,0,0:0:0:0:
192,96,260351,1,8,0:0:0:0:
192,96,260401,1,8,0:0:0:0:
192,96,260451,1,0,0:0:0:0:
192,96,260551,1,0,0:0:0:0:
192,96,260651,1,8,0:0:0:0:
192,96,260701,1,0,0:0:0:0:
192,96,260751,1,8,0:0:0:0:
192,96,260801,1,0,0:0:0:0:
192,96,260851,1,8,0:0:0:0:
192,96,260901,1,8,0:0:0:0:
192,96,260951,1,0,0:0:0:0:
192,96,261051,1,0,0:0:0:0:
192,96,261151,1,8,0:0:0:0:
192,96,261201,1,8,0:0:0:0:
192,96,261251,1,8,0:0:0:0:
224,128,261351,1,4,0:0:0:0:
224,96,261501,1,0,0:0:0:0:
224,96,261551,1,8,0:0:0:0:
224,96,261651,1,8,0:0:0:0:
224,96,261701,1,8,0:0:0:0:
224,96,261751,1,0,0:0:0:0:
224,96,261851,1,8,0:0:0:0:
224,96,261951,1,8,0:0:0:0:
224,96,262001,1,8,0:0:0:0:
224,96,262051,1,8,0:0:0:0:
224,96,262101,1,8,0:0:0:0:
224,96,262151,1,0,0:0:0:0:
192,128,262251,1,0,0:0:0:0:
192,128,262351,1,8,0:0:0:0:
192,128,262451,1,8,0:0:0:0:
192,128,262551,1,0,0:0:0:0:
192,128,262601,1,8,0:0:0:0:
192,128,262651,1,0,0:0:0:0:
192,128,262751,1,8,0:0:0:0:
192,128,262851,1,8,0:0:0:0:
192,128,262951,1,0,0:0:0:0:
192,128,263001,1,0,0:0:0:0:
192,128,263051,1,0,0:0:0:0:
192,128,263101,1,0,0:0:0:0:
192,128,263151,1,8,0:0:0:0:
192,128,263251,1,8,0:0:0:0:
192,128,263351,1,0,0:0:0:0:
192,128,263451,1,8,0:0:0:0:
192,64,263501,1,0,0:0:0:0:
192,96,263551,1,8,0:0:0:0:
192,96,263601,1,0,0:0:0:0:
192,96,263651,1,8,0:0:0:0:
192,96,263751,1,0,0:0:0:0:
192,96,263851,1,8,0:0:0:0:
192,96,263901,1,0,0:0:0:0:
192,96,263951,1,8,0:0:0:0:
192,96,264001,1,8,0:0:0:0:
192,96,264051,1,0,0:0:0:0:
192,96,264151,1,8,0:0:0:0:
192,96,264251,1,0,0:0:0:0:
192,96,264351,1,8,0:0:0:0:
192,96,264401,1,8,0:0:0:0:
192,96,264451,1,8,0:0:0:0:
192,96,264551,1,0,0:0:0:0:
224,96,264701,1,0,0:0:0:0:
224,96,264751,1,8,0:0:0:0:
224,96,264851,1,0,0:0:0:0:
224,96,264901,1,8,0:0:0:0:
224,96,264951,1,0,0:0:0:0:
224,96,265051,1,8,0:0:0:0:
224,96,265151,1,8,0:0:0:0:
224,96,265201,1,8,0:0:0:0:
224,96,265251,1,0,0:0:0:0:
224,96,265301,1,0,0:0:0:0:
224,96,265351,1,8,0:0:0:0:
192,128,265451,1,0,0:0:0:0:
192,128,265551,1,8,0:0:0:0:
192,128,265651,1,8,0:0:0:0:
192,128,265751,1,0,0:0:0:0:
192,128,265801,1,0,0:0:0:0:
192,128,265851,1,0,0:0:0:0:
192,128,265951,1,8,0:0:0:0:
192,128,266051,1,8,0:0:0:0:
192,128,266151,1,0,0:0:0:0:
192,128,266201,1,8,0:0:0:0:
192,128,266251,1,0,0:0:0:0:
224,96,266301,1,0,0:0:0:0:
192,128,266351,1,8,0:0:0:0:
192,128,266451,1,8,0:0:0:0:
192,128,266551,1,0,0:0:0:0:
192,128,266651,1,8,0:0:0:0:
256,64,266701,1,0,0:0:0:0:
192,96,266751,1,8,0:0:0:0:
192,96,266801,1,8,0:0:0:0:
192,96,266851,1,0,0:0:0:0:
192,96,266951,1,0,0:0:0:0:
192,96,267051,1,8,0:0:0:0:
192,96,267101,1,0,0:0:0:0:
192,96,267151,1,8,0:0:0:0:
192,96,267201,1,0,0:0:0:0:
192,96,267251,1,8,0:0:0:0:
192,96,267301,1,8,0:0:0:0:
192,96,267351,5,0,0:0:0:0:
192,96,267451,1,0,0:0:0:0:
192,96,267551,1,8,0:0:0:0:
192,96,267601,1,8,0:0:0:0:
192,96,267651,1,8,0:0:0:0:
256,64,267751,1,4,0:0:0:0:
224,96,267851,1,0,0:0:0:0:
224,96,267901,1,0,0:0:0:0:
224,96,267951,1,8,0:0:0:0:
224,96,268051,1,8,0:0:0:0:
224,96,268101,1,8,0:0:0:0:
224,96,268151,1,0,0:0:0:0:
224,96,268251,1,8,0:0:0:0:
224,96,268351,1,8,0:0:0:0:
224,96,268401,1,8,0:0:0:0:
224,96,268451,1,8,0:0:0:0:
224,96,268501,1,8,0:0:0:0:
224,96,268551,1,0,0:0:0:0:
192,128,268651,1,0,0:0:0:0:
192,128,268751,1,8,0:0:0:0:
224,64,268801,1,0,0:0:0:0:
192,128,268851,1,8,0:0:0:0:
192,128,268951,1,0,0:0:0:0:
192,128,269001,1,8,0:0:0:0:
192,128,269051,1,0,0:0:0:0:
192,128,269101,1,0,0:0:0:0:
192,128,269151,1,8,0:0:0:0:
192,128,269251,1,8,0:0:0:0:
192,128,269351,1,0,0:0:0:0:
192,128,269401,1,0,0:0:0:0:
192,128,269451,1,0,0:0:0:0:
192,128,269501,1,0,0:0:0:0:
192,128,269551,1,8,0:0:0:0:
192,128,269651,1,8,0:0:0:0:
192,128,269701,1,8,0:0:0:0:
192,128,269751,1,0,0:0:0:0:
192,128,269851,1,8,0:0:0:0:
192,64,269901,1,0,0:0:0:0:
192,96,269951,1,8,0:0:0:0:
192,96,270001,1,0,0:0:0:0:
192,96,270051,1,8,0:0:0:0:
192,96,270151,1,0,0:0:0:0:
192,96,270251,1,8,0:0:0:0:
192,96,270301,1,0,0:0:0:0:
192,96,270351,1,8,0:0:0:0:
192,96,270401,1,8,0:0:0:0:
192,96,270451,1,0,0:0:0:0:
192,96,270501,1,0,0:0:0:0:
192,96,270551,1,8,0:0:0:0:
192,96,270651,1,0,0:0:0:0:
192,96,270751,1,8,0:0:0:0:
192,96,270801,1,8,0:0:0:0:
192,96,270851,1,8,0:0:0:0:
192,96,270951,1,0,0:0:0:0:
224,96,271051,1,0,0:0:0:0:
224,96,271101,1,0,0:0:0:0:
224,96,271151,1,8,0:0:0:0:
224,96,271251,1,8,0:0:0:0:
224,96,271301,1,8,0:0:0:0:
224,96,271351,1,0,0:0:0:0:
224,96,271451,1,8,0:0:0:0:
224,96,271551,1,8,0:0:0:0:
224,96,271601,1,8,0:0:0:0:
224,96,271651,1,0,0:0:0:0:
224,96,271701,1,0,0:0:0:0:
224,96,271751,1,8,0:0:0:0:
192,128,271851,1,0,0:0:0:0:
192,128,271951,1,8,0:0:0:0:
224,64,272001,1,0,0:0:0:0:
192,128,272051,1,8,0:0:0:0:
192,128,272151,1,0,0:0:0:0:
192,128,272201,1,0,0:0:0:0:
192,128,272251,1,0,0:0:0:0:
192,128,272301,1,0,0:0:0:0:
192,128,272351,1,8,0:0:0:0:
192,128,272451,1,8,0:0:0:0:
192,128,272551,1,0,0:0:0:0:
192,128,272601,1,8,0:0:0:0:
192,128,272651,1,0,0:0:0:0:
192,128,272701,1,0,0:0:0:0:
192,128,272751,1,8,0:0:0:0:
192,128,272851,1,8,0:0:0:0:
192,128,272901,1,0,0:0:0:0:
192,128,272951,1,0,0:0:0:0:
192,128,273051,1,8,0:0:0:0:
256,64,273101,1,0,0:0:0:0:
192,96,273151,1,8,0:0:0:0:
192,96,273201,1,8,0:0:0:0:
192,96,273251,1,0,0:0:0:0:
192,96,273351,1,0,0:0:0:0:
192,96,273451,1,8,0:0:0:0:
192,96,273501,1,0,0:0:0:0:
192,96,273551,1,8,0:0:0:0:
192,96,273601,1,8,0:0:0:0:
192,96,273651,1,0,0:0:0:0:
192,96,273701,1,0,0:0:0:0:
192,96,273751,1,8,0:0:0:0:
192,96,273851,1,0,0:0:0:0:
256,64,273901,1,0,0:0:0:0:
192,96,273951,1,8,0:0:0:0:
192,96,274001,1,8,0:0:0:0:
192,96,274051,1,8,0:0:0:0:
192,64,274151,1,4,0:0:0:0:
288,64,274251,1,0,0:0:0:0:
224,96,274301,1,0,0:0:0:0:
224,96,274351,1,8,0:0:0:0:
224,96,274451,1,8,0:0:0:0:
224,96,274501,1,0,0:0:0:0:
224,96,274551,1,0,0:0:0:0:
224,96,274651,1,8,0:0:0:0:
224,96,274751,1,8,0:0:0:0:
224,96,274801,1,8,0:0:0:0:
224,96,274851,1,8,0:0:0:0:
224,96,274901,1,8,0:0:0:0:
224,96,274951,1,0,0:0:0:0:
192,128,275051,1,0,0:0:0:0:
192,128,275151,1,8,0:0:0:0:
224,64,275201,1,0,0:0:0:0:
192,128,275251,1,8,0:0:0:0:
192,128,275351,1,0,0:0:0:0:
192,128,275401,1,8,0:0:0:0:
192,128,275451,1,0,0:0:0:0:
192,128,275501,1,0,0:0:0:0:
192,128,275551,1,8,0:0:0:0:
192,128,275601,1,0,0:0:0:0:
192,128,275651,1,8,0:0:0:0:
192,128,275751,1,0,0:0:0:0:
192,128,275801,1,0,0:0:0:0:
192,128,275851,1,0,0:0:0:0:
192,128,275901,1,0,0:0:0:0:
192,128,275951,1,8,0:0:0:0:
192,128,276051,1,8,0:0:0:0:
192,128,276101,1,8,0:0:0:0:
192,128,276151,1,0,0:0:0:0:
192,128,276251,1,8,0:0:0:0:
192,64,276301,1,0,0:0:0:0:
192,96,276351,1,8,0:0:0:0:
192,96,276401,1,0,0:0:0:0:
192,96,276451,1,8,0:0:0:0:
192,96,276501,1,8,0:0:0:0:
192,96,276551,1,0,0:0:0:0:
192,96,276651,1,8,0:0:0:0:
192,96,276701,1,0,0:0:0:0:
192,96,276751,1,8,0:0:0:0:
192,96,276801,1,8,0:0:0:0:
192,96,276851,1,0,0:0:0:0:
192,96,276901,1,0,0:0:0:0:
192,96,276951,1,8,0:0:0:0:
192,96,277051,1,0,0:0:0:0:
192,96,277151,1,8,0:0:0:0:
192,96,277201,1,8,0:0:0:0:
192,96,277251,1,8,0:0:0:0:
224,64,277351,1,0,0:0:0:0:
224,64,277401,1,0,0:0:0:0:
224,64,277451,1,0,0:0:0:0:
224,96,277501,1,0,0:0:0:0:
224,96,277551,1,8,0:0:0:0:
224,96,277651,1,8,0:0:0:0:
224,96,277701,1,8,0:0:0:0:
224,96,277751,1,0,0:0:0:0:
224,96,277851,1,8,0:0:0:0:
224,96,277951,1,8,0:0:0:0:
224,96,278001,1,8,0:0:0:0:
224,96,278051,1,0,0:0:0:0:
224,96,278101,1,0,0:0:0:0:
224,96,278151,1,8,0:0:0:0:
224,64,278201,1,0,0:0:0:0:
192,128,278251,1,0,0:0:0:0:
224,64,278301,1,0,0:0:0:0:
192,128,278351,1,8,0:0:0:0:
224,64,278401,1,0,0:0:0:0:
192,128,278451,1,8,0:0:0:0:
192,128,278551,1,0,0:0:0:0:
192,128,278601,1,0,0:0:0:0:
192,128,278651,1,0,0:0:0:0:
192,128,278701,1,0,0:0:0:0:
192,128,278751,1,8,0:0:0:0:
192,128,278801,1,0,0:0:0:0:
192,128,278851,1,8,0:0:0:0:
192,128,278951,1,0,0:0:0:0:
192,128,279001,1,8,0:0:0:0:
192,128,279051,1,0,0:0:0:0:
192,128,279101,1,0,0:0:0:0:
192,128,279151,1,8,0:0:0:0:
192,128,279251,1,8,0:0:0:0:
192,128,279301,1,8,0:0:0:0:
192,128,279351,1,0,0:0:0:0:
192,128,279451,1,8,0:0:0:0:
256,64,279501,1,0,0:0:0:0:
192,96,279551,1,8,0:0:0:0:
192,96,279601,1,8,0:0:0:0:
192,96,279651,1,0,0:0:0:0:
192,96,279701,1,8,0:0:0:0:
192,96,279751,1,0,0:0:0:0:
192,96,279851,1,8,0:0:0:0:
192,96,279901,1,0,0:0:0:0:
192,96,279951,1,8,0:0:0:0:
192,96,280001,1,0,0:0:0:0:
192,96,280051,1,8,0:0:0:0:
192,96,280101,1,8,0:0:0:0:
192,96,280151,1,0,0:0:0:0:
256,64,280201,1,8,0:0:0:0:
192,96,280251,1,0,0:0:0:0:
256,64,280301,1,0,0:0:0:0:
192,96,280351,1,8,0:0:0:0:
192,96,280401,1,8,0:0:0:0:
192,96,280451,1,8,0:0:0:0:
224,64,280501,1,8,0:0:0:0:
192,96,280551,1,4,0:0:0:0:
192,96,282151,1,8,0:0:0:0:
192,96,282551,1,8,0:0:0:0:
192,96,282951,1,8,0:0:0:0:
192,96,283151,1,8,0:0:0:0:
192,96,283351,1,0,0:0:0:0:
192,96,283401,1,0,0:0:0:0:
192,96,283451,1,0,0:0:0:0:
192,96,283501,1,0,0:0:0:0:
192,96,283551,1,8,0:0:0:0:
192,96,283601,1,8,0:0:0:0:
192,96,283651,1,8,0:0:0:0:
192,96,283701,1,8,0:0:0:0:
192,96,283751,1,4,0:0:0:0:
224,96,284051,1,8,0:0:0:0:
224,96,284151,1,0,0:0:0:0:
224,96,284351,1,8,0:0:0:0:
224,96,284451,1,8,0:0:0:0:
192,96,284551,1,8,0:0:0:0:
224,64,284651,1,0,0:0:0:0:
192,96,284751,1,0,0:0:0:0:
192,64,284851,1,0,0:0:0:0:
192,32,284951,1,8,0:0:0:0:
192,32,285051,1,8,0:0:0:0:
192,32,285151,1,0,0:0:0:0:
192,64,285251,1,8,0:0:0:0:
192,64,285351,1,0,0:0:0:0:
192,64,285551,1,8,0:0:0:0:
192,64,285651,1,8,0:0:0:0:
192,64,285751,1,0,0:0:0:0:
192,64,285851,1,8,0:0:0:0:
192,64,285951,1,0,0:0:0:0:
192,64,286051,1,0,0:0:0:0:
192,64,286151,1,8,0:0:0:0:
192,64,286201,1,8,0:0:0:0:
192,64,286251,1,0,0:0:0:0:
192,64,286301,1,0,0:0:0:0:
192,64,286351,1,8,0:0:0:0:
192,64,286451,1,0,0:0:0:0:
192,64,286501,1,0,0:0:0:0:
192,64,286551,1,0,0:0:0:0:
192,64,286601,1,0,0:0:0:0:
192,64,286651,1,8,0:0:0:0:
192,64,286751,1,8,0:0:0:0:
192,64,286801,1,8,0:0:0:0:
192,64,286851,1,8,0:0:0:0:
192,64,286901,1,8,0:0:0:0:
192,64,286951,1,0,0:0:0:0:
192,64,287051,1,8,0:0:0:0:
192,64,287101,1,0,0:0:0:0:
192,64,287151,1,0,0:0:0:0:
192,64,287201,1,0,0:0:0:0:
192,64,287251,1,8,0:0:0:0:
192,64,287351,1,8,0:0:0:0:
192,64,287401,1,8,0:0:0:0:
192,64,287451,1,0,0:0:0:0:
192,64,287501,1,0,0:0:0:0:
192,64,287551,1,8,0:0:0:0:
192,64,287651,1,0,0:0:0:0:
192,64,287701,1,0,0:0:0:0:
192,64,287751,1,0,0:0:0:0:
192,64,287801,1,0,0:0:0:0:
192,64,287851,1,8,0:0:0:0:
192,64,287951,1,8,0:0:0:0:
192,64,288001,1,8,0:0:0:0:
192,64,288051,1,8,0:0:0:0:
192,64,288101,1,8,0:0:0:0:
192,64,288151,1,0,0:0:0:0:
192,64,288251,1,8,0:0:0:0:
192,64,288301,1,0,0:0:0:0:
192,64,288351,1,0,0:0:0:0:
192,64,288401,1,0,0:0:0:0:
192,64,288451,1,8,0:0:0:0:
192,64,288551,1,0,0:0:0:0:
192,64,288601,1,0,0:0:0:0:
192,64,288651,1,8,0:0:0:0:
192,64,288701,1,8,0:0:0:0:
192,64,288751,1,0,0:0:0:0:
192,64,288801,1,8,0:0:0:0:
192,64,288851,1,0,0:0:0:0:
192,64,288901,1,0,0:0:0:0:
192,64,288951,1,8,0:0:0:0:
192,64,289001,1,8,0:0:0:0:
192,64,289051,1,0,0:0:0:0:
192,64,289101,1,8,0:0:0:0:
192,64,289151,1,0,0:0:0:0:
192,64,289201,1,0,0:0:0:0:
192,64,289251,1,8,0:0:0:0:
192,64,289301,1,8,0:0:0:0:
192,64,289351,1,0,0:0:0:0:
192,64,289401,1,0,0:0:0:0:
192,64,289451,1,0,0:0:0:0:
192,64,289501,1,0,0:0:0:0:
192,64,289551,1,8,0:0:0:0:
192,64,289601,1,0,0:0:0:0:
192,64,289651,1,8,0:0:0:0:
192,64,289701,1,8,0:0:0:0:
192,64,289751,1,0,0:0:0:0:
192,64,289801,1,8,0:0:0:0:
192,64,289851,1,0,0:0:0:0:
192,64,289901,1,0,0:0:0:0:
192,64,289951,1,8,0:0:0:0:
192,64,290001,1,8,0:0:0:0:
192,64,290051,1,0,0:0:0:0:
192,64,290101,1,0,0:0:0:0:
192,64,290151,1,8,0:0:0:0:
192,64,290201,1,0,0:0:0:0:
192,64,290251,1,8,0:0:0:0:
192,64,290301,1,8,0:0:0:0:
192,64,290351,1,0,0:0:0:0:
192,64,290401,1,8,0:0:0:0:
192,64,290451,1,8,0:0:0:0:
192,64,290501,1,8,0:0:0:0:
192,64,290751,1,12,0:0:0:0:
256,192,290851,12,0,295151,0:0:0:0:
256,192,298856,5,0,0:0:0:0:
256,192,299385,1,0,0:0:0:0:
256,192,300091,1,8,0:0:0:0:
256,192,300974,1,8,0:0:0:0:
256,192,301358,1,0,0:0:0:0:
256,192,301743,1,8,0:0:0:0:
256,192,302127,1,0,0:0:0:0:
256,192,303281,1,0,0:0:0:0:
256,192,303666,1,0,0:0:0:0:
256,192,304050,1,0,0:0:0:0:
256,192,304435,1,8,0:0:0:0:
256,192,304820,1,8,0:0:0:0:
256,192,305204,1,0,0:0:0:0:
256,192,305589,1,8,0:0:0:0:
256,192,305974,1,0,0:0:0:0:
256,192,306358,1,8,0:0:0:0:
256,192,306743,1,0,0:0:0:0:
256,192,307897,1,0,0:0:0:0:
256,192,308281,1,0,0:0:0:0:
256,192,308666,1,0,0:0:0:0:
256,192,309050,1,8,0:0:0:0:
256,192,309435,1,8,0:0:0:0:
256,192,309820,1,0,0:0:0:0:
256,192,310204,1,8,0:0:0:0:
256,192,310614,1,0,0:0:0:0:
256,192,311025,1,8,0:0:0:0:
256,192,311436,1,0,0:0:0:0:
256,192,311847,1,8,0:0:0:0:
256,192,312258,1,8,0:0:0:0:
256,192,312669,1,8,0:0:0:0:
256,192,313097,1,0,0:0:0:0:
256,192,313526,1,8,0:0:0:0:
256,192,313954,1,0,0:0:0:0:
256,192,314383,1,0,0:0:0:0:
256,192,314811,1,8,0:0:0:0:
256,192,315240,1,8,0:0:0:0:
256,192,315701,1,0,0:0:0:0:
256,192,316163,1,0,0:0:0:0:
256,192,316624,1,8,0:0:0:0:
256,192,318009,1,0,0:0:0:0:
256,192,318554,1,0,0:0:0:0:
256,192,319099,1,0,0:0:0:0:
256,192,319645,1,8,0:0:0:0:
256,192,320736,1,8,0:0:0:0:
256,192,322372,1,8,0:0:0:0:
256,192,324554,1,8,0:0:0:0:
256,192,324827,1,0,0:0:0:0:
256,192,325099,1,8,0:0:0:0:
256,160,325236,1,0,0:0:0:0:
