osu file format v14

[General]
AudioFilename: audio.mp3
AudioLeadIn: 0
PreviewTime: 37811
Countdown: 0
SampleSet: Normal
StackLeniency: 0.7
Mode: 1
LetterboxInBreaks: 0
WidescreenStoryboard: 0

[Editor]
DistanceSpacing: 1.1
BeatDivisor: 8
GridSize: 4
TimelineZoom: 2.3

[Metadata]
Title:steganography
TitleUnicode:stεganography
Artist:aa...hisuichazuke...
ArtistUnicode:ああ…翡翠茶漬け…
Creator:Nifty
Version:Hypnerotomachia Poliphili
Source:osu!mania 4K World Cup 2022
Tags:ああああ aaaa 翡乃イスカ hino isuka hinoisuka 梅干茶漬け umeboshi chazuke fa featured artist 4kmwc mwc mwc22 grand finals custom tiebreaker tb chiptune artcore fa featured artist electronic instrumental
BeatmapID:3795985
BeatmapSetID:1847895

[Difficulty]
HPDrainRate:4.5
CircleSize:2
OverallDifficulty:7
ApproachRate:10
SliderMultiplier:1.4
SliderTickRate:1

[Events]
//Background and Video events
0,0,"steganosaurus.png",0,-10
//Break Periods
2,24685,29097
2,88761,96463
2,192372,198151
2,297555,300529
//Storyboard Layer 0 (Background)
//Storyboard Layer 1 (Fail)
//Storyboard Layer 2 (Pass)
//Storyboard Layer 3 (Foreground)
//Storyboard Layer 4 (Overlay)
//Storyboard Sound Samples

[TimingPoints]
485,750,4,1,0,20,1,0
19234,-100,4,1,0,20,0,0
19359,-98.49214,4,1,0,20,0,0
19484,-97.00702,4,1,0,20,0,0
19609,-95.54428,4,1,0,20,0,0
19734,-94.10361,4,1,0,20,0,0
19859,-92.684654,4,1,0,20,0,0
19984,-91.28709,4,1,0,20,0,0
20109,-89.91061,4,1,0,20,0,0
20234,-88.55488,4,1,0,20,0,0
20359,-87.2196,4,1,0,20,0,0
20484,-85.90444,4,1,0,20,0,0
20609,-84.60912,4,1,0,20,0,0
20734,-83.33333,4,1,0,20,0,0
20827,-83.77428,4,1,0,20,0,0
20921,-84.222336,4,1,0,20,0,0
21015,-84.67279,4,1,0,20,0,0
21109,-85.125656,4,1,0,20,0,0
21202,-85.57609,4,1,0,20,0,0
21296,-86.033775,4,1,0,20,0,0
21390,-86.49393,4,1,0,20,0,0
21484,-86.95652,4,1,0,20,0,0
21609,-85.1977,4,1,0,20,0,0
21734,-83.474464,4,1,0,20,0,0
21859,-81.78609,4,1,0,20,0,0
21984,-80.13185,4,1,0,20,0,0
22109,-78.51107,4,1,0,20,0,0
22234,-76.92308,4,1,0,20,0,0
22327,-77.77778,4,1,0,20,0,0
22421,-78.65132,4,1,0,20,0,0
22515,-79.53467,4,1,0,20,0,0
22609,-80.42794,4,1,0,20,0,0
22702,-81.32159,4,1,0,20,0,0
22796,-82.23492,4,1,0,20,0,0
22890,-83.15852,4,1,0,20,0,0
22984,-84.09249,4,1,0,20,0,0
23077,-85.02685,4,1,0,20,0,0
23171,-85.98181,4,1,0,20,0,0
23265,-86.94749,4,1,0,20,0,0
23359,-87.92402,4,1,0,20,0,0
23452,-88.90095,4,1,0,20,0,0
23546,-89.89941,4,1,0,20,0,0
23640,-90.90909,4,1,0,20,0,0
23921,-100,4,1,0,20,0,0
24109,-91.6118,4,1,0,20,0,0
24202,-87.72624,4,1,0,20,0,0
24296,-83.96635,4,1,0,20,0,0
24390,-80.367584,4,1,0,20,0,0
24484,-76.92308,4,1,0,20,0,0
27391,-90.9090952066118,4,1,0,20,0,0
29453,-111.111117530865,4,1,0,20,0,0
30485,230.769230769231,4,1,0,90,1,0
30485,-83.33332,4,1,0,90,0,0
30598,-87.38379,4,1,0,90,0,0
30656,-89.51952,4,1,0,90,0,0
30713,-91.6693,4,1,0,90,0,0
30829,-96.20501,4,1,0,90,0,0
30944,-100.92313,4,1,0,90,0,0
31059,-105.87263,4,1,0,90,0,0
31175,-111.111115,4,1,0,90,0,0
34176,-111.111115,4,1,0,90,0,0
34291,-110.169304,4,1,0,90,0,0
34407,-109.22739,4,1,0,90,0,0
34522,-108.30155,4,1,0,90,0,0
34753,-106.46546,4,1,0,90,0,0
34868,-105.563034,4,1,0,90,0,0
34984,-104.660515,4,1,0,90,0,0
35099,-103.77338,4,1,0,90,0,0
35214,-102.89376,4,1,0,90,0,0
35330,-102.01406,4,1,0,90,0,0
35445,-101.14936,4,1,0,90,0,0
35560,-100.29199,4,1,0,90,0,0
35676,-99.434525,4,1,0,90,0,0
35791,-98.59168,4,1,0,90,0,0
35907,-97.74877,4,1,0,90,0,0
36022,-96.92022,4,1,0,90,0,0
36080,-96.50502,4,1,0,90,0,0
36137,-96.098694,4,1,0,90,0,0
36195,-95.68702,4,1,0,90,0,0
36253,-95.277084,4,1,0,90,0,0
36368,-94.46949,4,1,0,90,0,0
36599,-92.86791,4,1,0,90,0,0
36714,-92.08074,4,1,0,90,0,0
36830,-91.293465,4,1,0,90,0,0
36887,-90.909096,4,1,0,90,0,0
36946,-50,4,1,0,90,0,0
37811,-100,4,1,0,90,0,0
44331,-125,4,1,0,60,0,0
44504,-142.857142857143,4,1,0,60,0,0
44763,-166.666666666666,4,1,0,60,0,0
45225,-99.9999999999999,4,1,0,90,0,0
56330,-100,4,1,0,90,0,0
56445,-98.88546,4,1,0,90,0,0
56503,-98.328064,4,1,0,90,0,0
56560,-97.78334,4,1,0,90,0,0
56676,-96.68408,4,1,0,90,0,0
56734,-96.13909,4,1,0,90,0,0
56791,-95.6065,4,1,0,90,0,0
56907,-94.531715,4,1,0,90,0,0
56964,-94.00802,4,1,0,90,0,0
57022,-93.47812,4,1,0,90,0,0
57137,-92.43627,4,1,0,90,0,0
57253,-91.397125,4,1,0,90,0,0
57310,-90.8908,4,1,0,90,0,0
57368,-90.37846,4,1,0,90,0,0
57426,-89.86902,4,1,0,90,0,0
57484,-89.36245,4,1,0,90,0,0
57541,-88.86739,4,1,0,90,0,0
57599,-88.36647,4,1,0,90,0,0
57657,-87.86837,4,1,0,90,0,0
57714,-87.38159,4,1,0,90,0,0
57772,-86.88904,4,1,0,90,0,0
57830,-86.39926,4,1,0,90,0,0
57887,-85.92063,4,1,0,90,0,0
57945,-85.43631,4,1,0,90,0,0
58003,-84.95473,4,1,0,90,0,0
58060,-84.484085,4,1,0,90,0,0
58118,-84.00787,4,1,0,90,0,0
58176,-83.53433,4,1,0,90,0,0
58253,-82.9098,4,1,0,90,0,0
58330,-82.28993,4,1,0,90,0,0
58407,-81.674706,4,1,0,90,0,0
58484,-81.06408,4,1,0,90,0,0
58560,-80.46584,4,1,0,90,0,0
58637,-79.86426,4,1,0,90,0,0
58714,-79.26716,4,1,0,90,0,0
58791,-78.67453,4,1,0,90,0,0
58868,-78.08633,4,1,0,90,0,0
58945,-77.502525,4,1,0,90,0,0
59022,-76.92309,4,1,0,90,0,0
59100,-100,4,1,0,90,0,0
59330,-71.42857,4,1,0,90,0,0
59387,-73.43591,4,1,0,90,0,0
59445,-75.53639,4,1,0,90,0,0
59503,-77.696945,4,1,0,90,0,0
59560,-79.88045,4,1,0,90,0,0
59618,-82.16526,4,1,0,90,0,0
59676,-84.51542,4,1,0,90,0,0
59734,-86.93281,4,1,0,90,0,0
59791,-89.37587,4,1,0,90,0,0
59849,-91.93227,4,1,0,90,0,0
59907,-94.5618,4,1,0,90,0,0
59964,-97.219246,4,1,0,90,0,0
60021,-100,4,1,0,80,0,0
60195,-104.03899,4,1,0,80,0,0
60368,-108.216484,4,1,0,80,0,0
60484,-111.111115,4,1,0,80,0,0
74560,-111.111115,4,1,0,80,0,0
74618,-108.2103,4,1,0,80,0,0
74676,-105.385216,4,1,0,80,0,0
74734,-102.633896,4,1,0,80,0,0
74791,-100,4,1,0,90,0,0
85407,-100,4,1,0,90,0,0
85464,-98.82846,4,1,0,90,0,0
85522,-97.65046,4,1,0,90,0,0
85580,-96.486496,4,1,0,90,0,0
85637,-95.35612,4,1,0,90,0,0
85695,-94.2195,4,1,0,90,0,0
85753,-93.096436,4,1,0,90,0,0
85810,-92.005775,4,1,0,90,0,0
85868,-90.90909,4,1,0,90,0,0
86100,-95.2380952380952,4,1,0,90,0,0
86158,-93.0232558139535,4,1,0,90,0,0
86215,-90.90909,4,1,0,90,0,0
86432,-95.2380952380952,4,1,0,90,0,0
86490,-93.0232558139535,4,1,0,90,0,0
86547,-90.90909,4,1,0,90,0,0
86778,-95.2380952380952,4,1,0,90,0,0
86836,-93.0232558139535,4,1,0,90,0,0
86893,-90.90909,4,1,0,90,0,0
87124,-95.2380952380952,4,1,0,90,0,0
87253,-90.90909,4,1,0,90,0,0
87330,-89.62661,4,1,0,90,0,0
87407,-88.36223,4,1,0,90,0,0
87484,-87.11568,4,1,0,90,0,0
87560,-85.902565,4,1,0,90,0,0
87637,-84.69071,4,1,0,90,0,0
87714,-83.49596,4,1,0,90,0,0
87791,-82.31806,4,1,0,90,0,0
87868,-81.156784,4,1,0,90,0,0
87945,-80.01188,4,1,0,90,0,0
88022,-78.88314,4,1,0,90,0,0
88099,-77.77031,4,1,0,90,0,0
88176,-76.67318,4,1,0,90,0,0
88253,-75.59154,4,1,0,90,0,0
88330,-74.52514,4,1,0,90,0,0
88407,-73.4738,4,1,0,90,0,0
88484,-72.43728,4,1,0,90,0,0
88560,-71.42857,4,1,0,90,0,0
88638,240,4,1,0,60,1,0
88638,-100,4,1,0,60,0,0
89598,244.897959183673,4,1,0,60,1,0
89598,-104.22721,4,1,0,60,0,0
90577,250,4,1,0,60,1,0
90577,-108.72034,4,1,0,60,0,0
91577,255.31914893617,4,1,0,60,1,0
91577,-113.5108,4,1,0,60,0,0
92598,260.869565217391,4,1,0,60,1,0
92598,-118.618454,4,1,0,60,0,0
93641,266.666666666667,4,1,0,60,1,0
93641,-124.072395,4,1,0,60,0,0
94707,272.727272727273,4,1,0,60,1,0
94707,-129.9046,4,1,0,60,0,0
95797,279.06976744186,4,1,0,70,1,0
95797,-136.15024,4,1,0,70,0,0
96913,285.714285714286,4,1,0,70,1,0
96913,-142.85715,4,1,0,70,0,0
97483,-138.8806,4,1,0,70,0,0
98054,-135.01474,4,1,0,70,0,0
98626,-131.25003,4,1,0,70,0,0
99197,-127.59659,4,1,0,70,0,0
99769,-124.0387,4,1,0,70,0,0
100340,-120.58599,4,1,0,70,0,0
100912,-117.223595,4,1,0,80,0,0
101054,-116.4035,4,1,0,80,0,0
101340,-114.769135,4,1,0,80,0,0
101483,-113.96058,4,1,0,80,0,0
101626,-113.15774,4,1,0,80,0,0
101769,-112.36051,4,1,0,80,0,0
101912,-111.56894,4,1,0,80,0,0
101983,-111.177986,4,1,0,80,0,0
102054,-110.78841,4,1,0,80,0,0
102126,-110.39473,4,1,0,80,0,0
102197,-110.00789,4,1,0,80,0,0
102340,-109.23287,4,1,0,80,0,0
102483,-108.463326,4,1,0,80,0,0
102626,-107.699196,4,1,0,80,0,0
102769,-106.94045,4,1,0,80,0,0
102912,-106.18706,4,1,0,80,0,0
103054,-105.44417,4,1,0,80,0,0
103126,-105.06948,4,1,0,80,0,0
103197,-104.70131,4,1,0,80,0,0
103269,-104.32927,4,1,0,80,0,0
103340,-103.963684,4,1,0,80,0,0
103483,-103.23125,4,1,0,80,0,0
103554,-102.869514,4,1,0,80,0,0
103697,-102.1448,4,1,0,80,0,0
103769,-101.78184,4,1,0,80,0,0
103912,-101.06478,4,1,0,80,0,0
104054,-100.35773,4,1,0,80,0,0
104197,-99.65071,4,1,0,80,0,0
104269,-99.29661,4,1,0,80,0,0
104340,-98.94866,4,1,0,80,0,0
104412,-98.59705,4,1,0,80,0,0
104483,-98.25156,4,1,0,80,0,0
104626,-97.559364,4,1,0,80,0,0
104769,-96.87206,4,1,0,80,0,0
104840,-96.5326,4,1,0,80,0,0
104912,-96.18958,4,1,0,80,0,0
104983,-95.85253,4,1,0,80,0,0
105054,-95.516655,4,1,0,80,0,0
105126,-95.17724,4,1,0,80,0,0
105197,-94.843735,4,1,0,80,0,0
105233,-94.67508,4,1,0,80,0,0
105269,-94.506714,4,1,0,80,0,0
105340,-94.17555,4,1,0,80,0,0
105412,-93.84091,4,1,0,80,0,0
105483,-93.512085,4,1,0,80,0,0
105519,-93.34579,4,1,0,80,0,0
105554,-93.1844,4,1,0,80,0,0
105626,-92.85329,4,1,0,80,0,0
105697,-92.52791,4,1,0,80,0,0
105769,-92.19912,4,1,0,80,0,0
105816,-91.98513,4,1,0,80,0,0
105864,-91.76709,4,1,0,80,0,0
105912,-91.54958,4,1,0,80,0,0
105959,-91.33708,4,1,0,80,0,0
106007,-91.12059,4,1,0,80,0,0
106054,-90.909096,4,1,0,70,0,0
106198,-95.2380952380952,4,1,0,70,0,0
106340,-100,4,1,0,70,0,0
106412,-98.779236,4,1,0,70,0,0
106483,-97.59001,4,1,0,70,0,0
106554,-96.41511,4,1,0,70,0,0
106626,-95.2381,4,1,0,70,0,0
106697,-96.39865,4,1,0,70,0,0
106769,-97.59001,4,1,0,70,0,0
106840,-98.779236,4,1,0,70,0,0
106912,-100,4,1,0,70,0,0
107055,-90.9090909090909,4,1,0,70,0,0
107151,-100,4,1,0,70,0,0
107293,-90.9090909090909,4,1,0,70,0,0
107626,-100,4,1,0,70,0,0
107697,-97.66168,4,1,0,70,0,0
107769,-95.34626,4,1,0,70,0,0
107840,-93.11675,4,1,0,70,0,0
107912,-90.90909,4,1,0,70,0,0
108466,-95.2380952380952,4,1,0,70,0,0
108608,-100,4,1,0,70,0,0
108680,-98.779236,4,1,0,70,0,0
108751,-97.59001,4,1,0,70,0,0
108822,-96.41511,4,1,0,70,0,0
108894,-95.2381,4,1,0,70,0,0
108965,-96.39865,4,1,0,70,0,0
109037,-97.59001,4,1,0,70,0,0
109108,-98.779236,4,1,0,70,0,0
109180,-100,4,1,0,70,0,0
109323,-90.9090909090909,4,1,0,70,0,0
109419,-100,4,1,0,70,0,0
109561,-90.9090909090909,4,1,0,70,0,0
109894,-100,4,1,0,70,0,0
109965,-97.66168,4,1,0,70,0,0
110037,-95.34626,4,1,0,70,0,0
110108,-93.11675,4,1,0,70,0,0
110180,-90.90909,4,1,0,70,0,0
110752,-95.2380952380952,4,1,0,70,0,0
110894,-100,4,1,0,70,0,0
110966,-98.779236,4,1,0,70,0,0
111037,-97.59001,4,1,0,70,0,0
111108,-96.41511,4,1,0,70,0,0
111180,-95.2381,4,1,0,70,0,0
111251,-96.39865,4,1,0,70,0,0
111323,-97.59001,4,1,0,70,0,0
111394,-98.779236,4,1,0,70,0,0
111466,-100,4,1,0,70,0,0
111609,-90.9090909090909,4,1,0,70,0,0
111705,-100,4,1,0,70,0,0
111847,-90.9090909090909,4,1,0,70,0,0
112180,-100,4,1,0,70,0,0
112251,-97.66168,4,1,0,70,0,0
112323,-95.34626,4,1,0,70,0,0
112394,-93.11675,4,1,0,70,0,0
112466,-90.90909,4,1,0,70,0,0
113038,-95.2380952380952,4,1,0,70,0,0
113180,-100,4,1,0,70,0,0
113252,-98.779236,4,1,0,70,0,0
113323,-97.59001,4,1,0,70,0,0
113394,-96.41511,4,1,0,70,0,0
113466,-95.2381,4,1,0,70,0,0
113537,-96.39865,4,1,0,70,0,0
113609,-97.59001,4,1,0,70,0,0
113680,-98.779236,4,1,0,70,0,0
113752,-100,4,1,0,70,0,0
113895,-90.9090909090909,4,1,0,70,0,0
114055,-71.4285714285714,4,1,0,70,0,0
114626,-111.111115,4,1,0,70,0,0
114697,-107.20677,4,1,0,70,0,0
114769,-103.38752,4,1,0,70,0,0
114840,-99.75458,4,1,0,70,0,0
114912,-96.20081,4,1,0,70,0,0
114983,-92.820404,4,1,0,70,0,0
115054,-89.55878,4,1,0,70,0,0
115126,-86.36823,4,1,0,70,0,0
115196,-83.333336,4,1,0,80,0,0
115340,-83.81315,4,1,0,80,0,0
115412,-84.054085,4,1,0,80,0,0
115483,-84.29235,4,1,0,80,0,0
115554,-84.531296,4,1,0,80,0,0
115626,-84.7743,4,1,0,80,0,0
115697,-85.01462,4,1,0,80,0,0
115769,-85.258995,4,1,0,80,0,0
115840,-85.50069,4,1,0,80,0,0
115912,-85.746475,4,1,0,80,0,0
115983,-85.98954,4,1,0,80,0,0
116054,-86.2333,4,1,0,80,0,0
116197,-86.72634,4,1,0,80,0,0
116269,-86.975655,4,1,0,80,0,0
116340,-87.222206,4,1,0,80,0,0
116483,-87.7209,4,1,0,80,0,0
116554,-87.969574,4,1,0,80,0,0
116626,-88.22245,4,1,0,80,0,0
116769,-88.726875,4,1,0,80,0,0
116840,-88.97839,4,1,0,80,0,0
116912,-89.23418,4,1,0,80,0,0
116983,-89.48714,4,1,0,80,0,0
117054,-89.74081,4,1,0,80,0,0
117126,-89.99878,4,1,0,80,0,0
117197,-90.2539,4,1,0,80,0,0
117269,-90.51335,4,1,0,80,0,0
117340,-90.769936,4,1,0,80,0,0
117412,-91.030876,4,1,0,80,0,0
117483,-91.28892,4,1,0,80,0,0
117626,-91.81086,4,1,0,80,0,0
117697,-92.07113,4,1,0,80,0,0
117769,-92.335815,4,1,0,80,0,0
117840,-92.59755,4,1,0,80,0,0
117912,-92.86375,4,1,0,80,0,0
117983,-93.12698,4,1,0,80,0,0
118054,-93.390976,4,1,0,80,0,0
118126,-93.65944,4,1,0,80,0,0
118197,-93.92495,4,1,0,80,0,0
118269,-94.19495,4,1,0,80,0,0
118340,-94.46197,4,1,0,80,0,0
118483,-95.00206,4,1,0,80,0,0
118554,-95.27136,4,1,0,80,0,0
118626,-95.545235,4,1,0,80,0,0
118769,-96.09153,4,1,0,80,0,0
118840,-96.363914,4,1,0,80,0,0
118912,-96.64094,4,1,0,80,0,0
119054,-97.189606,4,1,0,80,0,0
119126,-97.469,4,1,0,80,0,0
119197,-97.7453,4,1,0,80,0,0
119269,-98.02629,4,1,0,80,0,0
119340,-98.30417,4,1,0,80,0,0
119412,-98.586754,4,1,0,80,0,0
119483,-98.86622,4,1,0,80,0,0
119554,-99.14649,4,1,0,80,0,0
119626,-99.431496,4,1,0,80,0,0
119697,-99.71336,4,1,0,80,0,0
119769,-100.00001,4,1,0,80,0,0
123054,-100.00001,4,1,0,80,0,0
123125,-98.99846,4,1,0,80,0,0
123197,-97.99305,4,1,0,80,0,0
123269,-96.99785,4,1,0,80,0,0
123340,-96.02637,4,1,0,80,0,0
123412,-95.05115,4,1,0,80,0,0
123483,-94.09916,4,1,0,80,0,0
123554,-93.15672,4,1,0,80,0,0
123626,-92.210625,4,1,0,80,0,0
123697,-91.28711,4,1,0,80,0,0
123769,-90.360016,4,1,0,80,0,0
123912,-88.546524,4,1,0,80,0,0
123983,-87.65969,4,1,0,80,0,0
124054,-86.78172,4,1,0,80,0,0
124197,-85.04006,4,1,0,80,0,0
124339,-83.33334,4,1,0,90,0,0
124412,-83.57623,4,1,0,90,0,0
124483,-83.81315,4,1,0,90,0,0
124554,-84.050735,4,1,0,90,0,0
124626,-84.29236,4,1,0,90,0,0
124697,-84.531296,4,1,0,90,0,0
124769,-84.7743,4,1,0,90,0,0
124840,-85.01462,4,1,0,90,0,0
124912,-85.259,4,1,0,90,0,0
124983,-85.500694,4,1,0,90,0,0
125054,-85.74306,4,1,0,90,0,0
125126,-85.98955,4,1,0,90,0,0
125197,-86.2333,4,1,0,90,0,0
125269,-86.4812,4,1,0,90,0,0
125340,-86.72635,4,1,0,90,0,0
125412,-86.97566,4,1,0,90,0,0
125483,-87.22221,4,1,0,90,0,0
125554,-87.46947,4,1,0,90,0,0
125626,-87.72092,4,1,0,90,0,0
125697,-87.969574,4,1,0,90,0,0
125769,-88.22246,4,1,0,90,0,0
125840,-88.47254,4,1,0,90,0,0
125912,-88.72688,4,1,0,90,0,0
125983,-88.97839,4,1,0,90,0,0
126054,-89.23062,4,1,0,90,0,0
126126,-89.48714,4,1,0,90,0,0
126197,-89.74081,4,1,0,90,0,0
126269,-89.99878,4,1,0,90,0,0
126340,-90.25391,4,1,0,90,0,0
126412,-90.51336,4,1,0,90,0,0
126483,-90.769936,4,1,0,90,0,0
126554,-91.02725,4,1,0,90,0,0
126626,-91.28892,4,1,0,90,0,0
126697,-91.5477,4,1,0,90,0,0
126769,-91.810875,4,1,0,90,0,0
126840,-92.07113,4,1,0,90,0,0
126912,-92.335815,4,1,0,90,0,0
126983,-92.59756,4,1,0,90,0,0
127054,-92.86004,4,1,0,90,0,0
127126,-93.12698,4,1,0,90,0,0
127197,-93.390976,4,1,0,90,0,0
127269,-93.65944,4,1,0,90,0,0
127340,-93.92495,4,1,0,90,0,0
127412,-94.19495,4,1,0,90,0,0
127483,-94.46197,4,1,0,90,0,0
127554,-94.72974,4,1,0,90,0,0
127626,-95.00206,4,1,0,90,0,0
127697,-95.27136,4,1,0,90,0,0
127769,-95.545235,4,1,0,90,0,0
127840,-95.816086,4,1,0,90,0,0
127912,-96.09153,4,1,0,90,0,0
127983,-96.363914,4,1,0,90,0,0
128054,-96.637085,4,1,0,90,0,0
128126,-96.91488,4,1,0,90,0,0
128197,-97.189606,4,1,0,90,0,0
128269,-97.469,4,1,0,90,0,0
128340,-97.7453,4,1,0,90,0,0
128412,-98.02629,4,1,0,90,0,0
128483,-98.30417,4,1,0,90,0,0
128554,-98.582825,4,1,0,90,0,0
128626,-98.86622,4,1,0,90,0,0
128697,-99.14648,4,1,0,90,0,0
128769,-99.431496,4,1,0,90,0,0
128840,-99.71336,4,1,0,90,0,0
128912,-100.00001,4,1,0,90,0,0
132340,-100.00001,4,1,0,90,0,0
132412,-98.69588,4,1,0,90,0,0
132483,-97.426506,4,1,0,90,0,0
132554,-96.17346,4,1,0,90,0,0
132626,-94.919235,4,1,0,90,0,0
132697,-93.69843,4,1,0,90,0,0
132769,-92.47648,4,1,0,90,0,0
132840,-91.28711,4,1,0,90,0,0
132912,-90.0966,4,1,0,90,0,0
133054,-87.79395,4,1,0,90,0,0
133126,-86.649,4,1,0,90,0,0
133197,-85.53458,4,1,0,90,0,0
133340,-83.33334,4,1,0,90,0,0
133483,-76.92308,4,1,0,90,0,0
133554,-77.12294,4,1,0,90,0,0
133626,-77.32615,4,1,0,90,0,0
133697,-77.52705,4,1,0,90,0,0
133769,-77.73132,4,1,0,90,0,0
133840,-77.93328,4,1,0,90,0,0
133912,-78.13862,4,1,0,90,0,0
133983,-78.34163,4,1,0,90,0,0
134054,-78.54517,4,1,0,90,0,0
134126,-78.75213,4,1,0,90,0,0
134197,-78.95675,4,1,0,90,0,0
134269,-79.16478,4,1,0,90,0,0
134340,-79.37045,4,1,0,90,0,0
134412,-79.57959,4,1,0,90,0,0
134483,-79.786354,4,1,0,90,0,0
134554,-79.993645,4,1,0,90,0,0
134626,-80.204414,4,1,0,90,0,0
134697,-80.4128,4,1,0,90,0,0
134769,-80.62467,4,1,0,90,0,0
134840,-80.83415,4,1,0,90,0,0
134912,-81.04713,4,1,0,90,0,0
134983,-81.25771,4,1,0,90,0,0
135054,-81.46883,4,1,0,90,0,0
135126,-81.68349,4,1,0,90,0,0
135197,-81.89571,4,1,0,90,0,0
135269,-82.111496,4,1,0,90,0,0
135340,-82.32484,4,1,0,90,0,0
135412,-82.54174,4,1,0,90,0,0
135483,-82.7562,4,1,0,90,0,0
135554,-82.97122,4,1,0,90,0,0
135626,-83.189835,4,1,0,90,0,0
135697,-83.405975,4,1,0,90,0,0
135769,-83.625725,4,1,0,90,0,0
135840,-83.84301,4,1,0,90,0,0
135912,-84.06392,4,1,0,90,0,0
135983,-84.28233,4,1,0,90,0,0
136054,-84.50131,4,1,0,90,0,0
136126,-84.72396,4,1,0,90,0,0
136197,-84.944084,4,1,0,90,0,0
136269,-85.16789,4,1,0,90,0,0
136340,-85.389175,4,1,0,90,0,0
136412,-85.61416,4,1,0,90,0,0
136483,-85.83661,4,1,0,90,0,0
136554,-86.059616,4,1,0,90,0,0
136626,-86.28637,4,1,0,90,0,0
136697,-86.51056,4,1,0,90,0,0
136769,-86.738495,4,1,0,90,0,0
136840,-86.96385,4,1,0,90,0,0
136912,-87.192986,4,1,0,90,0,0
136983,-87.41953,4,1,0,90,0,0
137054,-87.64667,4,1,0,90,0,0
137126,-87.877594,4,1,0,90,0,0
137197,-88.10591,4,1,0,90,0,0
137269,-88.33806,4,1,0,90,0,0
137340,-88.56757,4,1,0,90,0,0
137412,-88.800934,4,1,0,90,0,0
137483,-89.031654,4,1,0,90,0,0
137554,-89.26298,4,1,0,90,0,0
137626,-89.49817,4,1,0,90,0,0
137697,-89.7307,4,1,0,90,0,0
137769,-89.96713,4,1,0,90,0,0
137840,-90.200874,4,1,0,90,0,0
137912,-90.43853,4,1,0,90,0,0
137983,-90.67351,4,1,0,90,0,0
138054,-90.909096,4,1,0,90,0,0
138126,-90.784615,4,1,0,90,0,0
138197,-90.662025,4,1,0,90,0,0
138269,-90.53789,4,1,0,90,0,0
138340,-90.415634,4,1,0,90,0,0
138412,-90.29182,4,1,0,90,0,0
138483,-90.16989,4,1,0,90,0,0
138554,-90.04815,4,1,0,90,0,0
138626,-89.92483,4,1,0,90,0,0
138697,-89.803406,4,1,0,90,0,0
138769,-89.68044,4,1,0,90,0,0
138840,-89.55934,4,1,0,90,0,0
138912,-89.43671,4,1,0,90,0,0
138983,-89.31594,4,1,0,90,0,0
139054,-89.19534,4,1,0,90,0,0
139126,-89.0732,4,1,0,90,0,0
139197,-88.95292,4,1,0,90,0,0
139269,-88.83112,4,1,0,90,0,0
139340,-88.71117,4,1,0,90,0,0
139412,-88.58969,4,1,0,90,0,0
139483,-88.47007,4,1,0,90,0,0
139554,-88.3506,4,1,0,90,0,0
139626,-88.22962,4,1,0,90,0,0
139697,-88.1105,4,1,0,90,0,0
139769,-87.98984,4,1,0,90,0,0
139840,-87.871025,4,1,0,90,0,0
139912,-87.7507,4,1,0,90,0,0
139983,-87.63221,4,1,0,90,0,0
140054,-87.51388,4,1,0,90,0,0
140126,-87.39404,4,1,0,90,0,0
140197,-87.27603,4,1,0,90,0,0
140269,-87.156525,4,1,0,90,0,0
140340,-87.03883,4,1,0,90,0,0
140412,-86.91965,4,1,0,90,0,0
140483,-86.802284,4,1,0,90,0,0
140554,-86.68508,4,1,0,90,0,0
140626,-86.566376,4,1,0,90,0,0
140697,-86.44948,4,1,0,90,0,0
140769,-86.33111,4,1,0,90,0,0
140840,-86.21453,4,1,0,90,0,0
140912,-86.09648,4,1,0,90,0,0
140983,-85.980225,4,1,0,90,0,0
141054,-85.86411,4,1,0,90,0,0
141126,-85.74654,4,1,0,90,0,0
141197,-85.63076,4,1,0,90,0,0
141269,-85.513504,4,1,0,90,0,0
141340,-85.39803,4,1,0,90,0,0
141412,-85.2811,4,1,0,90,0,0
141483,-85.16594,4,1,0,90,0,0
141554,-85.05095,4,1,0,90,0,0
141626,-84.93448,4,1,0,90,0,0
141697,-84.81979,4,1,0,90,0,0
141769,-84.70365,4,1,0,90,0,0
141840,-84.58927,4,1,0,90,0,0
141912,-84.47344,4,1,0,90,0,0
141983,-84.35937,4,1,0,90,0,0
142054,-84.24546,4,1,0,90,0,0
142126,-84.1301,4,1,0,90,0,0
142197,-84.0165,4,1,0,90,0,0
142269,-83.90145,4,1,0,90,0,0
142340,-83.788155,4,1,0,90,0,0
142412,-83.67342,4,1,0,90,0,0
142483,-83.56045,4,1,0,90,0,0
142554,-83.44762,4,1,0,90,0,0
142625,-83.33334,4,1,0,90,0,0
142769,-81.12419,4,1,0,90,0,0
142840,-80.05661,4,1,0,90,0,0
142983,-77.94887,4,1,0,90,0,0
143054,-76.92308,4,1,0,90,0,0
143197,-83.333336,4,1,0,90,0,0
143269,-81.67092,4,1,0,90,0,0
143340,-80.06409,4,1,0,90,0,0
143412,-78.46689,4,1,0,90,0,0
143483,-76.92308,4,1,0,90,0,0
143626,-83.333336,4,1,0,90,0,0
143697,-81.69379,4,1,0,90,0,0
143769,-80.06409,4,1,0,90,0,0
143840,-78.488846,4,1,0,90,0,0
143912,-76.92308,4,1,0,90,0,0
144054,-83.333336,4,1,0,90,0,0
144126,-82.49795,4,1,0,90,0,0
144269,-80.86351,4,1,0,90,0,0
144340,-80.06409,4,1,0,90,0,0
144412,-79.26146,4,1,0,90,0,0
144483,-78.47787,4,1,0,90,0,0
144554,-77.70202,4,1,0,90,0,0
144626,-76.92308,4,1,0,90,0,0
144769,-83.333336,4,1,0,90,0,0
144840,-81.68808,4,1,0,90,0,0
144912,-80.05285,4,1,0,90,0,0
144983,-78.47235,4,1,0,90,0,0
145054,-76.92308,4,1,0,90,0,0
145196,-83.333336,4,1,0,90,0,0
145268,-82.26106,4,1,0,90,0,0
145411,-80.17214,4,1,0,90,0,0
145482,-79.154785,4,1,0,90,0,0
145553,-78.150314,4,1,0,90,0,0
145625,-77.14474,4,1,0,90,0,0
145696,-76.165794,4,1,0,90,0,0
145768,-75.18574,4,1,0,90,0,0
145911,-73.2765,4,1,0,90,0,0
146052,-71.42857,4,1,0,90,0,0
146125,-74.28485,4,1,0,90,0,0
146196,-77.1724,4,1,0,90,0,0
146268,-80.21526,4,1,0,90,0,0
146339,-83.333336,4,1,0,90,0,0
146482,-71.42857,4,1,0,90,0,0
146553,-73.16221,4,1,0,90,0,0
146625,-74.96325,4,1,0,90,0,0
146696,-76.78267,4,1,0,90,0,0
146768,-78.67284,4,1,0,90,0,0
146839,-80.5823,4,1,0,90,0,0
146982,-84.56995,4,1,0,90,0,0
147053,-86.622536,4,1,0,90,0,0
147125,-88.75494,4,1,0,90,0,0
147196,-90.909096,4,1,0,90,0,0
147269,-90.5645,4,1,0,90,0,0
147340,-90.22595,4,1,0,90,0,0
147412,-89.88395,4,1,0,90,0,0
147483,-89.54796,4,1,0,90,0,0
147554,-89.21322,4,1,0,90,0,0
147626,-88.87504,4,1,0,90,0,0
147697,-88.54282,4,1,0,90,0,0
147769,-88.20719,4,1,0,90,0,0
147840,-87.87746,4,1,0,90,0,0
147912,-87.54436,4,1,0,90,0,0
147983,-87.2171,4,1,0,90,0,0
148054,-86.891075,4,1,0,90,0,0
148126,-86.5617,4,1,0,90,0,0
148197,-86.23813,4,1,0,90,0,0
148269,-85.91124,4,1,0,90,0,0
148340,-85.590096,4,1,0,90,0,0
148412,-85.265656,4,1,0,90,0,0
148483,-84.94692,4,1,0,90,0,0
148554,-84.62939,4,1,0,90,0,0
148626,-84.308586,4,1,0,90,0,0
148697,-83.99344,4,1,0,90,0,0
148769,-83.67505,4,1,0,90,0,0
148840,-83.36226,4,1,0,90,0,0
148912,-83.04627,4,1,0,90,0,0
148983,-82.73584,4,1,0,90,0,0
149054,-82.42657,4,1,0,90,0,0
149126,-82.11411,4,1,0,90,0,0
149197,-81.80717,4,1,0,90,0,0
149269,-81.49706,4,1,0,90,0,0
149340,-81.19241,4,1,0,90,0,0
149412,-80.88464,4,1,0,90,0,0
149483,-80.5823,4,1,0,90,0,0
149554,-80.281075,4,1,0,90,0,0
149626,-79.97675,4,1,0,90,0,0
149697,-79.6778,4,1,0,90,0,0
149769,-79.37578,4,1,0,90,0,0
149840,-79.079056,4,1,0,90,0,0
149912,-78.77929,4,1,0,90,0,0
149983,-78.48481,4,1,0,90,0,0
150054,-78.191444,4,1,0,90,0,0
150126,-77.89504,4,1,0,90,0,0
150197,-77.60387,4,1,0,90,0,0
150269,-77.30969,4,1,0,90,0,0
150340,-77.0207,4,1,0,90,0,0
150412,-76.72875,4,1,0,90,0,0
150483,-76.44193,4,1,0,90,0,0
150554,-76.15618,4,1,0,90,0,0
150626,-75.86751,4,1,0,90,0,0
150697,-75.5839,4,1,0,90,0,0
150769,-75.29739,4,1,0,90,0,0
150804,-75.158516,4,1,0,90,0,0
150840,-75.01593,4,1,0,90,0,0
150912,-74.73157,4,1,0,90,0,0
150983,-74.452225,4,1,0,90,0,0
151054,-74.17391,4,1,0,90,0,0
151090,-74.0332,4,1,0,90,0,0
151126,-73.89275,4,1,0,90,0,0
151197,-73.61653,4,1,0,90,0,0
151269,-73.33748,4,1,0,90,0,0
151340,-73.06334,4,1,0,90,0,0
151412,-72.78638,4,1,0,90,0,0
151483,-72.5143,4,1,0,90,0,0
151554,-72.24323,4,1,0,90,0,0
151626,-71.96938,4,1,0,90,0,0
151697,-71.70036,4,1,0,90,0,0
151769,-55.555554691358,4,1,0,100,0,0
152055,-71.42857,4,1,0,100,0,0
152198,-62.49999890625,4,1,0,100,0,0
152484,-83.3333313888889,4,1,0,100,0,0
152627,-71.4285714285714,4,1,0,100,0,0
152840,-100,4,1,0,90,0,0
152912,-99.552826,4,1,0,90,0,0
153054,-98.67675,4,1,0,90,0,0
153197,-97.80229,4,1,0,90,0,0
153340,-96.935585,4,1,0,90,0,0
153412,-96.50211,4,1,0,90,0,0
153483,-96.07656,4,1,0,90,0,0
153626,-95.22515,4,1,0,90,0,0
153769,-94.38128,4,1,0,90,0,0
153840,-93.96507,4,1,0,90,0,0
153983,-93.13238,4,1,0,90,0,0
154054,-92.72168,4,1,0,90,0,0
154197,-91.9,4,1,0,90,0,0
154269,-91.48904,4,1,0,90,0,0
154340,-91.085594,4,1,0,90,0,0
154483,-90.27841,4,1,0,90,0,0
154626,-89.47838,4,1,0,90,0,0
154697,-89.0838,4,1,0,90,0,0
154769,-88.68543,4,1,0,90,0,0
154840,-88.29435,4,1,0,90,0,0
154912,-87.89952,4,1,0,90,0,0
154983,-87.5119,4,1,0,90,0,0
155054,-87.126,4,1,0,90,0,0
155126,-86.7364,4,1,0,90,0,0
155340,-85.588646,4,1,0,90,0,0
155412,-85.20592,4,1,0,90,0,0
155483,-84.83017,4,1,0,90,0,0
155554,-84.45609,4,1,0,90,0,0
155626,-84.07842,4,1,0,90,0,0
155697,-83.70766,4,1,0,90,0,0
155768,-83.333336,4,1,0,90,0,0
155840,-85.54569,4,1,0,90,0,0
155912,-87.816765,4,1,0,90,0,0
155983,-90.11535,4,1,0,90,0,0
156054,-92.47409,4,1,0,90,0,0
156126,-94.92911,4,1,0,90,0,0
156197,-97.41384,4,1,0,90,0,0
156269,-100.00001,4,1,0,90,0,0
156341,-55.5555586419752,4,1,0,100,0,0
156627,-71.4285765306121,4,1,0,100,0,0
156770,-62.5000039062499,4,1,0,100,0,0
157055,-83.3333402777777,4,1,0,100,0,0
157198,-71.4285765306121,4,1,0,100,0,0
157483,-100,4,1,0,90,0,0
157626,-98.81339,4,1,0,90,0,0
157697,-98.22948,4,1,0,90,0,0
157769,-97.64087,4,1,0,90,0,0
157840,-97.06388,4,1,0,90,0,0
157912,-96.482254,4,1,0,90,0,0
157983,-95.91212,4,1,0,90,0,0
158054,-95.34535,4,1,0,90,0,0
158197,-94.213974,4,1,0,90,0,0
158340,-93.09602,4,1,0,90,0,0
158412,-92.53817,4,1,0,90,0,0
158483,-91.99135,4,1,0,90,0,0
158626,-90.89977,4,1,0,90,0,0
158769,-89.821144,4,1,0,90,0,0
158912,-88.75532,4,1,0,90,0,0
158983,-88.23084,4,1,0,90,0,0
159054,-87.709465,4,1,0,90,0,0
159126,-87.18389,4,1,0,90,0,0
159197,-86.6687,4,1,0,90,0,0
159269,-86.14936,4,1,0,90,0,0
159340,-85.64028,4,1,0,90,0,0
159412,-85.127106,4,1,0,90,0,0
159483,-84.62407,4,1,0,90,0,0
159554,-84.124,4,1,0,90,0,0
159626,-83.61991,4,1,0,90,0,0
159912,-81.64721,4,1,0,90,0,0
159983,-81.164734,4,1,0,90,0,0
160054,-80.685104,4,1,0,90,0,0
160126,-80.20162,4,1,0,90,0,0
160197,-79.7277,4,1,0,90,0,0
160269,-79.24995,4,1,0,90,0,0
160340,-78.78164,4,1,0,90,0,0
160412,-78.30956,4,1,0,90,0,0
160483,-77.84682,4,1,0,90,0,0
160554,-77.38679,4,1,0,90,0,0
160625,-71.4285740816327,4,1,0,90,0,0
160673,-72.7402452598342,4,1,0,90,0,0
160721,-74.0740740740741,4,1,0,90,0,0
160895,-55.5555555555556,4,1,0,100,0,0
161198,-71.4285714285714,4,1,0,100,0,0
161341,-62.5,4,1,0,100,0,0
161627,-83.3333333333333,4,1,0,100,0,0
161770,-71.4285714285714,4,1,0,100,0,0
162054,-100,4,1,0,90,0,0
162197,-99.0919,4,1,0,90,0,0
162340,-98.192055,4,1,0,90,0,0
162483,-97.30038,4,1,0,90,0,0
162554,-96.860664,4,1,0,90,0,0
162626,-96.416794,4,1,0,90,0,0
162769,-95.54123,4,1,0,90,0,0
162912,-94.67363,4,1,0,90,0,0
162983,-94.24578,4,1,0,90,0,0
163126,-93.389946,4,1,0,90,0,0
163197,-92.96791,4,1,0,90,0,0
163340,-92.123665,4,1,0,90,0,0
163412,-91.70151,4,1,0,90,0,0
163483,-91.2871,4,1,0,90,0,0
163626,-90.458115,4,1,0,90,0,0
163769,-89.63667,4,1,0,90,0,0
163840,-89.2316,4,1,0,90,0,0
163912,-88.822685,4,1,0,90,0,0
163983,-88.42129,4,1,0,90,0,0
164126,-87.61833,4,1,0,90,0,0
164197,-87.22238,4,1,0,90,0,0
164269,-86.82268,4,1,0,90,0,0
164340,-86.43031,4,1,0,90,0,0
164483,-85.64544,4,1,0,90,0,0
164554,-85.25841,4,1,0,90,0,0
164626,-84.8677,4,1,0,90,0,0
164697,-84.48418,4,1,0,90,0,0
164769,-84.09702,4,1,0,90,0,0
164840,-83.71698,4,1,0,90,0,0
164912,-83.333336,4,1,0,90,0,0
164983,-85.51898,4,1,0,90,0,0
165054,-87.76195,4,1,0,90,0,0
165126,-90.09659,4,1,0,90,0,0
165197,-92.45961,4,1,0,90,0,0
165269,-94.91923,4,1,0,90,0,0
165340,-97.40873,4,1,0,90,0,0
165412,-100,4,1,0,90,0,0
165484,-55.5555555555556,4,1,0,100,0,0
165770,-71.4285714285714,4,1,0,100,0,0
165913,-62.5,4,1,0,100,0,0
166198,-83.3333333333333,4,1,0,100,0,0
166341,-71.4285714285714,4,1,0,100,0,0
166626,-100,4,1,0,90,0,0
166769,-98.8071,4,1,0,90,0,0
166840,-98.220116,4,1,0,90,0,0
166912,-97.628426,4,1,0,90,0,0
166983,-97.048454,4,1,0,90,0,0
167054,-96.47191,4,1,0,90,0,0
167126,-95.89075,4,1,0,90,0,0
167197,-95.32109,4,1,0,90,0,0
167340,-94.184006,4,1,0,90,0,0
167483,-93.060486,4,1,0,90,0,0
167554,-92.507645,4,1,0,90,0,0
167626,-91.95036,4,1,0,90,0,0
167769,-90.853485,4,1,0,90,0,0
167912,-89.76969,4,1,0,90,0,0
167983,-89.2364,4,1,0,90,0,0
168054,-88.706276,4,1,0,90,0,0
168197,-87.648094,4,1,0,90,0,0
168340,-86.60254,4,1,0,90,0,0
168412,-86.08084,4,1,0,90,0,0
168483,-85.56945,4,1,0,90,0,0
168554,-85.06111,4,1,0,90,0,0
168626,-84.5487,4,1,0,90,0,0
168697,-84.04642,4,1,0,90,0,0
168769,-83.540115,4,1,0,90,0,0
168912,-82.54356,4,1,0,90,0,0
168983,-82.05319,4,1,0,90,0,0
169054,-81.565735,4,1,0,90,0,0
169126,-81.07439,4,1,0,90,0,0
169197,-80.59274,4,1,0,90,0,0
169269,-80.107254,4,1,0,90,0,0
169340,-79.63135,4,1,0,90,0,0
169412,-79.15164,4,1,0,90,0,0
169483,-78.68143,4,1,0,90,0,0
169554,-78.214,4,1,0,90,0,0
169626,-77.742836,4,1,0,90,0,0
169697,-77.28099,4,1,0,90,0,0
169769,-76.81544,4,1,0,90,0,0
169840,-76.3591,4,1,0,90,0,0
169912,-75.8991,4,1,0,90,0,0
169983,-75.44821,4,1,0,90,0,0
170055,300,4,1,0,50,1,0
170055,-71.42857,4,1,0,50,0,0
170936,-125,4,1,0,50,0,0
171404,-125,4,1,0,50,0,0
171479,-123.02344,4,1,0,50,0,0
171554,-121.07813,4,1,0,50,0,0
171629,-119.1636,4,1,0,50,0,0
171704,-117.27932,4,1,0,50,0,0
171779,-115.42484,4,1,0,50,0,0
171854,-113.599686,4,1,0,50,0,0
171929,-111.8034,4,1,0,50,0,0
172004,-110.035515,4,1,0,50,0,0
172079,-108.29558,4,1,0,50,0,0
172154,-106.58315,4,1,0,50,0,0
172204,-105.45661,4,1,0,50,0,0
172254,-104.34197,4,1,0,50,0,0
172304,-103.23913,4,1,0,50,0,0
172354,-102.14792,4,1,0,50,0,0
172404,-101.06826,4,1,0,50,0,0
172454,-100,4,1,0,50,0,0
172752,-90.88476,4,1,0,50,0,0
172827,-91.80125,4,1,0,50,0,0
172902,-92.72699,4,1,0,50,0,0
172977,-93.66205,4,1,0,50,0,0
173052,-94.60653,4,1,0,50,0,0
173127,-95.56055,4,1,0,50,0,0
173202,-96.52419,4,1,0,50,0,0
173277,-97.49754,4,1,0,50,0,0
173352,-98.48071,4,1,0,50,0,0
173427,-99.47379,4,1,0,50,0,0
173502,-100.4769,4,1,0,50,0,0
173577,-101.490105,4,1,0,50,0,0
173652,-102.51354,4,1,0,50,0,0
173727,-103.54729,4,1,0,50,0,0
173802,-104.59146,4,1,0,50,0,0
173877,-105.64617,4,1,0,50,0,0
173952,-106.71151,4,1,0,50,0,0
174027,-107.7876,4,1,0,50,0,0
174102,-108.874535,4,1,0,50,0,0
174177,-109.97242,4,1,0,50,0,0
174252,-111.08139,4,1,0,50,0,0
174554,-125.00001,4,1,0,50,0,0
174604,-121.47059,4,1,0,50,0,0
174654,-118.04081,4,1,0,50,0,0
174704,-114.707855,4,1,0,50,0,0
174754,-111.46905,4,1,0,50,0,0
174804,-108.321655,4,1,0,50,0,0
174855,315.789473684211,4,1,0,50,1,0
174855,-100,4,1,0,50,0,0
175011,-103.55904,4,1,0,50,0,0
175169,-107.26863,4,1,0,50,0,0
175248,-109.17296,4,1,0,50,0,0
175327,-111.11111,4,1,0,50,0,0
175643,-125,4,1,0,50,0,0
175722,-120.43656,4,1,0,50,0,0
175801,-116.03973,4,1,0,50,0,0
175880,-111.80339,4,1,0,50,0,0
175959,-107.72174,4,1,0,50,0,0
176038,-103.78907,4,1,0,50,0,0
176117,-100,4,1,0,50,0,0
176275,-103.5821,4,1,0,50,0,0
176354,-105.421,4,1,0,50,0,0
176432,-107.26863,4,1,0,50,0,0
176590,-111.11111,4,1,0,50,0,0
176748,-90.90909,4,1,0,50,0,0
176801,-92.872025,4,1,0,50,0,0
176854,-94.87734,4,1,0,50,0,0
176906,-96.88691,4,1,0,50,0,0
176985,-100.02166,4,1,0,50,0,0
177064,-103.25782,4,1,0,50,0,0
177117,-105.4874,4,1,0,50,0,0
177169,-107.72169,4,1,0,50,0,0
177222,-110.04766,4,1,0,50,0,0
177301,-113.60821,4,1,0,50,0,0
177381,333.333333333333,4,1,0,50,1,0
177381,-111.111115,4,1,0,50,0,0
177546,-107.29167,4,1,0,50,0,0
177630,-105.409256,4,1,0,50,0,0
177713,-103.58169,4,1,0,50,0,0
177796,-101.78581,4,1,0,50,0,0
177880,-99.999985,4,1,0,50,0,0
178046,-103.559875,4,1,0,50,0,0
178130,-105.409256,4,1,0,50,0,0
178213,-107.269066,4,1,0,50,0,0
178296,-109.16169,4,1,0,50,0,0
178380,-111.111115,4,1,0,50,0,0
178713,-125.000015,4,1,0,50,0,0
178880,-121.55395,4,1,0,50,0,0
179046,-118.22266,4,1,0,50,0,0
179213,-114.963425,4,1,0,50,0,0
179380,-111.79405,4,1,0,50,0,0
179546,-108.73025,4,1,0,50,0,0
179713,-105.73271,4,1,0,50,0,0
179880,-102.8178,4,1,0,50,0,0
180046,-100,4,1,0,50,0,0
180380,-125,4,1,0,50,0,0
180491,-121.941925,4,1,0,50,0,0
180602,-118.95863,4,1,0,50,0,0
180713,-116.048355,4,1,0,50,0,0
180824,-113.20927,4,1,0,50,0,0
180935,-110.439644,4,1,0,50,0,0
181046,-107.73776,4,1,0,50,0,0
181157,-105.102,4,1,0,50,0,0
181268,-102.5307,4,1,0,50,0,0
181380,-100,4,1,0,50,0,0
181713,-125,4,1,0,50,0,0
181824,-121.941925,4,1,0,50,0,0
181935,-118.95863,4,1,0,50,0,0
182046,-116.048355,4,1,0,50,0,0
182157,-113.20927,4,1,0,50,0,0
182268,-110.439644,4,1,0,50,0,0
182380,-107.71373,4,1,0,50,0,0
182491,-105.07854,4,1,0,50,0,0
182602,-102.50782,4,1,0,50,0,0
182713,-100,4,1,0,50,0,0
182935,-90.90909,4,1,0,50,0,0
182991,-92.39096,4,1,0,50,0,0
183046,-93.86987,4,1,0,50,0,0
183102,-95.40001,4,1,0,50,0,0
183157,-96.9271,4,1,0,50,0,0
183213,-98.50706,4,1,0,50,0,0
183268,-100.083885,4,1,0,50,0,0
183324,-101.71531,4,1,0,50,0,0
183380,-103.37334,4,1,0,50,0,0
183463,-105.88059,4,1,0,50,0,0
183546,-108.44867,4,1,0,50,0,0
183630,-111.111115,4,1,0,50,0,0
183796,-111.111115,4,1,0,50,0,0
183880,-107.24647,4,1,0,50,0,0
183963,-103.55986,4,1,0,50,0,0
184046,-99.999985,4,1,0,50,0,0
184463,-125,4,1,0,50,0,0
184714,363.636363636364,4,1,0,50,1,8
184714,-111.535416,4,1,0,50,0,8
184834,-110.08947,4,1,0,50,0,8
184955,-108.66226,4,1,0,50,0,8
185076,-107.25358,4,1,0,50,0,8
185197,-105.863144,4,1,0,50,0,8
185319,-104.47947,4,1,0,50,0,8
185441,375,4,1,0,50,1,0
185441,-100,4,1,0,50,0,0
186331,-111.111115,4,1,0,30,0,0
186690,-114.66288,4,1,0,30,0,0
186941,387.096774193548,4,1,0,30,1,0
186941,-114.63043,4,1,0,30,0,0
187714,-126.359474,4,1,0,30,0,0
188489,400,4,1,0,30,1,0
188489,-134.79547,4,1,0,30,0,0
189288,-149.07484,4,1,0,30,0,0
190089,413.793103448276,4,1,0,30,1,0
190089,-159.37137,4,1,0,30,0,0
190915,-176.85416,4,1,0,30,0,0
191744,428.571428571429,4,1,0,30,1,8
192172,428.571428571429,4,1,0,30,1,0
192172,-200.00003,4,1,0,30,0,0
193814,-181.818181818182,4,1,0,30,0,0
195545,-142.857142857143,4,1,0,30,0,0
197217,-111.111111111111,4,1,0,50,0,0
198601,222.222222222222,4,1,0,60,1,0
198601,-125,4,1,0,60,0,0
212155,-125,4,1,0,60,0,0
212211,-122.67997,4,1,0,60,0,0
212266,-120.443275,4,1,0,60,0,0
212322,-118.20781,4,1,0,60,0,0
212377,-116.05267,4,1,0,60,0,0
212433,-113.8987,4,1,0,60,0,0
212488,-111.822105,4,1,0,60,0,0
212544,-109.74665,4,1,0,60,0,0
212600,-107.70972,4,1,0,60,0,0
212655,-105.74597,4,1,0,60,0,0
212711,-103.783295,4,1,0,60,0,0
212766,-101.891136,4,1,0,60,0,0
212822,-100,4,1,0,100,0,0
226599,-100,4,1,0,100,0,0
226674,-98.40648,4,1,0,100,0,0
226748,-96.8591,4,1,0,100,0,0
226822,-95.336044,4,1,0,100,0,0
226896,-93.836945,4,1,0,100,0,0
226970,-92.36141,4,1,0,100,0,0
227044,-90.90909,4,1,0,100,0,0
237710,-90.90909,4,1,0,100,0,0
237784,-90.68979,4,1,0,100,0,0
237858,-90.47103,4,1,0,100,0,0
237932,-90.252785,4,1,0,100,0,0
238006,-90.03508,4,1,0,100,0,0
238080,-89.81789,4,1,0,100,0,0
238154,-89.60122,4,1,0,100,0,0
238228,-89.385086,4,1,0,100,0,0
238302,-89.16947,4,1,0,100,0,0
238376,-88.95435,4,1,0,100,0,0
238450,-88.73978,4,1,0,100,0,0
238524,-88.52571,4,1,0,100,0,0
238598,-88.312164,4,1,0,100,0,0
238673,-88.09626,4,1,0,100,0,0
238747,-87.88375,4,1,0,100,0,0
238821,-87.67175,4,1,0,100,0,0
238895,-87.460266,4,1,0,100,0,0
238969,-87.24929,4,1,0,100,0,0
239043,-87.03882,4,1,0,100,0,0
239117,-86.82886,4,1,0,100,0,0
239191,-86.61941,4,1,0,100,0,0
239265,-86.41046,4,1,0,100,0,0
239339,-86.20202,4,1,0,100,0,0
239413,-85.99408,4,1,0,100,0,0
239487,-85.78663,4,1,0,100,0,0
239561,-85.57968,4,1,0,100,0,0
239636,-85.37047,4,1,0,100,0,0
239710,-85.164536,4,1,0,100,0,0
239784,-84.9591,4,1,0,100,0,0
239858,-84.75415,4,1,0,100,0,0
239932,-84.549706,4,1,0,100,0,0
240006,-84.34575,4,1,0,100,0,0
240080,-84.14227,4,1,0,100,0,0
240154,-83.93931,4,1,0,100,0,0
240228,-83.736824,4,1,0,100,0,0
240302,-83.534836,4,1,0,100,0,0
240376,-83.33332,4,1,0,100,0,0
241266,-111.1111,4,1,0,100,0,0
241488,-105.41549,4,1,0,100,0,0
241599,-102.67812,4,1,0,100,0,0
241711,-99.98814,4,1,0,100,0,0
241766,-98.693085,4,1,0,100,0,0
241822,-97.39171,4,1,0,100,0,0
241877,-96.130295,4,1,0,100,0,0
241933,-94.86271,4,1,0,100,0,0
241988,-93.63404,4,1,0,100,0,0
242044,-92.39937,4,1,0,100,0,0
242099,-91.2026,4,1,0,100,0,0
242156,200,4,1,0,100,1,0
242156,-100,4,1,0,100,0,0
242259,-125,4,1,0,100,0,0
246555,-125,4,1,0,100,0,0
246605,-123.17312,4,1,0,100,0,0
246655,-121.37294,4,1,0,100,0,0
246705,-119.59907,4,1,0,100,0,0
246755,-117.851135,4,1,0,100,0,0
246805,-116.12873,4,1,0,100,0,0
246855,-114.4315,4,1,0,100,0,0
246905,-112.759094,4,1,0,100,0,0
246955,-111.111115,4,1,0,100,0,0
247089,-125.000004921875,4,1,0,100,0,0
248555,-125.00001,4,1,0,100,0,0
248755,-124.475296,4,1,0,100,0,0
248855,-124.21376,4,1,0,100,0,0
248955,-123.95278,4,1,0,100,0,0
249155,-123.432465,4,1,0,100,0,0
249355,-122.91434,4,1,0,100,0,0
249455,-122.65609,4,1,0,100,0,0
249555,-122.39838,4,1,0,100,0,0
249655,-122.14121,4,1,0,100,0,0
249755,-121.884575,4,1,0,100,0,0
249855,-121.628494,4,1,0,100,0,0
249955,-121.37295,4,1,0,100,0,0
250055,-121.117935,4,1,0,100,0,0
250155,-120.86346,4,1,0,100,0,0
250355,-120.35612,4,1,0,100,0,0
250455,-120.10323,4,1,0,100,0,0
250555,-119.85089,4,1,0,100,0,0
250655,-119.599075,4,1,0,100,0,0
250855,-119.09704,4,1,0,100,0,0
250955,-118.846794,4,1,0,100,0,0
251055,-118.59711,4,1,0,100,0,0
251155,-118.347916,4,1,0,100,0,0
251255,-118.09926,4,1,0,100,0,0
251355,-117.85113,4,1,0,100,0,0
251455,-117.60353,4,1,0,100,0,0
251555,-117.35642,4,1,0,100,0,0
251655,-117.109856,4,1,0,100,0,0
251755,-116.86379,4,1,0,100,0,0
251855,-116.61827,4,1,0,100,0,0
251955,-116.37324,4,1,0,100,0,0
252055,-116.12874,4,1,0,100,0,0
252155,-115.884735,4,1,0,100,0,0
252255,-115.641266,4,1,0,100,0,0
252355,-115.3983,4,1,0,100,0,0
252455,-115.15584,4,1,0,100,0,0
252555,-114.91388,4,1,0,100,0,0
252655,-114.67245,4,1,0,100,0,0
252755,-114.4315,4,1,0,100,0,0
252855,-114.191086,4,1,0,100,0,0
252955,-113.95116,4,1,0,100,0,0
253055,-113.71174,4,1,0,100,0,0
253155,-113.47283,4,1,0,100,0,0
253255,-113.23441,4,1,0,100,0,0
253355,-112.99649,4,1,0,100,0,0
253421,-112.83976,4,1,0,100,0,0
253488,-112.68085,4,1,0,100,0,0
253555,-112.52216,4,1,0,100,0,0
253621,-112.36607,4,1,0,100,0,0
253688,-112.207855,4,1,0,100,0,0
253755,-112.049835,4,1,0,100,0,0
253821,-111.8944,4,1,0,100,0,0
253888,-111.73683,4,1,0,100,0,0
253955,-111.57948,4,1,0,100,0,0
254021,-111.424706,4,1,0,100,0,0
254088,-111.267784,4,1,0,100,0,0
254154,-111.111115,4,1,0,100,0,0
254205,-110.36823,4,1,0,100,0,0
254255,-109.644745,4,1,0,100,0,0
254305,-108.925995,4,1,0,100,0,0
254355,-108.21195,4,1,0,100,0,0
254405,-107.5026,4,1,0,100,0,0
254455,-106.797905,4,1,0,100,0,0
254505,-106.09782,4,1,0,100,0,0
254555,-105.40232,4,1,0,100,0,0
254605,-104.71138,4,1,0,100,0,0
254655,-104.02498,4,1,0,100,0,0
254705,-103.34307,4,1,0,100,0,0
254755,-102.66563,4,1,0,100,0,0
254805,-101.99263,4,1,0,100,0,0
254855,-101.32404,4,1,0,100,0,0
254905,-100.65984,4,1,0,100,0,0
254956,-100,4,1,0,100,0,1
266955,-100,4,1,0,100,0,1
267055,-101.51653,4,1,0,100,0,1
267105,-102.28341,4,1,0,100,0,1
267155,-103.05607,4,1,0,100,0,1
267205,-103.83457,4,1,0,100,0,1
267255,-104.61894,4,1,0,100,0,1
267355,-106.205536,4,1,0,100,0,1
267455,-107.81618,4,1,0,100,0,1
267555,-109.45125,4,1,0,100,0,1
267605,-110.27805,4,1,0,100,0,1
267655,-111.111115,4,1,0,100,0,1
267756,-100,4,1,0,100,0,1
274155,-90.90909,4,1,0,100,0,1
274205,-91.519226,4,1,0,100,0,1
274255,-92.13345,4,1,0,100,0,1
274355,-93.37429,4,1,0,100,0,1
274455,-94.63185,4,1,0,100,0,1
274505,-95.266975,4,1,0,100,0,1
274555,-95.90635,4,1,0,100,0,1
274655,-97.198006,4,1,0,100,0,1
274755,-98.50706,4,1,0,100,0,1
274805,-99.1682,4,1,0,100,0,1
274855,-99.833755,4,1,0,100,0,1
274905,-100.50378,4,1,0,100,0,1
274955,-101.1783,4,1,0,100,0,1
275055,-102.54098,4,1,0,100,0,1
275155,-103.92198,4,1,0,100,0,1
275255,-105.3216,4,1,0,100,0,1
275355,-106.74006,4,1,0,100,0,1
275405,-107.45644,4,1,0,100,0,1
275455,-108.177635,4,1,0,100,0,1
275505,-108.903656,4,1,0,100,0,1
275555,-109.63455,4,1,0,100,0,1
275655,-111.111115,4,1,0,100,0,1
275755,-90.909096,4,1,0,100,0,1
275805,-91.48098,4,1,0,100,0,1
275855,-92.05645,4,1,0,100,0,1
275905,-92.635544,4,1,0,100,0,1
275955,-93.21829,4,1,0,100,0,1
276055,-94.394775,4,1,0,100,0,1
276105,-94.988594,4,1,0,100,0,1
276155,-95.58613,4,1,0,100,0,1
276255,-96.79252,4,1,0,100,0,1
276355,-98.01412,4,1,0,100,0,1
276455,-99.25114,4,1,0,100,0,1
276505,-99.875496,4,1,0,100,0,1
276555,-100.50379,4,1,0,100,0,1
276655,-101.77223,4,1,0,100,0,1
276755,-103.05669,4,1,0,100,0,1
276805,-103.70499,4,1,0,100,0,1
276855,-104.35736,4,1,0,100,0,1
276905,-105.01384,4,1,0,100,0,1
276955,-105.674446,4,1,0,100,0,1
277055,-107.00815,4,1,0,100,0,1
277155,-108.35869,4,1,0,100,0,1
277205,-109.04034,4,1,0,100,0,1
277255,-109.726265,4,1,0,100,0,1
277355,-111.111115,4,1,0,100,0,1
277405,-110.612785,4,1,0,100,0,1
277455,-110.11669,4,1,0,100,0,1
277555,-109.13118,4,1,0,100,0,1
277655,-108.15447,4,1,0,100,0,1
277705,-107.6694,4,1,0,100,0,1
277755,-107.186516,4,1,0,100,0,1
277805,-106.70579,4,1,0,100,0,1
277855,-106.22721,4,1,0,100,0,1
277955,-105.276505,4,1,0,100,0,1
278005,-104.80435,4,1,0,100,0,1
278055,-104.33432,4,1,0,100,0,1
278155,-103.400536,4,1,0,100,0,1
278205,-102.93679,4,1,0,100,0,1
278255,-102.47513,4,1,0,100,0,1
278305,-102.01553,4,1,0,100,0,1
278355,-101.558,4,1,0,100,0,1
278455,-100.649086,4,1,0,100,0,1
278505,-100.19766,4,1,0,100,0,1
278555,-99.74828,4,1,0,100,0,1
278655,-98.85556,4,1,0,100,0,1
278755,-97.970825,4,1,0,100,0,1
278805,-97.531425,4,1,0,100,0,1
278855,-97.09401,4,1,0,100,0,1
278955,-96.225044,4,1,0,100,0,1
279005,-95.79348,4,1,0,100,0,1
279055,-95.363846,4,1,0,100,0,1
279105,-94.93616,4,1,0,100,0,1
279155,-94.51037,4,1,0,100,0,1
279255,-93.66453,4,1,0,100,0,1
279355,-92.82624,4,1,0,100,0,1
279455,-91.99546,4,1,0,100,0,1
279505,-91.58287,4,1,0,100,0,1
279555,-91.17213,4,1,0,100,0,1
279655,-90.35616,4,1,0,100,0,1
279705,-89.95091,4,1,0,100,0,1
279755,-89.54749,4,1,0,100,0,1
279855,-88.74606,4,1,0,100,0,1
279905,-88.348045,4,1,0,100,0,1
279955,-87.951805,4,1,0,100,0,1
280005,-87.55734,4,1,0,100,0,1
280055,-87.164665,4,1,0,100,0,1
280105,-86.77373,4,1,0,100,0,1
280155,-86.38455,4,1,0,100,0,1
280255,-85.611435,4,1,0,100,0,1
280355,-84.84522,4,1,0,100,0,1
280405,-84.46471,4,1,0,100,0,1
280455,-84.08588,4,1,0,100,0,1
280556,-83.33333,4,1,0,100,0,0
280856,-83.33333,4,1,0,100,0,1
281306,-99.9999952000002,4,1,0,100,0,1
281756,-99.9999952000002,4,1,0,100,0,0
282155,-142.85713,4,1,0,100,0,0
282555,-129.19453,4,1,0,100,0,0
282955,-116.83861,4,1,0,100,0,0
283155,-111.111115,4,1,0,100,0,0
283355,-100,4,1,0,100,0,0
283405,-102.82856,4,1,0,100,0,0
283455,-105.73713,4,1,0,100,0,0
283505,-108.72797,4,1,0,100,0,0
283555,-111.8034,4,1,0,100,0,0
283605,-114.96583,4,1,0,100,0,0
283655,-118.217705,4,1,0,100,0,0
283705,-121.56156,4,1,0,100,0,0
283754,-125.00001,4,1,0,100,0,0
283855,-123.33667,4,1,0,100,0,0
284055,-120.10797,4,1,0,100,0,0
284255,-116.96378,4,1,0,100,0,0
284355,-115.42268,4,1,0,100,0,0
284455,-113.90189,4,1,0,100,0,0
284555,-112.40115,4,1,0,100,0,0
284655,-110.92017,4,1,0,100,0,0
284855,-108.01651,4,1,0,100,0,0
284955,-106.59331,4,1,0,100,0,0
285055,-105.18884,4,1,0,100,0,0
285155,-103.802895,4,1,0,100,0,0
285255,-102.43521,4,1,0,100,0,0
285355,-101.08554,4,1,0,100,0,0
285455,-99.753654,4,1,0,100,0,0
285555,-98.439316,4,1,0,100,0,0
285655,-97.1423,4,1,0,100,0,0
285755,-95.86238,4,1,0,100,0,0
285855,-94.59931,4,1,0,100,0,0
285955,-93.3529,4,1,0,100,0,0
286005,-92.735855,4,1,0,100,0,0
286055,-92.12289,4,1,0,100,0,0
286105,-91.51398,4,1,0,100,0,0
286156,-90.909096,4,1,0,100,0,1
286205,-93.13437,4,1,0,100,0,1
286255,-95.36888,4,1,0,100,0,1
286305,-97.657,4,1,0,100,0,1
286355,-100.000015,4,1,0,100,0,1
286443,-90.909096,4,1,0,100,0,1
286494,-93.13437,4,1,0,100,0,1
286544,-95.36888,4,1,0,100,0,1
286594,-97.657,4,1,0,100,0,1
286644,-100.000015,4,1,0,100,0,1
286743,-90.909096,4,1,0,100,0,1
286794,-93.13437,4,1,0,100,0,1
286844,-95.36888,4,1,0,100,0,1
286894,-97.657,4,1,0,100,0,1
286944,-100.000015,4,1,0,100,0,1
287043,-90.909096,4,1,0,100,0,1
287094,-93.13437,4,1,0,100,0,1
287144,-95.36888,4,1,0,100,0,1
287194,-97.657,4,1,0,100,0,1
287244,-100.000015,4,1,0,100,0,1
287343,-90.909096,4,1,0,100,0,1
287394,-93.13437,4,1,0,100,0,1
287444,-95.36888,4,1,0,100,0,1
287494,-97.657,4,1,0,100,0,1
287544,-100.000015,4,1,0,100,0,1
287643,-90.909096,4,1,0,100,0,1
287694,-93.13437,4,1,0,100,0,1
287744,-95.36888,4,1,0,100,0,1
287794,-97.657,4,1,0,100,0,1
287844,-100.000015,4,1,0,100,0,1
287943,-90.909096,4,1,0,100,0,1
287994,-93.13437,4,1,0,100,0,1
288044,-95.36888,4,1,0,100,0,1
288094,-97.657,4,1,0,100,0,1
288144,-100.000015,4,1,0,100,0,1
288243,-90.909096,4,1,0,100,0,1
288294,-93.13437,4,1,0,100,0,1
288344,-95.36888,4,1,0,100,0,1
288394,-97.657,4,1,0,100,0,1
288444,-100.000015,4,1,0,100,0,1
288543,-90.909096,4,1,0,100,0,1
288594,-93.13437,4,1,0,100,0,1
288644,-95.36888,4,1,0,100,0,1
288694,-97.657,4,1,0,100,0,1
288744,-100.000015,4,1,0,100,0,1
288843,-90.909096,4,1,0,100,0,1
288894,-93.13437,4,1,0,100,0,1
288944,-95.36888,4,1,0,100,0,1
288994,-97.657,4,1,0,100,0,1
289044,-100.000015,4,1,0,100,0,1
289143,-90.909096,4,1,0,100,0,1
289194,-93.13437,4,1,0,100,0,1
289244,-95.36888,4,1,0,100,0,1
289294,-97.657,4,1,0,100,0,1
289355,-100.000015,4,1,0,100,0,1
289455,-98.35621,4,1,0,100,0,1
289555,-96.73941,4,1,0,100,0,1
289655,-95.14921,4,1,0,100,0,1
289705,-94.36393,4,1,0,100,0,1
289755,-93.58513,4,1,0,100,0,1
289855,-92.04677,4,1,0,100,0,1
289955,-90.5337,4,1,0,100,0,1
290055,-89.0455,4,1,0,100,0,1
290105,-88.3106,4,1,0,100,0,1
290155,-87.58176,4,1,0,100,0,1
290255,-86.14208,4,1,0,100,0,1
290355,-84.726074,4,1,0,100,0,1
290456,-83.333336,4,1,0,100,0,0
290756,-40,4,1,0,100,0,1
290806,-20,4,1,0,80,0,1
290955,-50,4,1,0,70,0,1
291702,-59.027596,4,1,0,60,0,1
292505,-70.557655,4,1,0,50,0,1
293305,-84.28372,4,1,0,40,0,1
294058,-99.63405,4,1,0,30,0,1
294801,-117.51866,4,1,0,20,0,1
295756,-137.63153,4,1,0,15,0,1
296324,-164.8449,4,1,0,15,0,1
297356,-200,4,1,0,15,0,0
298156,705.882352941176,4,1,0,15,1,0
298156,-62.5,4,1,0,15,0,0
300979,769.230769230769,3,1,0,15,1,0
300979,-125,3,1,0,15,0,0
301362,-116.0472,3,1,0,15,0,0
301747,-107.71478,3,1,0,15,0,0
302130,-100.01935,3,1,0,15,0,0
303284,-111.13044,3,1,0,15,0,0
303670,-103.91596,3,1,0,15,0,0
304054,-97.20365,3,1,0,15,0,0
304438,-90.924904,3,1,0,15,0,0
305592,-99.98067,3,1,0,15,0,0
305978,-107.728676,3,1,0,15,0,0
306362,-116.03224,3,1,0,15,0,0
306746,-124.97582,3,1,0,15,0,0
307900,-111.08689,3,1,0,15,0,0
308285,-120.811264,3,1,0,15,0,0
308670,-131.38689,3,1,0,15,0,0
309053,-142.826,3,1,0,15,0,0
310209,821.917808219178,3,1,0,15,1,0
310209,-142.85715,3,1,0,15,0,0
310618,-131.39522,3,1,0,15,0,0
311029,-120.82827,3,1,0,15,0,0
311440,-111.111115,3,1,0,15,0,0
312674,857.142857142857,3,1,0,15,1,0
312674,-125,3,1,0,15,0,0
313101,-116.04644,3,1,0,15,0,0
313530,-107.71549,3,1,0,15,0,0
313958,-100,3,1,0,15,0,0
315245,923.076923076923,3,1,0,15,1,0
315245,-142.85715,3,1,0,15,0,0
315705,-131.38528,3,1,0,15,0,0
316167,-120.81274,3,1,0,15,0,0
316628,-111.111115,3,1,0,15,0,0
318014,1090.90909090909,3,1,0,15,1,0
318014,-142.85715,3,1,0,15,0,0
318558,-131.38406,3,1,0,15,0,0
319103,-120.83241,3,1,0,15,0,0
319649,-111.111115,3,1,0,15,0,0
321286,1090.90909090909,3,1,0,15,1,8
324557,-125.000004921875,3,1,0,15,0,8

[HitObjects]
295,124,1235,5,8,0:0:0:0:
299,129,1985,1,8,0:0:0:0:
299,129,2735,1,0,0:0:0:0:
295,97,3485,1,0,0:0:0:0:
388,115,5735,1,0,0:0:0:0:
373,115,5985,1,0,0:0:0:0:
366,118,6235,1,8,0:0:0:0:
358,117,6485,1,0,0:0:0:0:
348,88,7235,1,0,0:0:0:0:
348,88,7485,1,0,0:0:0:0:
348,88,7735,1,0,0:0:0:0:
348,88,7985,1,8,0:0:0:0:
348,88,8735,1,0,0:0:0:0:
351,77,9110,1,0,0:0:0:0:
351,77,9485,1,8,0:0:0:0:
351,77,9860,1,0,0:0:0:0:
351,77,10235,1,0,0:0:0:0:
351,77,10610,1,0,0:0:0:0:
351,77,11360,1,0,0:0:0:0:
351,77,11735,1,0,0:0:0:0:
351,77,12110,1,8,0:0:0:0:
351,77,12485,1,0,0:0:0:0:
363,89,13610,1,0,0:0:0:0:
363,89,13985,1,8,0:0:0:0:
363,89,14360,1,8,0:0:0:0:
363,89,14735,1,0,0:0:0:0:
363,89,15110,1,0,0:0:0:0:
363,89,15485,1,8,0:0:0:0:
361,76,15985,1,0,0:0:0:0:
362,77,16485,1,0,0:0:0:0:
361,76,16985,1,8,0:0:0:0:
361,76,17735,1,0,0:0:0:0:
359,66,18485,1,8,0:0:0:0:
359,66,19235,1,0,0:0:0:0:
359,66,19360,1,0,0:0:0:0:
366,67,19485,1,0,0:0:0:0:
367,67,19610,1,8,0:0:0:0:
366,71,19735,1,0,0:0:0:0:
366,71,19860,1,0,0:0:0:0:
351,70,19985,1,8,0:0:0:0:
351,70,20110,1,8,0:0:0:0:
351,69,20235,1,0,0:0:0:0:
359,66,20360,1,8,0:0:0:0:
352,68,20485,1,8,0:0:0:0:
360,60,20610,1,0,0:0:0:0:
361,60,20735,1,8,0:0:0:0:
366,71,20828,1,0,0:0:0:0:
344,65,20922,1,8,0:0:0:0:
362,62,21016,1,0,0:0:0:0:
362,62,21110,1,8,0:0:0:0:
361,63,21203,1,8,0:0:0:0:
359,66,21297,1,0,0:0:0:0:
359,66,21391,1,0,0:0:0:0:
361,63,21485,1,0,0:0:0:0:
360,60,21610,1,0,0:0:0:0:
361,60,21735,1,0,0:0:0:0:
363,62,21860,1,8,0:0:0:0:
363,60,21985,1,0,0:0:0:0:
362,62,22110,1,0,0:0:0:0:
361,63,22235,1,8,0:0:0:0:
359,66,22328,1,0,0:0:0:0:
369,66,22422,1,8,0:0:0:0:
361,63,22516,1,0,0:0:0:0:
360,60,22610,1,8,0:0:0:0:
361,60,22703,1,8,0:0:0:0:
361,60,22797,1,0,0:0:0:0:
363,62,22891,1,0,0:0:0:0:
363,60,22985,1,8,0:0:0:0:
362,62,23078,1,0,0:0:0:0:
361,63,23172,1,8,0:0:0:0:
362,60,23266,1,8,0:0:0:0:
362,60,23360,1,0,0:0:0:0:
362,60,23453,1,0,0:0:0:0:
366,58,23547,1,8,0:0:0:0:
360,60,23641,1,8,0:0:0:0:
371,57,23922,1,0,0:0:0:0:
362,62,24110,1,0,0:0:0:0:
362,60,24203,1,0,0:0:0:0:
362,60,24297,1,0,0:0:0:0:
362,60,24391,1,0,0:0:0:0:
362,60,24485,1,8,0:0:0:0:
228,181,29547,6,4,L|249:178,9,15.7499995193482
303,89,30485,1,0,0:0:0:0:
303,89,30600,1,8,0:0:0:0:
308,75,30658,1,8,0:0:0:0:
312,77,30715,1,0,0:0:0:0:
303,89,30831,1,0,0:0:0:0:
303,89,30946,1,8,0:0:0:0:
314,83,31061,1,8,0:0:0:0:
297,76,31177,1,0,0:0:0:0:
280,63,31408,1,8,0:0:0:0:
299,80,31485,1,8,0:0:0:0:
297,80,31561,1,0,0:0:0:0:
297,80,31638,1,8,0:0:0:0:
299,66,31715,1,0,0:0:0:0:
294,63,31792,1,0,0:0:0:0:
296,66,31869,1,8,0:0:0:0:
290,60,31985,1,8,0:0:0:0:
289,59,32100,1,0,0:0:0:0:
342,59,32177,1,0,0:0:0:0:
328,63,32254,1,0,0:0:0:0:
342,59,32331,1,8,0:0:0:0:
342,59,32388,1,8,0:0:0:0:
304,58,32446,1,0,0:0:0:0:
304,58,32504,1,0,0:0:0:0:
304,58,32561,1,8,0:0:0:0:
294,56,32677,1,0,0:0:0:0:
294,63,32792,1,8,0:0:0:0:
324,57,32908,1,8,0:0:0:0:
302,61,33023,1,0,0:0:0:0:
300,62,33138,1,8,0:0:0:0:
304,58,33369,1,8,0:0:0:0:
304,58,33485,1,8,0:0:0:0:
319,56,33542,1,8,0:0:0:0:
302,54,33600,1,0,0:0:0:0:
302,56,33658,1,0,0:0:0:0:
304,56,33715,1,8,0:0:0:0:
306,55,33831,1,0,0:0:0:0:
306,55,33946,1,8,0:0:0:0:
312,54,34061,1,0,0:0:0:0:
310,55,34177,1,8,0:0:0:0:
304,58,34292,1,0,0:0:0:0:
304,58,34408,1,0,0:0:0:0:
308,55,34523,1,8,0:0:0:0:
280,81,34754,1,0,0:0:0:0:
286,78,34869,1,8,0:0:0:0:
282,80,34985,1,8,0:0:0:0:
285,65,35100,1,0,0:0:0:0:
292,63,35215,1,0,0:0:0:0:
292,63,35331,1,8,0:0:0:0:
288,64,35446,1,0,0:0:0:0:
303,61,35561,1,8,0:0:0:0:
286,69,35677,1,0,0:0:0:0:
303,61,35792,1,8,0:0:0:0:
308,51,35908,1,8,0:0:0:0:
304,54,36023,1,0,0:0:0:0:
299,56,36081,1,0,0:0:0:0:
292,63,36138,1,0,0:0:0:0:
297,57,36196,1,0,0:0:0:0:
292,63,36254,1,8,0:0:0:0:
298,55,36369,1,8,0:0:0:0:
298,54,36600,1,8,0:0:0:0:
298,54,36715,1,0,0:0:0:0:
299,56,36831,1,8,0:0:0:0:
300,51,36888,1,8,0:0:0:0:
256,192,36946,12,0,37754,0:0:0:0:
300,51,37869,5,0,0:0:0:0:
301,60,37985,1,8,0:0:0:0:
299,61,38042,1,8,0:0:0:0:
306,58,38100,1,0,0:0:0:0:
306,58,38215,1,8,0:0:0:0:
308,65,38273,1,8,0:0:0:0:
289,69,38331,1,8,0:0:0:0:
289,69,38446,1,0,0:0:0:0:
294,66,38561,1,0,0:0:0:0:
301,64,38619,1,0,0:0:0:0:
294,66,38677,1,0,0:0:0:0:
289,57,38735,1,0,0:0:0:0:
305,67,38792,1,8,0:0:0:0:
291,58,38908,1,0,0:0:0:0:
293,62,38965,1,0,0:0:0:0:
299,61,39023,1,8,0:0:0:0:
310,49,39138,1,0,0:0:0:0:
306,49,39254,1,8,0:0:0:0:
303,50,39311,1,0,0:0:0:0:
304,50,39369,1,8,0:0:0:0:
310,49,39427,1,8,0:0:0:0:
305,50,39485,1,0,0:0:0:0:
310,49,39600,1,0,0:0:0:0:
319,60,39715,1,8,0:0:0:0:
257,83,39773,1,0,0:0:0:0:
314,58,39831,1,0,0:0:0:0:
314,59,39888,1,0,0:0:0:0:
314,58,39946,1,8,0:0:0:0:
322,56,40061,1,0,0:0:0:0:
313,69,40119,1,0,0:0:0:0:
306,70,40177,1,0,0:0:0:0:
321,50,40292,1,8,0:0:0:0:
306,63,40408,1,0,0:0:0:0:
306,61,40523,1,8,0:0:0:0:
306,61,40581,1,8,0:0:0:0:
305,61,40638,1,8,0:0:0:0:
300,67,40754,1,0,0:0:0:0:
299,73,40869,1,8,0:0:0:0:
297,73,40927,1,8,0:0:0:0:
297,74,40985,1,0,0:0:0:0:
292,75,41042,1,0,0:0:0:0:
303,80,41100,1,0,0:0:0:0:
305,79,41215,1,8,0:0:0:0:
305,79,41331,1,0,0:0:0:0:
305,79,41446,1,8,0:0:0:0:
300,78,41561,1,0,0:0:0:0:
294,73,41677,1,8,0:0:0:0:
293,73,41735,1,8,0:0:0:0:
292,73,41792,1,0,0:0:0:0:
297,73,41908,1,8,0:0:0:0:
289,61,41965,1,8,0:0:0:0:
305,69,42023,1,8,0:0:0:0:
309,73,42138,1,0,0:0:0:0:
296,59,42254,1,0,0:0:0:0:
299,53,42311,1,0,0:0:0:0:
305,79,42369,1,0,0:0:0:0:
296,54,42427,1,0,0:0:0:0:
313,73,42485,1,8,0:0:0:0:
320,71,42600,1,0,0:0:0:0:
307,67,42658,1,0,0:0:0:0:
320,71,42715,1,8,0:0:0:0:
305,69,42831,1,0,0:0:0:0:
305,69,42946,1,8,0:0:0:0:
297,66,43004,1,0,0:0:0:0:
309,73,43061,1,8,0:0:0:0:
296,67,43119,1,8,0:0:0:0:
297,67,43177,1,0,0:0:0:0:
303,69,43292,1,0,0:0:0:0:
305,69,43408,1,8,0:0:0:0:
310,66,43465,1,0,0:0:0:0:
304,68,43523,1,0,0:0:0:0:
304,68,43581,1,0,0:0:0:0:
306,67,43638,1,8,0:0:0:0:
307,67,43754,1,0,0:0:0:0:
288,61,43811,1,0,0:0:0:0:
306,62,43869,1,0,0:0:0:0:
306,63,43985,1,8,0:0:0:0:
279,53,44042,1,8,0:0:0:0:
303,62,44100,1,0,0:0:0:0:
296,61,44158,1,0,0:0:0:0:
296,61,44215,1,0,0:0:0:0:
294,61,44273,1,0,0:0:0:0:
303,56,44561,1,8,0:0:0:0:
245,182,44792,2,4,L|273:176,7,20.9999993591309
346,83,45254,1,8,0:0:0:0:
294,67,45369,1,0,0:0:0:0:
298,71,45427,1,8,0:0:0:0:
298,71,45485,1,0,0:0:0:0:
294,67,45600,1,8,0:0:0:0:
294,67,45658,1,8,0:0:0:0:
294,67,45715,1,8,0:0:0:0:
294,67,45831,1,0,0:0:0:0:
294,67,45946,1,0,0:0:0:0:
303,69,46004,1,0,0:0:0:0:
294,67,46061,1,0,0:0:0:0:
294,67,46119,1,0,0:0:0:0:
303,68,46177,1,8,0:0:0:0:
301,68,46292,1,0,0:0:0:0:
294,67,46350,1,8,0:0:0:0:
298,71,46408,1,8,0:0:0:0:
294,67,46523,1,0,0:0:0:0:
294,67,46638,1,8,0:0:0:0:
313,72,46696,1,0,0:0:0:0:
310,73,46754,1,0,0:0:0:0:
314,72,46811,1,0,0:0:0:0:
318,66,46869,1,8,0:0:0:0:
318,66,46985,1,8,0:0:0:0:
309,73,47100,1,0,0:0:0:0:
303,68,47158,1,0,0:0:0:0:
301,68,47215,1,0,0:0:0:0:
301,68,47273,1,0,0:0:0:0:
299,74,47331,1,8,0:0:0:0:
308,75,47446,1,0,0:0:0:0:
306,75,47504,1,0,0:0:0:0:
309,75,47561,1,0,0:0:0:0:
313,72,47677,1,8,0:0:0:0:
314,72,47792,1,0,0:0:0:0:
310,66,47908,1,8,0:0:0:0:
318,66,47965,1,8,0:0:0:0:
309,73,48023,1,8,0:0:0:0:
311,60,48138,1,0,0:0:0:0:
309,58,48254,1,8,0:0:0:0:
302,60,48311,1,8,0:0:0:0:
299,60,48369,1,0,0:0:0:0:
299,60,48427,1,0,0:0:0:0:
297,60,48485,1,0,0:0:0:0:
297,60,48600,1,8,0:0:0:0:
300,56,48715,1,0,0:0:0:0:
297,60,48773,1,0,0:0:0:0:
297,67,48831,1,8,0:0:0:0:
289,59,48946,1,0,0:0:0:0:
311,60,49061,1,8,0:0:0:0:
311,60,49119,1,0,0:0:0:0:
309,58,49177,1,0,0:0:0:0:
305,50,49292,1,8,0:0:0:0:
307,49,49350,1,8,0:0:0:0:
302,52,49408,1,8,0:0:0:0:
309,57,49523,1,0,0:0:0:0:
306,58,49638,1,0,0:0:0:0:
300,56,49696,1,0,0:0:0:0:
297,60,49754,1,0,0:0:0:0:
297,67,49811,1,0,0:0:0:0:
303,58,49869,1,8,0:0:0:0:
303,58,49985,1,0,0:0:0:0:
303,59,50100,1,8,0:0:0:0:
309,58,50158,1,0,0:0:0:0:
302,61,50215,1,8,0:0:0:0:
306,61,50331,1,0,0:0:0:0:
309,57,50446,1,8,0:0:0:0:
306,58,50561,1,0,0:0:0:0:
302,64,50619,1,8,0:0:0:0:
298,66,50677,1,0,0:0:0:0:
297,67,50792,1,8,0:0:0:0:
303,58,50850,1,8,0:0:0:0:
298,66,50908,1,0,0:0:0:0:
297,66,50965,1,0,0:0:0:0:
299,66,51023,1,8,0:0:0:0:
299,66,51138,1,0,0:0:0:0:
302,61,51196,1,0,0:0:0:0:
306,61,51254,1,0,0:0:0:0:
292,67,51369,1,8,0:0:0:0:
306,58,51485,1,0,0:0:0:0:
302,64,51600,1,8,0:0:0:0:
298,66,51658,1,8,0:0:0:0:
297,67,51715,1,8,0:0:0:0:
309,65,51831,1,0,0:0:0:0:
306,66,51946,1,8,0:0:0:0:
299,66,52004,1,8,0:0:0:0:
299,66,52061,1,0,0:0:0:0:
299,66,52119,1,0,0:0:0:0:
297,68,52177,1,0,0:0:0:0:
300,68,52292,1,8,0:0:0:0:
300,68,52408,1,0,0:0:0:0:
297,68,52465,1,8,0:0:0:0:
302,64,52523,1,0,0:0:0:0:
284,75,52638,1,8,0:0:0:0:
286,75,52754,1,8,0:0:0:0:
266,79,52811,1,8,0:0:0:0:
267,78,52869,1,0,0:0:0:0:
272,84,52985,1,8,0:0:0:0:
266,84,53042,1,8,0:0:0:0:
269,81,53100,1,8,0:0:0:0:
275,84,53215,1,8,0:0:0:0:
274,83,53331,1,0,0:0:0:0:
265,88,53388,1,0,0:0:0:0:
264,94,53446,1,0,0:0:0:0:
266,83,53504,1,0,0:0:0:0:
268,81,53561,1,8,0:0:0:0:
268,81,53677,1,0,0:0:0:0:
266,79,53792,1,8,0:0:0:0:
267,78,53850,1,0,0:0:0:0:
272,84,53908,1,8,0:0:0:0:
271,75,54023,1,0,0:0:0:0:
271,75,54138,1,8,0:0:0:0:
258,79,54196,1,8,0:0:0:0:
263,77,54254,1,0,0:0:0:0:
263,77,54369,1,0,0:0:0:0:
266,83,54485,1,8,0:0:0:0:
268,81,54542,1,0,0:0:0:0:
260,78,54600,1,0,0:0:0:0:
259,78,54658,1,0,0:0:0:0:
266,79,54715,1,8,0:0:0:0:
258,78,54831,1,0,0:0:0:0:
257,79,54888,1,0,0:0:0:0:
254,79,54946,1,0,0:0:0:0:
254,80,55061,1,8,0:0:0:0:
258,79,55177,1,0,0:0:0:0:
254,80,55292,1,8,0:0:0:0:
254,79,55350,1,8,0:0:0:0:
254,79,55408,1,8,0:0:0:0:
287,84,55523,1,0,0:0:0:0:
287,84,55638,1,8,0:0:0:0:
274,86,55696,1,8,0:0:0:0:
275,84,55754,1,0,0:0:0:0:
273,84,55811,1,0,0:0:0:0:
272,84,55869,1,0,0:0:0:0:
272,84,55985,1,8,0:0:0:0:
270,97,56100,1,0,0:0:0:0:
270,96,56158,1,8,0:0:0:0:
272,96,56215,1,8,0:0:0:0:
272,96,56331,1,0,0:0:0:0:
267,84,56446,1,8,0:0:0:0:
264,85,56504,1,0,0:0:0:0:
264,85,56561,1,8,0:0:0:0:
264,85,56677,1,0,0:0:0:0:
275,84,56735,1,0,0:0:0:0:
273,84,56792,1,8,0:0:0:0:
279,83,56908,1,0,0:0:0:0:
287,84,56965,1,8,0:0:0:0:
287,83,57023,1,0,0:0:0:0:
287,83,57138,1,8,0:0:0:0:
287,84,57254,1,0,0:0:0:0:
278,83,57311,1,0,0:0:0:0:
275,84,57369,1,8,0:0:0:0:
267,84,57427,1,8,0:0:0:0:
264,85,57485,1,0,0:0:0:0:
264,85,57542,1,0,0:0:0:0:
264,85,57600,1,0,0:0:0:0:
264,85,57658,1,0,0:0:0:0:
262,90,57715,1,8,0:0:0:0:
262,90,57773,1,8,0:0:0:0:
262,90,57831,1,0,0:0:0:0:
264,90,57888,1,0,0:0:0:0:
265,91,57946,1,8,0:0:0:0:
263,77,58004,1,8,0:0:0:0:
262,78,58061,1,8,0:0:0:0:
263,79,58119,1,8,0:0:0:0:
263,80,58177,1,0,0:0:0:0:
291,67,58254,1,0,0:0:0:0:
288,69,58331,1,8,0:0:0:0:
287,71,58408,1,8,0:0:0:0:
287,72,58485,1,0,0:0:0:0:
287,72,58561,1,8,0:0:0:0:
287,72,58638,1,0,0:0:0:0:
287,72,58715,1,0,0:0:0:0:
287,72,58792,1,8,0:0:0:0:
287,72,58869,1,8,0:0:0:0:
287,72,58946,1,0,0:0:0:0:
287,72,59023,1,8,0:0:0:0:
269,63,59331,1,8,0:0:0:0:
293,73,59388,1,8,0:0:0:0:
319,69,59446,1,8,0:0:0:0:
287,72,59504,1,8,0:0:0:0:
287,72,59561,1,0,0:0:0:0:
287,72,59619,1,0,0:0:0:0:
287,72,59677,1,8,0:0:0:0:
285,79,59735,1,0,0:0:0:0:
276,76,59792,1,8,0:0:0:0:
282,83,59850,1,8,0:0:0:0:
283,83,59908,1,8,0:0:0:0:
284,83,59965,1,8,0:0:0:0:
283,88,60023,1,0,0:0:0:0:
279,91,60196,1,0,0:0:0:0:
279,91,60369,1,0,0:0:0:0:
277,91,60485,1,8,0:0:0:0:
272,89,60715,1,0,0:0:0:0:
268,89,60773,1,0,0:0:0:0:
271,89,60831,1,0,0:0:0:0:
267,91,60888,1,0,0:0:0:0:
267,91,60946,1,0,0:0:0:0:
269,91,61061,1,8,0:0:0:0:
279,91,61119,1,0,0:0:0:0:
267,77,61177,1,0,0:0:0:0:
265,85,61292,1,0,0:0:0:0:
265,85,61408,1,8,0:0:0:0:
280,90,61523,1,0,0:0:0:0:
270,77,61638,1,8,0:0:0:0:
276,90,61754,1,8,0:0:0:0:
285,83,61869,1,0,0:0:0:0:
285,83,62042,1,0,0:0:0:0:
280,93,62215,1,0,0:0:0:0:
278,93,62331,1,8,0:0:0:0:
276,90,62561,1,0,0:0:0:0:
258,95,62619,1,0,0:0:0:0:
258,95,62677,1,0,0:0:0:0:
258,95,62735,1,0,0:0:0:0:
258,95,62792,1,0,0:0:0:0:
263,94,62908,1,8,0:0:0:0:
266,91,62965,1,0,0:0:0:0:
286,66,63023,1,8,0:0:0:0:
269,89,63138,1,0,0:0:0:0:
261,90,63254,1,8,0:0:0:0:
290,61,63369,1,8,0:0:0:0:
272,73,63485,1,0,0:0:0:0:
255,83,63542,1,0,0:0:0:0:
303,78,63658,1,0,0:0:0:0:
261,80,63715,1,8,0:0:0:0:
249,81,63888,1,0,0:0:0:0:
246,78,64061,1,0,0:0:0:0:
258,75,64177,1,8,0:0:0:0:
265,78,64408,1,0,0:0:0:0:
270,74,64465,1,0,0:0:0:0:
255,83,64523,1,0,0:0:0:0:
255,83,64581,1,0,0:0:0:0:
245,80,64638,1,0,0:0:0:0:
260,68,64754,1,8,0:0:0:0:
249,71,64811,1,8,0:0:0:0:
289,72,64869,1,0,0:0:0:0:
248,70,64985,1,0,0:0:0:0:
267,63,65042,1,0,0:0:0:0:
248,70,65100,1,8,0:0:0:0:
240,73,65215,1,8,0:0:0:0:
239,73,65273,1,0,0:0:0:0:
240,72,65331,1,8,0:0:0:0:
248,66,65446,1,0,0:0:0:0:
251,65,65504,1,8,0:0:0:0:
252,64,65561,1,0,0:0:0:0:
265,57,65619,1,0,0:0:0:0:
252,64,65735,1,0,0:0:0:0:
248,70,65908,1,0,0:0:0:0:
260,71,66023,1,8,0:0:0:0:
262,73,66254,1,0,0:0:0:0:
262,73,66311,1,0,0:0:0:0:
263,73,66369,1,0,0:0:0:0:
262,74,66427,1,0,0:0:0:0:
262,74,66485,1,0,0:0:0:0:
262,74,66600,1,8,0:0:0:0:
263,74,66658,1,0,0:0:0:0:
249,75,66715,1,0,0:0:0:0:
248,70,66831,1,0,0:0:0:0:
254,74,66946,1,8,0:0:0:0:
249,70,67061,1,0,0:0:0:0:
262,73,67177,1,8,0:0:0:0:
262,73,67292,1,0,0:0:0:0:
262,74,67408,1,8,0:0:0:0:
262,74,67581,1,0,0:0:0:0:
262,71,67754,1,0,0:0:0:0:
263,71,67869,1,8,0:0:0:0:
257,65,68100,1,0,0:0:0:0:
253,67,68158,1,0,0:0:0:0:
242,73,68215,1,0,0:0:0:0:
253,67,68273,1,0,0:0:0:0:
242,73,68331,1,0,0:0:0:0:
243,74,68485,1,8,0:0:0:0:
269,64,68561,1,8,0:0:0:0:
269,64,68638,1,0,0:0:0:0:
262,71,68715,1,0,0:0:0:0:
249,69,68792,1,8,0:0:0:0:
272,59,68908,1,0,0:0:0:0:
257,65,69023,1,8,0:0:0:0:
262,69,69081,1,8,0:0:0:0:
262,69,69138,1,0,0:0:0:0:
260,69,69196,1,0,0:0:0:0:
262,69,69254,1,8,0:0:0:0:
267,69,69427,1,0,0:0:0:0:
262,71,69600,1,0,0:0:0:0:
258,80,69715,1,8,0:0:0:0:
247,79,69946,1,0,0:0:0:0:
250,70,70004,1,0,0:0:0:0:
251,74,70061,1,0,0:0:0:0:
254,74,70119,1,0,0:0:0:0:
249,73,70177,1,0,0:0:0:0:
251,71,70292,1,8,0:0:0:0:
277,66,70350,1,0,0:0:0:0:
272,75,70408,1,0,0:0:0:0:
269,58,70523,1,0,0:0:0:0:
264,55,70638,1,8,0:0:0:0:
264,61,70754,1,8,0:0:0:0:
266,61,70869,1,0,0:0:0:0:
268,64,70985,1,0,0:0:0:0:
268,64,71100,1,8,0:0:0:0:
279,68,71158,1,0,0:0:0:0:
269,71,71273,1,0,0:0:0:0:
279,57,71446,1,0,0:0:0:0:
279,57,71561,1,8,0:0:0:0:
268,64,71792,1,0,0:0:0:0:
272,57,71850,1,0,0:0:0:0:
272,57,71908,1,0,0:0:0:0:
268,64,71965,1,0,0:0:0:0:
268,64,72023,1,0,0:0:0:0:
266,58,72138,1,8,0:0:0:0:
266,58,72196,1,0,0:0:0:0:
279,57,72369,1,0,0:0:0:0:
287,55,72427,1,0,0:0:0:0:
271,59,72485,1,8,0:0:0:0:
269,63,72600,1,8,0:0:0:0:
268,64,72715,1,0,0:0:0:0:
268,64,72831,1,0,0:0:0:0:
268,64,72946,1,8,0:0:0:0:
276,59,73023,1,0,0:0:0:0:
276,58,73100,1,0,0:0:0:0:
277,58,73177,1,8,0:0:0:0:
279,57,73254,1,0,0:0:0:0:
279,57,73331,1,8,0:0:0:0:
268,52,73408,1,0,0:0:0:0:
282,59,73638,1,0,0:0:0:0:
259,54,73696,1,0,0:0:0:0:
255,55,73754,1,0,0:0:0:0:
258,55,73811,1,0,0:0:0:0:
270,55,73869,1,0,0:0:0:0:
268,62,73985,1,8,0:0:0:0:
254,70,74042,1,0,0:0:0:0:
255,70,74215,1,0,0:0:0:0:
260,71,74273,1,0,0:0:0:0:
263,68,74331,1,8,0:0:0:0:
263,68,74446,1,0,0:0:0:0:
268,68,74561,1,8,0:0:0:0:
276,66,74619,1,8,0:0:0:0:
270,61,74677,1,8,0:0:0:0:
270,61,74735,1,8,0:0:0:0:
270,61,74792,1,0,0:0:0:0:
216,88,74908,1,0,0:0:0:0:
274,47,75023,1,8,0:0:0:0:
290,58,75138,1,0,0:0:0:0:
275,63,75196,1,0,0:0:0:0:
271,64,75254,1,8,0:0:0:0:
269,64,75311,1,8,0:0:0:0:
275,67,75369,1,0,0:0:0:0:
275,67,75485,1,8,0:0:0:0:
276,66,75600,1,8,0:0:0:0:
276,69,75715,1,0,0:0:0:0:
274,72,75773,1,0,0:0:0:0:
268,71,75831,1,0,0:0:0:0:
264,72,75946,1,8,0:0:0:0:
247,73,76061,1,0,0:0:0:0:
255,69,76177,1,8,0:0:0:0:
252,71,76235,1,0,0:0:0:0:
252,71,76292,1,0,0:0:0:0:
253,70,76350,1,0,0:0:0:0:
261,79,76408,1,8,0:0:0:0:
262,79,76523,1,8,0:0:0:0:
257,77,76638,1,0,0:0:0:0:
265,91,76754,1,0,0:0:0:0:
268,92,76811,1,0,0:0:0:0:
274,94,76869,1,8,0:0:0:0:
267,91,76985,1,0,0:0:0:0:
284,73,77100,1,0,0:0:0:0:
281,74,77215,1,8,0:0:0:0:
281,74,77273,1,0,0:0:0:0:
289,73,77331,1,8,0:0:0:0:
273,77,77446,1,0,0:0:0:0:
278,79,77561,1,0,0:0:0:0:
288,81,77677,1,8,0:0:0:0:
287,79,77792,1,8,0:0:0:0:
280,80,77908,1,0,0:0:0:0:
281,80,77965,1,8,0:0:0:0:
284,73,78023,1,0,0:0:0:0:
277,81,78081,1,8,0:0:0:0:
275,80,78138,1,0,0:0:0:0:
275,81,78196,1,0,0:0:0:0:
274,80,78254,1,8,0:0:0:0:
289,73,78311,1,8,0:0:0:0:
268,84,78369,1,0,0:0:0:0:
268,84,78427,1,0,0:0:0:0:
278,79,78485,1,0,0:0:0:0:
265,57,78600,1,0,0:0:0:0:
285,64,78715,1,8,0:0:0:0:
284,69,78831,1,0,0:0:0:0:
280,80,78888,1,8,0:0:0:0:
281,80,78946,1,8,0:0:0:0:
277,81,79061,1,0,0:0:0:0:
280,70,79177,1,8,0:0:0:0:
289,73,79292,1,0,0:0:0:0:
285,69,79350,1,8,0:0:0:0:
282,69,79408,1,0,0:0:0:0:
282,69,79523,1,8,0:0:0:0:
280,70,79638,1,8,0:0:0:0:
276,72,79696,1,8,0:0:0:0:
276,72,79754,1,0,0:0:0:0:
276,72,79811,1,0,0:0:0:0:
275,73,79869,1,8,0:0:0:0:
281,80,79927,1,0,0:0:0:0:
277,81,79985,1,8,0:0:0:0:
277,81,80042,1,8,0:0:0:0:
271,76,80100,1,0,0:0:0:0:
280,70,80158,1,8,0:0:0:0:
279,75,80215,1,0,0:0:0:0:
279,75,80273,1,0,0:0:0:0:
279,75,80331,1,8,0:0:0:0:
302,68,80408,1,0,0:0:0:0:
308,63,80485,1,0,0:0:0:0:
300,68,80561,1,8,0:0:0:0:
298,66,80638,1,8,0:0:0:0:
298,66,80715,1,0,0:0:0:0:
300,69,80792,1,0,0:0:0:0:
294,71,80908,1,0,0:0:0:0:
301,72,81023,1,8,0:0:0:0:
304,71,81138,1,0,0:0:0:0:
295,74,81196,1,8,0:0:0:0:
295,74,81254,1,0,0:0:0:0:
299,77,81369,1,8,0:0:0:0:
300,74,81485,1,8,0:0:0:0:
300,74,81600,1,0,0:0:0:0:
299,73,81658,1,0,0:0:0:0:
302,74,81715,1,8,0:0:0:0:
300,69,81773,1,0,0:0:0:0:
305,72,81831,1,0,0:0:0:0:
301,72,81946,1,8,0:0:0:0:
304,71,82061,1,8,0:0:0:0:
294,73,82119,1,8,0:0:0:0:
295,74,82177,1,0,0:0:0:0:
299,77,82292,1,0,0:0:0:0:
300,74,82408,1,8,0:0:0:0:
300,74,82523,1,0,0:0:0:0:
300,74,82581,1,8,0:0:0:0:
299,73,82638,1,0,0:0:0:0:
313,64,82754,1,8,0:0:0:0:
313,64,82869,1,8,0:0:0:0:
313,64,82985,1,8,0:0:0:0:
314,66,83100,1,0,0:0:0:0:
312,64,83177,1,0,0:0:0:0:
312,64,83254,1,8,0:0:0:0:
313,65,83331,1,8,0:0:0:0:
315,67,83408,1,0,0:0:0:0:
318,64,83485,1,0,0:0:0:0:
318,64,83561,1,8,0:0:0:0:
322,65,83638,1,0,0:0:0:0:
313,64,83715,1,8,0:0:0:0:
322,65,83792,1,0,0:0:0:0:
322,65,83869,1,0,0:0:0:0:
322,65,83946,1,0,0:0:0:0:
329,63,84023,1,8,0:0:0:0:
323,44,84138,1,0,0:0:0:0:
312,54,84196,1,0,0:0:0:0:
317,52,84254,1,0,0:0:0:0:
330,70,84369,1,8,0:0:0:0:
332,71,84485,1,0,0:0:0:0:
331,72,84542,1,0,0:0:0:0:
336,71,84600,1,8,0:0:0:0:
321,56,84658,1,8,0:0:0:0:
338,66,84715,1,0,0:0:0:0:
328,56,84831,1,8,0:0:0:0:
326,56,84946,1,0,0:0:0:0:
328,56,85061,1,0,0:0:0:0:
327,56,85119,1,0,0:0:0:0:
328,60,85177,1,8,0:0:0:0:
328,60,85292,1,0,0:0:0:0:
327,47,85408,1,8,0:0:0:0:
335,57,85465,1,0,0:0:0:0:
333,54,85523,1,0,0:0:0:0:
333,57,85581,1,0,0:0:0:0:
333,57,85638,1,8,0:0:0:0:
335,56,85696,1,8,0:0:0:0:
334,56,85754,1,0,0:0:0:0:
334,56,85811,1,0,0:0:0:0:
326,56,85869,1,8,0:0:0:0:
328,56,85985,1,8,0:0:0:0:
326,66,86100,1,0,0:0:0:0:
326,66,86158,1,0,0:0:0:0:
327,50,86215,1,8,0:0:0:0:
327,47,86331,1,8,0:0:0:0:
342,74,86446,1,0,0:0:0:0:
331,67,86504,1,0,0:0:0:0:
327,50,86561,1,8,0:0:0:0:
331,48,86677,1,8,0:0:0:0:
340,61,86792,1,0,0:0:0:0:
338,61,86850,1,0,0:0:0:0:
331,48,86908,1,8,0:0:0:0:
327,50,87023,1,8,0:0:0:0:
319,54,87138,1,0,0:0:0:0:
345,52,87254,1,8,0:0:0:0:
345,51,87331,1,8,0:0:0:0:
345,51,87408,1,8,0:0:0:0:
340,48,87485,1,0,0:0:0:0:
338,49,87561,1,0,0:0:0:0:
338,49,87638,1,0,0:0:0:0:
334,50,87715,1,8,0:0:0:0:
334,50,87792,1,8,0:0:0:0:
331,48,87869,1,0,0:0:0:0:
334,50,87946,1,8,0:0:0:0:
334,50,88023,1,0,0:0:0:0:
334,50,88100,1,0,0:0:0:0:
334,46,88177,1,8,0:0:0:0:
337,50,88254,1,0,0:0:0:0:
337,50,88331,1,8,0:0:0:0:
337,49,88408,1,0,0:0:0:0:
340,48,88485,1,8,0:0:0:0:
338,49,88561,1,0,0:0:0:0:
354,133,96913,5,0,0:0:0:0:
340,99,97484,1,0,0:0:0:0:
331,111,98055,1,0,0:0:0:0:
321,114,98627,1,0,0:0:0:0:
321,114,99198,1,0,0:0:0:0:
321,114,99770,1,0,0:0:0:0:
321,114,100341,1,0,0:0:0:0:
308,85,100913,1,8,0:0:0:0:
314,90,101055,1,8,0:0:0:0:
325,95,101341,1,8,0:0:0:0:
321,114,101484,1,0,0:0:0:0:
323,95,101627,1,8,0:0:0:0:
321,96,101770,1,0,0:0:0:0:
332,95,101913,1,8,0:0:0:0:
327,94,101984,1,8,0:0:0:0:
331,95,102055,1,0,0:0:0:0:
332,96,102127,1,0,0:0:0:0:
325,95,102198,1,8,0:0:0:0:
325,95,102341,1,0,0:0:0:0:
331,103,102484,1,8,0:0:0:0:
307,90,102627,1,0,0:0:0:0:
320,113,102770,1,8,0:0:0:0:
320,113,102913,1,0,0:0:0:0:
327,115,103055,1,8,0:0:0:0:
330,114,103127,1,0,0:0:0:0:
330,114,103198,1,8,0:0:0:0:
326,115,103270,1,8,0:0:0:0:
324,115,103341,1,0,0:0:0:0:
322,118,103484,1,8,0:0:0:0:
325,120,103555,1,8,0:0:0:0:
329,119,103698,1,0,0:0:0:0:
325,121,103770,1,0,0:0:0:0:
327,120,103913,1,0,0:0:0:0:
327,115,104055,1,0,0:0:0:0:
330,114,104198,1,0,0:0:0:0:
326,115,104270,1,8,0:0:0:0:
324,115,104341,1,0,0:0:0:0:
322,118,104413,1,8,0:0:0:0:
329,118,104484,1,0,0:0:0:0:
329,119,104627,1,8,0:0:0:0:
325,121,104770,1,8,0:0:0:0:
320,103,104841,1,8,0:0:0:0:
316,111,104913,1,0,0:0:0:0:
327,115,104984,1,0,0:0:0:0:
317,112,105055,1,0,0:0:0:0:
318,112,105127,1,0,0:0:0:0:
314,106,105198,1,8,0:0:0:0:
316,85,105234,1,8,0:0:0:0:
319,81,105270,1,8,0:0:0:0:
316,103,105341,1,0,0:0:0:0:
316,103,105413,1,0,0:0:0:0:
324,103,105484,1,8,0:0:0:0:
321,103,105520,1,8,0:0:0:0:
328,103,105555,1,8,0:0:0:0:
321,101,105627,1,0,0:0:0:0:
314,97,105698,1,0,0:0:0:0:
315,102,105770,1,8,0:0:0:0:
319,83,105817,1,8,0:0:0:0:
320,84,105865,1,8,0:0:0:0:
322,89,105913,1,0,0:0:0:0:
322,89,105960,1,0,0:0:0:0:
321,89,106008,1,0,0:0:0:0:
321,89,106055,1,8,0:0:0:0:
329,84,106198,1,8,0:0:0:0:
310,81,106341,1,0,0:0:0:0:
305,88,106413,1,0,0:0:0:0:
304,88,106484,1,0,0:0:0:0:
306,87,106555,1,0,0:0:0:0:
312,81,106627,1,8,0:0:0:0:
305,84,106698,1,8,0:0:0:0:
309,83,106770,1,8,0:0:0:0:
303,85,106841,1,8,0:0:0:0:
304,87,106913,1,0,0:0:0:0:
308,85,107055,1,8,0:0:0:0:
297,102,107341,1,8,0:0:0:0:
302,88,107627,1,8,0:0:0:0:
305,84,107698,1,8,0:0:0:0:
309,83,107770,1,0,0:0:0:0:
303,85,107841,1,0,0:0:0:0:
304,87,107913,1,8,0:0:0:0:
299,92,108127,1,8,0:0:0:0:
302,91,108341,1,8,0:0:0:0:
302,88,108484,1,8,0:0:0:0:
302,88,108627,1,0,0:0:0:0:
288,88,108698,1,0,0:0:0:0:
298,86,108770,1,0,0:0:0:0:
303,85,108841,1,0,0:0:0:0:
296,86,108913,1,8,0:0:0:0:
299,92,108984,1,8,0:0:0:0:
299,92,109055,1,8,0:0:0:0:
299,92,109127,1,8,0:0:0:0:
295,88,109198,1,0,0:0:0:0:
295,100,109341,1,8,0:0:0:0:
297,99,109627,1,8,0:0:0:0:
292,100,109913,1,8,0:0:0:0:
290,95,109984,1,8,0:0:0:0:
289,95,110055,1,0,0:0:0:0:
282,97,110127,1,0,0:0:0:0:
306,103,110198,1,8,0:0:0:0:
278,104,110413,1,8,0:0:0:0:
308,90,110627,1,8,0:0:0:0:
293,86,110770,1,8,0:0:0:0:
283,95,110913,1,0,0:0:0:0:
290,95,110984,1,0,0:0:0:0:
289,95,111055,1,0,0:0:0:0:
282,97,111127,1,0,0:0:0:0:
288,96,111198,1,8,0:0:0:0:
285,96,111270,1,8,0:0:0:0:
288,96,111341,1,8,0:0:0:0:
283,96,111413,1,8,0:0:0:0:
282,97,111484,1,0,0:0:0:0:
282,96,111627,1,8,0:0:0:0:
283,95,111913,1,8,0:0:0:0:
276,101,112198,1,8,0:0:0:0:
276,101,112270,1,8,0:0:0:0:
279,102,112341,1,0,0:0:0:0:
278,103,112413,1,0,0:0:0:0:
282,96,112484,1,8,0:0:0:0:
282,117,112698,1,8,0:0:0:0:
278,113,112913,1,8,0:0:0:0:
277,113,113055,1,8,0:0:0:0:
289,101,113198,1,0,0:0:0:0:
276,101,113270,1,0,0:0:0:0:
285,97,113341,1,0,0:0:0:0:
278,103,113413,1,0,0:0:0:0:
288,97,113484,1,8,0:0:0:0:
286,106,113555,1,8,0:0:0:0:
286,104,113627,1,8,0:0:0:0:
288,93,113698,1,8,0:0:0:0:
286,104,113770,1,0,0:0:0:0:
296,94,113913,1,8,0:0:0:0:
256,192,114055,12,0,114484,0:0:0:0:
262,71,114627,5,8,0:0:0:0:
271,75,114698,1,0,0:0:0:0:
273,76,114770,1,0,0:0:0:0:
272,76,114841,1,0,0:0:0:0:
273,76,114913,1,8,0:0:0:0:
284,77,114984,1,0,0:0:0:0:
272,75,115055,1,8,0:0:0:0:
285,77,115127,1,8,0:0:0:0:
272,75,115198,1,0,0:0:0:0:
283,78,115341,1,8,0:0:0:0:
272,82,115413,1,0,0:0:0:0:
292,69,115484,1,8,0:0:0:0:
276,76,115555,1,8,0:0:0:0:
276,78,115627,1,0,0:0:0:0:
282,69,115698,1,0,0:0:0:0:
289,71,115770,1,8,0:0:0:0:
288,71,115841,1,8,0:0:0:0:
273,76,115913,1,8,0:0:0:0:
266,74,115984,1,0,0:0:0:0:
292,73,116055,1,8,0:0:0:0:
291,63,116198,1,0,0:0:0:0:
291,63,116270,1,0,0:0:0:0:
293,63,116341,1,0,0:0:0:0:
292,64,116484,1,8,0:0:0:0:
278,58,116555,1,8,0:0:0:0:
264,60,116627,1,8,0:0:0:0:
254,69,116770,1,0,0:0:0:0:
281,81,116841,1,0,0:0:0:0:
273,76,116913,1,8,0:0:0:0:
272,73,116984,1,0,0:0:0:0:
272,73,117055,1,8,0:0:0:0:
272,73,117127,1,8,0:0:0:0:
271,73,117198,1,0,0:0:0:0:
273,73,117270,1,8,0:0:0:0:
275,72,117341,1,8,0:0:0:0:
272,73,117413,1,0,0:0:0:0:
273,73,117484,1,8,0:0:0:0:
283,78,117627,1,0,0:0:0:0:
272,82,117698,1,8,0:0:0:0:
292,69,117770,1,0,0:0:0:0:
276,76,117841,1,0,0:0:0:0:
276,78,117913,1,8,0:0:0:0:
282,69,117984,1,8,0:0:0:0:
289,71,118055,1,0,0:0:0:0:
288,71,118127,1,0,0:0:0:0:
273,76,118198,1,0,0:0:0:0:
266,74,118270,1,8,0:0:0:0:
292,73,118341,1,0,0:0:0:0:
291,63,118484,1,8,0:0:0:0:
291,63,118555,1,8,0:0:0:0:
293,63,118627,1,8,0:0:0:0:
292,64,118770,1,0,0:0:0:0:
278,58,118841,1,0,0:0:0:0:
264,60,118913,1,0,0:0:0:0:
254,69,119055,1,8,0:0:0:0:
281,81,119127,1,8,0:0:0:0:
273,76,119198,1,0,0:0:0:0:
272,73,119270,1,8,0:0:0:0:
272,73,119341,1,0,0:0:0:0:
272,73,119413,1,0,0:0:0:0:
271,73,119484,1,8,0:0:0:0:
273,73,119555,1,0,0:0:0:0:
275,72,119627,1,0,0:0:0:0:
272,73,119698,1,8,0:0:0:0:
273,73,119770,1,0,0:0:0:0:
283,78,119913,1,8,0:0:0:0:
272,82,119984,1,8,0:0:0:0:
292,69,120056,1,0,0:0:0:0:
276,76,120127,1,0,0:0:0:0:
276,78,120199,1,8,0:0:0:0:
282,69,120270,1,0,0:0:0:0:
289,71,120341,1,8,0:0:0:0:
288,71,120413,1,8,0:0:0:0:
273,76,120484,1,8,0:0:0:0:
266,74,120556,1,8,0:0:0:0:
292,73,120627,1,0,0:0:0:0:
291,63,120770,1,8,0:0:0:0:
291,63,120841,1,0,0:0:0:0:
293,63,120913,1,8,0:0:0:0:
292,64,121056,1,0,0:0:0:0:
278,58,121127,1,8,0:0:0:0:
264,60,121199,1,0,0:0:0:0:
254,69,121341,1,8,0:0:0:0:
281,81,121413,1,8,0:0:0:0:
273,76,121484,1,0,0:0:0:0:
272,73,121555,1,0,0:0:0:0:
272,73,121627,1,8,0:0:0:0:
272,73,121698,1,8,0:0:0:0:
271,73,121770,1,0,0:0:0:0:
273,73,121841,1,8,0:0:0:0:
275,72,121913,1,8,0:0:0:0:
272,73,121984,1,0,0:0:0:0:
273,73,122055,1,8,0:0:0:0:
283,78,122198,1,0,0:0:0:0:
272,82,122269,1,0,0:0:0:0:
292,69,122341,1,8,0:0:0:0:
276,76,122412,1,0,0:0:0:0:
276,78,122484,1,8,0:0:0:0:
282,69,122555,1,8,0:0:0:0:
289,71,122626,1,0,0:0:0:0:
288,71,122698,1,0,0:0:0:0:
273,76,122769,1,8,0:0:0:0:
266,74,122841,1,0,0:0:0:0:
292,73,122912,1,8,0:0:0:0:
291,63,123055,1,0,0:0:0:0:
291,63,123126,1,0,0:0:0:0:
293,63,123198,1,8,0:0:0:0:
252,75,123270,1,8,0:0:0:0:
284,74,123341,1,8,0:0:0:0:
286,74,123413,1,8,0:0:0:0:
284,74,123484,1,8,0:0:0:0:
282,69,123555,1,8,0:0:0:0:
279,75,123627,1,8,0:0:0:0:
265,79,123698,1,8,0:0:0:0:
252,86,123770,1,0,0:0:0:0:
292,73,123913,1,8,0:0:0:0:
283,72,123984,1,0,0:0:0:0:
276,74,124055,1,0,0:0:0:0:
276,74,124198,1,0,0:0:0:0:
286,63,124341,1,8,0:0:0:0:
280,67,124413,1,8,0:0:0:0:
282,65,124484,1,0,0:0:0:0:
282,69,124555,1,0,0:0:0:0:
279,75,124627,1,8,0:0:0:0:
282,75,124698,1,0,0:0:0:0:
275,72,124770,1,8,0:0:0:0:
274,72,124841,1,0,0:0:0:0:
281,83,124913,1,8,0:0:0:0:
285,83,124984,1,8,0:0:0:0:
287,82,125055,1,8,0:0:0:0:
287,82,125127,1,0,0:0:0:0:
285,80,125198,1,0,0:0:0:0:
285,81,125270,1,0,0:0:0:0:
282,83,125341,1,8,0:0:0:0:
281,83,125413,1,8,0:0:0:0:
282,75,125484,1,0,0:0:0:0:
280,75,125555,1,0,0:0:0:0:
282,75,125627,1,8,0:0:0:0:
262,73,125698,1,8,0:0:0:0:
263,72,125770,1,0,0:0:0:0:
260,74,125841,1,0,0:0:0:0:
280,67,125913,1,8,0:0:0:0:
276,69,125984,1,0,0:0:0:0:
273,71,126055,1,8,0:0:0:0:
270,71,126127,1,0,0:0:0:0:
268,71,126198,1,8,0:0:0:0:
269,70,126270,1,8,0:0:0:0:
263,67,126341,1,0,0:0:0:0:
257,69,126413,1,8,0:0:0:0:
270,68,126484,1,8,0:0:0:0:
265,66,126555,1,0,0:0:0:0:
266,67,126627,1,8,0:0:0:0:
285,77,126698,1,8,0:0:0:0:
263,72,126770,1,0,0:0:0:0:
279,79,126841,1,0,0:0:0:0:
265,76,126913,1,8,0:0:0:0:
276,79,126984,1,0,0:0:0:0:
264,77,127055,1,8,0:0:0:0:
264,77,127127,1,8,0:0:0:0:
265,78,127198,1,8,0:0:0:0:
264,78,127270,1,0,0:0:0:0:
265,78,127341,1,0,0:0:0:0:
262,80,127413,1,0,0:0:0:0:
268,78,127484,1,8,0:0:0:0:
266,67,127555,1,0,0:0:0:0:
266,67,127627,1,8,0:0:0:0:
263,68,127698,1,8,0:0:0:0:
263,72,127770,1,0,0:0:0:0:
267,67,127841,1,0,0:0:0:0:
266,68,127913,1,8,0:0:0:0:
272,66,127984,1,8,0:0:0:0:
269,69,128055,1,0,0:0:0:0:
265,69,128127,1,0,0:0:0:0:
263,68,128198,1,8,0:0:0:0:
263,68,128270,1,0,0:0:0:0:
263,68,128341,1,8,0:0:0:0:
261,68,128413,1,0,0:0:0:0:
256,70,128484,1,8,0:0:0:0:
255,71,128555,1,8,0:0:0:0:
254,71,128627,1,0,0:0:0:0:
249,72,128698,1,8,0:0:0:0:
251,72,128770,1,8,0:0:0:0:
253,71,128841,1,0,0:0:0:0:
251,72,128913,1,8,0:0:0:0:
251,72,128984,1,8,0:0:0:0:
252,72,129055,1,0,0:0:0:0:
253,70,129127,1,0,0:0:0:0:
247,72,129198,1,8,0:0:0:0:
245,73,129270,1,0,0:0:0:0:
245,73,129341,1,0,0:0:0:0:
244,74,129413,1,0,0:0:0:0:
247,73,129484,1,8,0:0:0:0:
241,75,129555,1,8,0:0:0:0:
242,76,129627,1,8,0:0:0:0:
249,72,129698,1,0,0:0:0:0:
251,72,129770,1,0,0:0:0:0:
253,71,129841,1,0,0:0:0:0:
251,72,129913,1,8,0:0:0:0:
259,70,129984,1,8,0:0:0:0:
264,70,130055,1,0,0:0:0:0:
253,70,130127,1,0,0:0:0:0:
262,70,130198,1,8,0:0:0:0:
258,71,130270,1,8,0:0:0:0:
257,71,130341,1,0,0:0:0:0:
265,70,130413,1,0,0:0:0:0:
262,71,130484,1,8,0:0:0:0:
263,73,130555,1,0,0:0:0:0:
262,74,130627,1,0,0:0:0:0:
262,74,130698,1,0,0:0:0:0:
262,74,130770,1,8,0:0:0:0:
261,74,130841,1,8,0:0:0:0:
263,75,130913,1,0,0:0:0:0:
259,70,130984,1,8,0:0:0:0:
259,77,131055,1,8,0:0:0:0:
259,77,131127,1,0,0:0:0:0:
259,77,131198,1,8,0:0:0:0:
268,73,131270,1,8,0:0:0:0:
270,73,131341,1,0,0:0:0:0:
265,70,131413,1,8,0:0:0:0:
264,81,131484,1,0,0:0:0:0:
259,81,131555,1,8,0:0:0:0:
258,81,131627,1,0,0:0:0:0:
257,81,131698,1,0,0:0:0:0:
255,83,131770,1,8,0:0:0:0:
261,74,131841,1,8,0:0:0:0:
263,75,131913,1,8,0:0:0:0:
259,70,131984,1,0,0:0:0:0:
252,72,132055,1,0,0:0:0:0:
252,72,132127,1,0,0:0:0:0:
256,70,132198,1,8,0:0:0:0:
253,71,132270,1,0,0:0:0:0:
256,69,132341,1,8,0:0:0:0:
252,72,132413,1,8,0:0:0:0:
251,73,132484,1,8,0:0:0:0:
263,66,132555,1,8,0:0:0:0:
251,69,132627,1,8,0:0:0:0:
266,57,132698,1,8,0:0:0:0:
264,62,132770,1,8,0:0:0:0:
251,69,132841,1,8,0:0:0:0:
267,57,132913,1,0,0:0:0:0:
271,64,133055,1,8,0:0:0:0:
268,62,133127,1,0,0:0:0:0:
267,62,133198,1,0,0:0:0:0:
268,68,133341,1,0,0:0:0:0:
254,66,133484,1,8,0:0:0:0:
251,56,133555,1,0,0:0:0:0:
250,56,133627,1,8,0:0:0:0:
250,56,133698,1,8,0:0:0:0:
247,57,133770,1,0,0:0:0:0:
239,56,133841,1,0,0:0:0:0:
259,55,133913,1,0,0:0:0:0:
257,57,133984,1,0,0:0:0:0:
257,63,134055,1,8,0:0:0:0:
258,63,134127,1,8,0:0:0:0:
257,64,134198,1,8,0:0:0:0:
257,64,134270,1,8,0:0:0:0:
257,64,134341,1,0,0:0:0:0:
254,66,134413,1,0,0:0:0:0:
259,71,134484,1,8,0:0:0:0:
257,69,134555,1,8,0:0:0:0:
259,65,134627,1,0,0:0:0:0:
258,72,134698,1,0,0:0:0:0:
257,73,134770,1,8,0:0:0:0:
263,68,134841,1,8,0:0:0:0:
257,67,134913,1,0,0:0:0:0:
264,68,134984,1,0,0:0:0:0:
262,68,135055,1,0,0:0:0:0:
258,63,135127,1,0,0:0:0:0:
262,72,135198,1,8,0:0:0:0:
264,68,135270,1,0,0:0:0:0:
266,67,135341,1,8,0:0:0:0:
254,66,135413,1,0,0:0:0:0:
259,71,135484,1,0,0:0:0:0:
251,73,135555,1,8,0:0:0:0:
251,73,135627,1,8,0:0:0:0:
258,72,135698,1,0,0:0:0:0:
257,73,135770,1,8,0:0:0:0:
270,61,135841,1,8,0:0:0:0:
270,62,135913,1,8,0:0:0:0:
269,62,135984,1,8,0:0:0:0:
269,62,136055,1,0,0:0:0:0:
269,67,136127,1,8,0:0:0:0:
269,67,136198,1,0,0:0:0:0:
264,68,136270,1,0,0:0:0:0:
266,67,136341,1,8,0:0:0:0:
269,64,136413,1,0,0:0:0:0:
267,66,136484,1,0,0:0:0:0:
268,63,136555,1,0,0:0:0:0:
266,67,136627,1,8,0:0:0:0:
258,72,136698,1,8,0:0:0:0:
257,73,136770,1,0,0:0:0:0:
260,65,136841,1,8,0:0:0:0:
256,68,136913,1,0,0:0:0:0:
258,67,136984,1,0,0:0:0:0:
247,71,137055,1,8,0:0:0:0:
253,66,137127,1,8,0:0:0:0:
232,61,137198,1,0,0:0:0:0:
229,63,137270,1,0,0:0:0:0:
233,60,137341,1,0,0:0:0:0:
229,62,137413,1,0,0:0:0:0:
228,63,137484,1,8,0:0:0:0:
220,64,137555,1,8,0:0:0:0:
266,67,137627,1,8,0:0:0:0:
280,78,137698,1,0,0:0:0:0:
265,67,137770,1,0,0:0:0:0:
260,65,137841,1,8,0:0:0:0:
263,69,137913,1,8,0:0:0:0:
258,67,137984,1,8,0:0:0:0:
265,72,138055,1,0,0:0:0:0:
253,73,138127,1,0,0:0:0:0:
257,71,138198,1,8,0:0:0:0:
249,73,138270,1,8,0:0:0:0:
251,73,138341,1,0,0:0:0:0:
251,74,138413,1,0,0:0:0:0:
249,73,138484,1,8,0:0:0:0:
249,73,138555,1,0,0:0:0:0:
248,73,138627,1,8,0:0:0:0:
248,73,138698,1,8,0:0:0:0:
247,74,138770,1,0,0:0:0:0:
260,65,138841,1,8,0:0:0:0:
237,69,138913,1,8,0:0:0:0:
235,71,138984,1,0,0:0:0:0:
232,70,139055,1,8,0:0:0:0:
232,70,139127,1,8,0:0:0:0:
227,70,139198,1,0,0:0:0:0:
213,81,139270,1,0,0:0:0:0:
201,85,139341,1,8,0:0:0:0:
204,83,139413,1,8,0:0:0:0:
241,91,139484,1,0,0:0:0:0:
231,84,139555,1,0,0:0:0:0:
223,88,139627,1,8,0:0:0:0:
222,92,139698,1,0,0:0:0:0:
231,83,139770,1,8,0:0:0:0:
232,83,139841,1,8,0:0:0:0:
230,83,139913,1,0,0:0:0:0:
228,84,139984,1,0,0:0:0:0:
226,85,140055,1,8,0:0:0:0:
225,85,140127,1,0,0:0:0:0:
223,86,140198,1,0,0:0:0:0:
224,86,140270,1,8,0:0:0:0:
241,91,140341,1,0,0:0:0:0:
241,91,140413,1,8,0:0:0:0:
241,91,140484,1,8,0:0:0:0:
236,90,140555,1,8,0:0:0:0:
241,88,140627,1,0,0:0:0:0:
263,97,140698,1,0,0:0:0:0:
244,89,140770,1,8,0:0:0:0:
238,92,140841,1,0,0:0:0:0:
237,92,140913,1,8,0:0:0:0:
240,86,140984,1,8,0:0:0:0:
239,91,141055,1,0,0:0:0:0:
241,90,141127,1,8,0:0:0:0:
242,89,141198,1,8,0:0:0:0:
238,92,141270,1,8,0:0:0:0:
241,91,141341,1,0,0:0:0:0:
266,78,141413,1,0,0:0:0:0:
261,72,141484,1,8,0:0:0:0:
269,96,141555,1,8,0:0:0:0:
256,99,141627,1,0,0:0:0:0:
253,101,141698,1,0,0:0:0:0:
253,100,141770,1,8,0:0:0:0:
253,101,141841,1,8,0:0:0:0:
251,101,141913,1,8,0:0:0:0:
251,101,141984,1,0,0:0:0:0:
250,76,142055,1,8,0:0:0:0:
249,76,142127,1,0,0:0:0:0:
246,86,142198,1,8,0:0:0:0:
243,86,142270,1,8,0:0:0:0:
243,86,142341,1,0,0:0:0:0:
242,81,142413,1,8,0:0:0:0:
241,84,142484,1,8,0:0:0:0:
240,83,142555,1,0,0:0:0:0:
240,83,142627,1,8,0:0:0:0:
234,95,142770,1,0,0:0:0:0:
242,103,142841,1,8,0:0:0:0:
242,103,142984,1,0,0:0:0:0:
237,85,143055,1,8,0:0:0:0:
227,102,143198,1,0,0:0:0:0:
214,102,143270,1,8,0:0:0:0:
235,87,143341,1,0,0:0:0:0:
214,102,143413,1,0,0:0:0:0:
236,107,143484,1,8,0:0:0:0:
232,103,143627,1,0,0:0:0:0:
242,85,143698,1,0,0:0:0:0:
240,86,143770,1,0,0:0:0:0:
237,88,143841,1,0,0:0:0:0:
235,89,143913,1,8,0:0:0:0:
237,85,144055,1,0,0:0:0:0:
228,88,144127,1,8,0:0:0:0:
265,85,144270,1,8,0:0:0:0:
235,87,144341,1,0,0:0:0:0:
231,89,144413,1,0,0:0:0:0:
224,91,144484,1,8,0:0:0:0:
229,85,144555,1,8,0:0:0:0:
258,75,144627,1,0,0:0:0:0:
229,85,144770,1,8,0:0:0:0:
247,79,144841,1,0,0:0:0:0:
233,78,144913,1,0,0:0:0:0:
232,78,144984,1,0,0:0:0:0:
232,78,145055,1,8,0:0:0:0:
253,94,145198,1,0,0:0:0:0:
254,95,145270,1,8,0:0:0:0:
217,74,145413,1,8,0:0:0:0:
254,78,145484,1,0,0:0:0:0:
254,81,145555,1,0,0:0:0:0:
252,81,145627,1,0,0:0:0:0:
250,83,145698,1,0,0:0:0:0:
256,81,145770,1,8,0:0:0:0:
225,68,145913,1,8,0:0:0:0:
225,68,146055,1,0,0:0:0:0:
225,68,146127,1,0,0:0:0:0:
225,68,146198,1,0,0:0:0:0:
225,68,146270,1,0,0:0:0:0:
225,68,146341,1,8,0:0:0:0:
226,71,146484,1,0,0:0:0:0:
215,75,146555,1,0,0:0:0:0:
216,75,146627,1,0,0:0:0:0:
216,75,146698,1,0,0:0:0:0:
216,75,146770,1,8,0:0:0:0:
216,75,146841,1,8,0:0:0:0:
216,75,146984,1,0,0:0:0:0:
216,75,147055,1,0,0:0:0:0:
216,75,147127,1,0,0:0:0:0:
213,77,147198,1,8,0:0:0:0:
232,84,147270,1,0,0:0:0:0:
241,83,147341,1,8,0:0:0:0:
246,77,147413,1,0,0:0:0:0:
249,77,147484,1,8,0:0:0:0:
240,79,147555,1,0,0:0:0:0:
240,78,147627,1,8,0:0:0:0:
240,79,147698,1,0,0:0:0:0:
240,78,147770,1,8,0:0:0:0:
241,81,147841,1,8,0:0:0:0:
241,80,147913,1,0,0:0:0:0:
242,80,147984,1,0,0:0:0:0:
241,80,148055,1,0,0:0:0:0:
241,80,148127,1,0,0:0:0:0:
241,80,148198,1,8,0:0:0:0:
240,80,148270,1,8,0:0:0:0:
241,83,148341,1,0,0:0:0:0:
247,88,148413,1,0,0:0:0:0:
236,89,148484,1,8,0:0:0:0:
240,88,148555,1,8,0:0:0:0:
235,89,148627,1,0,0:0:0:0:
251,92,148698,1,0,0:0:0:0:
248,92,148770,1,8,0:0:0:0:
247,93,148841,1,0,0:0:0:0:
245,94,148913,1,8,0:0:0:0:
240,97,148984,1,0,0:0:0:0:
245,94,149055,1,8,0:0:0:0:
246,95,149127,1,8,0:0:0:0:
249,91,149198,1,0,0:0:0:0:
248,91,149270,1,8,0:0:0:0:
243,92,149341,1,8,0:0:0:0:
247,88,149413,1,8,0:0:0:0:
236,89,149484,1,0,0:0:0:0:
253,82,149555,1,0,0:0:0:0:
247,82,149627,1,0,0:0:0:0:
247,82,149698,1,0,0:0:0:0:
239,79,149770,1,8,0:0:0:0:
243,77,149841,1,0,0:0:0:0:
243,77,149913,1,0,0:0:0:0:
240,78,149984,1,0,0:0:0:0:
238,79,150055,1,8,0:0:0:0:
243,75,150127,1,8,0:0:0:0:
247,73,150198,1,0,0:0:0:0:
242,74,150270,1,0,0:0:0:0:
234,77,150341,1,8,0:0:0:0:
231,78,150413,1,8,0:0:0:0:
234,77,150484,1,8,0:0:0:0:
230,78,150555,1,0,0:0:0:0:
221,71,150627,1,8,0:0:0:0:
246,66,150698,1,8,0:0:0:0:
240,62,150770,1,0,0:0:0:0:
243,77,150805,1,0,0:0:0:0:
243,77,150841,1,0,0:0:0:0:
239,62,150913,1,8,0:0:0:0:
240,78,150984,1,8,0:0:0:0:
243,75,151055,1,0,0:0:0:0:
234,78,151091,1,0,0:0:0:0:
235,78,151127,1,0,0:0:0:0:
236,63,151198,1,8,0:0:0:0:
236,63,151270,1,0,0:0:0:0:
233,66,151341,1,8,0:0:0:0:
232,66,151413,1,8,0:0:0:0:
231,55,151484,1,0,0:0:0:0:
236,52,151555,1,8,0:0:0:0:
236,52,151627,1,8,0:0:0:0:
236,52,151698,1,0,0:0:0:0:
230,53,151770,1,12,0:0:0:0:
245,49,152055,1,0,0:0:0:0:
245,49,152198,1,12,0:0:0:0:
249,58,152484,1,8,0:0:0:0:
248,59,152627,1,4,0:0:0:0:
263,71,152841,1,8,0:0:0:0:
263,71,152913,1,0,0:0:0:0:
279,97,153055,1,0,0:0:0:0:
278,96,153198,1,8,0:0:0:0:
261,89,153341,1,0,0:0:0:0:
258,90,153413,1,0,0:0:0:0:
258,89,153484,1,0,0:0:0:0:
253,89,153627,1,8,0:0:0:0:
246,91,153770,1,0,0:0:0:0:
245,92,153841,1,8,0:0:0:0:
249,88,153984,1,8,0:0:0:0:
246,92,154055,1,0,0:0:0:0:
258,84,154198,1,0,0:0:0:0:
252,82,154270,1,0,0:0:0:0:
242,84,154341,1,8,0:0:0:0:
236,87,154484,1,8,0:0:0:0:
246,91,154627,1,0,0:0:0:0:
243,81,154698,1,8,0:0:0:0:
236,80,154770,1,0,0:0:0:0:
252,77,154841,1,0,0:0:0:0:
249,88,154913,1,8,0:0:0:0:
240,81,154984,1,8,0:0:0:0:
237,82,155055,1,0,0:0:0:0:
245,79,155127,1,8,0:0:0:0:
252,90,155341,1,0,0:0:0:0:
255,96,155413,1,0,0:0:0:0:
256,97,155484,1,8,0:0:0:0:
258,97,155555,1,0,0:0:0:0:
256,99,155627,1,8,0:0:0:0:
256,99,155698,1,8,0:0:0:0:
264,90,155770,1,0,0:0:0:0:
257,89,155841,1,8,0:0:0:0:
250,90,155913,1,8,0:0:0:0:
258,89,155984,1,8,0:0:0:0:
228,92,156055,1,0,0:0:0:0:
231,91,156127,1,0,0:0:0:0:
231,95,156198,1,0,0:0:0:0:
226,97,156270,1,0,0:0:0:0:
252,90,156341,1,12,0:0:0:0:
240,89,156627,1,0,0:0:0:0:
237,89,156770,1,12,0:0:0:0:
231,91,157055,1,8,0:0:0:0:
237,89,157198,1,4,0:0:0:0:
240,89,157484,1,0,0:0:0:0:
237,89,157627,1,0,0:0:0:0:
237,89,157698,1,0,0:0:0:0:
243,73,157770,1,8,0:0:0:0:
245,70,157841,1,8,0:0:0:0:
254,99,157913,1,0,0:0:0:0:
241,61,157984,1,0,0:0:0:0:
251,60,158055,1,0,0:0:0:0:
244,64,158198,1,8,0:0:0:0:
244,64,158341,1,0,0:0:0:0:
244,68,158413,1,0,0:0:0:0:
248,67,158484,1,8,0:0:0:0:
240,77,158627,1,0,0:0:0:0:
236,83,158770,1,0,0:0:0:0:
236,83,158913,1,8,0:0:0:0:
244,71,158984,1,0,0:0:0:0:
236,84,159055,1,0,0:0:0:0:
237,78,159127,1,0,0:0:0:0:
236,80,159198,1,8,0:0:0:0:
236,79,159270,1,8,0:0:0:0:
248,77,159341,1,0,0:0:0:0:
241,79,159413,1,0,0:0:0:0:
232,80,159484,1,8,0:0:0:0:
228,75,159555,1,0,0:0:0:0:
230,80,159627,1,8,0:0:0:0:
218,79,159913,1,8,0:0:0:0:
212,77,159984,1,8,0:0:0:0:
211,81,160055,1,0,0:0:0:0:
207,85,160127,1,8,0:0:0:0:
197,78,160198,1,0,0:0:0:0:
199,77,160270,1,0,0:0:0:0:
201,77,160341,1,8,0:0:0:0:
196,85,160413,1,0,0:0:0:0:
200,80,160484,1,8,0:0:0:0:
199,80,160555,1,8,0:0:0:0:
263,74,160627,1,0,0:0:0:0:
280,71,160674,1,0,0:0:0:0:
279,72,160722,1,0,0:0:0:0:
263,74,160913,1,12,0:0:0:0:
272,64,161198,1,0,0:0:0:0:
263,74,161341,1,12,0:0:0:0:
272,64,161627,1,8,0:0:0:0:
263,74,161770,1,4,0:0:0:0:
273,75,162055,1,0,0:0:0:0:
273,75,162198,1,0,0:0:0:0:
271,75,162341,1,8,0:0:0:0:
260,68,162484,1,0,0:0:0:0:
257,69,162555,1,0,0:0:0:0:
254,69,162627,1,0,0:0:0:0:
257,69,162770,1,8,0:0:0:0:
260,69,162913,1,0,0:0:0:0:
260,70,162984,1,8,0:0:0:0:
259,69,163127,1,8,0:0:0:0:
258,69,163198,1,0,0:0:0:0:
258,69,163341,1,0,0:0:0:0:
260,68,163413,1,0,0:0:0:0:
260,68,163484,1,8,0:0:0:0:
254,69,163627,1,8,0:0:0:0:
257,69,163770,1,0,0:0:0:0:
260,69,163841,1,0,0:0:0:0:
260,70,163913,1,8,0:0:0:0:
260,70,163984,1,0,0:0:0:0:
259,69,164127,1,8,0:0:0:0:
258,69,164198,1,0,0:0:0:0:
258,69,164270,1,0,0:0:0:0:
249,71,164341,1,8,0:0:0:0:
249,67,164484,1,0,0:0:0:0:
247,72,164555,1,0,0:0:0:0:
246,73,164627,1,8,0:0:0:0:
247,73,164698,1,8,0:0:0:0:
257,69,164770,1,0,0:0:0:0:
245,76,164841,1,8,0:0:0:0:
239,79,164913,1,0,0:0:0:0:
242,77,164984,1,8,0:0:0:0:
256,78,165055,1,8,0:0:0:0:
259,69,165127,1,8,0:0:0:0:
253,74,165198,1,0,0:0:0:0:
249,75,165270,1,0,0:0:0:0:
246,78,165341,1,0,0:0:0:0:
247,77,165413,1,0,0:0:0:0:
252,75,165484,1,12,0:0:0:0:
252,60,165770,1,0,0:0:0:0:
252,75,165913,1,12,0:0:0:0:
254,64,166198,1,8,0:0:0:0:
246,78,166341,1,4,0:0:0:0:
249,75,166627,1,0,0:0:0:0:
237,79,166770,1,0,0:0:0:0:
233,80,166841,1,0,0:0:0:0:
242,75,166913,1,8,0:0:0:0:
241,75,166984,1,8,0:0:0:0:
241,76,167055,1,0,0:0:0:0:
241,75,167127,1,0,0:0:0:0:
243,75,167198,1,0,0:0:0:0:
246,78,167341,1,8,0:0:0:0:
258,99,167484,1,8,0:0:0:0:
252,100,167555,1,0,0:0:0:0:
255,100,167627,1,0,0:0:0:0:
253,88,167770,1,8,0:0:0:0:
251,92,167913,1,0,0:0:0:0:
251,92,167984,1,8,0:0:0:0:
248,91,168055,1,0,0:0:0:0:
263,83,168198,1,8,0:0:0:0:
255,87,168341,1,0,0:0:0:0:
244,95,168413,1,8,0:0:0:0:
251,88,168484,1,8,0:0:0:0:
242,95,168555,1,0,0:0:0:0:
241,95,168627,1,8,0:0:0:0:
234,96,168698,1,0,0:0:0:0:
234,96,168770,1,8,0:0:0:0:
230,97,168913,1,0,0:0:0:0:
230,96,168984,1,0,0:0:0:0:
232,95,169055,1,8,0:0:0:0:
235,94,169127,1,8,0:0:0:0:
235,94,169198,1,0,0:0:0:0:
232,97,169270,1,0,0:0:0:0:
228,100,169341,1,8,0:0:0:0:
230,100,169413,1,0,0:0:0:0:
240,96,169484,1,8,0:0:0:0:
220,99,169555,1,0,0:0:0:0:
222,98,169627,1,0,0:0:0:0:
219,99,169698,1,0,0:0:0:0:
220,98,169770,1,8,0:0:0:0:
213,105,169841,1,8,0:0:0:0:
215,103,169913,1,0,0:0:0:0:
214,103,169984,1,0,0:0:0:0:
231,120,170055,1,0,0:0:0:0:
259,88,170955,1,8,0:0:0:0:
259,88,171105,1,0,0:0:0:0:
286,78,171405,1,8,0:0:0:0:
281,80,171480,1,8,0:0:0:0:
283,79,171555,1,8,0:0:0:0:
278,79,171630,1,0,0:0:0:0:
275,79,171705,1,0,0:0:0:0:
275,79,171780,1,0,0:0:0:0:
279,90,171855,1,8,0:0:0:0:
282,90,171930,1,8,0:0:0:0:
276,92,172005,1,0,0:0:0:0:
278,90,172080,1,0,0:0:0:0:
286,78,172155,1,8,0:0:0:0:
286,78,172205,1,0,0:0:0:0:
286,78,172255,1,0,0:0:0:0:
286,78,172305,1,8,0:0:0:0:
286,78,172355,1,8,0:0:0:0:
286,78,172405,1,0,0:0:0:0:
281,80,172455,1,8,0:0:0:0:
287,64,172755,1,8,0:0:0:0:
284,68,172830,1,0,0:0:0:0:
284,69,172905,1,0,0:0:0:0:
282,69,172980,1,0,0:0:0:0:
282,70,173055,1,8,0:0:0:0:
278,73,173130,1,8,0:0:0:0:
286,78,173205,1,8,0:0:0:0:
286,78,173280,1,0,0:0:0:0:
286,78,173355,1,8,0:0:0:0:
284,73,173430,1,8,0:0:0:0:
279,74,173505,1,0,0:0:0:0:
278,75,173580,1,0,0:0:0:0:
279,77,173655,1,8,0:0:0:0:
277,76,173730,1,0,0:0:0:0:
273,77,173805,1,0,0:0:0:0:
270,78,173880,1,8,0:0:0:0:
269,78,173955,1,0,0:0:0:0:
264,80,174030,1,0,0:0:0:0:
264,80,174105,1,8,0:0:0:0:
265,83,174180,1,8,0:0:0:0:
266,81,174255,1,0,0:0:0:0:
285,61,174555,1,0,0:0:0:0:
306,67,174605,1,0,0:0:0:0:
331,56,174655,1,8,0:0:0:0:
306,67,174705,1,8,0:0:0:0:
306,67,174755,1,0,0:0:0:0:
300,67,174805,1,0,0:0:0:0:
300,67,174855,1,8,0:0:0:0:
336,78,175012,1,8,0:0:0:0:
324,75,175170,1,0,0:0:0:0:
319,80,175249,1,0,0:0:0:0:
320,81,175328,1,8,0:0:0:0:
318,69,175644,1,0,0:0:0:0:
322,73,175723,1,0,0:0:0:0:
326,71,175802,1,0,0:0:0:0:
323,72,175881,1,0,0:0:0:0:
323,72,175960,1,0,0:0:0:0:
324,75,176039,1,0,0:0:0:0:
324,75,176118,1,8,0:0:0:0:
329,64,176276,1,0,0:0:0:0:
333,58,176355,1,0,0:0:0:0:
332,84,176433,1,8,0:0:0:0:
337,58,176591,1,0,0:0:0:0:
326,71,176749,1,8,0:0:0:0:
333,69,176802,1,8,0:0:0:0:
323,72,176855,1,8,0:0:0:0:
323,72,176907,1,0,0:0:0:0:
344,60,176986,1,0,0:0:0:0:
342,61,177065,1,8,0:0:0:0:
322,51,177118,1,8,0:0:0:0:
322,52,177170,1,0,0:0:0:0:
320,56,177223,1,0,0:0:0:0:
333,58,177302,1,0,0:0:0:0:
332,59,177381,1,8,0:0:0:0:
337,58,177547,1,0,0:0:0:0:
326,71,177631,1,0,0:0:0:0:
326,71,177714,1,0,0:0:0:0:
333,56,177797,1,0,0:0:0:0:
333,63,177881,1,8,0:0:0:0:
331,56,178047,1,0,0:0:0:0:
327,58,178131,1,0,0:0:0:0:
330,57,178214,1,8,0:0:0:0:
333,58,178297,1,8,0:0:0:0:
332,59,178381,1,0,0:0:0:0:
321,60,178714,1,0,0:0:0:0:
321,60,178881,1,0,0:0:0:0:
327,58,179047,1,8,0:0:0:0:
319,61,179214,1,0,0:0:0:0:
317,62,179381,1,8,0:0:0:0:
321,60,179547,1,0,0:0:0:0:
321,60,179714,1,0,0:0:0:0:
321,60,179881,1,0,0:0:0:0:
297,59,180047,1,8,0:0:0:0:
335,60,180381,1,0,0:0:0:0:
314,66,180492,1,0,0:0:0:0:
314,66,180603,1,0,0:0:0:0:
313,66,180714,1,8,0:0:0:0:
321,60,180825,1,0,0:0:0:0:
309,51,180936,1,8,0:0:0:0:
317,59,181047,1,0,0:0:0:0:
313,66,181158,1,8,0:0:0:0:
317,62,181269,1,8,0:0:0:0:
317,62,181381,1,0,0:0:0:0:
321,63,181714,1,0,0:0:0:0:
305,69,181825,1,0,0:0:0:0:
304,69,181936,1,0,0:0:0:0:
306,71,182047,1,8,0:0:0:0:
306,71,182158,1,0,0:0:0:0:
306,68,182269,1,8,0:0:0:0:
306,68,182381,1,0,0:0:0:0:
307,68,182492,1,8,0:0:0:0:
307,68,182603,1,0,0:0:0:0:
305,69,182714,1,8,0:0:0:0:
311,73,182936,1,8,0:0:0:0:
312,62,182992,1,8,0:0:0:0:
314,63,183047,1,0,0:0:0:0:
292,70,183103,1,0,0:0:0:0:
306,68,183158,1,8,0:0:0:0:
306,68,183214,1,8,0:0:0:0:
306,68,183269,1,0,0:0:0:0:
306,68,183325,1,0,0:0:0:0:
306,68,183381,1,8,0:0:0:0:
307,68,183464,1,8,0:0:0:0:
307,68,183547,1,0,0:0:0:0:
297,67,183631,1,0,0:0:0:0:
300,67,183797,1,0,0:0:0:0:
316,59,183881,1,0,0:0:0:0:
312,62,183964,1,0,0:0:0:0:
314,63,184047,1,8,0:0:0:0:
306,68,184464,1,0,0:0:0:0:
310,76,184714,1,8,0:0:0:0:
314,70,184835,1,0,0:0:0:0:
286,72,184956,1,8,0:0:0:0:
317,67,185077,1,0,0:0:0:0:
306,68,185198,1,8,0:0:0:0:
287,73,185320,1,8,0:0:0:0:
287,73,185441,1,0,0:0:0:0:
301,67,186441,1,0,0:0:0:0:
291,73,186691,1,0,0:0:0:0:
301,67,186941,1,8,0:0:0:0:
285,73,187715,1,0,0:0:0:0:
285,73,188489,1,8,0:0:0:0:
285,73,189289,1,0,0:0:0:0:
285,73,190089,1,0,0:0:0:0:
285,73,190916,1,0,0:0:0:0:
285,71,192172,1,8,0:0:0:0:
269,134,198601,5,0,0:0:0:0:
287,112,198712,1,0,0:0:0:0:
269,134,198823,1,0,0:0:0:0:
269,134,198934,1,8,0:0:0:0:
286,112,199156,1,8,0:0:0:0:
285,112,199267,1,0,0:0:0:0:
287,101,199601,1,0,0:0:0:0:
265,112,199712,1,8,0:0:0:0:
287,92,199823,1,0,0:0:0:0:
286,98,199934,1,8,0:0:0:0:
276,103,200045,1,8,0:0:0:0:
294,90,200156,1,0,0:0:0:0:
294,90,200267,1,0,0:0:0:0:
289,72,200378,1,8,0:0:0:0:
294,72,200434,1,0,0:0:0:0:
299,90,200489,1,0,0:0:0:0:
298,90,200545,1,0,0:0:0:0:
296,89,200601,1,8,0:0:0:0:
298,88,200712,1,8,0:0:0:0:
302,80,200934,1,0,0:0:0:0:
302,80,201045,1,8,0:0:0:0:
300,83,201156,1,8,0:0:0:0:
304,97,201378,1,0,0:0:0:0:
302,98,201434,1,8,0:0:0:0:
302,98,201489,1,0,0:0:0:0:
311,96,201601,1,8,0:0:0:0:
311,96,201656,1,8,0:0:0:0:
311,96,201712,1,0,0:0:0:0:
311,96,201823,1,8,0:0:0:0:
311,96,201934,1,0,0:0:0:0:
310,96,202045,1,8,0:0:0:0:
309,95,202156,1,0,0:0:0:0:
308,90,202267,1,0,0:0:0:0:
308,90,202378,1,0,0:0:0:0:
308,90,202489,1,8,0:0:0:0:
313,84,202712,1,8,0:0:0:0:
313,84,202823,1,0,0:0:0:0:
308,90,203156,1,0,0:0:0:0:
308,90,203267,1,8,0:0:0:0:
314,78,203378,1,0,0:0:0:0:
313,84,203489,1,8,0:0:0:0:
300,72,203601,1,8,0:0:0:0:
302,72,203712,1,0,0:0:0:0:
298,75,203823,1,0,0:0:0:0:
298,75,203934,1,8,0:0:0:0:
304,75,203989,1,0,0:0:0:0:
307,75,204045,1,0,0:0:0:0:
304,75,204101,1,0,0:0:0:0:
306,75,204156,1,8,0:0:0:0:
314,78,204267,1,8,0:0:0:0:
304,78,204489,1,0,0:0:0:0:
300,72,204601,1,8,0:0:0:0:
302,72,204712,1,8,0:0:0:0:
311,64,204934,1,0,0:0:0:0:
305,66,204989,1,8,0:0:0:0:
307,75,205045,1,0,0:0:0:0:
304,75,205101,1,0,0:0:0:0:
306,75,205156,1,8,0:0:0:0:
304,78,205267,1,0,0:0:0:0:
311,60,205378,1,0,0:0:0:0:
308,62,205489,1,8,0:0:0:0:
310,58,205545,1,8,0:0:0:0:
305,60,205601,1,8,0:0:0:0:
310,58,205656,1,8,0:0:0:0:
316,57,205712,1,0,0:0:0:0:
315,70,205823,1,0,0:0:0:0:
315,70,205934,1,0,0:0:0:0:
315,70,206045,1,8,0:0:0:0:
298,63,206267,1,0,0:0:0:0:
293,61,206378,1,8,0:0:0:0:
310,58,206601,1,0,0:0:0:0:
314,61,206712,1,0,0:0:0:0:
307,55,206823,1,8,0:0:0:0:
307,55,206934,1,8,0:0:0:0:
303,57,207045,1,0,0:0:0:0:
303,57,207156,1,8,0:0:0:0:
303,57,207267,1,0,0:0:0:0:
300,58,207378,1,8,0:0:0:0:
299,62,207489,1,0,0:0:0:0:
300,61,207545,1,0,0:0:0:0:
298,62,207601,1,0,0:0:0:0:
297,63,207656,1,0,0:0:0:0:
299,66,207712,1,8,0:0:0:0:
290,74,207823,1,8,0:0:0:0:
292,73,208045,1,8,0:0:0:0:
303,57,208156,1,0,0:0:0:0:
292,73,208267,1,8,0:0:0:0:
300,58,208378,1,8,0:0:0:0:
292,64,208489,1,0,0:0:0:0:
293,64,208545,1,8,0:0:0:0:
298,62,208601,1,0,0:0:0:0:
299,66,208656,1,0,0:0:0:0:
299,66,208712,1,8,0:0:0:0:
290,74,208767,1,8,0:0:0:0:
292,73,208823,1,0,0:0:0:0:
292,73,208934,1,8,0:0:0:0:
292,68,209045,1,0,0:0:0:0:
292,68,209156,1,8,0:0:0:0:
292,73,209267,1,0,0:0:0:0:
292,64,209378,1,0,0:0:0:0:
293,64,209489,1,0,0:0:0:0:
280,54,209601,1,8,0:0:0:0:
279,55,209823,1,0,0:0:0:0:
277,54,209934,1,8,0:0:0:0:
271,56,210045,1,8,0:0:0:0:
270,56,210156,1,8,0:0:0:0:
270,56,210267,1,0,0:0:0:0:
270,56,210378,1,8,0:0:0:0:
270,56,210489,1,0,0:0:0:0:
270,56,210601,1,8,0:0:0:0:
269,60,210712,1,0,0:0:0:0:
266,59,210823,1,8,0:0:0:0:
277,54,210934,1,8,0:0:0:0:
271,56,211045,1,0,0:0:0:0:
270,56,211101,1,0,0:0:0:0:
270,56,211156,1,0,0:0:0:0:
270,56,211212,1,0,0:0:0:0:
244,57,211267,1,8,0:0:0:0:
248,58,211378,1,0,0:0:0:0:
270,56,211601,1,0,0:0:0:0:
274,48,211712,1,8,0:0:0:0:
286,62,211823,1,8,0:0:0:0:
281,59,212156,1,8,0:0:0:0:
282,54,212212,1,8,0:0:0:0:
279,57,212267,1,0,0:0:0:0:
273,61,212323,1,0,0:0:0:0:
270,56,212378,1,8,0:0:0:0:
266,63,212434,1,0,0:0:0:0:
267,63,212489,1,8,0:0:0:0:
267,63,212545,1,8,0:0:0:0:
270,56,212601,1,0,0:0:0:0:
271,66,212656,1,8,0:0:0:0:
270,66,212712,1,0,0:0:0:0:
269,67,212767,1,0,0:0:0:0:
270,66,212823,1,8,0:0:0:0:
281,59,212934,1,8,0:0:0:0:
281,59,213045,1,0,0:0:0:0:
294,75,213156,1,8,0:0:0:0:
283,69,213267,1,8,0:0:0:0:
291,70,213378,1,0,0:0:0:0:
286,74,213489,1,8,0:0:0:0:
284,56,213545,1,0,0:0:0:0:
285,75,213601,1,8,0:0:0:0:
288,62,213656,1,8,0:0:0:0:
285,75,213712,1,0,0:0:0:0:
289,64,213823,1,8,0:0:0:0:
281,59,213934,1,8,0:0:0:0:
289,51,214045,1,0,0:0:0:0:
285,55,214156,1,8,0:0:0:0:
281,52,214212,1,0,0:0:0:0:
268,61,214267,1,0,0:0:0:0:
265,63,214378,1,8,0:0:0:0:
258,65,214434,1,0,0:0:0:0:
258,66,214489,1,8,0:0:0:0:
268,68,214600,1,0,0:0:0:0:
242,77,214712,1,0,0:0:0:0:
249,74,214823,1,8,0:0:0:0:
249,78,214934,1,0,0:0:0:0:
250,78,215045,1,0,0:0:0:0:
285,55,215156,1,8,0:0:0:0:
276,66,215267,1,0,0:0:0:0:
254,66,215323,1,8,0:0:0:0:
277,65,215378,1,0,0:0:0:0:
258,65,215434,1,0,0:0:0:0:
279,56,215489,1,8,0:0:0:0:
280,64,215600,1,0,0:0:0:0:
280,63,215712,1,0,0:0:0:0:
266,58,215823,1,8,0:0:0:0:
280,63,215934,1,0,0:0:0:0:
273,52,215989,1,0,0:0:0:0:
271,52,216045,1,8,0:0:0:0:
276,66,216156,1,0,0:0:0:0:
277,50,216212,1,8,0:0:0:0:
275,51,216267,1,0,0:0:0:0:
277,65,216378,1,8,0:0:0:0:
287,73,216489,1,8,0:0:0:0:
287,73,216600,1,8,0:0:0:0:
287,73,216712,1,0,0:0:0:0:
286,74,216823,1,0,0:0:0:0:
286,74,216934,1,0,0:0:0:0:
281,76,217045,1,8,0:0:0:0:
289,72,217100,1,0,0:0:0:0:
295,89,217156,1,0,0:0:0:0:
286,76,217212,1,0,0:0:0:0:
294,89,217267,1,8,0:0:0:0:
282,81,217378,1,8,0:0:0:0:
287,73,217489,1,0,0:0:0:0:
288,79,217600,1,8,0:0:0:0:
292,79,217712,1,8,0:0:0:0:
286,74,217823,1,0,0:0:0:0:
290,73,217934,1,8,0:0:0:0:
291,71,217989,1,8,0:0:0:0:
281,76,218045,1,0,0:0:0:0:
282,78,218156,1,8,0:0:0:0:
282,78,218267,1,8,0:0:0:0:
282,81,218378,1,8,0:0:0:0:
280,86,218489,1,0,0:0:0:0:
302,94,218600,1,0,0:0:0:0:
299,94,218712,1,0,0:0:0:0:
296,92,218823,1,8,0:0:0:0:
302,71,218934,1,0,0:0:0:0:
287,98,219045,1,8,0:0:0:0:
318,82,219100,1,0,0:0:0:0:
317,83,219156,1,0,0:0:0:0:
314,84,219212,1,0,0:0:0:0:
315,84,219267,1,8,0:0:0:0:
315,84,219378,1,0,0:0:0:0:
319,82,219489,1,8,0:0:0:0:
317,83,219545,1,8,0:0:0:0:
317,83,219600,1,0,0:0:0:0:
317,83,219656,1,0,0:0:0:0:
317,83,219712,1,8,0:0:0:0:
320,82,219823,1,0,0:0:0:0:
302,71,219934,1,8,0:0:0:0:
303,75,220045,1,8,0:0:0:0:
309,80,220156,1,0,0:0:0:0:
303,77,220267,1,8,0:0:0:0:
303,77,220378,1,8,0:0:0:0:
305,87,220489,1,0,0:0:0:0:
310,77,220600,1,8,0:0:0:0:
305,89,220656,1,0,0:0:0:0:
310,77,220712,1,8,0:0:0:0:
305,89,220767,1,8,0:0:0:0:
308,88,220823,1,0,0:0:0:0:
309,80,220934,1,8,0:0:0:0:
322,95,221045,1,0,0:0:0:0:
308,81,221156,1,8,0:0:0:0:
310,80,221267,1,8,0:0:0:0:
326,87,221323,1,8,0:0:0:0:
323,88,221378,1,0,0:0:0:0:
310,77,221489,1,8,0:0:0:0:
328,89,221545,1,0,0:0:0:0:
324,94,221600,1,8,0:0:0:0:
311,73,221712,1,0,0:0:0:0:
309,80,221823,1,0,0:0:0:0:
316,97,221934,1,8,0:0:0:0:
308,81,222045,1,0,0:0:0:0:
310,80,222156,1,0,0:0:0:0:
316,97,222267,1,8,0:0:0:0:
310,77,222378,1,0,0:0:0:0:
310,86,222434,1,8,0:0:0:0:
319,72,222489,1,8,0:0:0:0:
308,86,222545,1,0,0:0:0:0:
308,87,222600,1,8,0:0:0:0:
319,72,222712,1,0,0:0:0:0:
314,62,222823,1,8,0:0:0:0:
317,73,222934,1,0,0:0:0:0:
306,69,223045,1,0,0:0:0:0:
323,76,223100,1,0,0:0:0:0:
327,79,223156,1,8,0:0:0:0:
304,70,223267,1,0,0:0:0:0:
331,75,223323,1,8,0:0:0:0:
336,74,223378,1,8,0:0:0:0:
319,72,223489,1,0,0:0:0:0:
314,64,223600,1,0,0:0:0:0:
314,64,223712,1,8,0:0:0:0:
311,64,223823,1,0,0:0:0:0:
311,63,223934,1,8,0:0:0:0:
319,60,224045,1,8,0:0:0:0:
318,61,224156,1,0,0:0:0:0:
298,62,224212,1,0,0:0:0:0:
296,64,224267,1,0,0:0:0:0:
297,62,224323,1,0,0:0:0:0:
302,60,224378,1,8,0:0:0:0:
298,63,224489,1,8,0:0:0:0:
298,63,224600,1,0,0:0:0:0:
297,64,224712,1,8,0:0:0:0:
291,66,224823,1,8,0:0:0:0:
285,68,224878,1,8,0:0:0:0:
284,68,224934,1,0,0:0:0:0:
299,64,224989,1,0,0:0:0:0:
283,68,225045,1,8,0:0:0:0:
284,68,225100,1,0,0:0:0:0:
289,69,225156,1,8,0:0:0:0:
317,78,225267,1,0,0:0:0:0:
302,60,225378,1,0,0:0:0:0:
310,61,225489,1,8,0:0:0:0:
298,63,225600,1,0,0:0:0:0:
297,64,225712,1,0,0:0:0:0:
305,62,225823,1,8,0:0:0:0:
299,64,225934,1,0,0:0:0:0:
305,62,225989,1,8,0:0:0:0:
304,58,226045,1,0,0:0:0:0:
301,64,226100,1,0,0:0:0:0:
297,66,226156,1,8,0:0:0:0:
291,71,226267,1,0,0:0:0:0:
282,66,226378,1,8,0:0:0:0:
298,46,226489,1,8,0:0:0:0:
299,48,226600,1,0,0:0:0:0:
310,51,226675,1,0,0:0:0:0:
305,62,226749,1,8,0:0:0:0:
310,55,226823,1,8,0:0:0:0:
311,55,226897,1,0,0:0:0:0:
311,55,226971,1,0,0:0:0:0:
310,55,227045,1,8,0:0:0:0:
284,48,227100,1,8,0:0:0:0:
280,56,227156,1,0,0:0:0:0:
308,52,227267,1,0,0:0:0:0:
300,71,227378,1,8,0:0:0:0:
298,46,227434,1,8,0:0:0:0:
298,46,227489,1,0,0:0:0:0:
304,41,227600,1,8,0:0:0:0:
303,46,227712,1,0,0:0:0:0:
304,45,227767,1,8,0:0:0:0:
302,45,227823,1,8,0:0:0:0:
302,45,227878,1,8,0:0:0:0:
298,72,227933,1,0,0:0:0:0:
283,66,228045,1,8,0:0:0:0:
289,63,228156,1,0,0:0:0:0:
287,65,228212,1,0,0:0:0:0:
300,71,228267,1,8,0:0:0:0:
300,68,228378,1,0,0:0:0:0:
294,67,228434,1,8,0:0:0:0:
286,69,228489,1,0,0:0:0:0:
286,69,228545,1,0,0:0:0:0:
309,94,228600,1,8,0:0:0:0:
306,64,228656,1,8,0:0:0:0:
302,66,228712,1,0,0:0:0:0:
302,66,228823,1,8,0:0:0:0:
313,60,228878,1,0,0:0:0:0:
308,62,228934,1,0,0:0:0:0:
311,57,229045,1,8,0:0:0:0:
300,58,229156,1,8,0:0:0:0:
298,60,229212,1,0,0:0:0:0:
298,60,229267,1,0,0:0:0:0:
296,61,229378,1,8,0:0:0:0:
311,62,229489,1,0,0:0:0:0:
302,65,229545,1,0,0:0:0:0:
306,64,229600,1,8,0:0:0:0:
306,64,229656,1,8,0:0:0:0:
302,66,229712,1,0,0:0:0:0:
310,68,229823,1,8,0:0:0:0:
314,67,229934,1,0,0:0:0:0:
309,68,229989,1,8,0:0:0:0:
309,68,230045,1,0,0:0:0:0:
311,69,230156,1,8,0:0:0:0:
314,69,230267,1,0,0:0:0:0:
314,68,230323,1,0,0:0:0:0:
316,68,230378,1,8,0:0:0:0:
316,68,230489,1,0,0:0:0:0:
298,72,230600,1,8,0:0:0:0:
306,64,230656,1,8,0:0:0:0:
310,69,230712,1,8,0:0:0:0:
313,52,230767,1,8,0:0:0:0:
319,64,230823,1,0,0:0:0:0:
319,65,230934,1,0,0:0:0:0:
314,56,231045,1,8,0:0:0:0:
312,55,231156,1,0,0:0:0:0:
305,58,231212,1,0,0:0:0:0:
311,56,231267,1,8,0:0:0:0:
306,69,231378,1,8,0:0:0:0:
305,71,231489,1,0,0:0:0:0:
313,64,231545,1,0,0:0:0:0:
311,65,231600,1,0,0:0:0:0:
299,72,231656,1,0,0:0:0:0:
299,72,231712,1,8,0:0:0:0:
299,72,231823,1,0,0:0:0:0:
319,65,231878,1,8,0:0:0:0:
319,65,231934,1,0,0:0:0:0:
293,68,232045,1,8,0:0:0:0:
288,67,232156,1,0,0:0:0:0:
285,67,232212,1,8,0:0:0:0:
311,56,232267,1,8,0:0:0:0:
309,54,232323,1,8,0:0:0:0:
306,54,232378,1,0,0:0:0:0:
305,52,232489,1,8,0:0:0:0:
300,54,232545,1,0,0:0:0:0:
303,52,232600,1,8,0:0:0:0:
303,52,232712,1,0,0:0:0:0:
299,54,232767,1,0,0:0:0:0:
286,61,232823,1,0,0:0:0:0:
296,55,232934,1,8,0:0:0:0:
288,67,233045,1,0,0:0:0:0:
305,45,233100,1,8,0:0:0:0:
302,51,233156,1,0,0:0:0:0:
305,50,233212,1,0,0:0:0:0:
303,43,233267,1,8,0:0:0:0:
297,44,233323,1,8,0:0:0:0:
294,45,233378,1,0,0:0:0:0:
289,46,233434,1,0,0:0:0:0:
289,46,233489,1,8,0:0:0:0:
289,47,233545,1,0,0:0:0:0:
276,49,233600,1,0,0:0:0:0:
292,46,233656,1,0,0:0:0:0:
289,48,233712,1,8,0:0:0:0:
291,49,233823,1,0,0:0:0:0:
311,48,233878,1,0,0:0:0:0:
291,49,233934,1,8,0:0:0:0:
309,48,233989,1,8,0:0:0:0:
303,49,234045,1,0,0:0:0:0:
302,51,234156,1,8,0:0:0:0:
315,50,234212,1,8,0:0:0:0:
304,51,234267,1,8,0:0:0:0:
302,51,234323,1,8,0:0:0:0:
303,51,234378,1,0,0:0:0:0:
303,51,234489,1,8,0:0:0:0:
302,53,234545,1,8,0:0:0:0:
291,57,234600,1,0,0:0:0:0:
296,56,234656,1,0,0:0:0:0:
277,60,234712,1,8,0:0:0:0:
280,59,234823,1,0,0:0:0:0:
303,49,234934,1,8,0:0:0:0:
303,49,234989,1,8,0:0:0:0:
303,49,235045,1,0,0:0:0:0:
296,55,235100,1,0,0:0:0:0:
302,51,235156,1,0,0:0:0:0:
309,56,235212,1,0,0:0:0:0:
297,61,235267,1,8,0:0:0:0:
292,61,235378,1,0,0:0:0:0:
288,62,235434,1,0,0:0:0:0:
298,58,235489,1,8,0:0:0:0:
289,60,235545,1,8,0:0:0:0:
291,57,235600,1,0,0:0:0:0:
286,61,235712,1,8,0:0:0:0:
300,52,235767,1,0,0:0:0:0:
304,52,235823,1,8,0:0:0:0:
303,49,235934,1,0,0:0:0:0:
303,49,235989,1,0,0:0:0:0:
296,55,236045,1,0,0:0:0:0:
287,57,236100,1,0,0:0:0:0:
287,57,236156,1,8,0:0:0:0:
309,48,236267,1,8,0:0:0:0:
288,43,236323,1,8,0:0:0:0:
280,47,236378,1,0,0:0:0:0:
294,46,236434,1,0,0:0:0:0:
288,46,236489,1,8,0:0:0:0:
284,48,236600,1,0,0:0:0:0:
289,43,236712,1,0,0:0:0:0:
282,52,236823,1,8,0:0:0:0:
285,52,236878,1,8,0:0:0:0:
280,51,236934,1,8,0:0:0:0:
282,29,236989,1,8,0:0:0:0:
281,31,237045,1,0,0:0:0:0:
280,36,237156,1,8,0:0:0:0:
280,36,237212,1,8,0:0:0:0:
279,45,237267,1,0,0:0:0:0:
269,47,237323,1,0,0:0:0:0:
271,41,237378,1,0,0:0:0:0:
270,42,237434,1,0,0:0:0:0:
270,42,237489,1,8,0:0:0:0:
303,50,237545,1,8,0:0:0:0:
300,55,237600,1,0,0:0:0:0:
298,55,237656,1,0,0:0:0:0:
301,38,237712,1,8,0:0:0:0:
296,41,237786,1,8,0:0:0:0:
298,39,237860,1,8,0:0:0:0:
298,39,237934,1,0,0:0:0:0:
298,39,238008,1,0,0:0:0:0:
298,39,238082,1,0,0:0:0:0:
302,41,238156,1,8,0:0:0:0:
301,41,238230,1,8,0:0:0:0:
301,41,238304,1,0,0:0:0:0:
301,42,238378,1,8,0:0:0:0:
303,41,238452,1,0,0:0:0:0:
321,84,238526,1,0,0:0:0:0:
303,41,238600,1,8,0:0:0:0:
311,57,238675,1,0,0:0:0:0:
309,60,238749,1,8,0:0:0:0:
309,60,238823,1,8,0:0:0:0:
309,60,238897,1,0,0:0:0:0:
300,61,238971,1,0,0:0:0:0:
302,60,239045,1,8,0:0:0:0:
301,61,239119,1,8,0:0:0:0:
300,62,239193,1,8,0:0:0:0:
302,62,239267,1,0,0:0:0:0:
302,64,239341,1,0,0:0:0:0:
302,65,239415,1,0,0:0:0:0:
299,65,239489,1,8,0:0:0:0:
304,57,239563,1,0,0:0:0:0:
305,56,239638,1,0,0:0:0:0:
311,57,239712,1,8,0:0:0:0:
309,60,239786,1,8,0:0:0:0:
309,60,239860,1,0,0:0:0:0:
310,62,239934,1,8,0:0:0:0:
326,56,240008,1,8,0:0:0:0:
320,56,240082,1,0,0:0:0:0:
315,57,240156,1,8,0:0:0:0:
312,57,240230,1,0,0:0:0:0:
309,58,240304,1,0,0:0:0:0:
302,64,240378,1,8,0:0:0:0:
309,58,241267,1,0,0:0:0:0:
309,58,241489,1,8,0:0:0:0:
309,58,241600,1,0,0:0:0:0:
309,58,241712,1,8,0:0:0:0:
291,67,241767,1,8,0:0:0:0:
305,64,241823,1,0,0:0:0:0:
294,66,241878,1,0,0:0:0:0:
305,64,241934,1,8,0:0:0:0:
294,66,241989,1,8,0:0:0:0:
292,66,242045,1,0,0:0:0:0:
294,66,242100,1,0,0:0:0:0:
308,67,242156,1,8,0:0:0:0:
308,67,242456,1,8,0:0:0:0:
291,71,243656,1,8,0:0:0:0:
291,71,243756,1,8,0:0:0:0:
291,71,244056,1,8,0:0:0:0:
288,67,245256,1,8,0:0:0:0:
288,67,245356,1,8,0:0:0:0:
256,85,246556,1,0,0:0:0:0:
256,85,246606,1,0,0:0:0:0:
256,85,246656,1,0,0:0:0:0:
256,85,246706,1,0,0:0:0:0:
256,85,246756,1,8,0:0:0:0:
256,85,246806,1,8,0:0:0:0:
256,85,246856,1,0,0:0:0:0:
256,85,246906,1,0,0:0:0:0:
256,85,246956,1,8,0:0:0:0:
249,82,247256,1,8,0:0:0:0:
251,73,247756,1,0,0:0:0:0:
251,75,247956,1,8,0:0:0:0:
251,75,248056,1,0,0:0:0:0:
258,73,248156,1,8,0:0:0:0:
260,72,248256,1,8,0:0:0:0:
251,73,248356,1,8,0:0:0:0:
251,73,248456,1,8,0:0:0:0:
268,57,248556,1,0,0:0:0:0:
266,56,248756,1,8,0:0:0:0:
259,63,248856,1,0,0:0:0:0:
266,56,248956,1,8,0:0:0:0:
258,73,249156,1,0,0:0:0:0:
264,58,249356,1,8,0:0:0:0:
259,66,249456,1,0,0:0:0:0:
258,60,249556,1,8,0:0:0:0:
256,66,249656,1,8,0:0:0:0:
259,63,249756,1,0,0:0:0:0:
251,64,249856,1,8,0:0:0:0:
258,73,249956,1,0,0:0:0:0:
258,73,250056,1,0,0:0:0:0:
277,88,250156,1,0,0:0:0:0:
267,68,250356,1,0,0:0:0:0:
269,52,250456,1,8,0:0:0:0:
266,54,250556,1,8,0:0:0:0:
267,68,250656,1,0,0:0:0:0:
268,57,250856,1,8,0:0:0:0:
267,68,250956,1,0,0:0:0:0:
268,57,251056,1,8,0:0:0:0:
269,57,251156,1,8,0:0:0:0:
267,68,251256,1,0,0:0:0:0:
263,55,251356,1,8,0:0:0:0:
252,39,251456,1,8,0:0:0:0:
267,68,251556,1,0,0:0:0:0:
252,40,251656,1,8,0:0:0:0:
267,68,251756,1,0,0:0:0:0:
248,38,251856,1,8,0:0:0:0:
267,68,251956,1,0,0:0:0:0:
248,38,252056,1,8,0:0:0:0:
272,63,252156,1,0,0:0:0:0:
248,38,252256,1,8,0:0:0:0:
272,63,252356,1,0,0:0:0:0:
248,38,252456,1,8,0:0:0:0:
272,63,252556,1,0,0:0:0:0:
252,40,252656,1,8,0:0:0:0:
272,63,252756,1,0,0:0:0:0:
248,38,252856,1,8,0:0:0:0:
272,63,252956,1,0,0:0:0:0:
248,38,253056,1,8,0:0:0:0:
272,63,253156,1,0,0:0:0:0:
257,55,253256,1,8,0:0:0:0:
258,55,253356,1,0,0:0:0:0:
303,62,253422,1,0,0:0:0:0:
305,74,253489,1,0,0:0:0:0:
299,76,253556,1,8,0:0:0:0:
287,58,253622,1,8,0:0:0:0:
285,55,253689,1,8,0:0:0:0:
272,63,253756,1,0,0:0:0:0:
273,57,253822,1,0,0:0:0:0:
272,63,253889,1,8,0:0:0:0:
272,63,253956,1,8,0:0:0:0:
266,58,254022,1,0,0:0:0:0:
265,59,254089,1,0,0:0:0:0:
265,59,254156,1,8,0:0:0:0:
269,62,254206,1,0,0:0:0:0:
270,61,254256,1,0,0:0:0:0:
283,94,254306,1,0,0:0:0:0:
282,71,254356,1,8,0:0:0:0:
283,74,254406,1,8,0:0:0:0:
287,70,254456,1,0,0:0:0:0:
285,72,254506,1,0,0:0:0:0:
283,72,254556,1,8,0:0:0:0:
285,72,254606,1,8,0:0:0:0:
285,72,254656,1,8,0:0:0:0:
285,72,254706,1,8,0:0:0:0:
285,72,254756,1,0,0:0:0:0:
283,72,254806,1,0,0:0:0:0:
282,73,254856,1,0,0:0:0:0:
282,73,254906,1,0,0:0:0:0:
303,43,254956,1,8,0:0:0:0:
265,59,255056,1,0,0:0:0:0:
274,78,255106,1,0,0:0:0:0:
287,75,255156,1,8,0:0:0:0:
291,74,255256,1,0,0:0:0:0:
300,61,255456,1,0,0:0:0:0:
285,72,255556,1,8,0:0:0:0:
283,72,255606,1,8,0:0:0:0:
312,66,255656,1,8,0:0:0:0:
304,67,255756,1,0,0:0:0:0:
302,66,255856,1,0,0:0:0:0:
300,58,255956,1,8,0:0:0:0:
303,61,256056,1,8,0:0:0:0:
300,61,256106,1,8,0:0:0:0:
300,61,256156,1,0,0:0:0:0:
300,61,256256,1,0,0:0:0:0:
298,64,256356,1,8,0:0:0:0:
298,70,256406,1,0,0:0:0:0:
316,78,256456,1,8,0:0:0:0:
314,78,256556,1,0,0:0:0:0:
298,78,256606,1,0,0:0:0:0:
294,79,256656,1,0,0:0:0:0:
298,77,256706,1,0,0:0:0:0:
294,79,256756,1,8,0:0:0:0:
296,72,256856,1,0,0:0:0:0:
296,74,257056,1,0,0:0:0:0:
282,73,257156,1,8,0:0:0:0:
282,72,257256,1,8,0:0:0:0:
296,61,257456,1,0,0:0:0:0:
297,62,257506,1,8,0:0:0:0:
298,61,257556,1,0,0:0:0:0:
296,72,257656,1,8,0:0:0:0:
279,73,257756,1,0,0:0:0:0:
279,78,257806,1,0,0:0:0:0:
279,75,257856,1,0,0:0:0:0:
282,72,257956,1,8,0:0:0:0:
282,72,258056,1,8,0:0:0:0:
291,67,258156,1,0,0:0:0:0:
291,67,258256,1,0,0:0:0:0:
297,62,258306,1,0,0:0:0:0:
298,61,258356,1,8,0:0:0:0:
297,63,258456,1,0,0:0:0:0:
297,64,258656,1,0,0:0:0:0:
282,72,258756,1,8,0:0:0:0:
282,72,258806,1,0,0:0:0:0:
282,72,258856,1,8,0:0:0:0:
283,70,258906,1,8,0:0:0:0:
283,70,258956,1,0,0:0:0:0:
302,67,259056,1,0,0:0:0:0:
298,61,259156,1,8,0:0:0:0:
288,57,259256,1,8,0:0:0:0:
288,57,259356,1,0,0:0:0:0:
297,64,259456,1,0,0:0:0:0:
291,62,259506,1,0,0:0:0:0:
290,62,259556,1,8,0:0:0:0:
291,62,259656,1,0,0:0:0:0:
291,62,259756,1,8,0:0:0:0:
291,62,259806,1,0,0:0:0:0:
293,60,259856,1,0,0:0:0:0:
298,61,259906,1,0,0:0:0:0:
294,60,259956,1,8,0:0:0:0:
304,61,260056,1,0,0:0:0:0:
307,62,260256,1,0,0:0:0:0:
307,63,260356,1,8,0:0:0:0:
304,63,260456,1,8,0:0:0:0:
285,52,260656,1,8,0:0:0:0:
286,55,260706,1,0,0:0:0:0:
286,55,260756,1,8,0:0:0:0:
286,55,260856,1,0,0:0:0:0:
286,55,260956,1,8,0:0:0:0:
287,54,261006,1,8,0:0:0:0:
287,54,261056,1,0,0:0:0:0:
287,54,261106,1,0,0:0:0:0:
287,54,261156,1,8,0:0:0:0:
287,54,261256,1,0,0:0:0:0:
312,61,261356,1,8,0:0:0:0:
285,52,261456,1,0,0:0:0:0:
286,55,261506,1,0,0:0:0:0:
286,55,261556,1,8,0:0:0:0:
286,55,261656,1,0,0:0:0:0:
287,54,261856,1,0,0:0:0:0:
287,54,261956,1,8,0:0:0:0:
287,54,262006,1,8,0:0:0:0:
287,54,262056,1,8,0:0:0:0:
284,50,262156,1,0,0:0:0:0:
260,52,262256,1,0,0:0:0:0:
277,46,262356,1,8,0:0:0:0:
287,54,262456,1,8,0:0:0:0:
287,54,262556,1,0,0:0:0:0:
287,54,262606,1,8,0:0:0:0:
287,54,262656,1,0,0:0:0:0:
287,54,262706,1,0,0:0:0:0:
287,54,262756,1,8,0:0:0:0:
287,54,262856,1,8,0:0:0:0:
302,53,262956,1,0,0:0:0:0:
300,54,263006,1,0,0:0:0:0:
305,52,263056,1,0,0:0:0:0:
299,50,263106,1,0,0:0:0:0:
290,53,263156,1,8,0:0:0:0:
287,54,263256,1,0,0:0:0:0:
287,54,263456,1,0,0:0:0:0:
287,54,263556,1,8,0:0:0:0:
305,54,263656,1,8,0:0:0:0:
295,40,263856,1,8,0:0:0:0:
294,40,263906,1,0,0:0:0:0:
294,40,263956,1,8,0:0:0:0:
294,40,264056,1,0,0:0:0:0:
296,40,264156,1,8,0:0:0:0:
296,39,264206,1,8,0:0:0:0:
296,40,264256,1,0,0:0:0:0:
295,40,264306,1,0,0:0:0:0:
294,41,264356,1,8,0:0:0:0:
304,44,264456,1,8,0:0:0:0:
303,44,264556,1,0,0:0:0:0:
302,44,264656,1,0,0:0:0:0:
302,44,264706,1,0,0:0:0:0:
294,40,264756,1,8,0:0:0:0:
294,40,264856,1,0,0:0:0:0:
290,45,265056,1,0,0:0:0:0:
306,45,265156,1,8,0:0:0:0:
304,44,265206,1,0,0:0:0:0:
304,44,265256,1,8,0:0:0:0:
303,44,265356,1,0,0:0:0:0:
302,44,265456,1,0,0:0:0:0:
306,46,265556,1,8,0:0:0:0:
306,46,265656,1,8,0:0:0:0:
307,46,265756,1,0,0:0:0:0:
306,49,265806,1,0,0:0:0:0:
308,50,265856,1,8,0:0:0:0:
306,45,265906,1,0,0:0:0:0:
306,45,265956,1,8,0:0:0:0:
308,50,266056,1,0,0:0:0:0:
307,51,266156,1,8,0:0:0:0:
307,51,266206,1,8,0:0:0:0:
309,50,266256,1,0,0:0:0:0:
313,52,266306,1,0,0:0:0:0:
316,51,266356,1,8,0:0:0:0:
313,54,266456,1,0,0:0:0:0:
313,54,266656,1,0,0:0:0:0:
311,54,266756,1,8,0:0:0:0:
308,50,266856,1,8,0:0:0:0:
315,55,266956,1,0,0:0:0:0:
296,51,267056,1,8,0:0:0:0:
296,51,267106,1,0,0:0:0:0:
296,51,267156,1,8,0:0:0:0:
294,51,267206,1,8,0:0:0:0:
292,52,267256,1,0,0:0:0:0:
288,47,267356,1,8,0:0:0:0:
286,48,267456,1,8,0:0:0:0:
285,49,267556,1,0,0:0:0:0:
281,50,267606,1,0,0:0:0:0:
285,48,267656,1,0,0:0:0:0:
292,56,267756,1,8,0:0:0:0:
298,43,267806,1,8,0:0:0:0:
294,57,267856,1,0,0:0:0:0:
294,57,267956,1,8,0:0:0:0:
292,52,268056,1,0,0:0:0:0:
292,58,268106,1,0,0:0:0:0:
292,58,268156,1,0,0:0:0:0:
304,57,268256,1,8,0:0:0:0:
306,50,268356,1,0,0:0:0:0:
299,61,268406,1,8,0:0:0:0:
296,62,268456,1,0,0:0:0:0:
292,63,268506,1,0,0:0:0:0:
300,68,268556,1,8,0:0:0:0:
300,68,268656,1,0,0:0:0:0:
301,67,268756,1,8,0:0:0:0:
293,67,268856,1,8,0:0:0:0:
293,67,268956,1,0,0:0:0:0:
303,64,269006,1,0,0:0:0:0:
300,65,269056,1,0,0:0:0:0:
302,64,269156,1,8,0:0:0:0:
289,71,269256,1,0,0:0:0:0:
289,71,269306,1,8,0:0:0:0:
287,72,269356,1,0,0:0:0:0:
302,77,269406,1,0,0:0:0:0:
292,69,269456,1,8,0:0:0:0:
305,72,269506,1,0,0:0:0:0:
305,72,269556,1,8,0:0:0:0:
317,78,269656,1,0,0:0:0:0:
307,73,269706,1,0,0:0:0:0:
316,78,269756,1,0,0:0:0:0:
316,78,269856,1,8,0:0:0:0:
309,78,269956,1,8,0:0:0:0:
310,75,270056,1,0,0:0:0:0:
310,68,270106,1,0,0:0:0:0:
308,69,270156,1,8,0:0:0:0:
317,66,270256,1,0,0:0:0:0:
317,66,270306,1,8,0:0:0:0:
312,65,270356,1,0,0:0:0:0:
311,65,270406,1,0,0:0:0:0:
311,65,270456,1,8,0:0:0:0:
311,65,270506,1,8,0:0:0:0:
314,64,270556,1,0,0:0:0:0:
316,62,270656,1,8,0:0:0:0:
296,69,270756,1,0,0:0:0:0:
297,69,270806,1,0,0:0:0:0:
297,69,270856,1,8,0:0:0:0:
303,74,270956,1,0,0:0:0:0:
317,66,271006,1,0,0:0:0:0:
300,75,271056,1,0,0:0:0:0:
302,75,271156,1,8,0:0:0:0:
302,89,271256,1,8,0:0:0:0:
303,89,271306,1,8,0:0:0:0:
303,89,271356,1,0,0:0:0:0:
302,85,271456,1,0,0:0:0:0:
301,88,271556,1,8,0:0:0:0:
302,90,271606,1,0,0:0:0:0:
299,92,271656,1,0,0:0:0:0:
300,89,271706,1,0,0:0:0:0:
303,86,271756,1,8,0:0:0:0:
304,99,271856,1,0,0:0:0:0:
304,99,271906,1,0,0:0:0:0:
304,98,271956,1,8,0:0:0:0:
302,89,272056,1,0,0:0:0:0:
303,89,272156,1,8,0:0:0:0:
294,87,272206,1,8,0:0:0:0:
302,85,272256,1,0,0:0:0:0:
301,88,272306,1,0,0:0:0:0:
301,88,272356,1,8,0:0:0:0:
299,92,272456,1,8,0:0:0:0:
304,99,272556,1,0,0:0:0:0:
306,113,272606,1,0,0:0:0:0:
312,105,272656,1,0,0:0:0:0:
306,106,272706,1,0,0:0:0:0:
297,104,272756,1,8,0:0:0:0:
309,93,272856,1,8,0:0:0:0:
288,97,272956,1,0,0:0:0:0:
287,100,273056,1,8,0:0:0:0:
290,99,273156,1,0,0:0:0:0:
284,101,273206,1,0,0:0:0:0:
284,101,273256,1,8,0:0:0:0:
294,102,273356,1,0,0:0:0:0:
289,104,273456,1,8,0:0:0:0:
289,104,273506,1,0,0:0:0:0:
286,104,273556,1,8,0:0:0:0:
286,106,273606,1,8,0:0:0:0:
285,106,273656,1,0,0:0:0:0:
283,106,273706,1,0,0:0:0:0:
280,107,273756,1,8,0:0:0:0:
284,106,273856,1,0,0:0:0:0:
284,101,273956,1,8,0:0:0:0:
274,86,274006,1,8,0:0:0:0:
270,89,274056,1,8,0:0:0:0:
282,89,274156,1,0,0:0:0:0:
277,92,274206,1,0,0:0:0:0:
282,86,274256,1,0,0:0:0:0:
280,87,274356,1,8,0:0:0:0:
280,97,274456,1,8,0:0:0:0:
277,92,274506,1,8,0:0:0:0:
276,93,274556,1,0,0:0:0:0:
276,93,274656,1,8,0:0:0:0:
296,97,274756,1,0,0:0:0:0:
299,94,274806,1,0,0:0:0:0:
296,95,274856,1,8,0:0:0:0:
292,96,274906,1,8,0:0:0:0:
286,97,274956,1,0,0:0:0:0:
300,102,275056,1,0,0:0:0:0:
291,89,275156,1,8,0:0:0:0:
289,90,275256,1,0,0:0:0:0:
301,86,275356,1,8,0:0:0:0:
295,88,275406,1,8,0:0:0:0:
305,83,275456,1,0,0:0:0:0:
305,85,275506,1,0,0:0:0:0:
304,85,275556,1,8,0:0:0:0:
292,91,275656,1,0,0:0:0:0:
305,91,275756,1,8,0:0:0:0:
299,92,275806,1,0,0:0:0:0:
296,92,275856,1,0,0:0:0:0:
291,89,275906,1,0,0:0:0:0:
303,89,275956,1,8,0:0:0:0:
291,80,276056,1,0,0:0:0:0:
290,81,276106,1,0,0:0:0:0:
288,81,276156,1,0,0:0:0:0:
286,83,276256,1,8,0:0:0:0:
304,85,276356,1,0,0:0:0:0:
297,80,276456,1,8,0:0:0:0:
297,79,276506,1,8,0:0:0:0:
298,79,276556,1,8,0:0:0:0:
297,80,276656,1,0,0:0:0:0:
291,81,276756,1,8,0:0:0:0:
291,80,276806,1,0,0:0:0:0:
291,80,276856,1,8,0:0:0:0:
290,81,276906,1,8,0:0:0:0:
294,84,276956,1,0,0:0:0:0:
286,83,277056,1,8,0:0:0:0:
297,80,277156,1,0,0:0:0:0:
297,80,277206,1,0,0:0:0:0:
297,79,277256,1,8,0:0:0:0:
288,82,277356,1,0,0:0:0:0:
305,84,277406,1,0,0:0:0:0:
297,80,277456,1,0,0:0:0:0:
291,81,277556,1,8,0:0:0:0:
298,84,277656,1,0,0:0:0:0:
296,85,277706,1,0,0:0:0:0:
294,84,277756,1,0,0:0:0:0:
293,86,277806,1,0,0:0:0:0:
292,87,277856,1,8,0:0:0:0:
291,86,277956,1,0,0:0:0:0:
290,86,278006,1,0,0:0:0:0:
292,86,278056,1,8,0:0:0:0:
288,82,278156,1,8,0:0:0:0:
282,80,278206,1,8,0:0:0:0:
281,80,278256,1,0,0:0:0:0:
281,80,278306,1,0,0:0:0:0:
272,85,278356,1,8,0:0:0:0:
286,80,278456,1,0,0:0:0:0:
286,78,278506,1,0,0:0:0:0:
284,88,278556,1,8,0:0:0:0:
291,86,278656,1,0,0:0:0:0:
291,86,278756,1,8,0:0:0:0:
290,86,278806,1,8,0:0:0:0:
285,87,278856,1,8,0:0:0:0:
296,80,278956,1,0,0:0:0:0:
291,89,279006,1,0,0:0:0:0:
286,89,279056,1,0,0:0:0:0:
285,89,279106,1,0,0:0:0:0:
287,89,279156,1,8,0:0:0:0:
287,89,279256,1,0,0:0:0:0:
291,88,279356,1,0,0:0:0:0:
291,86,279456,1,8,0:0:0:0:
291,86,279506,1,0,0:0:0:0:
291,86,279556,1,8,0:0:0:0:
303,69,279656,1,0,0:0:0:0:
296,80,279706,1,0,0:0:0:0:
288,81,279756,1,0,0:0:0:0:
294,79,279856,1,8,0:0:0:0:
287,81,279906,1,0,0:0:0:0:
287,81,279956,1,8,0:0:0:0:
287,89,280006,1,8,0:0:0:0:
287,89,280056,1,0,0:0:0:0:
285,83,280106,1,0,0:0:0:0:
286,82,280156,1,8,0:0:0:0:
291,86,280256,1,0,0:0:0:0:
286,83,280356,1,8,0:0:0:0:
295,77,280406,1,8,0:0:0:0:
289,83,280456,1,0,0:0:0:0:
288,81,280556,1,0,0:0:0:0:
289,70,282156,1,8,0:0:0:0:
289,70,282556,1,8,0:0:0:0:
289,70,282956,1,8,0:0:0:0:
289,70,283156,1,8,0:0:0:0:
289,70,283356,1,0,0:0:0:0:
289,70,283406,1,0,0:0:0:0:
289,70,283456,1,8,0:0:0:0:
289,70,283506,1,8,0:0:0:0:
289,70,283556,1,0,0:0:0:0:
281,73,283606,1,0,0:0:0:0:
279,74,283656,1,0,0:0:0:0:
279,74,283706,1,0,0:0:0:0:
289,70,283756,1,8,0:0:0:0:
294,64,283856,1,0,0:0:0:0:
281,61,284056,1,8,0:0:0:0:
270,66,284256,1,0,0:0:0:0:
305,62,284356,1,8,0:0:0:0:
304,65,284456,1,0,0:0:0:0:
280,70,284556,1,0,0:0:0:0:
294,64,284656,1,8,0:0:0:0:
297,65,284856,1,0,0:0:0:0:
299,65,284956,1,8,0:0:0:0:
299,64,285056,1,8,0:0:0:0:
305,62,285156,1,0,0:0:0:0:
300,65,285256,1,8,0:0:0:0:
308,67,285356,1,0,0:0:0:0:
297,74,285456,1,0,0:0:0:0:
308,71,285556,1,8,0:0:0:0:
306,68,285656,1,8,0:0:0:0:
308,68,285756,1,8,0:0:0:0:
299,64,285856,1,8,0:0:0:0:
305,62,285956,1,0,0:0:0:0:
300,65,286006,1,0,0:0:0:0:
300,65,286056,1,0,0:0:0:0:
300,66,286106,1,0,0:0:0:0:
308,67,286156,1,8,0:0:0:0:
307,65,286206,1,8,0:0:0:0:
304,66,286256,1,0,0:0:0:0:
308,71,286306,1,0,0:0:0:0:
308,71,286356,1,0,0:0:0:0:
308,68,286456,1,8,0:0:0:0:
308,68,286506,1,8,0:0:0:0:
308,68,286556,1,0,0:0:0:0:
286,69,286606,1,0,0:0:0:0:
309,61,286656,1,0,0:0:0:0:
300,65,286756,1,8,0:0:0:0:
288,65,286806,1,8,0:0:0:0:
289,65,286856,1,0,0:0:0:0:
287,66,286906,1,0,0:0:0:0:
287,66,286956,1,8,0:0:0:0:
292,67,287056,1,0,0:0:0:0:
287,64,287106,1,0,0:0:0:0:
287,64,287156,1,8,0:0:0:0:
287,64,287206,1,8,0:0:0:0:
285,64,287256,1,8,0:0:0:0:
275,68,287356,1,0,0:0:0:0:
290,63,287406,5,0,0:0:0:0:
289,63,287456,1,8,0:0:0:0:
286,64,287506,1,8,0:0:0:0:
283,65,287556,1,8,0:0:0:0:
289,65,287656,1,0,0:0:0:0:
287,66,287706,1,0,0:0:0:0:
287,66,287756,1,8,0:0:0:0:
292,67,287806,1,8,0:0:0:0:
286,71,287856,1,0,0:0:0:0:
289,70,287956,1,8,0:0:0:0:
289,70,288006,1,8,0:0:0:0:
291,69,288056,1,0,0:0:0:0:
292,69,288106,1,0,0:0:0:0:
291,69,288156,1,0,0:0:0:0:
296,67,288256,1,8,0:0:0:0:
294,67,288306,1,8,0:0:0:0:
295,67,288356,1,0,0:0:0:0:
289,65,288406,1,0,0:0:0:0:
289,65,288456,1,0,0:0:0:0:
287,66,288556,1,8,0:0:0:0:
296,67,288606,1,8,0:0:0:0:
295,70,288656,1,0,0:0:0:0:
267,76,288706,1,0,0:0:0:0:
270,74,288756,1,8,0:0:0:0:
291,69,288856,1,0,0:0:0:0:
292,77,288906,1,0,0:0:0:0:
290,77,288956,1,8,0:0:0:0:
289,77,289006,1,8,0:0:0:0:
294,85,289056,1,8,0:0:0:0:
299,80,289156,1,0,0:0:0:0:
299,76,289206,1,0,0:0:0:0:
287,74,289256,1,8,0:0:0:0:
287,74,289306,1,8,0:0:0:0:
286,74,289356,1,0,0:0:0:0:
279,71,289456,1,0,0:0:0:0:
285,64,289556,1,8,0:0:0:0:
277,68,289656,1,8,0:0:0:0:
288,58,289706,1,8,0:0:0:0:
288,63,289756,1,0,0:0:0:0:
275,69,289856,1,0,0:0:0:0:
279,67,289956,1,8,0:0:0:0:
280,64,290056,1,0,0:0:0:0:
277,64,290106,1,0,0:0:0:0:
277,63,290156,1,8,0:0:0:0:
282,64,290256,1,0,0:0:0:0:
285,64,290356,1,8,0:0:0:0:
277,68,290456,1,8,0:0:0:0:
299,106,290756,5,12,0:0:0:0:
209,163,290856,2,4,L|689:139,65,350
313,98,300979,5,0,0:0:0:0:
313,98,301363,1,0,0:0:0:0:
313,98,301748,1,0,0:0:0:0:
313,98,302132,1,8,0:0:0:0:
305,104,303286,1,0,0:0:0:0:
305,104,303671,1,0,0:0:0:0:
290,91,304055,1,8,0:0:0:0:
305,104,304440,1,8,0:0:0:0:
312,97,305594,1,0,0:0:0:0:
299,91,305979,1,8,0:0:0:0:
299,91,306363,1,8,0:0:0:0:
310,89,306748,1,0,0:0:0:0:
301,93,307902,1,0,0:0:0:0:
301,93,308286,1,0,0:0:0:0:
301,93,308671,1,8,0:0:0:0:
301,93,309055,1,8,0:0:0:0:
285,77,310209,1,0,0:0:0:0:
285,77,310619,1,0,0:0:0:0:
294,58,311030,1,0,0:0:0:0:
288,68,311441,1,8,0:0:0:0:
287,68,312674,1,0,0:0:0:0:
287,68,313102,1,0,0:0:0:0:
287,68,313531,1,8,0:0:0:0:
287,68,313959,1,8,0:0:0:0:
229,98,315245,1,0,0:0:0:0:
251,77,315706,1,0,0:0:0:0:
251,77,316168,1,8,0:0:0:0:
251,77,316629,1,8,0:0:0:0:
249,86,318014,1,0,0:0:0:0:
249,86,318559,1,0,0:0:0:0:
249,86,319104,1,0,0:0:0:0:
249,86,319650,1,8,0:0:0:0:
251,83,324559,1,0,0:0:0:0:
251,83,324862,1,0,0:0:0:0:
251,83,325036,1,8,0:0:0:0:
251,83,325241,1,0,0:0:0:0:
