osu file format v14

[General]
AudioFilename: audio.mp3
AudioLeadIn: 0
PreviewTime: 80086
Countdown: 0
SampleSet: Soft
StackLeniency: 0.4
Mode: 0
LetterboxInBreaks: 0
EpilepsyWarning: 1
WidescreenStoryboard: 1

[Editor]
Bookmarks: 65229
DistanceSpacing: 1
BeatDivisor: 3
GridSize: 32
TimelineZoom: 1.199999

[Metadata]
Title:The Navigator's Hope
TitleUnicode:The Navigator's Hope
Artist:a_hisaxChicking
ArtistUnicode:a_hisa×ちきんぐ
Creator:Rohit6
Version:Namerry's Normal
Source:
Tags:fantasy LowComboFC NeilPerry Nerova Riuz GX BOUYAAA Namki
BeatmapID:1324279
BeatmapSetID:439225

[Difficulty]
HPDrainRate:5
CircleSize:3
OverallDifficulty:4
ApproachRate:5.5
SliderMultiplier:1.7
SliderTickRate:1

[Events]
//Background and Video events
0,0,"bg.jpg",0,0
//Break Periods
2,65215,70962
//Storyboard Layer 0 (Background)
//Storyboard Layer 1 (Fail)
//Storyboard Layer 2 (Pass)
//Storyboard Layer 3 (Foreground)
//Storyboard Sound Samples

[TimingPoints]
86,428.577551107873,4,2,1,100,1,0
1371,-100,4,2,0,60,0,0
1728,-100,4,2,1,20,0,0
1800,-100,4,2,2,80,0,0
2086,-100,4,2,0,80,0,0
8228,-100,4,2,0,80,0,0
8586,-100,4,2,1,20,0,0
8657,-100,4,2,1,80,0,0
13800,-100,4,2,1,80,0,0
20657,-100,4,2,1,60,0,0
26657,-100,4,2,1,80,0,0
26872,-100,4,2,1,20,0,0
26943,-100,4,2,1,40,0,0
27086,-100,4,2,1,50,0,0
27229,-100,4,2,1,60,0,0
27372,-100,4,2,1,70,0,0
27514,-100,4,2,1,80,0,0
32872,-100,4,2,1,20,0,0
32943,-100,4,2,1,80,0,0
40372,-100,4,2,1,40,0,0
40800,-100,4,2,1,50,0,0
40943,-100,4,2,1,60,0,0
41086,-100,4,2,1,70,0,0
41229,-100,4,2,1,80,0,0
46585,-100,4,2,1,20,0,0
46657,-100,4,2,1,80,0,0
54943,-100,4,2,2,80,0,0
59872,-100,4,2,2,40,0,0
59943,-100,4,2,2,80,0,0
65229,-100,4,2,2,80,0,0
72087,-100,4,2,2,80,0,0
72515,-100,4,2,0,60,0,0
75515,-100,4,2,2,70,0,0
75944,-100,4,2,0,60,0,0
78087,-100,4,2,2,80,0,0
78372,-100,4,2,2,85,0,0
78658,-100,4,2,2,90,0,0
78944,-100,4,2,1,30,0,0
79087,-100,4,2,1,40,0,0
79229,-100,4,2,1,50,0,0
79372,-100,4,2,1,60,0,0
79515,-100,4,2,1,70,0,0
79658,-100,4,2,1,80,0,0
79801,-100,4,2,1,90,0,0
79944,-100,4,2,1,100,0,0
80087,-100,4,2,1,20,0,0
80230,-100,4,2,1,80,0,0
80658,-100,4,2,3,80,0,1
82587,-100,4,2,3,40,0,1
82658,-100,4,2,3,80,0,1
84730,-100,4,2,3,40,0,1
84801,-100,4,2,3,80,0,1
88158,-100,4,2,3,40,0,1
88230,-100,4,2,3,80,0,1
92444,-100,4,2,3,20,0,1
92515,-100,4,2,3,80,0,1
92658,-100,4,2,1,70,0,0
93944,-100,4,2,1,80,0,0
94373,-100,4,2,3,80,0,1
96301,-100,4,2,3,40,0,1
96373,-100,4,2,3,80,0,1
98444,-100,4,2,3,40,0,1
98515,-100,4,2,3,80,0,1
101873,-100,4,2,3,40,0,1
101944,-100,4,2,3,80,0,1
106158,-100,4,2,3,20,0,1
106230,-100,4,2,3,80,0,1
106373,-100,4,2,3,60,0,0
113230,-100,4,2,3,60,0,0
118159,-100,4,2,3,20,0,0
118230,-100,4,2,3,60,0,0
118373,-100,4,2,1,80,0,1
120373,-100,4,2,1,90,0,1
121802,-100,4,2,2,90,0,0

[Colours]
Combo1 : 255,64,255
Combo2 : 64,64,255
Combo3 : 12,224,241
Combo4 : 150,45,255

[HitObjects]
104,145,1371,6,0,P|173:147|226:149,1,113.333333333333,2|0,0:0|0:0,0:0:0:0:
295,113,1800,1,4,0:3:0:0:
400,248,2228,2,0,P|435:245|463:241,2,56.6666666666667,0|2|2,0:0|0:0|0:0,0:0:0:0:
339,309,2657,2,0,P|296:303|227:298,1,113.333333333333,2|0,0:0|0:0,0:0:0:0:
146,329,3086,2,0,P|152:358|161:387,2,56.6666666666667,2|0|2,0:0|0:0|0:0,0:0:0:0:
157,244,3514,5,2,0:0:0:0:
225,90,3943,2,0,P|262:95|287:103,1,56.6666666666667,2|2,0:0|0:0,0:0:0:0:
349,150,4228,1,2,0:0:0:0:
349,150,4371,2,0,P|405:149|464:140,1,113.333333333333,2|0,0:0|0:0,0:0:0:0:
492,60,4800,2,0,P|482:37|465:10,2,56.6666666666667,2|2|2,0:0|0:0|0:0,0:0:0:0:
407,69,5228,5,2,0:0:0:0:
478,223,5657,2,0,P|477:252|469:280,2,56.6666666666667,2|0|2,0:0|0:0|0:0,0:0:0:0:
393,237,6086,2,0,P|343:233|263:228,1,113.333333333333,2|0,0:0|0:0,0:0:0:0:
200,260,6514,2,0,P|201:289|217:329,1,56.6666666666667,2|2,0:0|0:0,0:0:0:0:
132,353,6800,1,2,0:0:0:0:
132,353,6943,6,0,P|74:348|-11:332,1,113.333333333333,2|2,0:0|0:0,0:0:0:0:
6,254,7371,2,0,P|18:176|125:126,2,170,2|2|2,0:0|0:0|0:0,0:0:0:0:
157,176,8657,6,0,P|214:176|297:186,1,113.333333333333,2|0,0:0|0:0,0:0:0:0:
331,250,9086,1,2,0:0:0:0:
331,250,9228,2,0,P|331:282|325:309,1,56.6666666666667,0|4,0:0|0:0,0:0:0:0:
245,336,9514,1,2,0:0:0:0:
98,249,9943,2,0,P|67:256|21:249,2,56.6666666666667,4|0|4,0:0|0:0|0:0,0:0:0:0:
67,169,10371,6,0,P|69:112|83:26,1,113.333333333333,2|0,0:0|0:0,0:0:0:0:
152,16,10800,2,0,P|181:18|223:35,2,56.6666666666667,2|0|4,0:0|0:0|0:0,0:0:0:0:
166,100,11229,1,2,0:0:0:0:
349,64,11657,2,0,P|377:62|404:53,2,56.6666666666667,4|0|4,0:0|0:0|0:0,0:0:0:0:
298,133,12086,5,2,0:0:0:0:
433,238,12514,2,0,P|429:271|417:308,1,56.6666666666667,2|0,0:0|0:0,0:0:0:0:
340,316,12800,1,4,0:0:0:0:
340,316,12943,2,0,P|282:309|217:308,1,113.333333333333,2|0,0:0|0:0,0:0:0:0:
147,338,13371,2,0,L|70:333,2,56.6666666666667,4|0|4,0:0|0:0|0:0,0:0:0:0:
165,254,13800,5,2,1:2:0:0:
312,168,14229,2,0,L|301:101,2,56.6666666666667,2|0|0,0:1|0:0|0:0,0:0:0:0:
395,184,14657,2,0,L|385:239,2,56.6666666666667,2|0|0,0:1|0:0|0:0,0:0:0:0:
480,186,15086,1,2,0:1:0:0:
463,51,15371,1,4,0:0:0:0:
463,51,15514,6,0,P|411:35|343:36,1,113.333333333333,2|2,1:2|1:2,0:0:0:0:
271,61,15943,2,0,P|241:60|208:52,1,56.6666666666667,2|0,0:1|0:0,0:0:0:0:
148,108,16229,1,0,0:0:0:0:
148,108,16371,2,0,P|119:108|92:114,2,56.6666666666667,2|0|0,1:1|0:0|0:0,0:0:0:0:
191,181,16800,2,0,P|192:236|187:296,1,113.333333333333,2|0,1:1|0:0,0:0:0:0:
111,334,17229,5,2,1:2:0:0:
277,362,17657,2,0,P|311:361|345:358,2,56.6666666666667,2|0|0,0:1|0:0|0:0,0:0:0:0:
289,277,18086,2,0,P|323:276|357:273,2,56.6666666666667,2|0|0,0:1|0:0|0:0,0:0:0:0:
301,192,18514,2,0,P|370:192|427:188,1,113.333333333333,2|4,0:1|0:0,0:0:0:0:
483,138,18943,5,2,1:2:0:0:
483,138,19086,2,0,P|490:108|489:63,1,56.6666666666667,0|2,0:0|1:2,0:0:0:0:
434,19,19371,2,0,P|405:14|372:21,2,56.6666666666667,0|0|0,0:0|0:2|0:0,0:0:0:0:
406,100,19800,1,2,1:2:0:0:
191,299,20657,6,0,P|185:241|182:173,1,113.333333333333,2|2,1:2|1:2,0:0:0:0:
228,113,21086,2,0,P|265:112|302:115,1,56.6666666666667,2|0,0:1|0:0,0:0:0:0:
341,177,21372,1,0,0:0:0:0:
341,177,21514,2,0,P|338:210|333:244,2,56.6666666666667,2|0|0,0:1|0:0|0:0,0:0:0:0:
367,90,21943,1,2,0:1:0:0:
254,16,22229,1,4,0:0:0:0:
254,16,22372,6,0,L|194:21,1,56.6666666666667,2|0,1:2|0:0,0:0:0:0:
128,70,22657,1,2,1:2:0:0:
128,70,22800,2,0,L|68:67,2,56.6666666666667,2|0|0,0:1|0:0|0:0,0:0:0:0:
190,128,23229,2,0,P|192:186|187:256,1,113.333333333333,2|0,1:1|0:0,0:0:0:0:
130,302,23657,1,2,1:1:0:0:
288,364,24086,6,0,P|345:365|406:355,1,113.333333333333,2|2,1:2|1:2,0:0:0:0:
465,300,24514,2,0,P|468:271|464:233,1,56.6666666666667,2|0,0:1|0:0,0:0:0:0:
417,172,24800,1,0,0:0:0:0:
417,172,24943,2,0,P|417:140|426:101,2,56.6666666666667,2|0|0,0:1|0:0|0:0,0:0:0:0:
342,214,25372,1,2,0:1:0:0:
243,120,25657,1,4,0:0:0:0:
243,120,25800,6,0,P|150:124|111:124,1,113.333333333333,2|2,1:2|1:2,0:0:0:0:
58,171,26229,2,0,P|61:205|68:231,2,56.6666666666667,0|0|0,0:0|0:0|0:0,0:0:0:0:
20,94,26657,2,0,P|33:22|140:20,2,170,2|8|2,1:2|0:1|0:0,0:0:0:0:
158,192,27943,6,0,P|193:191|231:165,2,56.6666666666667,12|4|0,0:3|0:0|0:0,0:0:0:0:
170,107,28372,1,2,0:0:0:0:
316,192,28800,2,0,L|310:258,1,56.6666666666667,8|0,0:1|0:0,0:0:0:0:
361,324,29086,1,4,0:0:0:0:
361,324,29229,6,0,P|425:329|485:314,1,113.333333333333,2|0,0:0|0:0,0:0:0:0:
504,238,29657,2,0,P|500:209|502:168,1,56.6666666666667,12|0,0:3|0:0,0:0:0:0:
462,104,29943,1,4,0:0:0:0:
462,104,30086,1,2,0:0:0:0:
298,56,30515,6,0,P|302:24|309:-10,2,56.6666666666667,8|0|4,0:1|0:0|0:0,0:0:0:0:
336,132,30943,1,2,0:0:0:0:
165,128,31372,1,12,0:3:0:0:
165,128,31515,2,0,P|139:123|105:125,1,56.6666666666667,0|4,0:0|0:0,0:0:0:0:
55,190,31800,2,0,P|59:247|66:320,1,113.333333333333,2|0,0:0|0:0,0:0:0:0:
132,354,32229,2,0,P|162:360|192:350,2,56.6666666666667,8|0|4,0:1|0:0|0:0,0:0:0:0:
157,272,32657,6,0,P|211:244|277:283,1,113.333333333333,2|4,0:0|0:0,0:0:0:0:
328,317,33086,1,12,0:3:0:0:
328,317,33229,2,0,L|322:381,1,56.6666666666667,4|4,0:0|0:0,0:0:0:0:
407,382,33515,2,0,L|419:229,1,113.333333333333,2|0,0:0|0:0,0:0:0:0:
451,191,33943,1,8,0:1:0:0:
328,73,34372,6,0,P|266:71|191:71,1,113.333333333333,2|0,0:0|0:0,0:0:0:0:
142,115,34800,2,0,P|109:109|45:107,2,56.6666666666667,12|0|4,0:3|0:0|0:0,0:0:0:0:
218,153,35229,1,2,0:0:0:0:
306,297,35657,2,0,P|299:330|292:364,2,56.6666666666667,8|0|4,0:1|0:0|0:0,0:0:0:0:
364,234,36086,6,0,P|429:238|490:233,1,113.333333333333,2|0,0:0|0:0,0:0:0:0:
507,154,36515,1,12,0:3:0:0:
507,154,36657,2,0,P|500:129|499:98,1,56.6666666666667,4|4,0:0|0:0,0:0:0:0:
505,12,36943,1,2,0:0:0:0:
345,110,37372,2,0,P|272:108|223:95,1,113.333333333333,8|4,0:1|0:0,0:0:0:0:
182,28,37800,5,2,0:0:0:0:
82,166,38229,2,0,P|43:166|6:161,2,56.6666666666667,12|0|4,0:3|0:0|0:0,0:0:0:0:
151,214,38657,2,0,P|206:235|247:274,1,113.333333333333,2|0,0:0|0:0,0:0:0:0:
322,308,39086,2,0,P|306:336|293:377,2,56.6666666666667,8|0|4,0:1|0:0|0:0,0:0:0:0:
398,270,39515,6,0,L|391:101,2,170,2|2|2,0:0|0:0|0:3,0:0:0:0:
154,121,41229,6,0,P|155:177|178:303,1,170,2|8,0:3|0:1,0:0:0:0:
253,318,41800,2,0,P|287:317|311:310,1,56.6666666666667,4|4,0:0|0:0,0:0:0:0:
353,237,42086,1,2,0:3:0:0:
391,71,42515,2,0,P|425:79|457:89,2,56.6666666666667,8|4|4,0:1|0:0|0:0,0:0:0:0:
317,113,42943,6,0,P|265:120|181:121,1,113.333333333333,2|0,0:3|0:0,0:0:0:0:
166,44,43372,2,0,P|140:33|109:31,2,56.6666666666667,8|4|4,0:1|0:0|0:0,0:0:0:0:
121,116,43800,1,2,0:3:0:0:
248,228,44229,2,0,P|247:253|244:290,1,56.6666666666667,8|4,0:1|0:0,0:0:0:0:
296,353,44515,1,4,0:0:0:0:
296,353,44658,5,2,0:3:0:0:
384,208,45086,2,0,P|379:179|368:149,2,56.6666666666667,8|4|4,0:1|0:0|0:0,0:0:0:0:
459,248,45515,2,0,P|467:196|482:123,1,113.333333333333,2|0,0:3|0:0,0:0:0:0:
436,62,45943,2,0,L|428:-1,2,56.6666666666667,8|4|4,0:1|0:0|0:0,0:0:0:0:
350,57,46372,1,2,0:3:0:0:
237,134,46658,6,0,P|205:130|165:129,2,56.6666666666667,4|12|4,0:0|0:1|0:0,0:0:0:0:
299,200,47086,1,4,0:0:0:0:
299,200,47229,2,0,P|291:309|219:341,2,170,2|8|2,0:3|0:1|0:3,0:0:0:0:
166,307,48515,6,0,P|136:302|96:293,2,56.6666666666667,8|4|4,0:1|0:0|0:0,0:0:0:0:
227,248,48943,1,2,0:3:0:0:
111,123,49372,2,0,P|76:124|36:135,2,56.6666666666667,8|4|4,0:1|0:0|0:0,0:0:0:0:
183,77,49800,6,0,P|241:97|305:104,1,113.333333333333,2|0,0:3|0:0,0:0:0:0:
371,71,50229,2,0,P|374:39|373:-7,2,56.6666666666667,8|4|4,0:1|0:0|0:0,0:0:0:0:
368,156,50658,1,2,0:3:0:0:
410,320,51086,2,0,P|372:331|295:333,1,113.333333333333,8|4,0:1|0:0,0:0:0:0:
231,280,51515,5,2,0:3:0:0:
64,308,51943,2,0,P|69:336|77:364,2,56.6666666666667,8|4|4,0:1|0:0|0:0,0:0:0:0:
112,237,52372,2,0,P|126:160|129:110,1,113.333333333333,2|2,0:0|0:0,0:0:0:0:
153,43,52801,2,0,P|190:32|226:34,1,56.6666666666667,0|2,0:0|0:0,0:0:0:0:
278,89,53086,1,0,0:0:0:0:
278,89,53229,6,0,P|264:146|305:209,2,113.333333333333,2|2|4,0:0|0:0|0:0,0:0:0:0:
358,60,53943,1,4,0:0:0:0:
358,60,54086,2,0,L|355:1,2,56.6666666666667,2|0|2,0:0|0:0|0:0,0:0:0:0:
436,93,54515,2,0,P|450:146|428:197,1,113.333333333333,6|4,0:0|0:0,0:0:0:0:
372,262,54943,6,0,B|201:240|246:320|56:272,1,283.333333333333,2|0,0:3|0:0,0:0:0:0:
41,212,55801,2,0,P|64:150|113:124,1,113.333333333333,2|0,0:3|0:0,0:0:0:0:
181,96,56229,2,0,P|249:117|299:103,1,113.333333333333,10|0,0:1|0:0,0:0:0:0:
355,54,56658,5,2,0:3:0:0:
468,180,57086,1,10,0:1:0:0:
384,327,57515,2,0,P|302:320|256:321,1,113.333333333333,2|0,0:3|0:0,0:0:0:0:
188,339,57943,2,0,P|157:344|112:350,2,56.6666666666667,10|4|4,0:1|0:0|0:0,0:0:0:0:
216,258,58372,6,0,P|219:229|227:199,2,56.6666666666667,2|4|4,0:3|0:0|0:0,0:0:0:0:
130,248,58801,2,0,P|123:169|108:112,1,113.333333333333,10|0,0:1|0:0,0:0:0:0:
77,60,59229,2,0,P|46:48|6:40,2,56.6666666666667,2|4|4,0:3|0:0|0:0,0:0:0:0:
156,26,59658,2,0,P|213:20|274:23,1,113.333333333333,10|4,0:1|0:0,0:0:0:0:
328,82,60086,6,0,B|347:211|285:177|315:310,1,226.666666666667,2|0,0:3|0:0,0:0:0:0:
242,351,60801,1,4,0:0:0:0:
242,351,60944,2,0,P|178:328|143:256,1,113.333333333333,2|2,0:0|0:0,0:0:0:0:
95,229,61372,2,0,P|65:226|30:235,2,56.6666666666667,8|2|4,0:1|0:0|0:0,0:0:0:0:
149,162,61801,6,0,P|149:134|141:103,2,56.6666666666667,2|4|4,0:3|0:0|0:0,0:0:0:0:
207,223,62229,1,10,0:1:0:0:
370,266,62658,6,0,P|373:297|368:331,2,56.6666666666667,2|4|4,0:3|0:0|0:0,0:0:0:0:
430,206,63086,1,10,0:1:0:0:
323,120,63372,1,4,0:0:0:0:
256,192,63515,12,0,65015,0:0:0:0:
437,67,72087,5,4,0:3:0:0:
326,238,72515,2,0,L|313:329,2,56.6666666666667,8|0|2,0:0|0:0|0:0,0:0:0:0:
273,170,72944,1,2,0:0:0:0:
211,289,73229,1,2,0:0:0:0:
211,289,73372,2,0,P|149:297|79:314,1,113.333333333333,8|2,0:0|0:0,0:0:0:0:
24,266,73801,5,2,0:0:0:0:
95,149,74087,1,2,0:0:0:0:
95,149,74229,2,0,L|106:60,2,56.6666666666667,8|0|0,0:0|0:0|0:0,0:0:0:0:
172,185,74658,2,0,B|276:186|232:237|363:220,1,170,2|8,0:0|0:0,0:0:0:0:
435,131,75372,1,0,0:0:0:0:
435,131,75515,5,4,0:3:0:0:
307,82,75801,1,0,0:0:0:0:
307,82,75944,2,0,L|290:20,2,56.6666666666667,8|0|2,0:0|0:0|0:0,0:0:0:0:
322,165,76372,2,0,P|242:176|141:210,1,170,2|10,0:0|0:0,0:0:0:0:
91,322,77087,1,0,0:0:0:0:
91,322,77229,6,0,P|84:352|69:382,2,56.6666666666667,2|0|2,0:0|0:0|0:0,0:0:0:0:
51,242,77658,2,0,P|29:225|-5:211,2,56.6666666666667,2|0|2,0:0|0:0|0:0,0:0:0:0:
136,247,78087,2,0,P|175:242|207:229,1,56.6666666666667,4|0,0:3|0:0,0:0:0:0:
267,199,78372,2,0,P|298:175|319:147,1,56.6666666666667,4|0,0:3|0:0,0:0:0:0:
358,91,78658,2,0,P|373:54|377:20,1,56.6666666666667,4|0,0:3|0:0,0:0:0:0:
97,173,80658,6,0,B|200:155|167:225|292:192,1,170,6|14,0:1|0:1,0:0:0:0:
314,131,81230,2,0,L|332:62,1,56.6666666666667,4|4,0:0|0:0,0:0:0:0:
394,22,81515,1,6,0:1:0:0:
447,218,81944,2,0,P|391:239|338:277,1,113.333333333333,14|4,0:1|0:0,0:0:0:0:
283,325,82372,5,6,0:1:0:0:
178,238,82658,1,4,0:0:0:0:
178,238,82801,2,0,L|155:49,1,170,14|6,0:1|0:1,0:0:0:0:
361,85,83658,2,0,L|368:28,2,56.6666666666667,14|4|4,0:1|0:0|0:0,0:0:0:0:
381,168,84087,6,0,P|317:190|254:225,1,113.333333333333,6|4,0:1|0:0,0:0:0:0:
296,293,84515,1,14,0:1:0:0:
430,311,84801,1,4,0:0:0:0:
430,311,84944,2,0,P|437:276|430:247,2,56.6666666666667,6|4|4,0:1|0:0|0:0,0:0:0:0:
359,359,85372,1,14,0:1:0:0:
223,348,85658,1,4,0:0:0:0:
223,348,85801,6,0,B|123:325|138:362|41:339,1,170,6|14,0:1|0:1,0:0:0:0:
49,205,86515,2,0,P|78:232|93:268,1,56.6666666666667,4|6,0:0|0:1,0:0:0:0:
211,84,87087,2,0,P|219:45|243:14,2,56.6666666666667,14|2|2,0:1|0:1|0:1,0:0:0:0:
253,157,87515,5,6,0:1:0:0:
451,107,87944,2,0,P|393:112|327:134,1,113.333333333333,14|4,0:1|0:0,0:0:0:0:
323,211,88372,2,0,L|337:287,2,56.6666666666667,6|4|4,0:1|0:0|0:0,0:0:0:0:
249,166,88801,1,14,0:1:0:0:
222,299,89087,1,0,0:0:0:0:
222,299,89230,6,0,B|133:307|161:348|58:347,1,170,6|14,0:1|0:1,0:0:0:0:
43,212,89944,1,4,0:0:0:0:
43,212,90087,2,0,L|52:130,2,56.6666666666667,6|4|4,0:1|0:0|0:0,0:0:0:0:
127,221,90515,2,0,L|144:86,1,113.333333333333,14|0,0:1|0:0,0:0:0:0:
208,55,90944,6,0,B|265:38|265:38|395:79,1,170,6|14,0:1|0:1,0:0:0:0:
422,197,91658,1,4,0:0:0:0:
422,197,91801,2,0,L|412:271,2,56.6666666666667,6|4|4,0:1|0:0|0:0,0:0:0:0:
474,129,92230,1,14,0:1:0:0:
340,151,92515,1,2,0:1:0:0:
340,151,92658,6,0,B|242:154|270:198|135:189,1,170,2|0,0:0|0:0,0:0:0:0:
59,79,93944,2,0,L|43:14,2,56.6666666666667,2|2|2,0:1|0:1|0:1,0:0:0:0:
133,120,94373,6,0,P|207:129|326:161,1,170,6|14,0:1|0:1,0:0:0:0:
378,184,94944,2,0,L|397:265,1,56.6666666666667,4|4,0:0|0:0,0:0:0:0:
361,319,95230,1,6,0:1:0:0:
465,144,95658,2,0,P|474:100|481:15,1,113.333333333333,14|0,0:1|0:0,0:0:0:0:
396,14,96087,5,6,0:1:0:0:
293,104,96373,1,4,0:0:0:0:
293,104,96515,2,0,P|245:121|102:109,1,170,14|6,0:1|0:1,0:0:0:0:
232,293,97373,2,0,L|216:361,2,56.6666666666667,14|4|4,0:1|0:0|0:0,0:0:0:0:
293,234,97801,6,0,P|350:236|422:222,1,113.333333333333,6|0,0:1|0:0,0:0:0:0:
468,169,98230,1,14,0:1:0:0:
372,73,98515,1,4,0:0:0:0:
372,73,98658,2,0,L|367:-6,2,56.6666666666667,6|4|4,0:1|0:0|0:0,0:0:0:0:
324,144,99087,1,14,0:1:0:0:
232,43,99373,1,4,0:0:0:0:
232,43,99515,6,0,B|138:32|163:90|40:74,1,170,6|14,0:1|0:1,0:0:0:0:
44,211,100230,2,0,L|56:276,1,56.6666666666667,4|6,0:0|0:1,0:0:0:0:
245,194,100801,2,0,L|257:129,2,56.6666666666667,14|2|2,0:1|0:1|0:1,0:0:0:0:
197,265,101230,5,6,0:1:0:0:
399,290,101658,2,0,P|340:294|280:319,1,113.333333333333,14|4,0:1|0:0,0:0:0:0:
214,353,102087,2,0,L|153:375,2,56.6666666666667,6|4|4,0:1|0:0|0:0,0:0:0:0:
210,267,102516,1,14,0:1:0:0:
116,168,102801,1,0,0:0:0:0:
116,168,102944,6,0,B|222:155|184:194|305:177,1,170,6|14,0:1|0:1,0:0:0:0:
392,98,103658,1,4,0:0:0:0:
392,98,103801,2,0,L|388:18,2,56.6666666666667,6|4|4,0:1|0:0|0:0,0:0:0:0:
474,76,104230,2,0,L|477:200,1,113.333333333333,14|0,0:1|0:0,0:0:0:0:
470,274,104658,6,0,P|389:280|286:321,1,170,6|14,0:1|0:1,0:0:0:0:
199,223,105373,1,4,0:0:0:0:
199,223,105516,2,0,L|209:142,2,56.6666666666667,6|4|4,0:1|0:0|0:0,0:0:0:0:
154,295,105944,1,14,0:1:0:0:
55,200,106230,1,2,0:1:0:0:
55,200,106373,6,0,P|40:118|39:25,1,170,6|14,0:1|0:1,0:0:0:0:
174,43,107087,1,4,0:0:0:0:
174,43,107230,2,0,P|205:52|238:68,2,56.6666666666667,6|4|4,0:1|0:0|0:0,0:0:0:0:
130,116,107658,1,14,0:1:0:0:
260,155,107944,1,0,0:0:0:0:
260,155,108087,6,0,P|317:171|373:204,1,113.333333333333,6|4,0:1|0:0,0:0:0:0:
419,262,108516,1,14,0:1:0:0:
291,307,108801,1,4,0:0:0:0:
291,307,108944,2,0,P|281:263|286:233,2,56.6666666666667,6|4|4,0:1|0:0|0:0,0:0:0:0:
366,347,109373,2,0,P|411:349|485:372,1,113.333333333333,14|4,0:1|0:0,0:0:0:0:
500,286,109801,5,6,0:1:0:0:
433,167,110087,1,0,0:0:0:0:
433,167,110230,2,0,L|448:19,1,113.333333333333,14|4,0:1|0:0,0:0:0:0:
359,67,110659,2,0,L|351:138,2,56.6666666666667,6|4|4,0:1|0:0|0:0,0:0:0:0:
293,13,111087,1,14,0:1:0:0:
223,130,111373,1,4,0:0:0:0:
223,130,111516,6,0,L|42:147,1,170,6|14,0:1|0:1,0:0:0:0:
134,255,112230,1,4,0:0:0:0:
134,255,112373,2,0,B|240:250|197:294|328:290,1,170,6|14,0:1|0:1,0:0:0:0:
459,164,113230,5,6,0:1:0:0:
355,75,113516,1,0,0:0:0:0:
355,75,113659,2,0,P|280:89|242:114,1,113.333333333333,14|4,0:1|0:0,0:0:0:0:
164,113,114087,2,0,P|136:106|95:76,2,56.6666666666667,6|4|4,0:1|0:0|0:0,0:0:0:0:
211,184,114516,1,14,0:1:0:0:
232,317,114801,1,0,0:0:0:0:
232,317,114944,6,0,L|379:336,1,113.333333333333,6|4,0:1|0:0,0:0:0:0:
421,294,115373,1,14,0:1:0:0:
462,164,115659,1,4,0:0:0:0:
462,164,115801,2,0,L|482:90,2,56.6666666666667,6|0|0,0:1|0:0|0:0,0:0:0:0:
386,204,116230,2,0,P|332:210|267:226,1,113.333333333333,14|4,0:1|0:0,0:0:0:0:
194,254,116659,5,6,0:1:0:0:
89,167,116944,1,0,0:0:0:0:
89,167,117087,2,0,L|101:36,1,113.333333333333,14|4,0:1|0:0,0:0:0:0:
184,43,117516,2,0,L|179:108,2,56.6666666666667,6|4|4,0:1|0:0|0:0,0:0:0:0:
265,19,117944,1,14,0:1:0:0:
361,115,118230,1,2,0:1:0:0:
361,115,118373,6,0,P|422:126|476:148,1,113.333333333333,2|2,0:1|0:0,0:0:0:0:
470,229,118801,2,0,P|409:240|355:262,1,113.333333333333,4|4,0:0|0:0,0:0:0:0:
292,313,119230,2,0,B|195:310|222:355|83:345,1,170,2|2,0:0|0:0,0:0:0:0:
67,224,119944,1,4,0:0:0:0:
67,224,120087,6,0,L|53:101,1,113.333333333333,2|8,0:1|0:1,0:0:0:0:
173,177,120659,2,0,L|222:63,1,113.333333333333,8|8,0:1|0:1,0:0:0:0:
286,190,121230,2,0,L|385:116,1,113.333333333333,8|8,0:1|0:1,0:0:0:0:
386,258,121802,5,4,0:3:0:0:
